  0
SECTION
  2
HEADER
  9
$ACADVER
  1
AC1015
  9
$ACADMAINTVER
 70
    18
  9
$DWGCODEPAGE
  3
ANSI_1252
  9
$INSBASE
 10
0.0
 20
0.0
 30
0.0
  9
$EXTMIN
 10
2.37355811588182
 20
6.941680997775023
 30
-0.0015258207003583
  9
$EXTMAX
 10
27.69586188299101
 20
34.50172432407472
 30
0.0000000349246037
  9
$LIMMIN
 10
0.0
 20
0.0
  9
$LIMMAX
 10
12.0
 20
9.0
  9
$ORTHOMODE
 70
     1
  9
$REGENMODE
 70
     1
  9
$FILLMODE
 70
     1
  9
$QTEXTMODE
 70
     0
  9
$MIRRTEXT
 70
     0
  9
$LTSCALE
 40
0.5
  9
$ATTMODE
 70
     1
  9
$TEXTSIZE
 40
0.2
  9
$TRACEWID
 40
0.05
  9
$TEXTSTYLE
  7
Standard
  9
$CLAYER
  8
0
  9
$CELTYPE
  6
ByLayer
  9
$CECOLOR
 62
   256
  9
$CELTSCALE
 40
1.0
  9
$DISPSILH
 70
     0
  9
$DIMSCALE
 40
1.0
  9
$DIMASZ
 40
0.0833333333333333
  9
$DIMEXO
 40
0.0625
  9
$DIMDLI
 40
0.0625
  9
$DIMRND
 40
0.0
  9
$DIMDLE
 40
0.0
  9
$DIMEXE
 40
0.0625
  9
$DIMTP
 40
0.0
  9
$DIMTM
 40
0.0
  9
$DIMTXT
 40
0.08
  9
$DIMCEN
 40
0.09
  9
$DIMTSZ
 40
0.0
  9
$DIMTOL
 70
     0
  9
$DIMLIM
 70
     0
  9
$DIMTIH
 70
     0
  9
$DIMTOH
 70
     0
  9
$DIMSE1
 70
     0
  9
$DIMSE2
 70
     0
  9
$DIMTAD
 70
     1
  9
$DIMZIN
 70
     2
  9
$DIMBLK
  1

  9
$DIMASO
 70
     1
  9
$DIMSHO
 70
     1
  9
$DIMPOST
  1

  9
$DIMAPOST
  1

  9
$DIMALT
 70
     0
  9
$DIMALTD
 70
     2
  9
$DIMALTF
 40
25.4
  9
$DIMLFAC
 40
1.0
  9
$DIMTOFL
 70
     0
  9
$DIMTVP
 40
0.0
  9
$DIMTIX
 70
     0
  9
$DIMSOXD
 70
     0
  9
$DIMSAH
 70
     0
  9
$DIMBLK1
  1

  9
$DIMBLK2
  1

  9
$DIMSTYLE
  2
Standard
  9
$DIMCLRD
 70
     0
  9
$DIMCLRE
 70
     0
  9
$DIMCLRT
 70
     7
  9
$DIMTFAC
 40
0.75
  9
$DIMGAP
 40
0.0625
  9
$DIMJUST
 70
     0
  9
$DIMSD1
 70
     0
  9
$DIMSD2
 70
     0
  9
$DIMTOLJ
 70
     1
  9
$DIMTZIN
 70
     0
  9
$DIMALTZ
 70
     0
  9
$DIMALTTZ
 70
     0
  9
$DIMUPT
 70
     0
  9
$DIMDEC
 70
     4
  9
$DIMTDEC
 70
     4
  9
$DIMALTU
 70
     2
  9
$DIMALTTD
 70
     2
  9
$DIMTXSTY
  7
Standard
  9
$DIMAUNIT
 70
     0
  9
$DIMADEC
 70
     3
  9
$DIMALTRND
 40
0.0
  9
$DIMAZIN
 70
     0
  9
$DIMDSEP
 70
    46
  9
$DIMATFIT
 70
     3
  9
$DIMFRAC
 70
     1
  9
$DIMLDRBLK
  1

  9
$DIMLUNIT
 70
     5
  9
$DIMLWD
 70
    -2
  9
$DIMLWE
 70
    -2
  9
$DIMTMOVE
 70
     0
  9
$LUNITS
 70
     2
  9
$LUPREC
 70
     4
  9
$SKETCHINC
 40
0.1
  9
$FILLETRAD
 40
0.0
  9
$AUNITS
 70
     0
  9
$AUPREC
 70
     3
  9
$MENU
  1
.
  9
$ELEVATION
 40
0.0
  9
$PELEVATION
 40
0.0
  9
$THICKNESS
 40
0.0
  9
$LIMCHECK
 70
     0
  9
$CHAMFERA
 40
0.5
  9
$CHAMFERB
 40
0.5
  9
$CHAMFERC
 40
1.0
  9
$CHAMFERD
 40
0.0
  9
$SKPOLY
 70
     0
  9
$TDCREATE
 40
2453706.720854063
  9
$TDUCREATE
 40
2453706.970854063
  9
$TDUPDATE
 40
2454074.712505081
  9
$TDUUPDATE
 40
2454074.962505081
  9
$TDINDWG
 40
0.3615508912
  9
$TDUSRTIMER
 40
0.3615508912
  9
$USRTIMER
 70
     1
  9
$ANGBASE
 50
0.0
  9
$ANGDIR
 70
     0
  9
$PDMODE
 70
    33
  9
$PDSIZE
 40
0.016
  9
$PLINEWID
 40
0.0
  9
$SPLFRAME
 70
     0
  9
$SPLINETYPE
 70
     6
  9
$SPLINESEGS
 70
     8
  9
$HANDSEED
  5
FBFA
  9
$SURFTAB1
 70
     6
  9
$SURFTAB2
 70
     6
  9
$SURFTYPE
 70
     6
  9
$SURFU
 70
     6
  9
$SURFV
 70
     6
  9
$UCSBASE
  2

  9
$UCSNAME
  2

  9
$UCSORG
 10
0.0
 20
0.0
 30
0.0
  9
$UCSXDIR
 10
1.0
 20
0.0
 30
0.0
  9
$UCSYDIR
 10
0.0
 20
1.0
 30
0.0
  9
$UCSORTHOREF
  2

  9
$UCSORTHOVIEW
 70
     0
  9
$UCSORGTOP
 10
0.0
 20
0.0
 30
0.0
  9
$UCSORGBOTTOM
 10
0.0
 20
0.0
 30
0.0
  9
$UCSORGLEFT
 10
0.0
 20
0.0
 30
0.0
  9
$UCSORGRIGHT
 10
0.0
 20
0.0
 30
0.0
  9
$UCSORGFRONT
 10
0.0
 20
0.0
 30
0.0
  9
$UCSORGBACK
 10
0.0
 20
0.0
 30
0.0
  9
$PUCSBASE
  2

  9
$PUCSNAME
  2

  9
$PUCSORG
 10
0.0
 20
0.0
 30
0.0
  9
$PUCSXDIR
 10
1.0
 20
0.0
 30
0.0
  9
$PUCSYDIR
 10
0.0
 20
1.0
 30
0.0
  9
$PUCSORTHOREF
  2

  9
$PUCSORTHOVIEW
 70
     0
  9
$PUCSORGTOP
 10
0.0
 20
0.0
 30
0.0
  9
$PUCSORGBOTTOM
 10
0.0
 20
0.0
 30
0.0
  9
$PUCSORGLEFT
 10
0.0
 20
0.0
 30
0.0
  9
$PUCSORGRIGHT
 10
0.0
 20
0.0
 30
0.0
  9
$PUCSORGFRONT
 10
0.0
 20
0.0
 30
0.0
  9
$PUCSORGBACK
 10
0.0
 20
0.0
 30
0.0
  9
$USERI1
 70
     0
  9
$USERI2
 70
     0
  9
$USERI3
 70
     0
  9
$USERI4
 70
     0
  9
$USERI5
 70
     0
  9
$USERR1
 40
1.0
  9
$USERR2
 40
0.0
  9
$USERR3
 40
22.0
  9
$USERR4
 40
0.0
  9
$USERR5
 40
0.0
  9
$WORLDVIEW
 70
     1
  9
$SHADEDGE
 70
     3
  9
$SHADEDIF
 70
    70
  9
$TILEMODE
 70
     1
  9
$MAXACTVP
 70
    64
  9
$PINSBASE
 10
0.0
 20
0.0
 30
0.0
  9
$PLIMCHECK
 70
     0
  9
$PEXTMIN
 10
0.0045044512824113
 20
0.0025467006634372
 30
0.0
  9
$PEXTMAX
 10
7.932995314148659
 20
10.43495255003633
 30
0.0
  9
$PLIMMIN
 10
-0.2812499887361301
 20
-0.2812502515597606
  9
$PLIMMAX
 10
8.218749770967978
 20
10.71874950814434
  9
$UNITMODE
 70
     0
  9
$VISRETAIN
 70
     1
  9
$PLINEGEN
 70
     0
  9
$PSLTSCALE
 70
     1
  9
$TREEDEPTH
 70
  3020
  9
$CMLSTYLE
  2
Standard
  9
$CMLJUST
 70
     0
  9
$CMLSCALE
 40
1.0
  9
$PROXYGRAPHICS
 70
     1
  9
$MEASUREMENT
 70
     0
  9
$CELWEIGHT
370
    -1
  9
$ENDCAPS
280
     0
  9
$JOINSTYLE
280
     0
  9
$LWDISPLAY
290
     0
  9
$INSUNITS
 70
     1
  9
$HYPERLINKBASE
  1

  9
$STYLESHEET
  1

  9
$XEDIT
290
     1
  9
$CEPSNTYPE
380
     0
  9
$PSTYLEMODE
290
     1
  9
$FINGERPRINTGUID
  2
{FDEAD576-A652-11D2-9A35-0060089B3A3F}
  9
$VERSIONGUID
  2
{3232C85C-B169-4908-A53D-63B64142E88D}
  9
$EXTNAMES
290
     1
  9
$PSVPSCALE
 40
0.0
  9
$OLESTARTUP
290
     0
  0
ENDSEC
  0
SECTION
  2
CLASSES
  0
CLASS
  1
ACDBDICTIONARYWDFLT
  2
AcDbDictionaryWithDefault
  3
ObjectDBX Classes
 90
        0
280
     0
281
     0
  0
CLASS
  1
ACDBPLACEHOLDER
  2
AcDbPlaceHolder
  3
ObjectDBX Classes
 90
        0
280
     0
281
     0
  0
CLASS
  1
LAYOUT
  2
AcDbLayout
  3
ObjectDBX Classes
 90
        0
280
     0
281
     0
  0
CLASS
  1
PLOTSETTINGS
  2
AcDbPlotSettings
  3
ObjectDBX Classes
 90
        0
280
     0
281
     0
  0
CLASS
  1
AMLOADER
  2
AMLoader
  3
AMAcad
 90
        0
280
     0
281
     0
  0
CLASS
  1
DICTIONARYVAR
  2
AcDbDictionaryVar
  3
ObjectDBX Classes
 90
        0
280
     0
281
     0
  0
CLASS
  1
SORTENTSTABLE
  2
AcDbSortentsTable
  3
ObjectDBX Classes
 90
        0
280
     0
281
     0
  0
CLASS
  1
DIMASSOC
  2
AcDbDimAssoc
  3
"AcDbDimAssoc|Product Desc:     AcDim ARX App For Dimension|Company:          Autodesk, Inc.|WEB Address:      www.autodesk.com"
 90
        0
280
     0
281
     0
  0
ENDSEC
  0
SECTION
  2
TABLES
  0
TABLE
  2
VPORT
  5
8
330
0
100
AcDbSymbolTable
 70
     3
  0
VPORT
  5
FBE2
330
8
100
AcDbSymbolTableRecord
100
AcDbViewportTableRecord
  2
*Active
 70
     0
 10
0.0
 20
0.0
 11
1.0
 21
1.0
 12
15.03470999943641
 22
20.72170266092487
 13
0.0
 23
0.0
 14
0.125
 24
0.125
 15
0.5
 25
0.5
 16
0.0
 26
0.0
 36
1.0
 17
0.0
 27
0.0
 37
0.0
 40
27.78502327182051
 41
1.491825613079019
 42
50.0
 43
0.0
 44
0.0
 50
0.0
 51
0.0
 71
     0
 72
  5000
 73
     1
 74
     0
 75
     0
 76
     0
 77
     0
 78
     0
281
     0
 65
     1
110
0.0
120
0.0
130
0.0
111
1.0
121
0.0
131
0.0
112
0.0
122
1.0
132
0.0
 79
     0
146
0.0
  0
ENDTAB
  0
TABLE
  2
LTYPE
  5
5
330
0
100
AcDbSymbolTable
 70
     1
  0
LTYPE
  5
14
330
5
100
AcDbSymbolTableRecord
100
AcDbLinetypeTableRecord
  2
ByBlock
 70
     0
  3

 72
    65
 73
     0
 40
0.0
  0
LTYPE
  5
15
330
5
100
AcDbSymbolTableRecord
100
AcDbLinetypeTableRecord
  2
ByLayer
 70
     0
  3

 72
    65
 73
     0
 40
0.0
  0
LTYPE
  5
16
330
5
100
AcDbSymbolTableRecord
100
AcDbLinetypeTableRecord
  2
Continuous
 70
     0
  3
Solid line
 72
    65
 73
     0
 40
0.0
  0
ENDTAB
  0
TABLE
  2
LAYER
  5
2
102
{ACAD_XDICTIONARY
360
F851
102
}
330
0
100
AcDbSymbolTable
 70
     6
  0
LAYER
  5
10
330
2
100
AcDbSymbolTableRecord
100
AcDbLayerTableRecord
  2
0
 70
     0
 62
     7
  6
Continuous
370
    -3
390
F
  0
LAYER
  5
B2
330
2
100
AcDbSymbolTableRecord
100
AcDbLayerTableRecord
  2
Pel_TXT
 70
     0
 62
   255
  6
Continuous
370
    -3
390
F
  0
LAYER
  5
E444
330
2
100
AcDbSymbolTableRecord
100
AcDbLayerTableRecord
  2
Pel_Clad
 70
     0
 62
    63
  6
Continuous
370
    -3
390
F
  0
LAYER
  5
FBB9
330
2
100
AcDbSymbolTableRecord
100
AcDbLayerTableRecord
  2
Defpoints
 70
     0
 62
     7
  6
Continuous
290
     0
370
    -3
390
F
  0
ENDTAB
  0
TABLE
  2
STYLE
  5
3
330
0
100
AcDbSymbolTable
 70
     3
  0
STYLE
  5
11
330
3
100
AcDbSymbolTableRecord
100
AcDbTextStyleTableRecord
  2
Standard
 70
     0
 40
0.0
 41
1.0
 50
0.0
 71
     0
 42
0.2
  3
ARIAL.TTF
  4

1001
ACAD
1000
Arial
1071
       34
  0
STYLE
  5
CC4C
330
3
100
AcDbSymbolTableRecord
100
AcDbTextStyleTableRecord
  2
Arial
 70
     0
 40
0.0
 41
1.0
 50
0.0
 71
     0
 42
0.2
  3
ARIAL.TTF
  4

1001
ACAD
1000
Arial
1071
       34
  0
STYLE
  5
E200
330
3
100
AcDbSymbolTableRecord
100
AcDbTextStyleTableRecord
  2
H
 70
     0
 40
0.0
 41
1.0
 50
0.0
 71
     0
 42
0.06
  3
H.SHX
  4

  0
ENDTAB
  0
TABLE
  2
VIEW
  5
6
330
0
100
AcDbSymbolTable
 70
     1
  0
VIEW
  5
D380
330
6
100
AcDbSymbolTableRecord
100
AcDbViewTableRecord
  2
org
 70
     0
 40
27.15590980939017
 10
6.083222462400622
 20
8.786030387711486
 41
41.12824514700171
 11
0.0
 21
0.0
 31
1.0
 12
0.0
 22
0.0
 32
0.0
 42
50.0
 43
0.0
 44
0.0
 50
0.0
 71
     0
281
     0
 72
     1
110
0.0
120
0.0
130
0.0
111
1.0
121
0.0
131
0.0
112
0.0
122
1.0
132
0.0
 79
     0
146
0.0
  0
ENDTAB
  0
TABLE
  2
UCS
  5
7
330
0
100
AcDbSymbolTable
 70
     0
  0
ENDTAB
  0
TABLE
  2
APPID
  5
9
330
0
100
AcDbSymbolTable
 70
    14
  0
APPID
  5
12
330
9
100
AcDbSymbolTableRecord
100
AcDbRegAppTableRecord
  2
ACAD
 70
     0
  0
APPID
  5
1B8
330
9
100
AcDbSymbolTableRecord
100
AcDbRegAppTableRecord
  2
AMAcad
 70
     0
  0
APPID
  5
FBF
330
9
100
AcDbSymbolTableRecord
100
AcDbRegAppTableRecord
  2
ADE
 70
     0
  0
APPID
  5
1010
330
9
100
AcDbSymbolTableRecord
100
AcDbRegAppTableRecord
  2
DCO15
 70
     0
  0
APPID
  5
2B00
330
9
100
AcDbSymbolTableRecord
100
AcDbRegAppTableRecord
  2
ADCADD_ZZ
 70
     0
  0
APPID
  5
2B01
330
9
100
AcDbSymbolTableRecord
100
AcDbRegAppTableRecord
  2
SDSK_PMN
 70
     0
  0
APPID
  5
D27F
330
9
100
AcDbSymbolTableRecord
100
AcDbRegAppTableRecord
  2
GENIUS_GENODEF_13
 70
     0
  0
APPID
  5
D280
330
9
100
AcDbSymbolTableRecord
100
AcDbRegAppTableRecord
  2
GENIUS_GENOBJ-N-FIL_13
 70
     0
  0
APPID
  5
D281
330
9
100
AcDbSymbolTableRecord
100
AcDbRegAppTableRecord
  2
GENIUS_GENDTOL_13
 70
     0
  0
APPID
  5
D282
330
9
100
AcDbSymbolTableRecord
100
AcDbRegAppTableRecord
  2
AVE_RENDER
 70
     0
  0
APPID
  5
D283
330
9
100
AcDbSymbolTableRecord
100
AcDbRegAppTableRecord
  2
AVE_ENTITY_MATERIAL
 70
     0
  0
APPID
  5
D284
330
9
100
AcDbSymbolTableRecord
100
AcDbRegAppTableRecord
  2
AVE_FINISH
 70
     0
  0
APPID
  5
D285
330
9
100
AcDbSymbolTableRecord
100
AcDbRegAppTableRecord
  2
AVE_MATERIAL
 70
     0
  0
APPID
  5
D286
330
9
100
AcDbSymbolTableRecord
100
AcDbRegAppTableRecord
  2
AVE_GLOBAL
 70
     0
  0
ENDTAB
  0
TABLE
  2
DIMSTYLE
  5
A
330
0
100
AcDbSymbolTable
 70
     2
100
AcDbDimStyleTable
 71
     2
340
FA26
340
CC50
  0
DIMSTYLE
105
CC50
102
{ACAD_REACTORS
330
E255
330
E298
102
}
330
A
100
AcDbSymbolTableRecord
100
AcDbDimStyleTableRecord
  2
3 inch Scale
 70
     0
  3
"\X
 41
0.5
 42
0.5
 43
0.2
 44
0.25
 73
     0
 74
     0
 77
     1
 78
    10
140
0.28
146
0.75
147
0.125
170
     1
171
     0
176
   256
177
   256
178
   255
179
     3
274
     0
276
     2
277
     5
279
     2
340
CC4C
371
    -1
372
    -1
  0
DIMSTYLE
105
FA26
330
A
100
AcDbSymbolTableRecord
100
AcDbDimStyleTableRecord
  2
Standard
 70
     0
 41
0.125
 43
0.0625
 44
0.0625
 73
     0
 74
     0
 77
     1
 78
     2
140
0.09375
146
0.75
147
0.0625
178
     7
179
     3
276
     1
277
     5
279
     2
340
11
  0
ENDTAB
  0
TABLE
  2
BLOCK_RECORD
  5
1
330
0
100
AcDbSymbolTable
 70
    11
  0
BLOCK_RECORD
  5
1F
102
{ACAD_XDICTIONARY
360
D9A1
102
}
330
1
100
AcDbSymbolTableRecord
100
AcDbBlockTableRecord
  2
*Model_Space
340
22
  0
BLOCK_RECORD
  5
CBD2
330
1
100
AcDbSymbolTableRecord
100
AcDbBlockTableRecord
  2
*Paper_Space
340
CBD3
  0
BLOCK_RECORD
  5
E247
102
{ACAD_XDICTIONARY
360
E24A
102
}
330
1
100
AcDbSymbolTableRecord
100
AcDbBlockTableRecord
  2
0A6K
340
0
102
{BLKREFS
331
E24D
102
}
  0
BLOCK_RECORD
  5
E24E
102
{ACAD_XDICTIONARY
360
E251
102
}
330
1
100
AcDbSymbolTableRecord
100
AcDbBlockTableRecord
  2
0A6G
340
0
102
{BLKREFS
331
E254
102
}
  0
BLOCK_RECORD
  5
E256
330
1
100
AcDbSymbolTableRecord
100
AcDbBlockTableRecord
  2
*D2
340
0
  0
BLOCK_RECORD
  5
E29B
330
1
100
AcDbSymbolTableRecord
100
AcDbBlockTableRecord
  2
*D3
340
0
  0
BLOCK_RECORD
  5
E65B
102
{ACAD_XDICTIONARY
360
EB56
102
}
330
1
100
AcDbSymbolTableRecord
100
AcDbBlockTableRecord
  2
512C
340
0
102
{BLKREFS
331
E6A8
102
}
  0
BLOCK_RECORD
  5
E6A9
102
{ACAD_XDICTIONARY
360
E70D
102
}
330
1
100
AcDbSymbolTableRecord
100
AcDbBlockTableRecord
  2
000F
340
0
102
{BLKREFS
331
E710
102
}
  0
BLOCK_RECORD
  5
E764
102
{ACAD_XDICTIONARY
360
E7B3
102
}
330
1
100
AcDbSymbolTableRecord
100
AcDbBlockTableRecord
  2
512A
340
0
102
{BLKREFS
331
E7B6
102
}
  0
BLOCK_RECORD
  5
E7B9
102
{ACAD_XDICTIONARY
360
ED49
102
}
330
1
100
AcDbSymbolTableRecord
100
AcDbBlockTableRecord
  2
512B
340
0
102
{BLKREFS
331
E7FC
102
}
  0
BLOCK_RECORD
  5
E873
102
{ACAD_XDICTIONARY
360
E8E4
102
}
330
1
100
AcDbSymbolTableRecord
100
AcDbBlockTableRecord
  2
512D
340
0
102
{BLKREFS
331
E8E7
102
}
  0
BLOCK_RECORD
  5
EF4B
102
{ACAD_XDICTIONARY
360
F76F
102
}
330
1
100
AcDbSymbolTableRecord
100
AcDbBlockTableRecord
  2
asdfetrtewwer
340
0
310
2800000020000000200000000100080000000000000400000000000000000000000000000000000000000000000080000080000000808000800000008000800080800000C0C0C000C0DCC000F0CAA6000020400000206000002080000020A0000020C0000020E00000400000004020000040400000406000004080000040A0
310
000040C0000040E00000600000006020000060400000606000006080000060A0000060C0000060E00000800000008020000080400000806000008080000080A0000080C0000080E00000A0000000A0200000A0400000A0600000A0800000A0A00000A0C00000A0E00000C0000000C0200000C0400000C0600000C0800000C0
310
A00000C0C00000C0E00000E0000000E0200000E0400000E0600000E0800000E0A00000E0C00000E0E00040000000400020004000400040006000400080004000A0004000C0004000E00040200000402020004020400040206000402080004020A0004020C0004020E000404000004040200040404000404060004040800040
310
40A0004040C0004040E00040600000406020004060400040606000406080004060A0004060C0004060E00040800000408020004080400040806000408080004080A0004080C0004080E00040A0000040A0200040A0400040A0600040A0800040A0A00040A0C00040A0E00040C0000040C0200040C0400040C0600040C08000
310
40C0A00040C0C00040C0E00040E0000040E0200040E0400040E0600040E0800040E0A00040E0C00040E0E00080000000800020008000400080006000800080008000A0008000C0008000E00080200000802020008020400080206000802080008020A0008020C0008020E00080400000804020008040400080406000804080
310
008040A0008040C0008040E00080600000806020008060400080606000806080008060A0008060C0008060E00080800000808020008080400080806000808080008080A0008080C0008080E00080A0000080A0200080A0400080A0600080A0800080A0A00080A0C00080A0E00080C0000080C0200080C0400080C0600080C0
310
800080C0A00080C0C00080C0E00080E0000080E0200080E0400080E0600080E0800080E0A00080E0C00080E0E000C0000000C0002000C0004000C0006000C0008000C000A000C000C000C000E000C0200000C0202000C0204000C0206000C0208000C020A000C020C000C020E000C0400000C0402000C0404000C0406000C0
310
408000C040A000C040C000C040E000C0600000C0602000C0604000C0606000C0608000C060A000C060C000C060E000C0800000C0802000C0804000C0806000C0808000C080A000C080C000C080E000C0A00000C0A02000C0A04000C0A06000C0A08000C0A0A000C0A0C000C0A0E000C0C00000C0C02000C0C04000C0C06000
310
C0C08000C0C0A000F0FBFF00A4A0A000808080000000FF0000FF000000FFFF00FF000000FF00FF00FFFF0000FFFFFF0000000000000000000000000000000000000000000000000000000000000000000000000000000000000000000000000000000000000000000000000000000000000000000000000000000000000000
310
00000000000000000000000000000000000000000000000000000000000000000000000000000000000000000000000000000000000000000000000000000000000000000000000000000000000000000000000000000000000000000000000000000000000000000000000000000000000000000000000000000000000000
310
00000000000000000000000000000000000000000000000000000000000000000000000000000000000000000000000000000000000000000000000000000000000000000000000000000000000000000000000000000000000000000000000000000000000000000000000000000000000000000000000000000000000000
310
000000000000000000000000000000000000000000000000B6B600000000000000000000000000000000000000000000000000000000B6B6B600B6B6B6B600000000000000000000000000000000000000000000B6B6B60000000000B600B6B6B6000000000000000000000000000000000000000000B6B6B6B600B6000000
310
0000B6B6B6B6000000000000000000000000000000000000000000B6B6B6000000B6B6B60000B6B6B6B60000000000000000000000000000000000000000B6B6B6B6000000B6B6000000B6B6B6000000000000000000000000000000000000000000B6B6B6B60000000000B6B6B6B6B6B60000000000000000000000000000
310
00000000000000B6B6B600B6B600B6B600B6B6B600000000000000000000000000000000000000000000B6B6B6B6B6B6B6B6B6000000000000000000000000000000000000000000000000000000B6B6B600000000000000000000000000000000000000000000000000000000000000000000000000000000000000000000
310
00000000000000000000000000000000000000000000000000000000000000000000000000000000000000000000000000000000000000000000000000000000000000000000000000000000000000000000000000000000000000000000000000000000000000000000000000000000000000000000000000000000000000
310
00000000000000000000000000000000000000000000000000000000000000000000000000000000000000000000000000000000000000000000000000000000000000000000000000000000000000000000000000000000000000000000000000000000000000000000000000000000000000000000000000000000000000
310
0000000000000000000000000000000000000000000000000000000000000000000000000000000000000000000000000000000000000000
102
{BLKREFS
331
EF7B
102
}
  0
BLOCK_RECORD
  5
EF70
102
{ACAD_XDICTIONARY
360
F07C
102
}
330
1
100
AcDbSymbolTableRecord
100
AcDbBlockTableRecord
  2
500P
340
0
102
{BLKREFS
331
F07F
102
}
  0
ENDTAB
  0
ENDSEC
  0
SECTION
  2
BLOCKS
  0
BLOCK
  5
20
330
1F
100
AcDbEntity
  8
0
100
AcDbBlockBegin
  2
*Model_Space
 70
     0
 10
0.0
 20
0.0
 30
0.0
  3
*Model_Space
  1

  0
ENDBLK
  5
21
330
1F
100
AcDbEntity
  8
0
100
AcDbBlockEnd
  0
BLOCK
  5
CBD4
330
CBD2
100
AcDbEntity
 67
     1
  8
0
100
AcDbBlockBegin
  2
*Paper_Space
 70
     0
 10
0.0
 20
0.0
 30
0.0
  3
*Paper_Space
  1

  0
ENDBLK
  5
CBD5
330
CBD2
100
AcDbEntity
 67
     1
  8
0
100
AcDbBlockEnd
  0
BLOCK
  5
E24B
330
E247
100
AcDbEntity
  8
0
100
AcDbBlockBegin
  2
0A6K
 70
     0
 10
0.0
 20
0.0
 30
0.0
  3
0A6K
  1

  0
MTEXT
  5
E248
330
E247
100
AcDbEntity
  8
0
370
     0
100
AcDbMText
 10
2.98114213218642
 20
5.149181548149552
 30
0.0
 40
0.06
 41
1.490277812653548
 71
     1
 72
     5
  1
\~
  7
H
 73
     1
 44
1.0
1001
ACAD
1000
MTEXTBEGIN
1070
    73
1070
     1
1070
    44
1040
1.0
1070
    74
1070
     0
1000
MTEXTEND
  0
LWPOLYLINE
  5
E249
330
E247
100
AcDbEntity
  8
Pel_Clad
  6
Continuous
100
AcDbPolyline
 90
       28
 70
     1
 43
0.0
 10
0.9355618471725613
 20
-0.3012475924913254
 10
0.7655618471725632
 20
-0.2619999999999827
 10
0.514561847172562
 20
-0.2619999999999827
 10
0.514561847172562
 20
-0.1219999999999821
 10
4.317561847172559
 20
-0.1219999999999821
 10
4.317561847172559
 20
-0.2619999999999791
 10
3.96956184717256
 20
-0.2619999999999791
 42
0.4142135623730951
 10
3.84456184717256
 20
-0.3869999999999791
 10
3.84456184717256
 20
-0.4419999999999824
 10
4.517561847172562
 20
-0.4419999999999824
 10
4.517561847172562
 20
-0.1219999999999821
 10
5.192561847172559
 20
-0.1219999999999821
 10
5.192561847172559
 20
-0.2619999999999791
 10
4.897561847172564
 20
-0.2619999999999791
 10
4.897561847172564
 20
-0.4419999999999824
 10
5.392561847172562
 20
-0.4419999999999824
 10
5.392561847172562
 20
0.0580000000000176
 10
1.017561847172562
 20
0.0580000000000176
 10
1.017561847172562
 20
0.2450000000000188
 10
0.9555618471725644
 20
0.2450000000000188
 10
0.9555618471725644
 20
0.0580000000000176
 10
0.3145618471725626
 20
0.0580000000000176
 10
0.3145618471725626
 20
-0.4419999999999789
 10
0.9555618471725644
 20
-0.4419999999999824
 10
0.9555618471725644
 20
-0.6289999999999801
 10
1.017561847172562
 20
-0.6289999999999801
 10
1.017561847172562
 20
-0.4419999999999824
 10
1.016825287536772
 20
-0.4419999999999789
  0
ENDBLK
  5
E24C
330
E247
100
AcDbEntity
  8
0
100
AcDbBlockEnd
  0
BLOCK
  5
E252
330
E24E
100
AcDbEntity
  8
0
100
AcDbBlockBegin
  2
0A6G
 70
     0
 10
0.0
 20
0.0
 30
0.0
  3
0A6G
  1

  0
MTEXT
  5
E24F
330
E24E
100
AcDbEntity
  8
0
370
     0
100
AcDbMText
 10
2.98114213218642
 20
5.149181548149549
 30
0.0
 40
0.06
 41
1.490277812653548
 71
     1
 72
     5
  1
\~
  7
H
 73
     1
 44
1.0
1001
ACAD
1000
MTEXTBEGIN
1070
    73
1070
     1
1070
    44
1040
1.0
1070
    74
1070
     0
1000
MTEXTEND
  0
LWPOLYLINE
  5
E250
330
E24E
100
AcDbEntity
  8
Pel_Clad
100
AcDbPolyline
 90
       21
 70
     1
 43
0.0
 10
1.017561847172563
 20
0.2450000000000188
 10
1.017561847172563
 20
0.0580000000000212
 10
4.517561847172563
 20
0.0580000000000212
 10
4.517561847172563
 20
-0.4419999999999789
 10
3.844409367172563
 20
-0.4419999999999789
 10
3.844409367172563
 20
-0.3869999999999791
 42
-0.4142135623730951
 10
3.969409367172563
 20
-0.2619999999999791
 10
4.317661847172562
 20
-0.2619999999999791
 10
4.317661847172562
 20
-0.1219999999999786
 10
0.5144618471725622
 20
-0.1219999999999786
 10
0.5144618471725622
 20
-0.2619999999999791
 10
0.7654618471725616
 20
-0.2619999999999791
 10
0.9360539261411169
 20
-0.3023063795542029
 10
1.016706075509558
 20
-0.4419999999999789
 10
1.016706075509558
 20
-0.6289999999999836
 10
0.9547060755095575
 20
-0.6289999999999836
 10
0.9547060755095575
 20
-0.4419999999999789
 10
0.3145618471725626
 20
-0.4419999999999789
 10
0.3145618471725626
 20
0.0580000000000212
 10
0.9555618471725626
 20
0.0580000000000212
 10
0.9555618471725626
 20
0.2450000000000188
  0
ENDBLK
  5
E253
330
E24E
100
AcDbEntity
  8
0
100
AcDbBlockEnd
  0
BLOCK
  5
E262
330
E256
100
AcDbEntity
  8
0
100
AcDbBlockBegin
  2
*D2
 70
     1
 10
0.0
 20
0.0
 30
0.0
  3
*D2
  1

  0
LINE
  5
FBD8
330
E256
100
AcDbEntity
  8
0
100
AcDbLine
 10
7.078000000000001
 20
33.5
 30
0.0
 11
7.578000000000001
 21
33.5
 31
0.0
  0
LINE
  5
FBD9
330
E256
100
AcDbEntity
  8
0
100
AcDbLine
 10
7.078000000000001
 20
33.0
 30
0.0
 11
7.578000000000001
 21
33.0
 31
0.0
  0
LINE
  5
FBDA
330
E256
100
AcDbEntity
  8
0
100
AcDbLine
 10
7.328000000000001
 20
34.0
 30
0.0
 11
7.328000000000002
 21
34.5
 31
0.0
  0
LINE
  5
FBDB
330
E256
100
AcDbEntity
  8
0
100
AcDbLine
 10
7.328000000000001
 20
32.5
 30
0.0
 11
7.328000000000001
 21
32.0
 31
0.0
  0
MTEXT
  5
FBDC
330
E256
100
AcDbEntity
  8
0
 62
   255
100
AcDbMText
 10
7.328000000000001
 20
32.0
 30
0.0
 40
0.28
 41
0.0
 71
     5
 72
     1
  1
\A1;1/2"\P [13]
  7
Arial
 11
0.0000000000000001
 21
1.0
 31
0.0
 73
     1
 44
1.0
1001
ACAD
1000
MTEXTBEGIN
1070
    73
1070
     1
1070
    44
1040
1.0
1070
    74
1070
     0
1000
MTEXTEND
  0
SOLID
  5
FBDD
330
E256
100
AcDbEntity
  8
0
100
AcDbTrace
 10
7.244666666666669
 20
34.0
 30
0.0
 11
7.411333333333335
 21
34.0
 31
0.0
 12
7.328000000000001
 22
33.5
 32
0.0
 13
7.328000000000001
 23
33.5
 33
0.0
  0
SOLID
  5
FBDE
330
E256
100
AcDbEntity
  8
0
100
AcDbTrace
 10
7.244666666666668
 20
32.5
 30
0.0
 11
7.411333333333334
 21
32.5
 31
0.0
 12
7.328000000000001
 22
33.0
 32
0.0
 13
7.328000000000001
 23
33.0
 33
0.0
  0
POINT
  5
FBDF
330
E256
100
AcDbEntity
  8
Defpoints
 62
     0
100
AcDbPoint
 10
6.578000000000001
 20
33.5
 30
0.0
  0
POINT
  5
FBE0
330
E256
100
AcDbEntity
  8
Defpoints
 62
     0
100
AcDbPoint
 10
6.578000000000001
 20
33.0
 30
0.0
  0
POINT
  5
FBE1
330
E256
100
AcDbEntity
  8
Defpoints
 62
     0
100
AcDbPoint
 10
7.328000000000001
 20
33.0
 30
0.0
  0
ENDBLK
  5
E263
330
E256
100
AcDbEntity
  8
0
100
AcDbBlockEnd
  0
BLOCK
  5
E2A6
330
E29B
100
AcDbEntity
  8
0
100
AcDbBlockBegin
  2
*D3
 70
     1
 10
0.0
 20
0.0
 30
0.0
  3
*D3
  1

  0
LINE
  5
FBC4
330
E29B
100
AcDbEntity
  8
0
100
AcDbLine
 10
7.952999999999999
 20
29.5
 30
0.0
 11
8.452999999999999
 21
29.5
 31
0.0
  0
LINE
  5
FBC5
330
E29B
100
AcDbEntity
  8
0
100
AcDbLine
 10
7.952999999999999
 20
29.0
 30
0.0
 11
8.452999999999999
 21
29.0
 31
0.0
  0
LINE
  5
FBC6
330
E29B
100
AcDbEntity
  8
0
100
AcDbLine
 10
8.202999999999999
 20
30.0
 30
0.0
 11
8.202999999999999
 21
30.5
 31
0.0
  0
LINE
  5
FBC7
330
E29B
100
AcDbEntity
  8
0
100
AcDbLine
 10
8.202999999999999
 20
28.5
 30
0.0
 11
8.202999999999999
 21
28.0
 31
0.0
  0
MTEXT
  5
FBC8
330
E29B
100
AcDbEntity
  8
0
 62
   255
100
AcDbMText
 10
8.202999999999999
 20
28.0
 30
0.0
 40
0.28
 41
0.0
 71
     5
 72
     1
  1
\A1;1/2"\P [13]
  7
Arial
 11
0.0000000000000001
 21
1.0
 31
0.0
 73
     1
 44
1.0
1001
ACAD
1000
MTEXTBEGIN
1070
    73
1070
     1
1070
    44
1040
1.0
1070
    74
1070
     0
1000
MTEXTEND
  0
SOLID
  5
FBC9
330
E29B
100
AcDbEntity
  8
0
100
AcDbTrace
 10
8.119666666666665
 20
30.0
 30
0.0
 11
8.286333333333333
 21
30.0
 31
0.0
 12
8.202999999999999
 22
29.5
 32
0.0
 13
8.202999999999999
 23
29.5
 33
0.0
  0
SOLID
  5
FBCA
330
E29B
100
AcDbEntity
  8
0
100
AcDbTrace
 10
8.119666666666665
 20
28.5
 30
0.0
 11
8.286333333333333
 21
28.5
 31
0.0
 12
8.202999999999999
 22
29.0
 32
0.0
 13
8.202999999999999
 23
29.0
 33
0.0
  0
POINT
  5
FBCB
330
E29B
100
AcDbEntity
  8
Defpoints
 62
     0
100
AcDbPoint
 10
7.452999999999999
 20
29.5
 30
0.0
  0
POINT
  5
FBCC
330
E29B
100
AcDbEntity
  8
Defpoints
 62
     0
100
AcDbPoint
 10
7.452999999999999
 20
29.0
 30
0.0
  0
POINT
  5
FBCD
330
E29B
100
AcDbEntity
  8
Defpoints
 62
     0
100
AcDbPoint
 10
8.202999999999999
 20
29.0
 30
0.0
  0
ENDBLK
  5
E2A7
330
E29B
100
AcDbEntity
  8
0
100
AcDbBlockEnd
  0
BLOCK
  5
E6A6
330
E65B
100
AcDbEntity
  8
0
100
AcDbBlockBegin
  2
512C
 70
     0
 10
0.0
 20
0.0
 30
0.0
  3
512C
  1

  0
POLYLINE
  5
E65C
330
E65B
100
AcDbEntity
  8
Pel_Clad
100
AcDb2dPolyline
 66
     1
 10
0.0
 20
0.0
 30
0.0
  0
VERTEX
  5
EB0C
330
E65C
100
AcDbEntity
  8
Pel_Clad
100
AcDbVertex
100
AcDb2dVertex
 10
3.90261493259006
 20
4.013730027940539
 30
0.0
  0
VERTEX
  5
EB0D
330
E65C
100
AcDbEntity
  8
Pel_Clad
100
AcDbVertex
100
AcDb2dVertex
 10
3.648625267876519
 20
4.159242248535157
 30
0.0
  0
VERTEX
  5
EB0E
330
E65C
100
AcDbEntity
  8
Pel_Clad
100
AcDbVertex
100
AcDb2dVertex
 10
3.558665211995442
 20
4.212167527940536
 30
0.0
  0
SEQEND
  5
EB0F
330
E65C
100
AcDbEntity
  8
Pel_Clad
  0
LINE
  5
E661
330
E65B
100
AcDbEntity
  8
Pel_Clad
100
AcDbLine
 10
0.092608473036024
 20
1.05038808186849
 30
0.0
 11
3.90261493259006
 21
3.249069552951389
 31
0.0
  0
LINE
  5
E662
330
E65B
100
AcDbEntity
  8
Pel_Clad
100
AcDbLine
 10
0.092608473036024
 20
1.812400139702692
 30
0.0
 11
0.0
 21
1.865303887261283
 31
0.0
  0
POLYLINE
  5
E663
330
E65B
100
AcDbEntity
  8
Pel_Clad
100
AcDb2dPolyline
 66
     1
 10
0.0
 20
0.0
 30
0.0
  0
VERTEX
  5
EB13
330
E663
100
AcDbEntity
  8
Pel_Clad
100
AcDbVertex
100
AcDb2dVertex
 10
0.092608473036024
 20
1.05038808186849
 30
0.0
  0
VERTEX
  5
EB14
330
E663
100
AcDbEntity
  8
Pel_Clad
100
AcDbVertex
100
AcDb2dVertex
 10
0.092608473036024
 20
1.812400139702692
 30
0.0
  0
VERTEX
  5
EB15
330
E663
100
AcDbEntity
  8
Pel_Clad
100
AcDbVertex
100
AcDb2dVertex
 10
0.3465981377495657
 20
2.251606750488281
 30
0.0
  0
VERTEX
  5
EB16
330
E663
100
AcDbEntity
  8
Pel_Clad
100
AcDbVertex
100
AcDb2dVertex
 10
0.25401119656033
 20
2.304510498046873
 30
0.0
  0
SEQEND
  5
EB17
330
E663
100
AcDbEntity
  8
Pel_Clad
  0
LINE
  5
E669
330
E65B
100
AcDbEntity
  8
Pel_Clad
100
AcDbLine
 10
3.648625267876519
 20
4.159242248535157
 30
0.0
 11
0.3465981377495657
 21
2.251606750488281
 31
0.0
  0
LINE
  5
E66A
330
E65B
100
AcDbEntity
  8
Pel_Clad
100
AcDbLine
 10
3.90261493259006
 20
3.249069552951389
 30
0.0
 11
3.90261493259006
 21
4.013730027940539
 31
0.0
  0
LINE
  5
E66B
330
E65B
100
AcDbEntity
  8
Pel_Clad
100
AcDbLine
 10
3.558665211995442
 20
4.212167527940536
 30
0.0
 11
0.25401119656033
 21
2.304510498046873
 31
0.0
  0
LINE
  5
E66C
330
E65B
100
AcDbEntity
  8
Pel_Clad
100
AcDbLine
 10
0.0
 20
1.865303887261283
 30
0.0
 11
0.0
 21
1.103313361273873
 31
0.0
  0
POLYLINE
  5
E66D
330
E65B
100
AcDbEntity
  8
Pel_Clad
100
AcDb2dPolyline
 66
     1
 10
0.0
 20
0.0
 30
0.0
  0
VERTEX
  5
EB1D
330
E66D
100
AcDbEntity
  8
Pel_Clad
100
AcDbVertex
100
AcDb2dVertex
 10
4.005817074245876
 20
3.074446275499131
 30
0.0
  0
VERTEX
  5
EB1E
330
E66D
100
AcDbEntity
  8
Pel_Clad
100
AcDbVertex
100
AcDb2dVertex
 10
3.984629737006293
 20
3.087688361273873
 30
0.0
  0
VERTEX
  5
EB1F
330
E66D
100
AcDbEntity
  8
Pel_Clad
100
AcDbVertex
100
AcDb2dVertex
 10
3.966112348768445
 20
3.106205749511719
 30
0.0
  0
VERTEX
  5
EB20
330
E66D
100
AcDbEntity
  8
Pel_Clad
100
AcDbVertex
100
AcDb2dVertex
 10
3.947594960530598
 20
3.127371554904513
 30
0.0
  0
VERTEX
  5
EB21
330
E66D
100
AcDbEntity
  8
Pel_Clad
100
AcDbVertex
100
AcDb2dVertex
 10
3.931725989447699
 20
3.151185777452255
 30
0.0
  0
VERTEX
  5
EB22
330
E66D
100
AcDbEntity
  8
Pel_Clad
100
AcDbVertex
100
AcDb2dVertex
 10
3.921132320827907
 20
3.175
 30
0.0
  0
VERTEX
  5
EB23
330
E66D
100
AcDbEntity
  8
Pel_Clad
100
AcDbVertex
100
AcDb2dVertex
 10
3.910560184054904
 20
3.20146263970269
 30
0.0
  0
VERTEX
  5
EB24
330
E66D
100
AcDbEntity
  8
Pel_Clad
100
AcDbVertex
100
AcDb2dVertex
 10
3.905263349745008
 20
3.225255330403644
 30
0.0
  0
VERTEX
  5
EB25
330
E66D
100
AcDbEntity
  8
Pel_Clad
100
AcDbVertex
100
AcDb2dVertex
 10
3.90261493259006
 20
3.249069552951389
 30
0.0
  0
SEQEND
  5
EB26
330
E66D
100
AcDbEntity
  8
Pel_Clad
  0
LINE
  5
E678
330
E65B
100
AcDbEntity
  8
Pel_Clad
100
AcDbLine
 10
1.524002583821614
 20
0.1058290269639777
 30
0.0
 11
1.524002583821614
 21
0.0
 31
0.0
  0
POLYLINE
  5
E679
330
E65B
100
AcDbEntity
  8
Pel_Clad
100
AcDb2dPolyline
 66
     1
 10
0.0
 20
0.0
 30
0.0
  0
VERTEX
  5
EB29
330
E679
100
AcDbEntity
  8
Pel_Clad
100
AcDbVertex
100
AcDb2dVertex
 10
0.1931406656901044
 20
0.7672873602973099
 30
0.0
  0
VERTEX
  5
EB2A
330
E679
100
AcDbEntity
  8
Pel_Clad
100
AcDbVertex
100
AcDb2dVertex
 10
0.1587543063693575
 20
0.7911015828450516
 30
0.0
  0
VERTEX
  5
EB2B
330
E679
100
AcDbEntity
  8
Pel_Clad
100
AcDbVertex
100
AcDb2dVertex
 10
0.1269948323567709
 20
0.8202126397026923
 30
0.0
  0
VERTEX
  5
EB2C
330
E679
100
AcDbEntity
  8
Pel_Clad
100
AcDbVertex
100
AcDb2dVertex
 10
0.0952568901909725
 20
0.8545989990234375
 30
0.0
  0
VERTEX
  5
EB2D
330
E679
100
AcDbEntity
  8
Pel_Clad
100
AcDbVertex
100
AcDb2dVertex
 10
0.0687942504882813
 20
0.8916337754991339
 30
0.0
  0
VERTEX
  5
EB2E
330
E679
100
AcDbEntity
  8
Pel_Clad
100
AcDbVertex
100
AcDb2dVertex
 10
0.0449800279405386
 20
0.9339653862847221
 30
0.0
  0
VERTEX
  5
EB2F
330
E679
100
AcDbEntity
  8
Pel_Clad
100
AcDbVertex
100
AcDb2dVertex
 10
0.0264626397026913
 20
0.9762969970703139
 30
0.0
  0
VERTEX
  5
EB30
330
E679
100
AcDbEntity
  8
Pel_Clad
100
AcDbVertex
100
AcDb2dVertex
 10
0.0105936686197916
 20
1.018650139702689
 30
0.0
  0
VERTEX
  5
EB31
330
E679
100
AcDbEntity
  8
Pel_Clad
100
AcDbVertex
100
AcDb2dVertex
 10
0.0026484171549477
 20
1.060981750488281
 30
0.0
  0
VERTEX
  5
EB32
330
E679
100
AcDbEntity
  8
Pel_Clad
100
AcDbVertex
100
AcDb2dVertex
 10
0.0
 20
1.103313361273873
 30
0.0
  0
SEQEND
  5
EB33
330
E679
100
AcDbEntity
  8
Pel_Clad
  0
POLYLINE
  5
E685
330
E65B
100
AcDbEntity
  8
Pel_Clad
100
AcDb2dPolyline
 66
     1
 10
0.0
 20
0.0
 30
0.0
  0
VERTEX
  5
EB35
330
E685
100
AcDbEntity
  8
Pel_Clad
100
AcDbVertex
100
AcDb2dVertex
 10
0.1931406656901044
 20
0.7672873602973099
 30
0.0
  0
VERTEX
  5
EB36
330
E685
100
AcDbEntity
  8
Pel_Clad
100
AcDbVertex
100
AcDb2dVertex
 10
1.524002583821614
 20
0.0
 30
0.0
  0
VERTEX
  5
EB37
330
E685
100
AcDbEntity
  8
Pel_Clad
100
AcDbVertex
100
AcDb2dVertex
 10
5.336657460530598
 20
2.201329888237847
 30
0.0
  0
SEQEND
  5
EB38
330
E685
100
AcDbEntity
  8
Pel_Clad
  0
POLYLINE
  5
E68A
330
E65B
100
AcDbEntity
  8
Pel_Clad
100
AcDb2dPolyline
 66
     1
 10
0.0
 20
0.0
 30
0.0
  0
VERTEX
  5
EB3A
330
E68A
100
AcDbEntity
  8
Pel_Clad
100
AcDbVertex
100
AcDb2dVertex
 10
4.005817074245876
 20
3.074446275499131
 30
0.0
  0
VERTEX
  5
EB3B
330
E68A
100
AcDbEntity
  8
Pel_Clad
100
AcDbVertex
100
AcDb2dVertex
 10
5.336657460530598
 20
2.304510498046873
 30
0.0
  0
VERTEX
  5
EB3C
330
E68A
100
AcDbEntity
  8
Pel_Clad
100
AcDbVertex
100
AcDb2dVertex
 10
1.524002583821614
 20
0.1058290269639777
 30
0.0
  0
VERTEX
  5
EB3D
330
E68A
100
AcDbEntity
  8
Pel_Clad
100
AcDbVertex
100
AcDb2dVertex
 10
0.1931406656901044
 20
0.8731163872612839
 30
0.0
  0
VERTEX
  5
EB3E
330
E68A
100
AcDbEntity
  8
0
100
AcDbVertex
100
AcDb2dVertex
 10
4.005817074245876
 20
3.074446275499131
 30
0.0
  0
SEQEND
  5
EB3F
330
E68A
100
AcDbEntity
  8
Pel_Clad
  0
LINE
  5
E690
330
E65B
100
AcDbEntity
  8
Pel_Clad
100
AcDbLine
 10
0.25401119656033
 20
2.304510498046873
 30
0.0
 11
0.0
 21
1.865303887261283
 31
0.0
  0
POLYLINE
  5
E691
330
E65B
100
AcDbEntity
  8
Pel_Clad
100
AcDb2dPolyline
 66
     1
 10
0.0
 20
0.0
 30
0.0
  0
VERTEX
  5
EB42
330
E691
100
AcDbEntity
  8
Pel_Clad
100
AcDbVertex
100
AcDb2dVertex
 10
0.1931406656901044
 20
0.8731163872612839
 30
0.0
  0
VERTEX
  5
EB43
330
E691
100
AcDbEntity
  8
Pel_Clad
100
AcDbVertex
100
AcDb2dVertex
 10
0.1746232774522571
 20
0.8863584730360258
 30
0.0
  0
VERTEX
  5
EB44
330
E691
100
AcDbEntity
  8
Pel_Clad
100
AcDbVertex
100
AcDb2dVertex
 10
0.1587543063693575
 20
0.8995790269639769
 30
0.0
  0
VERTEX
  5
EB45
330
E691
100
AcDbEntity
  8
Pel_Clad
100
AcDbVertex
100
AcDb2dVertex
 10
0.1428853352864587
 20
0.9180964152018233
 30
0.0
  0
VERTEX
  5
EB46
330
E691
100
AcDbEntity
  8
Pel_Clad
100
AcDbVertex
100
AcDb2dVertex
 10
0.1269948323567709
 20
0.9392622205946175
 30
0.0
  0
VERTEX
  5
EB47
330
E691
100
AcDbEntity
  8
Pel_Clad
100
AcDbVertex
100
AcDb2dVertex
 10
0.1137742784288198
 20
0.9604280259874151
 30
0.0
  0
VERTEX
  5
EB48
330
E691
100
AcDbEntity
  8
Pel_Clad
100
AcDbVertex
100
AcDb2dVertex
 10
0.1058290269639759
 20
0.9842422485351569
 30
0.0
  0
VERTEX
  5
EB49
330
E691
100
AcDbEntity
  8
Pel_Clad
100
AcDbVertex
100
AcDb2dVertex
 10
0.0979053073459202
 20
1.005408053927951
 30
0.0
  0
VERTEX
  5
EB4A
330
E691
100
AcDbEntity
  8
Pel_Clad
100
AcDbVertex
100
AcDb2dVertex
 10
0.092608473036024
 20
1.029222276475696
 30
0.0
  0
VERTEX
  5
EB4B
330
E691
100
AcDbEntity
  8
Pel_Clad
100
AcDbVertex
100
AcDb2dVertex
 10
0.092608473036024
 20
1.05038808186849
 30
0.0
  0
SEQEND
  5
EB4C
330
E691
100
AcDbEntity
  8
Pel_Clad
  0
LINE
  5
E69D
330
E65B
100
AcDbEntity
  8
Pel_Clad
100
AcDbLine
 10
5.336657460530598
 20
2.304510498046873
 30
0.0
 11
5.336657460530598
 21
2.201329888237847
 31
0.0
  0
ELLIPSE
  5
E69E
330
E65B
100
AcDbEntity
  8
Pel_Clad
100
AcDbEllipse
 10
1.422140799628363
 20
0.75008341471354
 30
0.0
 11
-0.2685505761040583
 21
0.0
 31
0.0
210
0.0
220
0.0
230
1.0
 40
0.5784516466439218
 41
0.0
 42
6.283185307179586
  0
ELLIPSE
  5
E69F
330
E65B
100
AcDbEntity
  8
Pel_Clad
100
AcDbEllipse
 10
1.424851464124482
 20
0.6476225297395182
 30
0.0
 11
-0.2841717946550508
 21
0.0
 31
0.0
210
0.0
220
0.0
230
1.0
 40
0.5183091759893183
 41
3.582659786854141
 42
5.871925110914906
  0
ELLIPSE
  5
E6A0
330
E65B
100
AcDbEntity
  8
Pel_Clad
100
AcDbEllipse
 10
2.430275666937524
 20
1.235562386515699
 30
0.0
 11
-0.2841717946550508
 21
0.0
 31
0.0
210
0.0
220
0.0
230
1.0
 40
0.5183091759893183
 41
3.582659786854141
 42
5.871925110914906
  0
ELLIPSE
  5
E6A1
330
E65B
100
AcDbEntity
  8
Pel_Clad
100
AcDbEllipse
 10
2.427565002441406
 20
1.338023271489724
 30
0.0
 11
-0.2685505761040583
 21
0.0
 31
0.0
210
0.0
220
0.0
230
1.0
 40
0.5784516466439218
 41
0.0
 42
6.283185307179586
  0
ELLIPSE
  5
E6A2
330
E65B
100
AcDbEntity
  8
Pel_Clad
100
AcDbEllipse
 10
3.189566294352212
 20
1.777229882275314
 30
0.0
 11
-0.2685505761040583
 21
0.0
 31
0.0
210
0.0
220
0.0
230
1.0
 40
0.5784516466439218
 41
0.0
 42
6.283185307179586
  0
ELLIPSE
  5
E6A3
330
E65B
100
AcDbEntity
  8
Pel_Clad
100
AcDbEllipse
 10
3.192276958848331
 20
1.674768997301288
 30
0.0
 11
-0.2841717946550508
 21
0.0
 31
0.0
210
0.0
220
0.0
230
1.0
 40
0.5183091759893183
 41
3.582659786854141
 42
5.871925110914906
  0
ELLIPSE
  5
E6A4
330
E65B
100
AcDbEntity
  8
Pel_Clad
100
AcDbEllipse
 10
4.208278681396075
 20
2.262157777683231
 30
0.0
 11
-0.2841717946550508
 21
0.0
 31
0.0
210
0.0
220
0.0
230
1.0
 40
0.5183091759893183
 41
3.582659786854141
 42
5.871925110914906
  0
ELLIPSE
  5
E6A5
330
E65B
100
AcDbEntity
  8
Pel_Clad
100
AcDbEllipse
 10
4.205568016899956
 20
2.364618662657257
 30
0.0
 11
-0.2685505761040583
 21
0.0
 31
0.0
210
0.0
220
0.0
230
1.0
 40
0.5784516466439218
 41
0.0
 42
6.283185307179586
  0
ENDBLK
  5
E6A7
330
E65B
100
AcDbEntity
  8
0
100
AcDbBlockEnd
  0
BLOCK
  5
E70E
330
E6A9
100
AcDbEntity
  8
0
100
AcDbBlockBegin
  2
000F
 70
     0
 10
0.0
 20
0.0
 30
0.0
  3
000F
  1

  0
POLYLINE
  5
E6AA
330
E6A9
100
AcDbEntity
  8
Pel_Clad
370
     0
100
AcDb2dPolyline
 66
     1
 10
0.0
 20
0.0
 30
0.0
  0
VERTEX
  5
E6AB
330
E6AA
100
AcDbEntity
  8
Pel_Clad
100
AcDbVertex
100
AcDb2dVertex
 10
0.1107275221082897
 20
3.118489668104383
 30
0.0
  0
VERTEX
  5
E6AC
330
E6AA
100
AcDbEntity
  8
Pel_Clad
100
AcDbVertex
100
AcDb2dVertex
 10
1.331034172905815
 20
2.408907657199435
 30
0.0
  0
VERTEX
  5
E6AD
330
E6AA
100
AcDbEntity
  8
Pel_Clad
100
AcDbVertex
100
AcDb2dVertex
 10
1.331034172905815
 20
2.16032248602973
 30
0.0
  0
SEQEND
  5
E6AE
330
E6AA
100
AcDbEntity
  8
Pel_Clad
  0
POLYLINE
  5
E6AF
330
E6A9
100
AcDbEntity
  8
Pel_Clad
370
     0
100
AcDb2dPolyline
 66
     1
 10
0.0
 20
0.0
 30
0.0
  0
VERTEX
  5
E6B0
330
E6AF
100
AcDbEntity
  8
Pel_Clad
100
AcDbVertex
100
AcDb2dVertex
 10
1.331034172905815
 20
2.408907657199435
 30
0.0
  0
VERTEX
  5
E6B1
330
E6AF
100
AcDbEntity
  8
Pel_Clad
100
AcDbVertex
100
AcDb2dVertex
 10
1.331034172905815
 20
2.467657301161024
 30
0.0
  0
VERTEX
  5
E6B2
330
E6AF
100
AcDbEntity
  8
Pel_Clad
100
AcDbVertex
100
AcDb2dVertex
 10
1.389783816867404
 20
2.440548706054687
 30
0.0
  0
VERTEX
  5
E6B3
330
E6AF
100
AcDbEntity
  8
Pel_Clad
100
AcDbVertex
100
AcDb2dVertex
 10
1.389783816867404
 20
2.124170515272352
 30
0.0
  0
SEQEND
  5
E6B4
330
E6AF
100
AcDbEntity
  8
Pel_Clad
  0
POLYLINE
  5
E6B5
330
E6A9
100
AcDbEntity
  8
Pel_Clad
370
     0
100
AcDb2dPolyline
 66
     1
 10
0.0
 20
0.0
 30
0.0
  0
VERTEX
  5
E6B6
330
E6B5
100
AcDbEntity
  8
Pel_Clad
100
AcDbVertex
100
AcDb2dVertex
 10
2.695905643039278
 20
3.394151136610243
 30
0.0
  0
VERTEX
  5
E6B7
330
E6B5
100
AcDbEntity
  8
Pel_Clad
100
AcDbVertex
100
AcDb2dVertex
 10
1.625751325819227
 20
4.011770629882812
 30
0.0
  0
VERTEX
  5
E6B8
330
E6B5
100
AcDbEntity
  8
Pel_Clad
100
AcDbVertex
100
AcDb2dVertex
 10
0.115421464708116
 20
3.129826185438368
 30
0.0
  0
VERTEX
  5
E6B9
330
E6B5
100
AcDbEntity
  8
Pel_Clad
100
AcDbVertex
100
AcDb2dVertex
 10
0.0610104878743489
 20
3.073283555772569
 30
0.0
  0
VERTEX
  5
E6BA
330
E6B5
100
AcDbEntity
  8
Pel_Clad
100
AcDbVertex
100
AcDb2dVertex
 10
0.0248585171169702
 20
3.03713158501519
 30
0.0
  0
VERTEX
  5
E6BB
330
E6B5
100
AcDbEntity
  8
Pel_Clad
100
AcDbVertex
100
AcDb2dVertex
 10
0.0158151414659287
 20
2.973849487304687
 30
0.0
  0
VERTEX
  5
E6BC
330
E6B5
100
AcDbEntity
  8
Pel_Clad
100
AcDbVertex
100
AcDb2dVertex
 10
0.0022608439127603
 20
2.924132453070746
 30
0.0
  0
VERTEX
  5
E6BD
330
E6B5
100
AcDbEntity
  8
Pel_Clad
100
AcDbVertex
100
AcDb2dVertex
 10
-0.0022608439127607
 20
2.047323354085286
 30
0.0
  0
VERTEX
  5
E6BE
330
E6B5
100
AcDbEntity
  8
Pel_Clad
100
AcDbVertex
100
AcDb2dVertex
 10
3.541073693169487
 20
0.0000000000000004
 30
0.0
  0
VERTEX
  5
E6BF
330
E6B5
100
AcDbEntity
  8
Pel_Clad
100
AcDbVertex
100
AcDb2dVertex
 10
3.550052473280164
 20
0.8768306308322484
 30
0.0
  0
VERTEX
  5
E6C0
330
E6B5
100
AcDbEntity
  8
Pel_Clad
100
AcDbVertex
100
AcDb2dVertex
 10
0.15592286851671
 20
2.83827421400282
 30
0.0
  0
VERTEX
  5
E6C1
330
E6B5
100
AcDbEntity
  8
Pel_Clad
100
AcDbVertex
100
AcDb2dVertex
 10
0.0474561903211805
 20
2.90154554578993
 30
0.0
  0
VERTEX
  5
E6C2
330
E6B5
100
AcDbEntity
  8
Pel_Clad
100
AcDbVertex
100
AcDb2dVertex
 10
0.0022608439127603
 20
2.924132453070746
 30
0.0
  0
SEQEND
  5
E6C3
330
E6B5
100
AcDbEntity
  8
Pel_Clad
  0
POLYLINE
  5
E6C4
330
E6A9
100
AcDbEntity
  8
Pel_Clad
370
     0
100
AcDb2dPolyline
 66
     1
 10
0.0
 20
0.0
 30
0.0
  0
VERTEX
  5
E6C5
330
E6C4
100
AcDbEntity
  8
Pel_Clad
100
AcDbVertex
100
AcDb2dVertex
 10
1.331034172905815
 20
2.467657301161024
 30
0.0
  0
VERTEX
  5
E6C6
330
E6C4
100
AcDbEntity
  8
Pel_Clad
100
AcDbVertex
100
AcDb2dVertex
 10
1.434936099582247
 20
2.67102559407552
 30
0.0
  0
VERTEX
  5
E6C7
330
E6C4
100
AcDbEntity
  8
Pel_Clad
100
AcDbVertex
100
AcDb2dVertex
 10
3.242793019612629
 20
3.710540093315972
 30
0.0
  0
VERTEX
  5
E6C8
330
E6C4
100
AcDbEntity
  8
Pel_Clad
100
AcDbVertex
100
AcDb2dVertex
 10
3.306053585476345
 20
3.669866434733072
 30
0.0
  0
VERTEX
  5
E6C9
330
E6C4
100
AcDbEntity
  8
Pel_Clad
100
AcDbVertex
100
AcDb2dVertex
 10
1.50722927517361
 20
2.634862857394748
 30
0.0
  0
VERTEX
  5
E6CA
330
E6C4
100
AcDbEntity
  8
Pel_Clad
100
AcDbVertex
100
AcDb2dVertex
 10
1.498185899522569
 20
2.616797637939453
 30
0.0
  0
VERTEX
  5
E6CB
330
E6C4
100
AcDbEntity
  8
Pel_Clad
100
AcDbVertex
100
AcDb2dVertex
 10
1.389783816867404
 20
2.440548706054687
 30
0.0
  0
SEQEND
  5
E6CC
330
E6C4
100
AcDbEntity
  8
Pel_Clad
  0
LINE
  5
E6CD
330
E6A9
100
AcDbEntity
  8
Pel_Clad
370
     0
100
AcDbLine
 10
1.434936099582247
 20
2.67102559407552
 30
0.0
 11
1.50722927517361
 21
2.634862857394748
 31
0.0
  0
POLYLINE
  5
E6CE
330
E6A9
100
AcDbEntity
  8
Pel_Clad
370
     0
100
AcDb2dPolyline
 66
     1
 10
0.0
 20
0.0
 30
0.0
  0
VERTEX
  5
E6CF
330
E6CE
100
AcDbEntity
  8
Pel_Clad
100
AcDbVertex
100
AcDb2dVertex
 10
3.306053585476345
 20
3.669866434733072
 30
0.0
  0
VERTEX
  5
E6D0
330
E6CE
100
AcDbEntity
  8
Pel_Clad
100
AcDbVertex
100
AcDb2dVertex
 10
3.432553185356987
 20
3.583986663818359
 30
0.0
  0
VERTEX
  5
E6D1
330
E6CE
100
AcDbEntity
  8
Pel_Clad
100
AcDbVertex
100
AcDb2dVertex
 10
3.446118248833549
 20
2.95575197007921
 30
0.0
  0
VERTEX
  5
E6D2
330
E6CE
100
AcDbEntity
  8
Pel_Clad
100
AcDbVertex
100
AcDb2dVertex
 10
1.918509080674912
 20
2.083518388536241
 30
0.0
  0
VERTEX
  5
E6D3
330
E6CE
100
AcDbEntity
  8
Pel_Clad
100
AcDbVertex
100
AcDb2dVertex
 10
1.733206007215711
 20
1.970519256591797
 30
0.0
  0
VERTEX
  5
E6D4
330
E6CE
100
AcDbEntity
  8
Pel_Clad
100
AcDbVertex
100
AcDb2dVertex
 10
1.724162631564669
 20
2.182952457004123
 30
0.0
  0
VERTEX
  5
E6D5
330
E6CE
100
AcDbEntity
  8
Pel_Clad
100
AcDbVertex
100
AcDb2dVertex
 10
1.507218509250216
 20
2.065431637234158
 30
0.0
  0
SEQEND
  5
E6D6
330
E6CE
100
AcDbEntity
  8
Pel_Clad
  0
POLYLINE
  5
E6D7
330
E6A9
100
AcDbEntity
  8
Pel_Clad
370
     0
100
AcDb2dPolyline
 66
     1
 10
0.0
 20
0.0
 30
0.0
  0
VERTEX
  5
E6D8
330
E6D7
100
AcDbEntity
  8
Pel_Clad
100
AcDbVertex
100
AcDb2dVertex
 10
1.656369611952039
 20
2.137746344672309
 30
0.0
  0
VERTEX
  5
E6D9
330
E6D7
100
AcDbEntity
  8
Pel_Clad
100
AcDbVertex
100
AcDb2dVertex
 10
1.651847924126518
 20
2.002160305447048
 30
0.0
  0
VERTEX
  5
E6DA
330
E6D7
100
AcDbEntity
  8
Pel_Clad
100
AcDbVertex
100
AcDb2dVertex
 10
1.719640943739148
 20
1.970519256591797
 30
0.0
  0
SEQEND
  5
E6DB
330
E6D7
100
AcDbEntity
  8
Pel_Clad
  0
POLYLINE
  5
E6DC
330
E6A9
100
AcDbEntity
  8
Pel_Clad
370
     0
100
AcDb2dPolyline
 66
     1
 10
0.0
 20
0.0
 30
0.0
  0
VERTEX
  5
E6DD
330
E6DC
100
AcDbEntity
  8
Pel_Clad
100
AcDbVertex
100
AcDb2dVertex
 10
1.918509080674912
 20
2.083518388536241
 30
0.0
  0
VERTEX
  5
E6DE
330
E6DC
100
AcDbEntity
  8
Pel_Clad
100
AcDbVertex
100
AcDb2dVertex
 10
3.649486541748046
 20
1.071134016248915
 30
0.0
  0
VERTEX
  5
E6DF
330
E6DC
100
AcDbEntity
  8
Pel_Clad
100
AcDbVertex
100
AcDb2dVertex
 10
5.177149539523654
 20
1.938910505506727
 30
0.0
  0
VERTEX
  5
E6E0
330
E6DC
100
AcDbEntity
  8
Pel_Clad
100
AcDbVertex
100
AcDb2dVertex
 10
3.446118248833549
 20
2.95575197007921
 30
0.0
  0
SEQEND
  5
E6E1
330
E6DC
100
AcDbEntity
  8
Pel_Clad
  0
POLYLINE
  5
E6E2
330
E6A9
100
AcDbEntity
  8
Pel_Clad
370
     0
100
AcDb2dPolyline
 66
     1
 10
0.0
 20
0.0
 30
0.0
  0
VERTEX
  5
E6E3
330
E6E2
100
AcDbEntity
  8
Pel_Clad
100
AcDbVertex
100
AcDb2dVertex
 10
5.177149539523654
 20
1.938910505506727
 30
0.0
  0
VERTEX
  5
E6E4
330
E6E2
100
AcDbEntity
  8
Pel_Clad
100
AcDbVertex
100
AcDb2dVertex
 10
5.181671227349174
 20
1.880160861545139
 30
0.0
  0
VERTEX
  5
E6E5
330
E6E2
100
AcDbEntity
  8
Pel_Clad
100
AcDbVertex
100
AcDb2dVertex
 10
3.735398610432942
 20
1.044036187065972
 30
0.0
  0
VERTEX
  5
E6E6
330
E6E2
100
AcDbEntity
  8
Pel_Clad
100
AcDbVertex
100
AcDb2dVertex
 10
3.690203264024521
 20
1.016916826036241
 30
0.0
  0
VERTEX
  5
E6E7
330
E6E2
100
AcDbEntity
  8
Pel_Clad
100
AcDbVertex
100
AcDb2dVertex
 10
3.654029761420355
 20
1.003351762559679
 30
0.0
  0
VERTEX
  5
E6E8
330
E6E2
100
AcDbEntity
  8
Pel_Clad
100
AcDbVertex
100
AcDb2dVertex
 10
3.622399478488497
 20
0.9671997918023006
 30
0.0
  0
VERTEX
  5
E6E9
330
E6E2
100
AcDbEntity
  8
Pel_Clad
100
AcDbVertex
100
AcDb2dVertex
 10
3.608834415011934
 20
0.9446021185980903
 30
0.0
  0
VERTEX
  5
E6EA
330
E6E2
100
AcDbEntity
  8
Pel_Clad
100
AcDbVertex
100
AcDb2dVertex
 10
3.59529088338216
 20
0.8994067721896703
 30
0.0
  0
VERTEX
  5
E6EB
330
E6E2
100
AcDbEntity
  8
Pel_Clad
100
AcDbVertex
100
AcDb2dVertex
 10
3.59529088338216
 20
0.0271516587999134
 30
0.0
  0
VERTEX
  5
E6EC
330
E6E2
100
AcDbEntity
  8
Pel_Clad
100
AcDbVertex
100
AcDb2dVertex
 10
3.541073693169487
 20
0.0000000000000004
 30
0.0
  0
SEQEND
  5
E6ED
330
E6E2
100
AcDbEntity
  8
Pel_Clad
  0
POLYLINE
  5
E6EE
330
E6A9
100
AcDbEntity
  8
Pel_Clad
370
     0
100
AcDb2dPolyline
 66
     1
 10
0.0
 20
0.0
 30
0.0
  0
VERTEX
  5
E6EF
330
E6EE
100
AcDbEntity
  8
Pel_Clad
100
AcDbVertex
100
AcDb2dVertex
 10
3.658551449245876
 20
1.066666158040364
 30
0.0
  0
VERTEX
  5
E6F0
330
E6EE
100
AcDbEntity
  8
Pel_Clad
100
AcDbVertex
100
AcDb2dVertex
 10
3.626921166314018
 20
1.039546797010633
 30
0.0
  0
VERTEX
  5
E6F1
330
E6EE
100
AcDbEntity
  8
Pel_Clad
100
AcDbVertex
100
AcDb2dVertex
 10
3.59076919555664
 20
1.012427435980902
 30
0.0
  0
VERTEX
  5
E6F2
330
E6EE
100
AcDbEntity
  8
Pel_Clad
100
AcDbVertex
100
AcDb2dVertex
 10
3.568160756429036
 20
0.9807863871256511
 30
0.0
  0
VERTEX
  5
E6F3
330
E6EE
100
AcDbEntity
  8
Pel_Clad
100
AcDbVertex
100
AcDb2dVertex
 10
3.554595692952473
 20
0.940112728542752
 30
0.0
  0
VERTEX
  5
E6F4
330
E6EE
100
AcDbEntity
  8
Pel_Clad
100
AcDbVertex
100
AcDb2dVertex
 10
3.55009553697374
 20
0.8994390699598525
 30
0.0
  0
VERTEX
  5
E6F5
330
E6EE
100
AcDbEntity
  8
Pel_Clad
100
AcDbVertex
100
AcDb2dVertex
 10
3.550052473280164
 20
0.8768306308322484
 30
0.0
  0
SEQEND
  5
E6F6
330
E6EE
100
AcDbEntity
  8
Pel_Clad
  0
ELLIPSE
  5
E6F7
330
E6A9
100
AcDbEntity
  8
Pel_Clad
370
     0
100
AcDbEllipse
 10
3.26878195868598
 20
0.7042797936333552
 30
0.0
 11
0.0829837375217014
 21
-0.1106467776828342
 31
0.0
210
0.0
220
0.0
230
1.0
 40
0.558746150353596
 41
0.0
 42
6.283185307179586
  0
ELLIPSE
  5
E6F8
330
E6A9
100
AcDbEntity
  8
Pel_Clad
370
     0
100
AcDbEllipse
 10
2.525567203097872
 20
0.9800812191433379
 30
0.0
 11
0.0829837375217014
 21
-0.1106467776828342
 31
0.0
210
0.0
220
0.0
230
1.0
 40
0.558746150353596
 41
0.0
 42
6.283185307179586
  0
ELLIPSE
  5
E6F9
330
E6A9
100
AcDbEntity
  8
Pel_Clad
370
     0
100
AcDbEllipse
 10
1.769374126858181
 20
1.568794208102756
 30
0.0
 11
0.0862511952718099
 21
-0.1149962107340495
 31
0.0
210
0.0
220
0.0
230
1.0
 40
0.5784483350360508
 41
0.0
 42
6.283185307179586
  0
ELLIPSE
  5
E6FA
330
E6A9
100
AcDbEntity
  8
Pel_Clad
370
     0
100
AcDbEllipse
 10
1.016098615858289
 20
1.843282190958658
 30
0.0
 11
0.0717333475748698
 21
-0.1182475195990668
 31
0.0
210
0.0
220
0.0
230
1.0
 40
0.5587701181902264
 41
0.0
 42
6.283185307179586
  0
ELLIPSE
  5
E6FB
330
E6A9
100
AcDbEntity
  8
Pel_Clad
370
     0
100
AcDbEllipse
 10
0.2691373189290362
 20
2.441210810343424
 30
0.0
 11
0.0717333475748698
 21
-0.1182475195990668
 31
0.0
210
0.0
220
0.0
230
1.0
 40
0.5587701181902264
 41
0.0
 42
6.283185307179586
  0
ELLIPSE
  5
E6FC
330
E6A9
100
AcDbEntity
  8
Pel_Clad
370
     0
100
AcDbEllipse
 10
1.269986004299587
 20
2.842785135904947
 30
0.0
 11
0.0790918562147352
 21
0.0
 31
0.0
210
0.0
220
0.0
230
1.0
 40
0.5714285754816693
 41
0.0
 42
6.283185307179586
  0
ELLIPSE
  5
E6FD
330
E6A9
100
AcDbEntity
  8
Pel_Clad
370
     0
100
AcDbEllipse
 10
2.078689871893988
 20
3.314903174506293
 30
0.0
 11
0.0790918562147352
 21
0.0
 31
0.0
210
0.0
220
0.0
230
1.0
 40
0.5714285754816693
 41
0.0
 42
6.283185307179586
  0
ELLIPSE
  5
E6FE
330
E6A9
100
AcDbEntity
  8
Pel_Clad
370
     0
100
AcDbEllipse
 10
2.479532114664713
 20
2.126851230197482
 30
0.0
 11
0.0790864732530382
 21
0.0
 31
0.0
210
0.0
220
0.0
230
1.0
 40
0.5714674652872312
 41
0.0
 42
6.283185307179586
  0
ELLIPSE
  5
E6FF
330
E6A9
100
AcDbEntity
  8
Pel_Clad
370
     0
100
AcDbEllipse
 10
3.306634945339625
 20
2.601413133409288
 30
0.0
 11
0.0790864732530382
 21
0.0
 31
0.0
210
0.0
220
0.0
230
1.0
 40
0.5714674652872312
 41
0.0
 42
6.283185307179586
  0
ELLIPSE
  5
E700
330
E6A9
100
AcDbEntity
  8
Pel_Clad
370
     0
100
AcDbEllipse
 10
3.988462405734591
 20
2.205550130208333
 30
0.0
 11
0.0790864732530382
 21
0.0
 31
0.0
210
0.0
220
0.0
230
1.0
 40
0.5714674652872312
 41
0.0
 42
6.283185307179586
  0
ELLIPSE
  5
E701
330
E6A9
100
AcDbEntity
  8
Pel_Clad
370
     0
100
AcDbEllipse
 10
3.168120574951171
 20
1.735499148898654
 30
0.0
 11
0.0790864732530382
 21
0.0
 31
0.0
210
0.0
220
0.0
230
1.0
 40
0.5714674652872312
 41
0.0
 42
6.283185307179586
  0
ELLIPSE
  5
E702
330
E6A9
100
AcDbEntity
  8
Pel_Clad
370
     0
100
AcDbEllipse
 10
1.269986004299587
 20
2.804366937952545
 30
0.0
 11
0.0790918562147352
 21
0.0
 31
0.0
210
0.0
220
0.0
230
1.0
 40
0.5714285754816693
 41
0.4389882021352356
 42
2.702604451452117
  0
ELLIPSE
  5
E703
330
E6A9
100
AcDbEntity
  8
Pel_Clad
370
     0
100
AcDbEllipse
 10
2.078689871893987
 20
3.27648497655389
 30
0.0
 11
0.0790918562147352
 21
0.0
 31
0.0
210
0.0
220
0.0
230
1.0
 40
0.5714285754816693
 41
0.4389882021352356
 42
2.702604451452117
  0
ELLIPSE
  5
E704
330
E6A9
100
AcDbEntity
  8
Pel_Clad
370
     0
100
AcDbEllipse
 10
3.306634945339625
 20
2.562994935136318
 30
0.0
 11
0.0790918562147352
 21
0.0
 31
0.0
210
0.0
220
0.0
230
1.0
 40
0.5714285754816693
 41
0.4389882021352356
 42
2.702604451452117
  0
ELLIPSE
  5
E705
330
E6A9
100
AcDbEntity
  8
Pel_Clad
370
     0
100
AcDbEllipse
 10
2.479532114664713
 20
2.088433031924513
 30
0.0
 11
0.0790918562147352
 21
0.0
 31
0.0
210
0.0
220
0.0
230
1.0
 40
0.5714285754816693
 41
0.4389882021352356
 42
2.702604451452117
  0
ELLIPSE
  5
E706
330
E6A9
100
AcDbEntity
  8
Pel_Clad
370
     0
100
AcDbEllipse
 10
3.988462405734591
 20
2.167131931935364
 30
0.0
 11
0.0790918562147352
 21
0.0
 31
0.0
210
0.0
220
0.0
230
1.0
 40
0.5714285754816693
 41
0.4389882021352356
 42
2.702604451452117
  0
ELLIPSE
  5
E707
330
E6A9
100
AcDbEntity
  8
Pel_Clad
370
     0
100
AcDbEllipse
 10
3.168120574951171
 20
1.697080950625685
 30
0.0
 11
0.0790918562147352
 21
0.0
 31
0.0
210
0.0
220
0.0
230
1.0
 40
0.5714285754816693
 41
0.4389882021352356
 42
2.702604451452117
  0
ELLIPSE
  5
E708
330
E6A9
100
AcDbEntity
  8
Pel_Clad
370
     0
100
AcDbEllipse
 10
1.816912385449078
 20
1.593657251104263
 30
0.0
 11
0.0794348863394985
 21
-0.1106163479351512
 31
0.0
210
0.0
220
0.0
230
0.9999999999999998
 40
0.5506885878432702
 41
3.340387712927947
 42
5.948669239038364
  0
ELLIPSE
  5
E709
330
E6A9
100
AcDbEntity
  8
Pel_Clad
370
     0
100
AcDbEllipse
 10
1.063190688316693
 20
1.858335824762909
 30
0.0
 11
0.0794348863394985
 21
-0.1106163479351512
 31
0.0
210
0.0
220
0.0
230
1.0
 40
0.5506885878432702
 41
3.183693540541892
 42
5.776612865049262
  0
ELLIPSE
  5
E70A
330
E6A9
100
AcDbEntity
  8
Pel_Clad
370
     0
100
AcDbEllipse
 10
0.3162293913874396
 20
2.456264444147675
 30
0.0
 11
0.0794348863394985
 21
-0.1106163479351512
 31
0.0
210
0.0
220
0.0
230
0.9999999999999998
 40
0.5506885878432702
 41
3.183693540541892
 42
5.776612865049271
  0
ELLIPSE
  5
E70B
330
E6A9
100
AcDbEntity
  8
Pel_Clad
370
     0
100
AcDbEllipse
 10
2.568409556133518
 20
1.001419245727201
 30
0.0
 11
0.0794348863394985
 21
-0.1106163479351512
 31
0.0
210
0.0
220
0.0
230
1.0
 40
0.5506885878432702
 41
3.360628873728445
 42
5.910284359755123
  0
ELLIPSE
  5
E70C
330
E6A9
100
AcDbEntity
  8
Pel_Clad
370
     0
100
AcDbEllipse
 10
3.311624311721625
 20
0.7256178202172192
 30
0.0
 11
0.0794348863394985
 21
-0.1106163479351512
 31
0.0
210
0.0
220
0.0
230
0.9999999999999998
 40
0.5506885878432702
 41
3.360628873728444
 42
5.910284359755128
  0
ENDBLK
  5
E70F
330
E6A9
100
AcDbEntity
  8
0
100
AcDbBlockEnd
  0
BLOCK
  5
E7B4
330
E764
100
AcDbEntity
  8
0
100
AcDbBlockBegin
  2
512A
 70
     0
 10
0.0
 20
0.0
 30
0.0
  3
512A
  1

  0
ELLIPSE
  5
E765
330
E764
100
AcDbEntity
  8
Pel_Clad
100
AcDbEllipse
 10
3.329068438212075
 20
4.460604667663574
 30
0.0
 11
-0.0275499979654948
 21
-0.1102565129597982
 31
0.0
210
0.0
220
0.0
230
1.0
 40
0.419199748811378
 41
0.0
 42
6.283185307179586
  0
ELLIPSE
  5
E766
330
E764
100
AcDbEntity
  8
Pel_Clad
370
     0
100
AcDbEllipse
 10
3.305725224812825
 20
4.470189030965169
 30
0.0
 11
-0.027002116586986
 21
-0.1024743594537054
 31
0.0
210
0.0
220
0.0
230
1.0
 40
0.32121506764324
 41
0.140149299231117
 42
2.919717422453274
  0
ELLIPSE
  5
E767
330
E764
100
AcDbEntity
  8
Pel_Clad
100
AcDbEllipse
 10
2.586001714070636
 20
4.027475420633951
 30
0.0
 11
-0.0275499979654948
 21
-0.1102565129597982
 31
0.0
210
0.0
220
0.0
230
1.0
 40
0.419199748811378
 41
0.0
 42
6.283185307179586
  0
ELLIPSE
  5
E768
330
E764
100
AcDbEntity
  8
Pel_Clad
100
AcDbEllipse
 10
1.847892697652181
 20
3.111155382792155
 30
0.0
 11
-0.0275499979654948
 21
-0.1102565129597982
 31
0.0
210
0.0
220
0.0
230
1.0
 40
0.419199748811378
 41
0.0
 42
6.283185307179586
  0
ELLIPSE
  5
E769
330
E764
100
AcDbEntity
  8
Pel_Clad
100
AcDbEllipse
 10
4.847725741068522
 20
2.731729253133138
 30
0.0
 11
0.1974039713541666
 21
0.0
 31
0.0
210
0.0
220
0.0
230
1.0
 40
0.5486747382198953
 41
0.0
 42
6.283185307179586
  0
ELLIPSE
  5
E76A
330
E764
100
AcDbEntity
  8
Pel_Clad
100
AcDbEllipse
 10
3.640645027160644
 20
1.639055315653482
 30
0.0
 11
0.1974039713541666
 21
0.0
 31
0.0
210
0.0
220
0.0
230
1.0
 40
0.5486747382198953
 41
0.0
 42
6.283185307179586
  0
ELLIPSE
  5
E76B
330
E764
100
AcDbEntity
  8
Pel_Clad
100
AcDbEllipse
 10
3.448570187886556
 20
3.156396484374997
 30
0.0
 11
0.1974039713541666
 21
0.0
 31
0.0
210
0.0
220
0.0
230
1.0
 40
0.5486747382198953
 41
0.0
 42
6.283185307179586
  0
ELLIPSE
  5
E76C
330
E764
100
AcDbEntity
  8
Pel_Clad
100
AcDbEllipse
 10
2.776695823669435
 20
2.55137850443522
 30
0.0
 11
0.1974039713541666
 21
0.0
 31
0.0
210
0.0
220
0.0
230
1.0
 40
0.5486747382198953
 41
0.0
 42
6.283185307179586
  0
ELLIPSE
  5
E76D
330
E764
100
AcDbEntity
  8
Pel_Clad
100
AcDbEllipse
 10
2.96098690032959
 20
1.02505048116048
 30
0.0
 11
0.1974039713541666
 21
0.0
 31
0.0
210
0.0
220
0.0
230
1.0
 40
0.5486747382198953
 41
0.0
 42
6.283185307179586
  0
ELLIPSE
  5
E76E
330
E764
100
AcDbEntity
  8
Pel_Clad
370
     0
100
AcDbEllipse
 10
2.995208031999521
 20
0.916739908854165
 30
0.0
 11
0.2603117017715317
 21
0.0
 31
0.0
210
0.0
220
0.0
230
1.0
 40
0.4999722382576858
 41
0.8951541233357598
 42
2.57097461202373
  0
ELLIPSE
  5
E76F
330
E764
100
AcDbEntity
  8
Pel_Clad
100
AcDbEllipse
 10
2.234949175516764
 20
2.059984079996745
 30
0.0
 11
0.1974039713541666
 21
0.0
 31
0.0
210
0.0
220
0.0
230
1.0
 40
0.5486747382198953
 41
0.0
 42
6.283185307179586
  0
ELLIPSE
  5
E770
330
E764
100
AcDbEntity
  8
Pel_Clad
100
AcDbEllipse
 10
1.559158706665037
 20
1.453706487019857
 30
0.0
 11
0.1974039713541666
 21
0.0
 31
0.0
210
0.0
220
0.0
230
1.0
 40
0.5486747382198953
 41
0.0
 42
6.283185307179586
  0
LINE
  5
E771
330
E764
100
AcDbEntity
  8
Pel_Clad
100
AcDbLine
 10
0.2007710138956718
 20
0.9002841949462911
 30
0.0
 11
3.691481717427571
 21
4.062744585673012
 31
0.0
  0
LINE
  5
E772
330
E764
100
AcDbEntity
  8
Pel_Clad
100
AcDbLine
 10
3.60326035817464
 20
4.18276309967041
 30
0.0
 11
0.1090049743652344
 21
1.030880228678384
 31
0.0
  0
POLYLINE
  5
E773
330
E764
100
AcDbEntity
  8
Pel_Clad
100
AcDb2dPolyline
 66
     1
 10
0.0
 20
0.0
 30
0.0
  0
VERTEX
  5
EBD4
330
E773
100
AcDbEntity
  8
Pel_Clad
100
AcDbVertex
100
AcDb2dVertex
 10
3.60326035817464
 20
5.538090578715006
 30
0.0
  0
VERTEX
  5
EBD5
330
E773
100
AcDbEntity
  8
Pel_Clad
100
AcDbVertex
100
AcDb2dVertex
 10
3.60326035817464
 20
4.18276309967041
 30
0.0
  0
VERTEX
  5
EBD6
330
E773
100
AcDbEntity
  8
Pel_Clad
100
AcDbVertex
100
AcDb2dVertex
 10
3.60326035817464
 20
4.158055305480957
 30
0.0
  0
VERTEX
  5
EBD7
330
E773
100
AcDbEntity
  8
Pel_Clad
100
AcDbVertex
100
AcDb2dVertex
 10
3.612497520446776
 20
4.136520767211912
 30
0.0
  0
VERTEX
  5
EBD8
330
E773
100
AcDbEntity
  8
Pel_Clad
100
AcDbVertex
100
AcDb2dVertex
 10
3.623801740010577
 20
4.119540214538574
 30
0.0
  0
VERTEX
  5
EBD9
330
E773
100
AcDbEntity
  8
Pel_Clad
100
AcDbVertex
100
AcDb2dVertex
 10
3.638674863179524
 20
4.098562812805173
 30
0.0
  0
VERTEX
  5
EBDA
330
E773
100
AcDbEntity
  8
Pel_Clad
100
AcDbVertex
100
AcDb2dVertex
 10
3.659716860453286
 20
4.080403391520182
 30
0.0
  0
VERTEX
  5
EBDB
330
E773
100
AcDbEntity
  8
Pel_Clad
100
AcDbVertex
100
AcDb2dVertex
 10
3.687961260477699
 20
4.069817797342935
 30
0.0
  0
VERTEX
  5
EBDC
330
E773
100
AcDbEntity
  8
Pel_Clad
100
AcDbVertex
100
AcDb2dVertex
 10
3.698554929097493
 20
4.06275266011556
 30
0.0
  0
VERTEX
  5
EBDD
330
E773
100
AcDbEntity
  8
Pel_Clad
100
AcDbVertex
100
AcDb2dVertex
 10
3.76560509999593
 20
4.048638534545897
 30
0.0
  0
VERTEX
  5
EBDE
330
E773
100
AcDbEntity
  8
Pel_Clad
100
AcDbVertex
100
AcDb2dVertex
 10
6.306729062398275
 20
3.279192606608074
 30
0.0
  0
VERTEX
  5
EBDF
330
E773
100
AcDbEntity
  8
Pel_Clad
100
AcDbVertex
100
AcDb2dVertex
 10
6.306729062398275
 20
3.166255378723146
 30
0.0
  0
VERTEX
  5
EBE0
330
E773
100
AcDbEntity
  8
Pel_Clad
100
AcDbVertex
100
AcDb2dVertex
 10
2.795153999328611
 20
0.0
 30
0.0
  0
VERTEX
  5
EBE1
330
E773
100
AcDbEntity
  8
Pel_Clad
100
AcDbVertex
100
AcDb2dVertex
 10
2.795153999328611
 20
0.1029814402262374
 30
0.0
  0
VERTEX
  5
EBE2
330
E773
100
AcDbEntity
  8
Pel_Clad
100
AcDbVertex
100
AcDb2dVertex
 10
6.296199989318846
 20
3.25448481241862
 30
0.0
  0
SEQEND
  5
EBE3
330
E773
100
AcDbEntity
  8
Pel_Clad
  0
POLYLINE
  5
E784
330
E764
100
AcDbEntity
  8
Pel_Clad
100
AcDb2dPolyline
 66
     1
 10
0.0
 20
0.0
 30
0.0
  0
VERTEX
  5
EBE5
330
E784
100
AcDbEntity
  8
Pel_Clad
100
AcDbVertex
100
AcDb2dVertex
 10
0.0037869135538742
 20
2.41508191426595
 30
0.0
  0
VERTEX
  5
EBE6
330
E784
100
AcDbEntity
  8
Pel_Clad
100
AcDbVertex
100
AcDb2dVertex
 10
0.0
 20
1.00037498474121
 30
0.0
  0
VERTEX
  5
EBE7
330
E784
100
AcDbEntity
  8
Pel_Clad
100
AcDbVertex
100
AcDb2dVertex
 10
0.011029688517251
 20
0.9599220275878899
 30
0.0
  0
VERTEX
  5
EBE8
330
E784
100
AcDbEntity
  8
Pel_Clad
100
AcDbVertex
100
AcDb2dVertex
 10
0.0228748957316078
 20
0.9332763671874992
 30
0.0
  0
VERTEX
  5
EBE9
330
E784
100
AcDbEntity
  8
Pel_Clad
100
AcDbVertex
100
AcDb2dVertex
 10
0.0367710113525384
 20
0.9010754903157547
 30
0.0
  0
VERTEX
  5
EBEA
330
E784
100
AcDbEntity
  8
Pel_Clad
100
AcDbVertex
100
AcDb2dVertex
 10
0.0588384628295913
 20
0.8679864247639983
 30
0.0
  0
VERTEX
  5
EBEB
330
E784
100
AcDbEntity
  8
Pel_Clad
100
AcDbVertex
100
AcDb2dVertex
 10
0.0876157760620125
 20
0.8461531321207687
 30
0.0
  0
VERTEX
  5
EBEC
330
E784
100
AcDbEntity
  8
Pel_Clad
100
AcDbVertex
100
AcDb2dVertex
 10
0.1176850001017264
 20
0.823851521809896
 30
0.0
  0
VERTEX
  5
EBED
330
E784
100
AcDbEntity
  8
Pel_Clad
100
AcDbVertex
100
AcDb2dVertex
 10
0.1618199030558252
 20
0.7981101989746087
 30
0.0
  0
VERTEX
  5
EBEE
330
E784
100
AcDbEntity
  8
Pel_Clad
100
AcDbVertex
100
AcDb2dVertex
 10
2.795153999328611
 20
0.0
 30
0.0
  0
VERTEX
  5
EBEF
330
E784
100
AcDbEntity
  8
Pel_Clad
100
AcDbVertex
100
AcDb2dVertex
 10
2.795153999328611
 20
0.1029814402262374
 30
0.0
  0
VERTEX
  5
EBF0
330
E784
100
AcDbEntity
  8
Pel_Clad
100
AcDbVertex
100
AcDb2dVertex
 10
0.1986232121785463
 20
0.8863477071126304
 30
0.0
  0
VERTEX
  5
EBF1
330
E784
100
AcDbEntity
  8
Pel_Clad
100
AcDbVertex
100
AcDb2dVertex
 10
0.1544883092244476
 20
0.9121051788330092
 30
0.0
  0
VERTEX
  5
EBF2
330
E784
100
AcDbEntity
  8
Pel_Clad
100
AcDbVertex
100
AcDb2dVertex
 10
0.1287389119466127
 20
0.9341645558675146
 30
0.0
  0
VERTEX
  5
EBF3
330
E784
100
AcDbEntity
  8
Pel_Clad
100
AcDbVertex
100
AcDb2dVertex
 10
0.1066714604695633
 20
0.9562400817871079
 30
0.0
  0
VERTEX
  5
EBF4
330
E784
100
AcDbEntity
  8
Pel_Clad
100
AcDbVertex
100
AcDb2dVertex
 10
0.0988069534301772
 20
0.986034774780272
 30
0.0
  0
VERTEX
  5
EBF5
330
E784
100
AcDbEntity
  8
Pel_Clad
100
AcDbVertex
100
AcDb2dVertex
 10
0.0993237177530908
 20
1.018752415974933
 30
0.0
  0
VERTEX
  5
EBF6
330
E784
100
AcDbEntity
  8
Pel_Clad
100
AcDbVertex
100
AcDb2dVertex
 10
0.0919679005940744
 20
2.379562441507975
 30
0.0
  0
VERTEX
  5
EBF7
330
E784
100
AcDbEntity
  8
Pel_Clad
100
AcDbVertex
100
AcDb2dVertex
 10
0.0037869135538742
 20
2.41508191426595
 30
0.0
  0
SEQEND
  5
EBF8
330
E784
100
AcDbEntity
  8
Pel_Clad
  0
POLYLINE
  5
E799
330
E764
100
AcDbEntity
  8
Pel_Clad
100
AcDb2dPolyline
 66
     1
 10
0.0
 20
0.0
 30
0.0
  0
VERTEX
  5
EBFA
330
E799
100
AcDbEntity
  8
Pel_Clad
100
AcDbVertex
100
AcDb2dVertex
 10
3.60326035817464
 20
5.538090578715006
 30
0.0
  0
VERTEX
  5
EBFB
330
E799
100
AcDbEntity
  8
Pel_Clad
100
AcDbVertex
100
AcDb2dVertex
 10
3.591148694356281
 20
5.555095354715984
 30
0.0
  0
VERTEX
  5
EBFC
330
E799
100
AcDbEntity
  8
Pel_Clad
100
AcDbVertex
100
AcDb2dVertex
 10
3.507868893941243
 20
5.58094164530436
 30
0.0
  0
VERTEX
  5
EBFD
330
E799
100
AcDbEntity
  8
Pel_Clad
100
AcDbVertex
100
AcDb2dVertex
 10
3.499245389302572
 20
5.58094164530436
 30
0.0
  0
VERTEX
  5
EBFE
330
E799
100
AcDbEntity
  8
Pel_Clad
100
AcDbVertex
100
AcDb2dVertex
 10
3.499245389302572
 20
5.58094164530436
 30
0.0
  0
VERTEX
  5
EBFF
330
E799
100
AcDbEntity
  8
Pel_Clad
100
AcDbVertex
100
AcDb2dVertex
 10
0.0099880854288728
 20
2.427484258015951
 30
0.0
  0
VERTEX
  5
EC00
330
E799
100
AcDbEntity
  8
Pel_Clad
100
AcDbVertex
100
AcDb2dVertex
 10
0.0037869135538742
 20
2.41508191426595
 30
0.0
  0
VERTEX
  5
EC01
330
E799
100
AcDbEntity
  8
Pel_Clad
100
AcDbVertex
100
AcDb2dVertex
 10
0.0919679005940744
 20
2.379562441507975
 30
0.0
  0
VERTEX
  5
EC02
330
E799
100
AcDbEntity
  8
Pel_Clad
100
AcDbVertex
100
AcDb2dVertex
 10
0.0926703770955406
 20
2.390277226765949
 30
0.0
  0
VERTEX
  5
EC03
330
E799
100
AcDbEntity
  8
Pel_Clad
100
AcDbVertex
100
AcDb2dVertex
 10
3.60326035817464
 20
5.538090578715006
 30
0.0
  0
SEQEND
  5
EC04
330
E799
100
AcDbEntity
  8
Pel_Clad
  0
ELLIPSE
  5
E7A5
330
E764
100
AcDbEntity
  8
Pel_Clad
370
     0
100
AcDbEllipse
 10
4.174511019388834
 20
2.129190127054851
 30
0.0
 11
0.1974039713541666
 21
0.0
 31
0.0
210
0.0
220
0.0
230
1.0
 40
0.5486747382198953
 41
0.0
 42
6.283185307179586
  0
ELLIPSE
  5
E7A6
330
E764
100
AcDbEntity
  8
Pel_Clad
370
     0
100
AcDbEllipse
 10
3.674866158830575
 20
1.530744743347167
 30
0.0
 11
0.2603117017715317
 21
0.0
 31
0.0
210
0.0
220
0.0
230
1.0
 40
0.4999722382576858
 41
0.8951541233357598
 42
2.57097461202373
  0
ELLIPSE
  5
E7A7
330
E764
100
AcDbEntity
  8
Pel_Clad
370
     0
100
AcDbEllipse
 10
4.208732151058764
 20
2.020879554748535
 30
0.0
 11
0.2603117017715317
 21
0.0
 31
0.0
210
0.0
220
0.0
230
1.0
 40
0.4999722382576858
 41
0.8951541233357598
 42
2.57097461202373
  0
ELLIPSE
  5
E7A8
330
E764
100
AcDbEntity
  8
Pel_Clad
370
     0
100
AcDbEllipse
 10
4.881946872738453
 20
2.623418680826823
 30
0.0
 11
0.2603117017715317
 21
0.0
 31
0.0
210
0.0
220
0.0
230
1.0
 40
0.4999722382576858
 41
0.8951541233357598
 42
2.57097461202373
  0
ELLIPSE
  5
E7A9
330
E764
100
AcDbEntity
  8
Pel_Clad
370
     0
100
AcDbEllipse
 10
3.482791319556486
 20
3.048085912068685
 30
0.0
 11
0.2603117017715317
 21
0.0
 31
0.0
210
0.0
220
0.0
230
1.0
 40
0.4999722382576858
 41
0.8951541233357598
 42
2.57097461202373
  0
ELLIPSE
  5
E7AA
330
E764
100
AcDbEntity
  8
Pel_Clad
370
     0
100
AcDbEllipse
 10
2.810916955339365
 20
2.443067932128904
 30
0.0
 11
0.2603117017715317
 21
0.0
 31
0.0
210
0.0
220
0.0
230
1.0
 40
0.4999722382576858
 41
0.8951541233357598
 42
2.57097461202373
  0
ELLIPSE
  5
E7AB
330
E764
100
AcDbEntity
  8
Pel_Clad
370
     0
100
AcDbEllipse
 10
2.269170307186694
 20
1.951673507690429
 30
0.0
 11
0.2603117017715317
 21
0.0
 31
0.0
210
0.0
220
0.0
230
1.0
 40
0.4999722382576858
 41
0.8951541233357598
 42
2.57097461202373
  0
ELLIPSE
  5
E7AC
330
E764
100
AcDbEntity
  8
Pel_Clad
370
     0
100
AcDbEllipse
 10
1.593379838334971
 20
1.345395914713542
 30
0.0
 11
0.2603117017715317
 21
0.0
 31
0.0
210
0.0
220
0.0
230
1.0
 40
0.4999722382576858
 41
0.8951541233357598
 42
2.57097461202373
  0
ELLIPSE
  5
E7AD
330
E764
100
AcDbEntity
  8
Pel_Clad
370
     0
100
AcDbEllipse
 10
2.562658500671386
 20
4.037059783935546
 30
0.0
 11
-0.027002116586986
 21
-0.1024743594537054
 31
0.0
210
0.0
220
0.0
230
1.0
 40
0.32121506764324
 41
0.140149299231117
 42
2.919717422453274
  0
ELLIPSE
  5
E7AE
330
E764
100
AcDbEntity
  8
Pel_Clad
370
     0
100
AcDbEllipse
 10
1.82454948425293
 20
3.12073974609375
 30
0.0
 11
-0.027002116586986
 21
-0.1024743594537054
 31
0.0
210
0.0
220
0.0
230
1.0
 40
0.32121506764324
 41
0.140149299231117
 42
2.919717422453274
  0
ELLIPSE
  5
E7AF
330
E764
100
AcDbEntity
  8
Pel_Clad
370
     0
100
AcDbEllipse
 10
1.104059667925579
 20
2.68970484528641
 30
0.0
 11
-0.0275499979654948
 21
-0.1102565129597982
 31
0.0
210
0.0
220
0.0
230
1.0
 40
0.419199748811378
 41
0.0
 42
6.283185307179586
  0
ELLIPSE
  5
E7B0
330
E764
100
AcDbEntity
  8
Pel_Clad
370
     0
100
AcDbEllipse
 10
1.080716454526328
 20
2.699289208588002
 30
0.0
 11
-0.027002116586986
 21
-0.1024743594537054
 31
0.0
210
0.0
220
0.0
230
1.0
 40
0.32121506764324
 41
0.140149299231117
 42
2.919717422453274
  0
ELLIPSE
  5
E7B1
330
E764
100
AcDbEntity
  8
Pel_Clad
370
     0
100
AcDbEllipse
 10
0.3644162743420125
 20
1.772859037880923
 30
0.0
 11
-0.0275499979654948
 21
-0.1102565129597982
 31
0.0
210
0.0
220
0.0
230
1.0
 40
0.419199748811378
 41
0.0
 42
6.283185307179586
  0
ELLIPSE
  5
E7B2
330
E764
100
AcDbEntity
  8
Pel_Clad
370
     0
100
AcDbEllipse
 10
0.3410730609427617
 20
1.782443401182518
 30
0.0
 11
-0.027002116586986
 21
-0.1024743594537054
 31
0.0
210
0.0
220
0.0
230
1.0
 40
0.32121506764324
 41
0.140149299231117
 42
2.919717422453274
  0
ENDBLK
  5
E7B5
330
E764
100
AcDbEntity
  8
0
100
AcDbBlockEnd
  0
BLOCK
  5
E7FA
330
E7B9
100
AcDbEntity
  8
0
100
AcDbBlockBegin
  2
512B
 70
     0
 10
0.0
 20
0.0
 30
0.0
  3
512B
  1

  0
ELLIPSE
  5
E7BC
330
E7B9
100
AcDbEntity
  8
Pel_Clad
370
     0
100
AcDbEllipse
 10
1.664670138888888
 20
0.7000434027777765
 30
0.0
 11
0.2993721610240251
 21
0.0
 31
0.0
210
0.0
220
0.0
230
1.0
 40
0.5414240285047676
 41
0.3221242397395834
 42
2.819468413838425
  0
POLYLINE
  5
E7C0
330
E7B9
100
AcDbEntity
  8
Pel_Clad
100
AcDb2dPolyline
 66
     1
 10
0.0
 20
0.0
 30
0.0
  0
VERTEX
  5
ECED
330
E7C0
100
AcDbEntity
  8
Pel_Clad
100
AcDbVertex
100
AcDb2dVertex
 10
2.243446180555555
 20
0.1267795138888879
 30
0.0
  0
VERTEX
  5
ECEE
330
E7C0
100
AcDbEntity
  8
Pel_Clad
100
AcDbVertex
100
AcDb2dVertex
 10
4.530989583333332
 20
2.193836805555555
 30
0.0
  0
VERTEX
  5
ECEF
330
E7C0
100
AcDbEntity
  8
Pel_Clad
100
AcDbVertex
100
AcDb2dVertex
 10
4.53650173611111
 20
2.078081597222222
 30
0.0
  0
VERTEX
  5
ECF0
330
E7C0
100
AcDbEntity
  8
Pel_Clad
100
AcDbVertex
100
AcDb2dVertex
 10
2.243446180555555
 20
0.0
 30
0.0
  0
SEQEND
  5
ECF1
330
E7C0
100
AcDbEntity
  8
Pel_Clad
  0
LINE
  5
E7C6
330
E7B9
100
AcDbEntity
  8
Pel_Clad
100
AcDbLine
 10
4.525477430555555
 20
2.210373263888889
 30
0.0
 11
2.546614583333332
 21
2.805685763888888
 31
0.0
  0
POLYLINE
  5
E7C7
330
E7B9
100
AcDbEntity
  8
Pel_Clad
100
AcDb2dPolyline
 66
     1
 10
0.0
 20
0.0
 30
0.0
  0
VERTEX
  5
ECF4
330
E7C7
100
AcDbEntity
  8
Pel_Clad
100
AcDbVertex
100
AcDb2dVertex
 10
3.092317708333332
 20
4.806597222222222
 30
0.0
  0
VERTEX
  5
ECF5
330
E7C7
100
AcDbEntity
  8
Pel_Clad
100
AcDbVertex
100
AcDb2dVertex
 10
3.274218749999999
 20
4.514453124999999
 30
0.0
  0
VERTEX
  5
ECF6
330
E7C7
100
AcDbEntity
  8
Pel_Clad
100
AcDbVertex
100
AcDb2dVertex
 10
3.213585069444444
 20
3.720703125
 30
0.0
  0
VERTEX
  5
ECF7
330
E7C7
100
AcDbEntity
  8
Pel_Clad
100
AcDbVertex
100
AcDb2dVertex
 10
3.19704861111111
 20
3.698654513888889
 30
0.0
  0
VERTEX
  5
ECF8
330
E7C7
100
AcDbEntity
  8
Pel_Clad
100
AcDbVertex
100
AcDb2dVertex
 10
2.408810763888888
 20
2.993098958333334
 30
0.0
  0
VERTEX
  5
ECF9
330
E7C7
100
AcDbEntity
  8
Pel_Clad
100
AcDbVertex
100
AcDb2dVertex
 10
0.1267795138888887
 20
0.9370659722222214
 30
0.0
  0
VERTEX
  5
ECFA
330
E7C7
100
AcDbEntity
  8
Pel_Clad
100
AcDbVertex
100
AcDb2dVertex
 10
0.176388888888888
 20
1.719791666666665
 30
0.0
  0
VERTEX
  5
ECFB
330
E7C7
100
AcDbEntity
  8
Pel_Clad
100
AcDbVertex
100
AcDb2dVertex
 10
0.4078993055555556
 20
2.370225694444442
 30
0.0
  0
SEQEND
  5
ECFC
330
E7C7
100
AcDbEntity
  8
Pel_Clad
  0
POLYLINE
  5
E7D1
330
E7B9
100
AcDbEntity
  8
Pel_Clad
100
AcDb2dPolyline
 66
     1
 10
0.0
 20
0.0
 30
0.0
  0
VERTEX
  5
ECFE
330
E7D1
100
AcDbEntity
  8
Pel_Clad
100
AcDbVertex
100
AcDb2dVertex
 10
0.2921440972222218
 20
2.408810763888887
 30
0.0
  0
VERTEX
  5
ECFF
330
E7D1
100
AcDbEntity
  8
Pel_Clad
100
AcDbVertex
100
AcDb2dVertex
 10
0.0496093749999993
 20
1.763888888888889
 30
0.0
  0
VERTEX
  5
ED00
330
E7D1
100
AcDbEntity
  8
Pel_Clad
100
AcDbVertex
100
AcDb2dVertex
 10
0.0
 20
0.9591145833333332
 30
0.0
  0
VERTEX
  5
ED01
330
E7D1
100
AcDbEntity
  8
Pel_Clad
100
AcDbVertex
100
AcDb2dVertex
 10
0.0
 20
0.9039930555555564
 30
0.0
  0
VERTEX
  5
ED02
330
E7D1
100
AcDbEntity
  8
Pel_Clad
100
AcDbVertex
100
AcDb2dVertex
 10
0.0165364583333325
 20
0.8543836805555553
 30
0.0
  0
VERTEX
  5
ED03
330
E7D1
100
AcDbEntity
  8
Pel_Clad
100
AcDbVertex
100
AcDb2dVertex
 10
0.0275607638888884
 20
0.815798611111111
 30
0.0
  0
VERTEX
  5
ED04
330
E7D1
100
AcDbEntity
  8
Pel_Clad
100
AcDbVertex
100
AcDb2dVertex
 10
0.0661458333333327
 20
0.733116319444445
 30
0.0
  0
VERTEX
  5
ED05
330
E7D1
100
AcDbEntity
  8
Pel_Clad
100
AcDbVertex
100
AcDb2dVertex
 10
0.0992187499999995
 20
0.6890190972222215
 30
0.0
  0
VERTEX
  5
ED06
330
E7D1
100
AcDbEntity
  8
Pel_Clad
100
AcDbVertex
100
AcDb2dVertex
 10
0.1598524305555555
 20
0.6449218749999997
 30
0.0
  0
VERTEX
  5
ED07
330
E7D1
100
AcDbEntity
  8
Pel_Clad
100
AcDbVertex
100
AcDb2dVertex
 10
0.259071180555555
 20
0.6008246527777779
 30
0.0
  0
VERTEX
  5
ED08
330
E7D1
100
AcDbEntity
  8
Pel_Clad
100
AcDbVertex
100
AcDb2dVertex
 10
2.243446180555555
 20
0.0
 30
0.0
  0
VERTEX
  5
ED09
330
E7D1
100
AcDbEntity
  8
Pel_Clad
100
AcDbVertex
100
AcDb2dVertex
 10
2.243446180555555
 20
0.1267795138888879
 30
0.0
  0
VERTEX
  5
ED0A
330
E7D1
100
AcDbEntity
  8
Pel_Clad
100
AcDbVertex
100
AcDb2dVertex
 10
0.259071180555555
 20
0.7276041666666658
 30
0.0
  0
VERTEX
  5
ED0B
330
E7D1
100
AcDbEntity
  8
Pel_Clad
100
AcDbVertex
100
AcDb2dVertex
 10
0.1984374999999998
 20
0.7717013888888893
 30
0.0
  0
VERTEX
  5
ED0C
330
E7D1
100
AcDbEntity
  8
Pel_Clad
100
AcDbVertex
100
AcDb2dVertex
 10
0.165364583333333
 20
0.7882378472222218
 30
0.0
  0
VERTEX
  5
ED0D
330
E7D1
100
AcDbEntity
  8
Pel_Clad
100
AcDbVertex
100
AcDb2dVertex
 10
0.1378038194444437
 20
0.8378472222222228
 30
0.0
  0
VERTEX
  5
ED0E
330
E7D1
100
AcDbEntity
  8
Pel_Clad
100
AcDbVertex
100
AcDb2dVertex
 10
0.1267795138888887
 20
0.9370659722222214
 30
0.0
  0
SEQEND
  5
ED0F
330
E7D1
100
AcDbEntity
  8
Pel_Clad
  0
LINE
  5
E7E4
330
E7B9
100
AcDbEntity
  8
Pel_Clad
100
AcDbLine
 10
0.0496093749999993
 20
1.763888888888889
 30
0.0
 11
0.176388888888888
 21
1.719791666666665
 31
0.0
  0
LINE
  5
E7E5
330
E7B9
100
AcDbEntity
  8
Pel_Clad
100
AcDbLine
 10
0.0
 20
0.9591145833333332
 30
0.0
 11
0.1267795138888887
 21
0.9370659722222214
 31
0.0
  0
LINE
  5
E7E6
330
E7B9
100
AcDbEntity
  8
Pel_Clad
100
AcDbLine
 10
0.0661458333333327
 20
0.733116319444445
 30
0.0
 11
0.1598524305555555
 21
0.815798611111111
 31
0.0
  0
POLYLINE
  5
E7E7
330
E7B9
100
AcDbEntity
  8
Pel_Clad
100
AcDb2dPolyline
 66
     1
 10
0.0
 20
0.0
 30
0.0
  0
VERTEX
  5
ED14
330
E7E7
100
AcDbEntity
  8
Pel_Clad
100
AcDbVertex
100
AcDb2dVertex
 10
0.259071180555555
 20
0.7276041666666658
 30
0.0
  0
VERTEX
  5
ED15
330
E7E7
100
AcDbEntity
  8
Pel_Clad
100
AcDbVertex
100
AcDb2dVertex
 10
2.546614583333332
 20
2.805685763888888
 30
0.0
  0
VERTEX
  5
ED16
330
E7E7
100
AcDbEntity
  8
Pel_Clad
100
AcDbVertex
100
AcDb2dVertex
 10
2.519053819444443
 20
2.822222222222222
 30
0.0
  0
VERTEX
  5
ED17
330
E7E7
100
AcDbEntity
  8
Pel_Clad
100
AcDbVertex
100
AcDb2dVertex
 10
2.497005208333332
 20
2.838758680555553
 30
0.0
  0
VERTEX
  5
ED18
330
E7E7
100
AcDbEntity
  8
Pel_Clad
100
AcDbVertex
100
AcDb2dVertex
 10
2.469444444444444
 20
2.860807291666667
 30
0.0
  0
VERTEX
  5
ED19
330
E7E7
100
AcDbEntity
  8
Pel_Clad
100
AcDbVertex
100
AcDb2dVertex
 10
2.447395833333332
 20
2.888368055555556
 30
0.0
  0
VERTEX
  5
ED1A
330
E7E7
100
AcDbEntity
  8
Pel_Clad
100
AcDbVertex
100
AcDb2dVertex
 10
2.430859374999999
 20
2.921440972222221
 30
0.0
  0
VERTEX
  5
ED1B
330
E7E7
100
AcDbEntity
  8
Pel_Clad
100
AcDbVertex
100
AcDb2dVertex
 10
2.419835069444443
 20
2.960026041666665
 30
0.0
  0
VERTEX
  5
ED1C
330
E7E7
100
AcDbEntity
  8
Pel_Clad
100
AcDbVertex
100
AcDb2dVertex
 10
2.408810763888888
 20
2.993098958333334
 30
0.0
  0
SEQEND
  5
ED1D
330
E7E7
100
AcDbEntity
  8
Pel_Clad
  0
POLYLINE
  5
E7F2
330
E7B9
100
AcDbEntity
  8
Pel_Clad
100
AcDb2dPolyline
 66
     1
 10
0.0
 20
0.0
 30
0.0
  0
VERTEX
  5
ED1F
330
E7F2
100
AcDbEntity
  8
Pel_Clad
100
AcDbVertex
100
AcDb2dVertex
 10
3.092317708333332
 20
4.806597222222222
 30
0.0
  0
VERTEX
  5
ED20
330
E7F2
100
AcDbEntity
  8
0
370
     0
100
AcDbVertex
100
AcDb2dVertex
 10
2.976562499999999
 20
4.845182291666667
 30
0.0
  0
VERTEX
  5
ED21
330
E7F2
100
AcDbEntity
  8
Pel_Clad
100
AcDbVertex
100
AcDb2dVertex
 10
0.2921440972222218
 20
2.430859375
 30
0.0
  0
VERTEX
  5
ED22
330
E7F2
100
AcDbEntity
  8
Pel_Clad
100
AcDbVertex
100
AcDb2dVertex
 10
0.2921440972222218
 20
2.408810763888887
 30
0.0
  0
VERTEX
  5
ED23
330
E7F2
100
AcDbEntity
  8
Pel_Clad
100
AcDbVertex
100
AcDb2dVertex
 10
0.4078993055555556
 20
2.370225694444442
 30
0.0
  0
VERTEX
  5
ED24
330
E7F2
100
AcDbEntity
  8
Pel_Clad
100
AcDbVertex
100
AcDb2dVertex
 10
3.092317708333332
 20
4.806597222222222
 30
0.0
  0
SEQEND
  5
ED25
330
E7F2
100
AcDbEntity
  8
Pel_Clad
  0
POLYLINE
  5
ED26
330
E7B9
100
AcDbEntity
  8
Pel_Clad
370
     0
100
AcDb2dPolyline
 66
     1
 10
0.0
 20
0.0
 30
0.0
  0
VERTEX
  5
ED27
330
ED26
100
AcDbEntity
  8
Pel_Clad
370
     0
100
AcDbVertex
100
AcDb2dVertex
 10
1.914875704822065
 20
0.7137069271081487
 30
0.0
 42
0.5210502912876224
  0
VERTEX
  5
ED28
330
ED26
100
AcDbEntity
  8
Pel_Clad
370
     0
100
AcDbVertex
100
AcDb2dVertex
 10
1.914875704822069
 20
0.8958416840029563
 30
0.0
 42
0.1117208785328286
  0
VERTEX
  5
ED29
330
ED26
100
AcDbEntity
  8
Pel_Clad
370
     0
100
AcDbVertex
100
AcDb2dVertex
 10
1.792148005226623
 20
0.9566965107397908
 30
0.0
 42
0.1270687610590405
  0
VERTEX
  5
ED2A
330
ED26
100
AcDbEntity
  8
Pel_Clad
370
     0
100
AcDbVertex
100
AcDb2dVertex
 10
1.537192272551152
 20
0.9566965107397891
 30
0.0
 42
0.1117208785328157
  0
VERTEX
  5
ED2B
330
ED26
100
AcDbEntity
  8
Pel_Clad
370
     0
100
AcDbVertex
100
AcDb2dVertex
 10
1.414464572955713
 20
0.8958416840029617
 30
0.0
 42
0.521050291287658
  0
VERTEX
  5
ED2C
330
ED26
100
AcDbEntity
  8
Pel_Clad
370
     0
100
AcDbVertex
100
AcDb2dVertex
 10
1.414464572955711
 20
0.7137069271081487
 30
0.0
 42
0.1117208785328134
  0
VERTEX
  5
ED2D
330
ED26
100
AcDbEntity
  8
Pel_Clad
370
     0
100
AcDbVertex
100
AcDb2dVertex
 10
1.537192272551159
 20
0.652852100371316
 30
0.0
 42
0.1270687610590278
  0
VERTEX
  5
ED2E
330
ED26
100
AcDbEntity
  8
Pel_Clad
370
     0
100
AcDbVertex
100
AcDb2dVertex
 10
1.792148005226614
 20
0.652852100371316
 30
0.0
 42
0.111720878532821
  0
VERTEX
  5
ED2F
330
ED26
100
AcDbEntity
  8
Pel_Clad
370
     0
100
AcDbVertex
100
AcDb2dVertex
 10
1.914875704822061
 20
0.7137069271081451
 30
0.0
 42
8.437290762870741
  0
SEQEND
  5
ED30
330
ED26
100
AcDbEntity
  8
Pel_Clad
370
     0
  0
ELLIPSE
  5
ED31
330
E7B9
100
AcDbEntity
  8
Pel_Clad
370
     0
100
AcDbEllipse
 10
2.397786458333333
 20
1.367013888888887
 30
0.0
 11
0.2993721610240251
 21
0.0
 31
0.0
210
0.0
220
0.0
230
1.0
 40
0.5414240285047676
 41
0.3221242397395834
 42
2.819468413838425
  0
POLYLINE
  5
ED32
330
E7B9
100
AcDbEntity
  8
Pel_Clad
370
     0
100
AcDb2dPolyline
 66
     1
 10
0.0
 20
0.0
 30
0.0
  0
VERTEX
  5
ED33
330
ED32
100
AcDbEntity
  8
Pel_Clad
370
     0
100
AcDbVertex
100
AcDb2dVertex
 10
2.64799202426651
 20
1.38067741321926
 30
0.0
 42
0.5210502912876224
  0
VERTEX
  5
ED34
330
ED32
100
AcDbEntity
  8
Pel_Clad
370
     0
100
AcDbVertex
100
AcDb2dVertex
 10
2.647992024266514
 20
1.562812170114067
 30
0.0
 42
0.1117208785328286
  0
VERTEX
  5
ED35
330
ED32
100
AcDbEntity
  8
Pel_Clad
370
     0
100
AcDbVertex
100
AcDb2dVertex
 10
2.525264324671068
 20
1.623666996850902
 30
0.0
 42
0.1270687610590405
  0
VERTEX
  5
ED36
330
ED32
100
AcDbEntity
  8
Pel_Clad
370
     0
100
AcDbVertex
100
AcDb2dVertex
 10
2.270308591995597
 20
1.6236669968509
 30
0.0
 42
0.1117208785328157
  0
VERTEX
  5
ED37
330
ED32
100
AcDbEntity
  8
Pel_Clad
370
     0
100
AcDbVertex
100
AcDb2dVertex
 10
2.147580892400158
 20
1.562812170114073
 30
0.0
 42
0.521050291287658
  0
VERTEX
  5
ED38
330
ED32
100
AcDbEntity
  8
Pel_Clad
370
     0
100
AcDbVertex
100
AcDb2dVertex
 10
2.147580892400156
 20
1.38067741321926
 30
0.0
 42
0.1117208785328134
  0
VERTEX
  5
ED39
330
ED32
100
AcDbEntity
  8
Pel_Clad
370
     0
100
AcDbVertex
100
AcDb2dVertex
 10
2.270308591995604
 20
1.319822586482427
 30
0.0
 42
0.1270687610590278
  0
VERTEX
  5
ED3A
330
ED32
100
AcDbEntity
  8
Pel_Clad
370
     0
100
AcDbVertex
100
AcDb2dVertex
 10
2.525264324671059
 20
1.319822586482427
 30
0.0
 42
0.111720878532821
  0
VERTEX
  5
ED3B
330
ED32
100
AcDbEntity
  8
Pel_Clad
370
     0
100
AcDbVertex
100
AcDb2dVertex
 10
2.647992024266506
 20
1.380677413219256
 30
0.0
 42
8.437290762870741
  0
SEQEND
  5
ED3C
330
ED32
100
AcDbEntity
  8
Pel_Clad
370
     0
  0
ELLIPSE
  5
ED3D
330
E7B9
100
AcDbEntity
  8
Pel_Clad
370
     0
100
AcDbEllipse
 10
3.141927083333333
 20
2.029850260416665
 30
0.0
 11
0.2993721610240251
 21
0.0
 31
0.0
210
0.0
220
0.0
230
1.0
 40
0.5414240285047676
 41
0.3221242397395834
 42
2.819468413838425
  0
POLYLINE
  5
ED3E
330
E7B9
100
AcDbEntity
  8
Pel_Clad
370
     0
100
AcDb2dPolyline
 66
     1
 10
0.0
 20
0.0
 30
0.0
  0
VERTEX
  5
ED3F
330
ED3E
100
AcDbEntity
  8
Pel_Clad
370
     0
100
AcDbVertex
100
AcDb2dVertex
 10
3.39213264926651
 20
2.043513784747037
 30
0.0
 42
0.5210502912876224
  0
VERTEX
  5
ED40
330
ED3E
100
AcDbEntity
  8
Pel_Clad
370
     0
100
AcDbVertex
100
AcDb2dVertex
 10
3.392132649266514
 20
2.225648541641845
 30
0.0
 42
0.1117208785328286
  0
VERTEX
  5
ED41
330
ED3E
100
AcDbEntity
  8
Pel_Clad
370
     0
100
AcDbVertex
100
AcDb2dVertex
 10
3.269404949671068
 20
2.28650336837868
 30
0.0
 42
0.1270687610590405
  0
VERTEX
  5
ED42
330
ED3E
100
AcDbEntity
  8
Pel_Clad
370
     0
100
AcDbVertex
100
AcDb2dVertex
 10
3.014449216995597
 20
2.286503368378678
 30
0.0
 42
0.1117208785328157
  0
VERTEX
  5
ED43
330
ED3E
100
AcDbEntity
  8
Pel_Clad
370
     0
100
AcDbVertex
100
AcDb2dVertex
 10
2.891721517400158
 20
2.22564854164185
 30
0.0
 42
0.521050291287658
  0
VERTEX
  5
ED44
330
ED3E
100
AcDbEntity
  8
Pel_Clad
370
     0
100
AcDbVertex
100
AcDb2dVertex
 10
2.891721517400156
 20
2.043513784747037
 30
0.0
 42
0.1117208785328134
  0
VERTEX
  5
ED45
330
ED3E
100
AcDbEntity
  8
Pel_Clad
370
     0
100
AcDbVertex
100
AcDb2dVertex
 10
3.014449216995604
 20
1.982658958010205
 30
0.0
 42
0.1270687610590278
  0
VERTEX
  5
ED46
330
ED3E
100
AcDbEntity
  8
Pel_Clad
370
     0
100
AcDbVertex
100
AcDb2dVertex
 10
3.269404949671059
 20
1.982658958010205
 30
0.0
 42
0.111720878532821
  0
VERTEX
  5
ED47
330
ED3E
100
AcDbEntity
  8
Pel_Clad
370
     0
100
AcDbVertex
100
AcDb2dVertex
 10
3.392132649266506
 20
2.043513784747034
 30
0.0
 42
8.437290762870741
  0
SEQEND
  5
ED48
330
ED3E
100
AcDbEntity
  8
Pel_Clad
370
     0
  0
ENDBLK
  5
E7FB
330
E7B9
100
AcDbEntity
  8
0
100
AcDbBlockEnd
  0
BLOCK
  5
E8E5
330
E873
100
AcDbEntity
  8
0
100
AcDbBlockBegin
  2
512D
 70
     0
 10
0.0
 20
0.0
 30
0.0
  3
512D
  1

  0
POLYLINE
  5
E874
330
E873
100
AcDbEntity
  8
Pel_Clad
370
     0
100
AcDb2dPolyline
 66
     1
 10
0.0
 20
0.0
 30
0.0
  0
VERTEX
  5
EA4C
330
E874
100
AcDbEntity
  8
Pel_Clad
100
AcDbVertex
100
AcDb2dVertex
 10
0.4932353973388662
 20
2.445021947224933
 30
0.0
  0
VERTEX
  5
EA4D
330
E874
100
AcDbEntity
  8
Pel_Clad
100
AcDbVertex
100
AcDb2dVertex
 10
0.486775843302409
 20
1.122509002685546
 30
0.0
  0
VERTEX
  5
EA4E
330
E874
100
AcDbEntity
  8
Pel_Clad
100
AcDbVertex
100
AcDb2dVertex
 10
2.435058085123698
 20
0.0
 30
0.0
  0
VERTEX
  5
EA4F
330
E874
100
AcDbEntity
  8
Pel_Clad
100
AcDbVertex
100
AcDb2dVertex
 10
2.428598531087239
 20
1.33539975484212
 30
0.0
  0
VERTEX
  5
EA50
330
E874
100
AcDbEntity
  8
0
100
AcDbVertex
100
AcDb2dVertex
 10
0.4932353973388662
 20
2.445021947224933
 30
0.0
  0
SEQEND
  5
EA51
330
E874
100
AcDbEntity
  8
Pel_Clad
  0
POLYLINE
  5
E87A
330
E873
100
AcDbEntity
  8
Pel_Clad
370
     0
100
AcDb2dPolyline
 66
     1
 10
0.0
 20
0.0
 30
0.0
  0
VERTEX
  5
EA53
330
E87A
100
AcDbEntity
  8
Pel_Clad
100
AcDbVertex
100
AcDb2dVertex
 10
0.4932353973388662
 20
2.445021947224933
 30
0.0
  0
VERTEX
  5
EA54
330
E87A
100
AcDbEntity
  8
Pel_Clad
100
AcDbVertex
100
AcDb2dVertex
 10
0.4996949513753269
 20
2.50953674316406
 30
0.0
  0
VERTEX
  5
EA55
330
E87A
100
AcDbEntity
  8
Pel_Clad
100
AcDbVertex
100
AcDb2dVertex
 10
0.5190413157145173
 20
2.554705174763995
 30
0.0
  0
VERTEX
  5
EA56
330
E87A
100
AcDbEntity
  8
Pel_Clad
100
AcDbVertex
100
AcDb2dVertex
 10
0.5448472340901703
 20
2.599857457478838
 30
0.0
  0
VERTEX
  5
EA57
330
E87A
100
AcDbEntity
  8
Pel_Clad
100
AcDbVertex
100
AcDb2dVertex
 10
0.5577501932779949
 20
2.638566335042316
 30
0.0
  0
VERTEX
  5
EA58
330
E87A
100
AcDbEntity
  8
Pel_Clad
100
AcDbVertex
100
AcDb2dVertex
 10
0.5835561116536461
 20
2.664372253417967
 30
0.0
  0
VERTEX
  5
EA59
330
E87A
100
AcDbEntity
  8
Pel_Clad
100
AcDbVertex
100
AcDb2dVertex
 10
0.6416275024414074
 20
2.696621576944984
 30
0.0
  0
VERTEX
  5
EA5A
330
E87A
100
AcDbEntity
  8
Pel_Clad
100
AcDbVertex
100
AcDb2dVertex
 10
2.57054723103841
 20
1.580572128295898
 30
0.0
  0
VERTEX
  5
EA5B
330
E87A
100
AcDbEntity
  8
Pel_Clad
100
AcDbVertex
100
AcDb2dVertex
 10
2.51893539428711
 20
1.528960291544594
 30
0.0
  0
VERTEX
  5
EA5C
330
E87A
100
AcDbEntity
  8
Pel_Clad
100
AcDbVertex
100
AcDb2dVertex
 10
2.493129475911459
 20
1.490251413981116
 30
0.0
  0
VERTEX
  5
EA5D
330
E87A
100
AcDbEntity
  8
Pel_Clad
100
AcDbVertex
100
AcDb2dVertex
 10
2.460864003499349
 20
1.438639577229816
 30
0.0
  0
VERTEX
  5
EA5E
330
E87A
100
AcDbEntity
  8
Pel_Clad
100
AcDbVertex
100
AcDb2dVertex
 10
2.441517639160155
 20
1.393471145629881
 30
0.0
  0
VERTEX
  5
EA5F
330
E87A
100
AcDbEntity
  8
Pel_Clad
100
AcDbVertex
100
AcDb2dVertex
 10
2.428598531087239
 20
1.33539975484212
 30
0.0
  0
SEQEND
  5
EA60
330
E87A
100
AcDbEntity
  8
Pel_Clad
  0
POLYLINE
  5
E889
330
E873
100
AcDbEntity
  8
Pel_Clad
370
     0
100
AcDb2dPolyline
 66
     1
 10
0.0
 20
0.0
 30
0.0
  0
VERTEX
  5
EA62
330
E889
100
AcDbEntity
  8
Pel_Clad
100
AcDbVertex
100
AcDb2dVertex
 10
2.57054723103841
 20
1.580572128295898
 30
0.0
  0
VERTEX
  5
EA63
330
E889
100
AcDbEntity
  8
Pel_Clad
100
AcDbVertex
100
AcDb2dVertex
 10
4.699519348144532
 20
2.793401845296223
 30
0.0
  0
VERTEX
  5
EA64
330
E889
100
AcDbEntity
  8
Pel_Clad
100
AcDbVertex
100
AcDb2dVertex
 10
4.699230398847975
 20
2.714819654866634
 30
0.0
  0
VERTEX
  5
EA65
330
E889
100
AcDbEntity
  8
Pel_Clad
100
AcDbVertex
100
AcDb2dVertex
 10
2.712463633219401
 20
1.567636871337889
 30
0.0
  0
VERTEX
  5
EA66
330
E889
100
AcDbEntity
  8
Pel_Clad
100
AcDbVertex
100
AcDb2dVertex
 10
2.628586324055989
 20
1.516041183471678
 30
0.0
  0
VERTEX
  5
EA67
330
E889
100
AcDbEntity
  8
Pel_Clad
100
AcDbVertex
100
AcDb2dVertex
 10
2.583434041341144
 20
1.503138224283855
 30
0.0
  0
VERTEX
  5
EA68
330
E889
100
AcDbEntity
  8
Pel_Clad
100
AcDbVertex
100
AcDb2dVertex
 10
2.551200866699218
 20
1.477332305908202
 30
0.0
  0
VERTEX
  5
EA69
330
E889
100
AcDbEntity
  8
Pel_Clad
100
AcDbVertex
100
AcDb2dVertex
 10
2.538281758626302
 20
1.445066833496092
 30
0.0
  0
VERTEX
  5
EA6A
330
E889
100
AcDbEntity
  8
Pel_Clad
100
AcDbVertex
100
AcDb2dVertex
 10
2.512475840250649
 20
1.374108632405597
 30
0.0
  0
VERTEX
  5
EA6B
330
E889
100
AcDbEntity
  8
Pel_Clad
100
AcDbVertex
100
AcDb2dVertex
 10
2.51893539428711
 20
0.0451522827148416
 30
0.0
  0
VERTEX
  5
EA6C
330
E889
100
AcDbEntity
  8
Pel_Clad
100
AcDbVertex
100
AcDb2dVertex
 10
2.435058085123698
 20
0.0
 30
0.0
  0
SEQEND
  5
EA6D
330
E889
100
AcDbEntity
  8
Pel_Clad
  0
POLYLINE
  5
E896
330
E873
100
AcDbEntity
  8
Pel_Clad
370
     0
100
AcDb2dPolyline
 66
     1
 10
0.0
 20
0.0
 30
0.0
  0
VERTEX
  5
EA6F
330
E896
100
AcDbEntity
  8
Pel_Clad
100
AcDbVertex
100
AcDb2dVertex
 10
2.770567321777344
 20
3.92887840270996
 30
0.0
  0
VERTEX
  5
EA70
330
E896
100
AcDbEntity
  8
Pel_Clad
100
AcDbVertex
100
AcDb2dVertex
 10
0.6416275024414074
 20
2.696621576944984
 30
0.0
  0
VERTEX
  5
EA71
330
E896
100
AcDbEntity
  8
Pel_Clad
100
AcDbVertex
100
AcDb2dVertex
 10
0.6054539998372395
 20
2.727530543009439
 30
0.0
  0
VERTEX
  5
EA72
330
E896
100
AcDbEntity
  8
Pel_Clad
100
AcDbVertex
100
AcDb2dVertex
 10
0.5915336608886719
 20
2.762331390380857
 30
0.0
  0
VERTEX
  5
EA73
330
E896
100
AcDbEntity
  8
Pel_Clad
100
AcDbVertex
100
AcDb2dVertex
 10
0.5706693013509128
 20
2.790172068277993
 30
0.0
  0
VERTEX
  5
EA74
330
E896
100
AcDbEntity
  8
Pel_Clad
100
AcDbVertex
100
AcDb2dVertex
 10
0.5706693013509128
 20
2.81801274617513
 30
0.0
  0
VERTEX
  5
EA75
330
E896
100
AcDbEntity
  8
Pel_Clad
100
AcDbVertex
100
AcDb2dVertex
 10
2.69314956665039
 20
4.044988886515298
 30
0.0
  0
VERTEX
  5
EA76
330
E896
100
AcDbEntity
  8
Pel_Clad
100
AcDbVertex
100
AcDb2dVertex
 10
2.69457066853841
 20
4.013030242919919
 30
0.0
  0
VERTEX
  5
EA77
330
E896
100
AcDbEntity
  8
Pel_Clad
100
AcDbVertex
100
AcDb2dVertex
 10
2.713852437337239
 20
3.986739857991537
 30
0.0
  0
VERTEX
  5
EA78
330
E896
100
AcDbEntity
  8
Pel_Clad
100
AcDbVertex
100
AcDb2dVertex
 10
2.731842295328775
 20
3.961127726236977
 30
0.0
  0
VERTEX
  5
EA79
330
E896
100
AcDbEntity
  8
Pel_Clad
100
AcDbVertex
100
AcDb2dVertex
 10
2.748927815755209
 20
3.939407475789387
 30
0.0
  0
VERTEX
  5
EA7A
330
E896
100
AcDbEntity
  8
Pel_Clad
100
AcDbVertex
100
AcDb2dVertex
 10
2.770567321777344
 20
3.92887840270996
 30
0.0
  0
VERTEX
  5
EA7B
330
E896
100
AcDbEntity
  8
Pel_Clad
100
AcDbVertex
100
AcDb2dVertex
 10
4.699519348144532
 20
2.793401845296223
 30
0.0
  0
SEQEND
  5
EA7C
330
E896
100
AcDbEntity
  8
Pel_Clad
  0
POLYLINE
  5
E8A5
330
E873
100
AcDbEntity
  8
Pel_Clad
370
     0
100
AcDb2dPolyline
 66
     1
 10
0.0
 20
0.0
 30
0.0
  0
VERTEX
  5
EA7E
330
E8A5
100
AcDbEntity
  8
Pel_Clad
100
AcDbVertex
100
AcDb2dVertex
 10
2.69314956665039
 20
4.044988886515298
 30
0.0
  0
VERTEX
  5
EA7F
330
E8A5
100
AcDbEntity
  8
Pel_Clad
100
AcDbVertex
100
AcDb2dVertex
 10
2.686302439371745
 20
4.571765518188474
 30
0.0
  0
VERTEX
  5
EA80
330
E8A5
100
AcDbEntity
  8
Pel_Clad
100
AcDbVertex
100
AcDb2dVertex
 10
2.512314351399739
 20
4.669207890828449
 30
0.0
  0
VERTEX
  5
EA81
330
E8A5
100
AcDbEntity
  8
Pel_Clad
100
AcDbVertex
100
AcDb2dVertex
 10
2.434209072890411
 20
4.704973383367349
 30
0.0
  0
VERTEX
  5
EA82
330
E8A5
100
AcDbEntity
  8
Pel_Clad
100
AcDbVertex
100
AcDb2dVertex
 10
0.1531075795491539
 20
3.388682047526041
 30
0.0
  0
VERTEX
  5
EA83
330
E8A5
100
AcDbEntity
  8
Pel_Clad
100
AcDbVertex
100
AcDb2dVertex
 10
0.0
 20
3.145108413696288
 30
0.0
  0
VERTEX
  5
EA84
330
E8A5
100
AcDbEntity
  8
Pel_Clad
100
AcDbVertex
100
AcDb2dVertex
 10
0.0
 20
2.852813593546546
 30
0.0
  0
VERTEX
  5
EA85
330
E8A5
100
AcDbEntity
  8
Pel_Clad
100
AcDbVertex
100
AcDb2dVertex
 10
0.0373362223307297
 20
2.833015060424804
 30
0.0
  0
VERTEX
  5
EA86
330
E8A5
100
AcDbEntity
  8
Pel_Clad
100
AcDbVertex
100
AcDb2dVertex
 10
0.0765457153320313
 20
2.813019469695671
 30
0.0
  0
VERTEX
  5
EA87
330
E8A5
100
AcDbEntity
  8
Pel_Clad
100
AcDbVertex
100
AcDb2dVertex
 10
0.1194371541341148
 20
2.79336954752604
 30
0.0
  0
VERTEX
  5
EA88
330
E8A5
100
AcDbEntity
  8
Pel_Clad
100
AcDbVertex
100
AcDb2dVertex
 10
0.1600677490234386
 20
2.769307708740232
 30
0.0
  0
VERTEX
  5
EA89
330
E8A5
100
AcDbEntity
  8
Pel_Clad
100
AcDbVertex
100
AcDb2dVertex
 10
0.1948524475097653
 20
2.74841105143229
 30
0.0
  0
VERTEX
  5
EA8A
330
E8A5
100
AcDbEntity
  8
Pel_Clad
100
AcDbVertex
100
AcDb2dVertex
 10
0.2226931254069004
 20
2.734490712483722
 30
0.0
  0
VERTEX
  5
EA8B
330
E8A5
100
AcDbEntity
  8
Pel_Clad
100
AcDbVertex
100
AcDb2dVertex
 10
0.2505338033040374
 20
2.755371220906573
 30
0.0
  0
VERTEX
  5
EA8C
330
E8A5
100
AcDbEntity
  8
Pel_Clad
100
AcDbVertex
100
AcDb2dVertex
 10
0.2853346506754555
 20
2.78321189880371
 30
0.0
  0
VERTEX
  5
EA8D
330
E8A5
100
AcDbEntity
  8
Pel_Clad
100
AcDbVertex
100
AcDb2dVertex
 10
0.3409998575846345
 20
2.811052576700845
 30
0.0
  0
VERTEX
  5
EA8E
330
E8A5
100
AcDbEntity
  8
Pel_Clad
100
AcDbVertex
100
AcDb2dVertex
 10
0.382760874430339
 20
2.838877105712889
 30
0.0
  0
VERTEX
  5
EA8F
330
E8A5
100
AcDbEntity
  8
Pel_Clad
100
AcDbVertex
100
AcDb2dVertex
 10
0.4175617218017571
 20
2.852797444661456
 30
0.0
  0
VERTEX
  5
EA90
330
E8A5
100
AcDbEntity
  8
Pel_Clad
100
AcDbVertex
100
AcDb2dVertex
 10
0.452362569173177
 20
2.880638122558593
 30
0.0
  0
VERTEX
  5
EA91
330
E8A5
100
AcDbEntity
  8
Pel_Clad
100
AcDbVertex
100
AcDb2dVertex
 10
0.4871472676595055
 20
2.887598292032876
 30
0.0
  0
VERTEX
  5
EA92
330
E8A5
100
AcDbEntity
  8
Pel_Clad
100
AcDbVertex
100
AcDb2dVertex
 10
0.5149879455566407
 20
2.901518630981446
 30
0.0
  0
VERTEX
  5
EA93
330
E8A5
100
AcDbEntity
  8
Pel_Clad
100
AcDbVertex
100
AcDb2dVertex
 10
0.5358684539794929
 20
2.929359308878579
 30
0.0
  0
VERTEX
  5
EA94
330
E8A5
100
AcDbEntity
  8
Pel_Clad
100
AcDbVertex
100
AcDb2dVertex
 10
0.5637091318766281
 20
2.922399139404296
 30
0.0
  0
VERTEX
  5
EA95
330
E8A5
100
AcDbEntity
  8
Pel_Clad
100
AcDbVertex
100
AcDb2dVertex
 10
0.5706693013509128
 20
2.81801274617513
 30
0.0
  0
SEQEND
  5
EA96
330
E8A5
100
AcDbEntity
  8
Pel_Clad
  0
POLYLINE
  5
E8BF
330
E873
100
AcDbEntity
  8
Pel_Clad
370
     0
100
AcDb2dPolyline
 66
     1
 10
0.0
 20
0.0
 30
0.0
  0
VERTEX
  5
EA98
330
E8BF
100
AcDbEntity
  8
Pel_Clad
100
AcDbVertex
100
AcDb2dVertex
 10
0.4871472676595055
 20
2.887598292032876
 30
0.0
  0
VERTEX
  5
EA99
330
E8BF
100
AcDbEntity
  8
Pel_Clad
100
AcDbVertex
100
AcDb2dVertex
 10
0.5010676066080731
 20
2.845837275187173
 30
0.0
  0
VERTEX
  5
EA9A
330
E8BF
100
AcDbEntity
  8
Pel_Clad
100
AcDbVertex
100
AcDb2dVertex
 10
0.5010676066080731
 20
2.804092407226562
 30
0.0
  0
VERTEX
  5
EA9B
330
E8BF
100
AcDbEntity
  8
Pel_Clad
100
AcDbVertex
100
AcDb2dVertex
 10
0.5010676066080731
 20
2.78321189880371
 30
0.0
  0
VERTEX
  5
EA9C
330
E8BF
100
AcDbEntity
  8
Pel_Clad
100
AcDbVertex
100
AcDb2dVertex
 10
0.5219481150309236
 20
2.74841105143229
 30
0.0
  0
VERTEX
  5
EA9D
330
E8BF
100
AcDbEntity
  8
Pel_Clad
100
AcDbVertex
100
AcDb2dVertex
 10
0.5358684539794929
 20
2.727530543009439
 30
0.0
  0
VERTEX
  5
EA9E
330
E8BF
100
AcDbEntity
  8
Pel_Clad
100
AcDbVertex
100
AcDb2dVertex
 10
0.5567489624023434
 20
2.692729695638018
 30
0.0
  0
VERTEX
  5
EA9F
330
E8BF
100
AcDbEntity
  8
Pel_Clad
100
AcDbVertex
100
AcDb2dVertex
 10
0.5835561116536461
 20
2.664372253417967
 30
0.0
  0
SEQEND
  5
EAA0
330
E8BF
100
AcDbEntity
  8
Pel_Clad
  0
POLYLINE
  5
E8C9
330
E873
100
AcDbEntity
  8
Pel_Clad
370
     0
100
AcDb2dPolyline
 66
     1
 10
0.0
 20
0.0
 30
0.0
  0
VERTEX
  5
EAA2
330
E8C9
100
AcDbEntity
  8
Pel_Clad
100
AcDbVertex
100
AcDb2dVertex
 10
0.0
 20
3.145108413696288
 30
0.0
  0
VERTEX
  5
EAA3
330
E8C9
100
AcDbEntity
  8
Pel_Clad
100
AcDbVertex
100
AcDb2dVertex
 10
0.0765457153320313
 20
3.103331247965492
 30
0.0
  0
VERTEX
  5
EAA4
330
E8C9
100
AcDbEntity
  8
Pel_Clad
100
AcDbVertex
100
AcDb2dVertex
 10
0.2087727864583346
 20
3.339960861206051
 30
0.0
  0
VERTEX
  5
EAA5
330
E8C9
100
AcDbEntity
  8
Pel_Clad
100
AcDbVertex
100
AcDb2dVertex
 10
0.2296532948811851
 20
3.360841369628904
 30
0.0
  0
VERTEX
  5
EAA6
330
E8C9
100
AcDbEntity
  8
Pel_Clad
100
AcDbVertex
100
AcDb2dVertex
 10
2.512314351399739
 20
4.669207890828449
 30
0.0
  0
SEQEND
  5
EAA7
330
E8C9
100
AcDbEntity
  8
Pel_Clad
  0
LINE
  5
E8D0
330
E873
100
AcDbEntity
  8
Pel_Clad
370
     0
100
AcDbLine
 10
0.1531075795491539
 20
3.388682047526041
 30
0.0
 11
0.2087727864583346
 21
3.339960861206051
 31
0.0
  0
ELLIPSE
  5
E8D1
330
E873
100
AcDbEntity
  8
Pel_Clad
370
     0
100
AcDbEllipse
 10
0.7538057327270505
 20
1.787633132934569
 30
0.0
 11
0.0965461095174154
 21
-0.1517349243164062
 31
0.0
210
0.0
220
0.0
230
1.0
 40
0.5634944950294808
 41
0.0
 42
6.283185307179586
  0
ELLIPSE
  5
E8D2
330
E873
100
AcDbEntity
  8
Pel_Clad
370
     0
100
AcDbEllipse
 10
0.7564299265543628
 20
1.305427424112956
 30
0.0
 11
0.096554183959961
 21
-0.1517349243164063
 31
0.0
210
0.0
220
0.0
230
1.0
 40
0.5635187915522472
 41
0.0
 42
6.283185307179586
  0
ELLIPSE
  5
E8D3
330
E873
100
AcDbEntity
  8
Pel_Clad
370
     0
100
AcDbEllipse
 10
1.471082687377929
 20
1.134443028767904
 30
0.0
 11
0.096554183959961
 21
-0.1517349243164063
 31
0.0
210
0.0
220
0.0
230
1.0
 40
0.5635187915522472
 41
0.0
 42
6.283185307179586
  0
ELLIPSE
  5
E8D4
330
E873
100
AcDbEntity
  8
Pel_Clad
370
     0
100
AcDbEllipse
 10
2.184217453002929
 20
0.9670033137003581
 30
0.0
 11
0.089254887898763
 21
-0.1561354955037435
 31
0.0
210
0.0
220
0.0
230
0.9999999999999998
 40
0.5635639659505495
 41
0.0
 42
6.283185307179586
  0
ELLIPSE
  5
E8D5
330
E873
100
AcDbEntity
  8
Pel_Clad
370
     0
100
AcDbEllipse
 10
2.178016281127929
 20
0.4791777928670236
 30
0.0
 11
0.089254887898763
 21
-0.1561354955037435
 31
0.0
210
0.0
220
0.0
230
0.9999999999999998
 40
0.5635639659505495
 41
0.0
 42
6.283185307179586
  0
ELLIPSE
  5
E8D6
330
E873
100
AcDbEntity
  8
Pel_Clad
370
     0
100
AcDbEllipse
 10
2.442244338989256
 20
1.898495229085284
 30
0.0
 11
0.102206293741862
 21
0.0
 31
0.0
210
0.0
220
0.0
230
1.0
 40
0.5790804450032621
 41
0.0
 42
6.283185307179586
  0
ELLIPSE
  5
E8D7
330
E873
100
AcDbEntity
  8
Pel_Clad
370
     0
100
AcDbEllipse
 10
2.444489034016926
 20
1.857460912068685
 30
0.0
 11
0.107020149710086
 21
0.0
 31
0.0
210
0.0
220
0.0
230
1.0
 40
0.4251405098644743
 41
0.4932888962152634
 42
2.70891302626974
  0
ELLIPSE
  5
E8D8
330
E873
100
AcDbEntity
  8
Pel_Clad
370
     0
100
AcDbEllipse
 10
1.120781071980793
 20
2.659495290120441
 30
0.0
 11
0.1065664927164713
 21
0.0
 31
0.0
210
0.0
220
0.0
230
1.0
 40
0.5553872005494235
 41
0.0
 42
6.283185307179586
  0
ELLIPSE
  5
E8D9
330
E873
100
AcDbEntity
  8
Pel_Clad
370
     0
100
AcDbEllipse
 10
1.12312266031901
 20
2.618460973103839
 30
0.0
 11
0.1128011947012562
 21
0.0
 31
0.0
210
0.0
220
0.0
230
1.0
 40
0.4234973184815125
 41
0.4986136754273637
 42
2.703274697340124
  0
ELLIPSE
  5
E8DA
330
E873
100
AcDbEntity
  8
Pel_Clad
370
     0
100
AcDbEllipse
 10
2.690775680541991
 20
3.569258880615233
 30
0.0
 11
0.102206293741862
 21
0.0
 31
0.0
210
0.0
220
0.0
230
1.0
 40
0.5790804450032621
 41
0.0
 42
6.283185307179586
  0
ELLIPSE
  5
E8DB
330
E873
100
AcDbEntity
  8
Pel_Clad
370
     0
100
AcDbEllipse
 10
2.693020375569661
 20
3.526060612996417
 30
0.0
 11
0.0976247341941767
 21
0.0
 31
0.0
210
0.0
220
0.0
230
1.0
 40
0.4717332479737533
 41
0.3963689669843854
 42
2.807127669097938
  0
ELLIPSE
  5
E8DC
330
E873
100
AcDbEntity
  8
Pel_Clad
370
     0
100
AcDbEllipse
 10
4.003906122843423
 20
2.807096099853513
 30
0.0
 11
0.102206293741862
 21
0.0
 31
0.0
210
0.0
220
0.0
230
1.0
 40
0.5790804450032621
 41
0.0
 42
6.283185307179586
  0
ELLIPSE
  5
E8DD
330
E873
100
AcDbEntity
  8
Pel_Clad
370
     0
100
AcDbEllipse
 10
4.006150817871093
 20
2.766061782836912
 30
0.0
 11
0.0904484376098784
 21
0.0
 31
0.0
210
0.0
220
0.0
230
1.0
 40
0.5256512059473001
 41
0.2655558359390551
 42
2.94204278648257
  0
LINE
  5
E8DE
330
E873
100
AcDbEntity
  8
Pel_Clad
370
     0
100
AcDbLine
 10
0.0765457153320313
 20
3.103331247965492
 30
0.0
 11
0.0765457153320313
 21
2.812223175295224
 31
0.0
  0
ELLIPSE
  5
E8DF
330
E873
100
AcDbEntity
  8
Pel_Clad
370
     0
100
AcDbEllipse
 10
2.227924295090049
 20
0.4938300656768871
 30
0.0
 11
0.0847763184785959
 21
-0.1573781845860549
 31
0.0
210
0.0
220
0.0
230
1.0
 40
0.4742220720612205
 41
3.308738512935112
 42
5.910642469496034
  0
ELLIPSE
  5
E8E0
330
E873
100
AcDbEntity
  8
Pel_Clad
370
     0
100
AcDbEllipse
 10
2.23412546696505
 20
0.9816555865102216
 30
0.0
 11
0.0847763184785959
 21
-0.1573781845860549
 31
0.0
210
0.0
220
0.0
230
1.0
 40
0.4742220720612205
 41
3.308738512935112
 42
5.910642469496034
  0
ELLIPSE
  5
E8E1
330
E873
100
AcDbEntity
  8
Pel_Clad
370
     0
100
AcDbEllipse
 10
1.513067656777291
 20
1.140774002127045
 30
0.0
 11
-0.1020537935284679
 21
0.1588006883830669
 31
0.0
210
0.0
220
0.0
230
0.9999999999999998
 40
0.4115680159653678
 41
0.082418910512545
 42
2.607492236526304
  0
ELLIPSE
  5
E8E2
330
E873
100
AcDbEntity
  8
Pel_Clad
370
     0
100
AcDbEllipse
 10
0.7754193101535698
 20
1.33750136277376
 30
0.0
 11
0.0930158248926721
 21
-0.1756256040494987
 31
0.0
210
0.0
220
0.0
230
0.9999999999999998
 40
0.3414328911997437
 41
3.776648733589547
 42
6.16061883446184
  0
ELLIPSE
  5
E8E3
330
E873
100
AcDbEntity
  8
Pel_Clad
370
     0
100
AcDbEllipse
 10
0.8111576977078112
 20
1.804362530026711
 30
0.0
 11
0.0837557281976041
 21
-0.176227583739978
 31
0.0
210
0.0
220
0.0
230
0.9999999999999998
 40
0.4671154260244405
 41
3.570659156945183
 42
5.763903282852369
  0
ENDBLK
  5
E8E6
330
E873
100
AcDbEntity
  8
0
100
AcDbBlockEnd
  0
BLOCK
  5
EF4C
330
EF4B
100
AcDbEntity
  8
0
370
     0
100
AcDbBlockBegin
  2
asdfetrtewwer
 70
     0
 10
0.0
 20
0.0
 30
0.0
  3
asdfetrtewwer
  1

  0
LWPOLYLINE
  5
EF4D
330
EF4B
100
AcDbEntity
  8
Pel_Clad
370
     0
100
AcDbPolyline
 90
        4
 70
     1
 43
0.0
 10
20.01630559984146
 20
0.0608533270562113
 10
0.0184357315223238
 20
0.0608533270562113
 10
0.0
 20
0.0
 10
19.99786986831913
 20
0.0021301316808682
  0
ELLIPSE
  5
EF4E
330
EF4B
100
AcDbEntity
  8
Pel_Clad
370
     0
100
AcDbEllipse
 10
3.588878506219565
 20
0.5402896878889365
 30
0.0
 11
-0.125
 21
0.0000000000000001
 31
0.0
210
0.0
220
0.0
230
1.0
 40
0.7093726770193819
 41
2.837671822045641
 42
5.353128752886014
  0
ELLIPSE
  5
EF4F
330
EF4B
100
AcDbEntity
  8
Pel_Clad
370
     0
100
AcDbEllipse
 10
3.63342623343432
 20
0.5848374151036886
 30
0.0
 11
-0.125
 21
0.0000000000000001
 31
0.0
210
0.0
220
0.0
230
1.0
 40
0.7093726770193819
 41
0.0
 42
6.283185307179586
  0
ELLIPSE
  5
EF50
330
EF4B
100
AcDbEntity
  8
Pel_Clad
370
     0
100
AcDbEllipse
 10
2.793383377384699
 20
1.335784816723805
 30
0.0
 11
-0.125
 21
0.0000000000000001
 31
0.0
210
0.0
220
0.0
230
1.0
 40
0.7093726770193819
 41
2.837671822045641
 42
5.353128752886014
  0
ELLIPSE
  5
EF51
330
EF4B
100
AcDbEntity
  8
Pel_Clad
370
     0
100
AcDbEllipse
 10
2.837931104599455
 20
1.380332543938557
 30
0.0
 11
-0.125
 21
0.0000000000000001
 31
0.0
210
0.0
220
0.0
230
1.0
 40
0.7093726770193819
 41
0.0
 42
6.283185307179586
  0
LINE
  5
EF52
330
EF4B
100
AcDbEntity
  8
Pel_Clad
370
     0
100
AcDbLine
 10
0.0163055998414592
 20
0.0608533270562148
 30
0.0
 11
20.01630559984146
 21
0.0608533270562113
 31
0.0
  0
LINE
  5
EF53
330
EF4B
100
AcDbEntity
  8
Pel_Clad
370
     0
100
AcDbLine
 10
17.89498525628181
 20
2.182173670615863
 30
0.0
 11
-2.105014743718186
 21
2.182173670615856
 31
0.0
  0
LWPOLYLINE
  5
EF54
330
EF4B
100
AcDbEntity
  8
Pel_Clad
370
     0
100
AcDbPolyline
 90
        4
 70
     1
 43
0.0
 10
-2.105014743718186
 20
2.182173670615856
 10
0.0163055998414592
 20
0.0608533270562148
 10
0.0
 20
0.0
 10
-2.121320343559645
 20
2.121320343559645
  0
ELLIPSE
  5
EF55
330
EF4B
100
AcDbEntity
  8
Pel_Clad
370
     0
100
AcDbEllipse
 10
-0.8300832540505993
 20
1.335784816723805
 30
0.0
 11
-0.125
 21
0.0000000000000001
 31
0.0
210
0.0
220
0.0
230
1.0
 40
0.7093726770193819
 41
2.837671822045641
 42
5.353128752886014
  0
ELLIPSE
  5
EF56
330
EF4B
100
AcDbEntity
  8
Pel_Clad
370
     0
100
AcDbEllipse
 10
-0.7855355268358438
 20
1.380332543938557
 30
0.0
 11
-0.125
 21
0.0000000000000001
 31
0.0
210
0.0
220
0.0
230
1.0
 40
0.7093726770193819
 41
0.0
 42
6.283185307179586
  0
ELLIPSE
  5
EF57
330
EF4B
100
AcDbEntity
  8
Pel_Clad
370
     0
100
AcDbEllipse
 10
-0.034588125215727
 20
0.5402896878889365
 30
0.0
 11
-0.125
 21
0.0000000000000001
 31
0.0
210
0.0
220
0.0
230
1.0
 40
0.7093726770193819
 41
2.837671822045641
 42
5.353128752886014
  0
ELLIPSE
  5
EF58
330
EF4B
100
AcDbEntity
  8
Pel_Clad
370
     0
100
AcDbEllipse
 10
0.0099596019990287
 20
0.5848374151036886
 30
0.0
 11
-0.125
 21
0.0000000000000001
 31
0.0
210
0.0
220
0.0
230
1.0
 40
0.7093726770193819
 41
0.0
 42
6.283185307179586
  0
LINE
  5
EF59
330
EF4B
100
AcDbEntity
  8
Pel_Clad
370
     0
100
AcDbLine
 10
0.0163055998414592
 20
0.0608533270562148
 30
0.0
 11
-2.105014743718186
 21
2.182173670615856
 31
0.0
  0
ELLIPSE
  5
EF5A
330
EF4B
100
AcDbEntity
  8
Pel_Clad
370
     0
100
AcDbEllipse
 10
8.183434194879517
 20
0.5402896878889365
 30
0.0
 11
-0.125
 21
0.0000000000000001
 31
0.0
210
0.0
220
0.0
230
1.0
 40
0.7093726770193819
 41
2.837671822045641
 42
5.353128752886014
  0
ELLIPSE
  5
EF5B
330
EF4B
100
AcDbEntity
  8
Pel_Clad
370
     0
100
AcDbEllipse
 10
8.227981922094272
 20
0.5848374151036886
 30
0.0
 11
-0.125
 21
0.0000000000000001
 31
0.0
210
0.0
220
0.0
230
1.0
 40
0.7093726770193819
 41
0.0
 42
6.283185307179586
  0
ELLIPSE
  5
EF5C
330
EF4B
100
AcDbEntity
  8
Pel_Clad
370
     0
100
AcDbEllipse
 10
7.387939066044644
 20
1.335784816723805
 30
0.0
 11
-0.125
 21
0.0000000000000001
 31
0.0
210
0.0
220
0.0
230
1.0
 40
0.7093726770193819
 41
2.837671822045641
 42
5.353128752886014
  0
ELLIPSE
  5
EF5D
330
EF4B
100
AcDbEntity
  8
Pel_Clad
370
     0
100
AcDbEllipse
 10
7.4324867932594
 20
1.380332543938557
 30
0.0
 11
-0.125
 21
0.0000000000000001
 31
0.0
210
0.0
220
0.0
230
1.0
 40
0.7093726770193819
 41
0.0
 42
6.283185307179586
  0
ELLIPSE
  5
EF5E
330
EF4B
100
AcDbEntity
  8
Pel_Clad
370
     0
100
AcDbEllipse
 10
7.723637230017466
 20
0.8054547308338939
 30
0.0
 11
-0.125
 21
0.0000000000000001
 31
0.0
210
0.0
220
0.0
230
1.0
 40
0.7093726770193819
 41
2.837671822045641
 42
5.353128752886014
  0
ELLIPSE
  5
EF5F
330
EF4B
100
AcDbEntity
  8
Pel_Clad
370
     0
100
AcDbEllipse
 10
7.768184957232222
 20
0.8500024580486424
 30
0.0
 11
-0.125
 21
0.0000000000000001
 31
0.0
210
0.0
220
0.0
230
1.0
 40
0.7093726770193819
 41
0.0
 42
6.283185307179586
  0
ELLIPSE
  5
EF60
330
EF4B
100
AcDbEntity
  8
Pel_Clad
370
     0
100
AcDbEllipse
 10
10.71211337427895
 20
0.5402896878889365
 30
0.0
 11
-0.125
 21
0.0000000000000001
 31
0.0
210
0.0
220
0.0
230
1.0
 40
0.7093726770193819
 41
2.837671822045641
 42
5.353128752886014
  0
ELLIPSE
  5
EF61
330
EF4B
100
AcDbEntity
  8
Pel_Clad
370
     0
100
AcDbEllipse
 10
10.75666110149371
 20
0.5848374151036886
 30
0.0
 11
-0.125
 21
0.0000000000000001
 31
0.0
210
0.0
220
0.0
230
1.0
 40
0.7093726770193819
 41
0.0
 42
6.283185307179586
  0
ELLIPSE
  5
EF62
330
EF4B
100
AcDbEntity
  8
Pel_Clad
370
     0
100
AcDbEllipse
 10
9.916618245444084
 20
1.335784816723801
 30
0.0
 11
-0.125
 21
0.0000000000000001
 31
0.0
210
0.0
220
0.0
230
1.0
 40
0.7093726770193819
 41
2.837671822045641
 42
5.353128752886014
  0
ELLIPSE
  5
EF63
330
EF4B
100
AcDbEntity
  8
Pel_Clad
370
     0
100
AcDbEllipse
 10
9.961165972658839
 20
1.380332543938553
 30
0.0
 11
-0.125
 21
0.0000000000000001
 31
0.0
210
0.0
220
0.0
230
1.0
 40
0.7093726770193819
 41
0.0
 42
6.283185307179586
  0
ELLIPSE
  5
EF64
330
EF4B
100
AcDbEntity
  8
Pel_Clad
370
     0
100
AcDbEllipse
 10
18.97468342158896
 20
0.5848374151036851
 30
0.0
 11
-0.125
 21
0.0000000000000001
 31
0.0
210
0.0
220
0.0
230
1.0
 40
0.7093726770193819
 41
0.0
 42
6.283185307179586
  0
ELLIPSE
  5
EF65
330
EF4B
100
AcDbEntity
  8
Pel_Clad
370
     0
100
AcDbEllipse
 10
18.9301356943742
 20
0.540289687888933
 30
0.0
 11
-0.125
 21
0.0000000000000001
 31
0.0
210
0.0
220
0.0
230
1.0
 40
0.7093726770193819
 41
2.837671822045641
 42
5.353128752886014
  0
ELLIPSE
  5
EF66
330
EF4B
100
AcDbEntity
  8
Pel_Clad
370
     0
100
AcDbEllipse
 10
18.17918829275409
 20
1.38033254393855
 30
0.0
 11
-0.125
 21
0.0000000000000001
 31
0.0
210
0.0
220
0.0
230
1.0
 40
0.7093726770193819
 41
0.0
 42
6.283185307179586
  0
ELLIPSE
  5
EF67
330
EF4B
100
AcDbEntity
  8
Pel_Clad
370
     0
100
AcDbEllipse
 10
18.13464056553933
 20
1.335784816723801
 30
0.0
 11
-0.125
 21
0.0000000000000001
 31
0.0
210
0.0
220
0.0
230
1.0
 40
0.7093726770193819
 41
2.837671822045641
 42
5.353128752886014
  0
ELLIPSE
  5
EF68
330
EF4B
100
AcDbEntity
  8
Pel_Clad
370
     0
100
AcDbEllipse
 10
17.14391211234399
 20
1.380332543938553
 30
0.0
 11
-0.125
 21
0.0000000000000001
 31
0.0
210
0.0
220
0.0
230
1.0
 40
0.7093726770193819
 41
0.0
 42
6.283185307179586
  0
ELLIPSE
  5
EF69
330
EF4B
100
AcDbEntity
  8
Pel_Clad
370
     0
100
AcDbEllipse
 10
17.09936438512924
 20
1.335784816723801
 30
0.0
 11
-0.125
 21
0.0000000000000001
 31
0.0
210
0.0
220
0.0
230
1.0
 40
0.7093726770193819
 41
2.837671822045641
 42
5.353128752886014
  0
ELLIPSE
  5
EF6A
330
EF4B
100
AcDbEntity
  8
Pel_Clad
370
     0
100
AcDbEllipse
 10
15.30666906293891
 20
0.5402896878889365
 30
0.0
 11
-0.125
 21
0.0000000000000001
 31
0.0
210
0.0
220
0.0
230
1.0
 40
0.7093726770193819
 41
2.837671822045641
 42
5.353128752886014
  0
ELLIPSE
  5
EF6B
330
EF4B
100
AcDbEntity
  8
Pel_Clad
370
     0
100
AcDbEllipse
 10
15.35121679015366
 20
0.5848374151036851
 30
0.0
 11
-0.125
 21
0.0000000000000001
 31
0.0
210
0.0
220
0.0
230
1.0
 40
0.7093726770193819
 41
0.0
 42
6.283185307179586
  0
ELLIPSE
  5
EF6C
330
EF4B
100
AcDbEntity
  8
Pel_Clad
370
     0
100
AcDbEllipse
 10
14.51117393410403
 20
1.335784816723805
 30
0.0
 11
-0.125
 21
0.0000000000000001
 31
0.0
210
0.0
220
0.0
230
1.0
 40
0.7093726770193819
 41
2.837671822045641
 42
5.353128752886014
  0
ELLIPSE
  5
EF6D
330
EF4B
100
AcDbEntity
  8
Pel_Clad
370
     0
100
AcDbEllipse
 10
14.55572166131879
 20
1.380332543938553
 30
0.0
 11
-0.125
 21
0.0000000000000001
 31
0.0
210
0.0
220
0.0
230
1.0
 40
0.7093726770193819
 41
0.0
 42
6.283185307179586
  0
LINE
  5
EF6E
330
EF4B
100
AcDbEntity
  8
Pel_Clad
370
     0
100
AcDbLine
 10
20.01630559984146
 20
0.0608533270562113
 30
0.0
 11
17.89498525628181
 21
2.182173670615853
 31
0.0
  0
ENDBLK
  5
EF6F
330
EF4B
100
AcDbEntity
  8
0
370
     0
100
AcDbBlockEnd
  0
BLOCK
  5
F07D
330
EF70
100
AcDbEntity
  8
0
100
AcDbBlockBegin
  2
500P
 70
     0
 10
0.0
 20
0.0
 30
0.0
  3
500P
  1

  0
POLYLINE
  5
EF71
330
EF70
100
AcDbEntity
  8
Pel_Clad
100
AcDb2dPolyline
 66
     1
 10
0.0
 20
0.0
 30
0.0
  0
VERTEX
  5
EF72
330
EF71
100
AcDbEntity
  8
Pel_Clad
100
AcDbVertex
100
AcDb2dVertex
 10
9.539564248671702
 20
2.839077394884494
 30
0.0
  0
VERTEX
  5
EF73
330
EF71
100
AcDbEntity
  8
Pel_Clad
100
AcDbVertex
100
AcDb2dVertex
 10
9.508918228613561
 20
2.830865818558685
 30
0.0
  0
VERTEX
  5
EF74
330
EF71
100
AcDbEntity
  8
Pel_Clad
100
AcDbVertex
100
AcDb2dVertex
 10
9.582711708428705
 20
2.695384624849368
 30
0.0
  0
VERTEX
  5
EF75
330
EF71
100
AcDbEntity
  8
Pel_Clad
100
AcDbVertex
100
AcDb2dVertex
 10
9.302077404873674
 20
2.775442986875775
 30
0.0
  0
VERTEX
  5
EF76
330
EF71
100
AcDbEntity
  8
Pel_Clad
100
AcDbVertex
100
AcDb2dVertex
 10
9.265212741740484
 20
2.765565130159987
 30
0.0
  0
VERTEX
  5
EF77
330
EF71
100
AcDbEntity
  8
Pel_Clad
100
AcDbVertex
100
AcDb2dVertex
 10
9.598249913250983
 20
2.667195693645511
 30
0.0
  0
VERTEX
  5
EF78
330
EF71
100
AcDbEntity
  8
Pel_Clad
100
AcDbVertex
100
AcDb2dVertex
 10
9.628095530425094
 20
2.675192802664922
 30
0.0
  0
VERTEX
  5
EF79
330
EF71
100
AcDbEntity
  8
Pel_Clad
100
AcDbVertex
100
AcDb2dVertex
 10
9.539564248671702
 20
2.839077394884494
 30
0.0
  0
SEQEND
  5
EF7A
330
EF71
100
AcDbEntity
  8
Pel_Clad
  0
INSERT
  5
EF7B
330
EF70
100
AcDbEntity
  8
Pel_Clad
370
     0
100
AcDbBlockReference
  2
asdfetrtewwer
 10
0.0
 20
0.0000000000000009
 30
0.0
 50
15.0
  0
POLYLINE
  5
EF7C
330
EF70
100
AcDbEntity
  8
Pel_Clad
100
AcDb2dPolyline
 66
     1
 10
0.0
 20
0.0
 30
0.0
  0
VERTEX
  5
EF7D
330
EF7C
100
AcDbEntity
  8
Pel_Clad
100
AcDbVertex
100
AcDb2dVertex
 10
7.15552459157841
 20
3.970949786038077
 30
0.0
  0
VERTEX
  5
EF7E
330
EF7C
100
AcDbEntity
  8
Pel_Clad
100
AcDbVertex
100
AcDb2dVertex
 10
7.186170611636555
 20
3.979161362363873
 30
0.0
  0
VERTEX
  5
EF7F
330
EF7C
100
AcDbEntity
  8
Pel_Clad
100
AcDbVertex
100
AcDb2dVertex
 10
7.109605237777007
 20
4.123205152230489
 30
0.0
  0
VERTEX
  5
EF80
330
EF7C
100
AcDbEntity
  8
Pel_Clad
100
AcDbVertex
100
AcDb2dVertex
 10
7.383837089403639
 20
4.032125935452194
 30
0.0
  0
VERTEX
  5
EF81
330
EF7C
100
AcDbEntity
  8
Pel_Clad
100
AcDbVertex
100
AcDb2dVertex
 10
7.429876098509672
 20
4.044462050762466
 30
0.0
  0
VERTEX
  5
EF82
330
EF7C
100
AcDbEntity
  8
Pel_Clad
100
AcDbVertex
100
AcDb2dVertex
 10
7.09683892699921
 20
4.142831487277062
 30
0.0
  0
VERTEX
  5
EF83
330
EF7C
100
AcDbEntity
  8
Pel_Clad
100
AcDbVertex
100
AcDb2dVertex
 10
7.066993309825094
 20
4.134834378257662
 30
0.0
  0
VERTEX
  5
EF84
330
EF7C
100
AcDbEntity
  8
Pel_Clad
100
AcDbVertex
100
AcDb2dVertex
 10
7.15552459157841
 20
3.970949786038077
 30
0.0
  0
SEQEND
  5
EF85
330
EF7C
100
AcDbEntity
  8
Pel_Clad
  0
POLYLINE
  5
EF86
330
EF70
100
AcDbEntity
  8
Pel_TXT
100
AcDb2dPolyline
 66
     1
 10
0.0
 20
0.0
 30
0.0
 70
     1
  0
VERTEX
  5
EF87
330
EF86
100
AcDbEntity
  8
Pel_TXT
100
AcDbVertex
100
AcDb2dVertex
 10
8.560300521719758
 20
2.923539320537048
 30
0.0
  0
VERTEX
  5
EF88
330
EF86
100
AcDbEntity
  8
Pel_TXT
100
AcDbVertex
100
AcDb2dVertex
 10
8.683660106994631
 20
2.852317630771477
 30
0.0
  0
VERTEX
  5
EF89
330
EF86
100
AcDbEntity
  8
Pel_TXT
100
AcDbVertex
100
AcDb2dVertex
 10
8.432235640114967
 20
2.889224438932257
 30
0.0
  0
VERTEX
  5
EF8A
330
EF86
100
AcDbEntity
  8
Pel_TXT
100
AcDbVertex
100
AcDb2dVertex
 10
8.389547346246704
 20
2.877786145063993
 30
0.0
  0
VERTEX
  5
EF8B
330
EF86
100
AcDbEntity
  8
Pel_TXT
100
AcDbVertex
100
AcDb2dVertex
 10
8.5793828013124
 20
2.768184593980077
 30
0.0
  0
VERTEX
  5
EF8C
330
EF86
100
AcDbEntity
  8
Pel_TXT
100
AcDbVertex
100
AcDb2dVertex
 10
8.622071095180663
 20
2.779622887848341
 30
0.0
  0
VERTEX
  5
EF8D
330
EF86
100
AcDbEntity
  8
Pel_TXT
100
AcDbVertex
100
AcDb2dVertex
 10
8.498711509905795
 20
2.850844577613908
 30
0.0
  0
VERTEX
  5
EF8E
330
EF86
100
AcDbEntity
  8
Pel_TXT
100
AcDbVertex
100
AcDb2dVertex
 10
8.750135976785454
 20
2.813937769453132
 30
0.0
  0
VERTEX
  5
EF8F
330
EF86
100
AcDbEntity
  8
Pel_TXT
100
AcDbVertex
100
AcDb2dVertex
 10
8.792824270653715
 20
2.825376063321395
 30
0.0
  0
VERTEX
  5
EF90
330
EF86
100
AcDbEntity
  8
Pel_TXT
100
AcDbVertex
100
AcDb2dVertex
 10
8.602988815588021
 20
2.934977614405311
 30
0.0
  0
SEQEND
  5
EF91
330
EF86
100
AcDbEntity
  8
Pel_TXT
  0
POLYLINE
  5
EF92
330
EF70
100
AcDbEntity
  8
Pel_TXT
100
AcDb2dPolyline
 66
     1
 10
0.0
 20
0.0
 30
0.0
 70
     1
  0
VERTEX
  5
EF93
330
EF92
100
AcDbEntity
  8
Pel_TXT
100
AcDbVertex
100
AcDb2dVertex
 10
8.304170758510176
 20
2.854909557327466
 30
0.0
  0
VERTEX
  5
EF94
330
EF92
100
AcDbEntity
  8
Pel_TXT
100
AcDbVertex
100
AcDb2dVertex
 10
8.494006213575874
 20
2.74530800624355
 30
0.0
  0
VERTEX
  5
EF95
330
EF92
100
AcDbEntity
  8
Pel_TXT
100
AcDbVertex
100
AcDb2dVertex
 10
8.536694507444137
 20
2.756746300111814
 30
0.0
  0
VERTEX
  5
EF96
330
EF92
100
AcDbEntity
  8
Pel_TXT
100
AcDbVertex
100
AcDb2dVertex
 10
8.346859052378441
 20
2.86634785119573
 30
0.0
  0
SEQEND
  5
EF97
330
EF92
100
AcDbEntity
  8
Pel_TXT
  0
POLYLINE
  5
EF98
330
EF70
100
AcDbEntity
  8
Pel_TXT
100
AcDb2dPolyline
 66
     1
 10
0.0
 20
0.0
 30
0.0
 70
     1
  0
VERTEX
  5
EF99
330
EF98
100
AcDbEntity
  8
Pel_TXT
100
AcDbVertex
100
AcDb2dVertex
 10
8.645677109456284
 20
2.946415908273575
 30
0.0
  0
VERTEX
  5
EF9A
330
EF98
100
AcDbEntity
  8
Pel_TXT
100
AcDbVertex
100
AcDb2dVertex
 10
8.683950386687271
 20
2.924318821361495
 30
0.0
  0
VERTEX
  5
EF9B
330
EF98
100
AcDbEntity
  8
Pel_TXT
100
AcDbVertex
100
AcDb2dVertex
 10
8.769326974423799
 20
2.947195409098022
 30
0.0
  0
VERTEX
  5
EF9C
330
EF98
100
AcDbEntity
  8
Pel_TXT
100
AcDbVertex
100
AcDb2dVertex
 10
8.920889152258506
 20
2.859690944926186
 30
0.0
  0
VERTEX
  5
EF9D
330
EF98
100
AcDbEntity
  8
Pel_TXT
100
AcDbVertex
100
AcDb2dVertex
 10
8.96357744612677
 20
2.87112923879445
 30
0.0
  0
VERTEX
  5
EF9E
330
EF98
100
AcDbEntity
  8
Pel_TXT
100
AcDbVertex
100
AcDb2dVertex
 10
8.812015268292062
 20
2.958633702966285
 30
0.0
  0
VERTEX
  5
EF9F
330
EF98
100
AcDbEntity
  8
Pel_TXT
100
AcDbVertex
100
AcDb2dVertex
 10
8.897391856028587
 20
2.981510290702813
 30
0.0
  0
VERTEX
  5
EFA0
330
EF98
100
AcDbEntity
  8
Pel_TXT
100
AcDbVertex
100
AcDb2dVertex
 10
8.8591185787976
 20
3.003607377614893
 30
0.0
  0
SEQEND
  5
EFA1
330
EF98
100
AcDbEntity
  8
Pel_TXT
  0
POLYLINE
  5
EFA2
330
EF70
100
AcDbEntity
  8
Pel_TXT
100
AcDb2dPolyline
 66
     1
 10
0.0
 20
0.0
 30
0.0
 70
     1
  0
VERTEX
  5
EFA3
330
EFA2
100
AcDbEntity
  8
Pel_TXT
100
AcDbVertex
100
AcDb2dVertex
 10
9.063131770481911
 20
2.994188952004616
 30
0.0
  0
VERTEX
  5
EFA4
330
EFA2
100
AcDbEntity
  8
Pel_TXT
100
AcDbVertex
100
AcDb2dVertex
 10
9.020375175343456
 20
2.982732356866163
 30
0.0
  0
VERTEX
  5
EFA5
330
EFA2
100
AcDbEntity
  8
Pel_TXT
100
AcDbVertex
100
AcDb2dVertex
 10
8.982836745035303
 20
3.004405179709529
 30
0.0
  0
VERTEX
  5
EFA6
330
EFA2
100
AcDbEntity
  8
Pel_TXT
100
AcDbVertex
100
AcDb2dVertex
 10
9.068349935312209
 20
3.027318369986435
 30
0.0
  0
VERTEX
  5
EFA7
330
EFA2
100
AcDbEntity
  8
Pel_TXT
100
AcDbVertex
100
AcDb2dVertex
 10
9.030076658081222
 20
3.049415456898515
 30
0.0
  0
VERTEX
  5
EFA8
330
EFA2
100
AcDbEntity
  8
Pel_TXT
100
AcDbVertex
100
AcDb2dVertex
 10
8.901806872665863
 20
3.015045671483156
 30
0.0
  0
VERTEX
  5
EFA9
330
EFA2
100
AcDbEntity
  8
Pel_TXT
100
AcDbVertex
100
AcDb2dVertex
 10
9.091642327731559
 20
2.905444120399242
 30
0.0
  0
VERTEX
  5
EFAA
330
EFA2
100
AcDbEntity
  8
Pel_TXT
100
AcDbVertex
100
AcDb2dVertex
 10
9.219912113146916
 20
2.9398139058146
 30
0.0
  0
VERTEX
  5
EFAB
330
EFA2
100
AcDbEntity
  8
Pel_TXT
100
AcDbVertex
100
AcDb2dVertex
 10
9.181638835915927
 20
2.961910992726679
 30
0.0
  0
VERTEX
  5
EFAC
330
EFA2
100
AcDbEntity
  8
Pel_TXT
100
AcDbVertex
100
AcDb2dVertex
 10
9.096125645639025
 20
2.938997802449775
 30
0.0
  0
VERTEX
  5
EFAD
330
EFA2
100
AcDbEntity
  8
Pel_TXT
100
AcDbVertex
100
AcDb2dVertex
 10
9.058587215330874
 20
2.960670625293142
 30
0.0
  0
VERTEX
  5
EFAE
330
EFA2
100
AcDbEntity
  8
Pel_TXT
100
AcDbVertex
100
AcDb2dVertex
 10
9.101343810469323
 20
2.972127220431595
 30
0.0
  0
SEQEND
  5
EFAF
330
EFA2
100
AcDbEntity
  8
Pel_TXT
  0
POLYLINE
  5
EFB0
330
EF70
100
AcDbEntity
  8
Pel_TXT
100
AcDb2dPolyline
 66
     1
 10
0.0
 20
0.0
 30
0.0
 70
     1
  0
VERTEX
  5
EFB1
330
EFB0
100
AcDbEntity
  8
Pel_TXT
100
AcDbVertex
100
AcDb2dVertex
 10
9.28654792764175
 20
3.118136726459044
 30
0.0
  0
VERTEX
  5
EFB2
330
EFB0
100
AcDbEntity
  8
Pel_TXT
100
AcDbVertex
100
AcDb2dVertex
 10
9.476383382707448
 20
3.008535175375128
 30
0.0
  0
VERTEX
  5
EFB3
330
EFB0
100
AcDbEntity
  8
Pel_TXT
100
AcDbVertex
100
AcDb2dVertex
 10
9.519071676575711
 20
3.019973469243391
 30
0.0
  0
VERTEX
  5
EFB4
330
EFB0
100
AcDbEntity
  8
Pel_TXT
100
AcDbVertex
100
AcDb2dVertex
 10
9.329236221510015
 20
3.129575020327307
 30
0.0
  0
SEQEND
  5
EFB5
330
EFB0
100
AcDbEntity
  8
Pel_TXT
  0
POLYLINE
  5
EFB6
330
EF70
100
AcDbEntity
  8
Pel_TXT
100
AcDb2dPolyline
 66
     1
 10
0.0
 20
0.0
 30
0.0
 70
     1
  0
VERTEX
  5
EFB7
330
EFB6
100
AcDbEntity
  8
Pel_TXT
100
AcDbVertex
100
AcDb2dVertex
 10
7.144032621628669
 20
3.814252887389379
 30
0.0
  0
VERTEX
  5
EFB8
330
EFB6
100
AcDbEntity
  8
Pel_TXT
100
AcDbVertex
100
AcDb2dVertex
 10
7.182305898859656
 20
3.792155800477298
 30
0.0
  0
VERTEX
  5
EFB9
330
EFB6
100
AcDbEntity
  8
Pel_TXT
100
AcDbVertex
100
AcDb2dVertex
 10
7.267682486596184
 20
3.815032388213826
 30
0.0
  0
VERTEX
  5
EFBA
330
EFB6
100
AcDbEntity
  8
Pel_TXT
100
AcDbVertex
100
AcDb2dVertex
 10
7.419244664430891
 20
3.727527924041989
 30
0.0
  0
VERTEX
  5
EFBB
330
EFB6
100
AcDbEntity
  8
Pel_TXT
100
AcDbVertex
100
AcDb2dVertex
 10
7.461932958299154
 20
3.738966217910253
 30
0.0
  0
VERTEX
  5
EFBC
330
EFB6
100
AcDbEntity
  8
Pel_TXT
100
AcDbVertex
100
AcDb2dVertex
 10
7.310370780464447
 20
3.826470682082089
 30
0.0
  0
VERTEX
  5
EFBD
330
EFB6
100
AcDbEntity
  8
Pel_TXT
100
AcDbVertex
100
AcDb2dVertex
 10
7.395747368200972
 20
3.849347269818616
 30
0.0
  0
VERTEX
  5
EFBE
330
EFB6
100
AcDbEntity
  8
Pel_TXT
100
AcDbVertex
100
AcDb2dVertex
 10
7.357474090969985
 20
3.871444356730696
 30
0.0
  0
SEQEND
  5
EFBF
330
EFB6
100
AcDbEntity
  8
Pel_TXT
  0
POLYLINE
  5
EFC0
330
EF70
100
AcDbEntity
  8
Pel_TXT
100
AcDb2dPolyline
 66
     1
 10
0.0
 20
0.0
 30
0.0
 70
     1
  0
VERTEX
  5
EFC1
330
EFC0
100
AcDbEntity
  8
Pel_TXT
100
AcDbVertex
100
AcDb2dVertex
 10
7.561487282654296
 20
3.862025931120419
 30
0.0
  0
VERTEX
  5
EFC2
330
EFC0
100
AcDbEntity
  8
Pel_TXT
100
AcDbVertex
100
AcDb2dVertex
 10
7.518730687515841
 20
3.850569335981966
 30
0.0
  0
VERTEX
  5
EFC3
330
EFC0
100
AcDbEntity
  8
Pel_TXT
100
AcDbVertex
100
AcDb2dVertex
 10
7.481192257207688
 20
3.872242158825333
 30
0.0
  0
VERTEX
  5
EFC4
330
EFC0
100
AcDbEntity
  8
Pel_TXT
100
AcDbVertex
100
AcDb2dVertex
 10
7.566705447484594
 20
3.895155349102239
 30
0.0
  0
VERTEX
  5
EFC5
330
EFC0
100
AcDbEntity
  8
Pel_TXT
100
AcDbVertex
100
AcDb2dVertex
 10
7.528432170253607
 20
3.917252436014319
 30
0.0
  0
VERTEX
  5
EFC6
330
EFC0
100
AcDbEntity
  8
Pel_TXT
100
AcDbVertex
100
AcDb2dVertex
 10
7.400162384838248
 20
3.882882650598959
 30
0.0
  0
VERTEX
  5
EFC7
330
EFC0
100
AcDbEntity
  8
Pel_TXT
100
AcDbVertex
100
AcDb2dVertex
 10
7.589997839903944
 20
3.773281099515045
 30
0.0
  0
VERTEX
  5
EFC8
330
EFC0
100
AcDbEntity
  8
Pel_TXT
100
AcDbVertex
100
AcDb2dVertex
 10
7.718267625319301
 20
3.807650884930404
 30
0.0
  0
VERTEX
  5
EFC9
330
EFC0
100
AcDbEntity
  8
Pel_TXT
100
AcDbVertex
100
AcDb2dVertex
 10
7.679994348088312
 20
3.829747971842483
 30
0.0
  0
VERTEX
  5
EFCA
330
EFC0
100
AcDbEntity
  8
Pel_TXT
100
AcDbVertex
100
AcDb2dVertex
 10
7.59448115781141
 20
3.806834781565578
 30
0.0
  0
VERTEX
  5
EFCB
330
EFC0
100
AcDbEntity
  8
Pel_TXT
100
AcDbVertex
100
AcDb2dVertex
 10
7.556942727503258
 20
3.828507604408946
 30
0.0
  0
VERTEX
  5
EFCC
330
EFC0
100
AcDbEntity
  8
Pel_TXT
100
AcDbVertex
100
AcDb2dVertex
 10
7.599699322641708
 20
3.839964199547399
 30
0.0
  0
SEQEND
  5
EFCD
330
EFC0
100
AcDbEntity
  8
Pel_TXT
  0
POLYLINE
  5
EFCE
330
EF70
100
AcDbEntity
  8
Pel_TXT
100
AcDb2dPolyline
 66
     1
 10
0.0
 20
0.0
 30
0.0
 70
     1
  0
VERTEX
  5
EFCF
330
EFCE
100
AcDbEntity
  8
Pel_TXT
100
AcDbVertex
100
AcDb2dVertex
 10
7.784903439814135
 20
3.985973705574847
 30
0.0
  0
VERTEX
  5
EFD0
330
EFCE
100
AcDbEntity
  8
Pel_TXT
100
AcDbVertex
100
AcDb2dVertex
 10
7.974738894879832
 20
3.876372154490931
 30
0.0
  0
VERTEX
  5
EFD1
330
EFCE
100
AcDbEntity
  8
Pel_TXT
100
AcDbVertex
100
AcDb2dVertex
 10
8.017427188748095
 20
3.887810448359195
 30
0.0
  0
VERTEX
  5
EFD2
330
EFCE
100
AcDbEntity
  8
Pel_TXT
100
AcDbVertex
100
AcDb2dVertex
 10
7.8275917336824
 20
3.997411999443111
 30
0.0
  0
SEQEND
  5
EFD3
330
EFCE
100
AcDbEntity
  8
Pel_TXT
  0
POLYLINE
  5
EFD4
330
EF70
100
AcDbEntity
  8
Pel_TXT
100
AcDb2dPolyline
 66
     1
 10
0.0
 20
0.0
 30
0.0
 70
     1
  0
VERTEX
  5
EFD5
330
EFD4
100
AcDbEntity
  8
Pel_TXT
100
AcDbVertex
100
AcDb2dVertex
 10
6.878269676951514
 20
3.678958325417634
 30
0.0
  0
VERTEX
  5
EFD6
330
EFD4
100
AcDbEntity
  8
Pel_TXT
100
AcDbVertex
100
AcDb2dVertex
 10
6.83551308181306
 20
3.667501730279181
 30
0.0
  0
VERTEX
  5
EFD7
330
EFD4
100
AcDbEntity
  8
Pel_TXT
100
AcDbVertex
100
AcDb2dVertex
 10
6.797974651504906
 20
3.689174553122548
 30
0.0
  0
VERTEX
  5
EFD8
330
EFD4
100
AcDbEntity
  8
Pel_TXT
100
AcDbVertex
100
AcDb2dVertex
 10
6.883487841781812
 20
3.712087743399454
 30
0.0
  0
VERTEX
  5
EFD9
330
EFD4
100
AcDbEntity
  8
Pel_TXT
100
AcDbVertex
100
AcDb2dVertex
 10
6.845214564550825
 20
3.734184830311534
 30
0.0
  0
VERTEX
  5
EFDA
330
EFD4
100
AcDbEntity
  8
Pel_TXT
100
AcDbVertex
100
AcDb2dVertex
 10
6.716944779135467
 20
3.699815044896174
 30
0.0
  0
VERTEX
  5
EFDB
330
EFD4
100
AcDbEntity
  8
Pel_TXT
100
AcDbVertex
100
AcDb2dVertex
 10
6.906780234201162
 20
3.59021349381226
 30
0.0
  0
VERTEX
  5
EFDC
330
EFD4
100
AcDbEntity
  8
Pel_TXT
100
AcDbVertex
100
AcDb2dVertex
 10
7.035050019616519
 20
3.624583279227619
 30
0.0
  0
VERTEX
  5
EFDD
330
EFD4
100
AcDbEntity
  8
Pel_TXT
100
AcDbVertex
100
AcDb2dVertex
 10
6.996776742385531
 20
3.646680366139698
 30
0.0
  0
VERTEX
  5
EFDE
330
EFD4
100
AcDbEntity
  8
Pel_TXT
100
AcDbVertex
100
AcDb2dVertex
 10
6.911263552108628
 20
3.623767175862793
 30
0.0
  0
VERTEX
  5
EFDF
330
EFD4
100
AcDbEntity
  8
Pel_TXT
100
AcDbVertex
100
AcDb2dVertex
 10
6.873725121800477
 20
3.64543999870616
 30
0.0
  0
VERTEX
  5
EFE0
330
EFD4
100
AcDbEntity
  8
Pel_TXT
100
AcDbVertex
100
AcDb2dVertex
 10
6.916481716938926
 20
3.656896593844614
 30
0.0
  0
SEQEND
  5
EFE1
330
EFD4
100
AcDbEntity
  8
Pel_TXT
  0
POLYLINE
  5
EFE2
330
EF70
100
AcDbEntity
  8
Pel_TXT
100
AcDb2dPolyline
 66
     1
 10
0.0
 20
0.0
 30
0.0
 70
     1
  0
VERTEX
  5
EFE3
330
EFE2
100
AcDbEntity
  8
Pel_TXT
100
AcDbVertex
100
AcDb2dVertex
 10
6.876492540922004
 20
3.742565738821072
 30
0.0
  0
VERTEX
  5
EFE4
330
EFE2
100
AcDbEntity
  8
Pel_TXT
100
AcDbVertex
100
AcDb2dVertex
 10
7.068834745634394
 20
3.708508266421154
 30
0.0
  0
VERTEX
  5
EFE5
330
EFE2
100
AcDbEntity
  8
Pel_TXT
100
AcDbVertex
100
AcDb2dVertex
 10
7.077738313484785
 20
3.636021573095883
 30
0.0
  0
VERTEX
  5
EFE6
330
EFE2
100
AcDbEntity
  8
Pel_TXT
100
AcDbVertex
100
AcDb2dVertex
 10
7.120426607353047
 20
3.647459866964146
 30
0.0
  0
VERTEX
  5
EFE7
330
EFE2
100
AcDbEntity
  8
Pel_TXT
100
AcDbVertex
100
AcDb2dVertex
 10
7.113908324451736
 20
3.700527219469798
 30
0.0
  0
VERTEX
  5
EFE8
330
EFE2
100
AcDbEntity
  8
Pel_TXT
100
AcDbVertex
100
AcDb2dVertex
 10
7.237081171460756
 20
3.678717363210211
 30
0.0
  0
VERTEX
  5
EFE9
330
EFE2
100
AcDbEntity
  8
Pel_TXT
100
AcDbVertex
100
AcDb2dVertex
 10
7.302590100323183
 20
3.696270427795926
 30
0.0
  0
VERTEX
  5
EFEA
330
EFE2
100
AcDbEntity
  8
Pel_TXT
100
AcDbVertex
100
AcDb2dVertex
 10
7.110247895610796
 20
3.730327900195845
 30
0.0
  0
VERTEX
  5
EFEB
330
EFE2
100
AcDbEntity
  8
Pel_TXT
100
AcDbVertex
100
AcDb2dVertex
 10
7.101344327760405
 20
3.802814593521117
 30
0.0
  0
VERTEX
  5
EFEC
330
EFE2
100
AcDbEntity
  8
Pel_TXT
100
AcDbVertex
100
AcDb2dVertex
 10
7.058656033892142
 20
3.791376299652853
 30
0.0
  0
VERTEX
  5
EFED
330
EFE2
100
AcDbEntity
  8
Pel_TXT
100
AcDbVertex
100
AcDb2dVertex
 10
7.065174316793454
 20
3.738308947147202
 30
0.0
  0
VERTEX
  5
EFEE
330
EFE2
100
AcDbEntity
  8
Pel_TXT
100
AcDbVertex
100
AcDb2dVertex
 10
6.942001469784436
 20
3.760118803406787
 30
0.0
  0
SEQEND
  5
EFEF
330
EFE2
100
AcDbEntity
  8
Pel_TXT
  0
POLYLINE
  5
EFF0
330
EF70
100
AcDbEntity
  8
Pel_TXT
100
AcDb2dPolyline
 66
     1
 10
0.0
 20
0.0
 30
0.0
 70
     1
  0
VERTEX
  5
EFF1
330
EFF0
100
AcDbEntity
  8
Pel_TXT
100
AcDbVertex
100
AcDb2dVertex
 10
9.796689891868885
 20
3.190745258231546
 30
0.0
 42
0.1917838718610466
  0
VERTEX
  5
EFF2
330
EFF0
100
AcDbEntity
  8
Pel_TXT
100
AcDbVertex
100
AcDb2dVertex
 10
9.786786067545389
 20
3.219822751431653
 30
0.0
 42
0.2716941856356648
  0
VERTEX
  5
EFF3
330
EFF0
100
AcDbEntity
  8
Pel_TXT
100
AcDbVertex
100
AcDb2dVertex
 10
9.731148092535132
 20
3.237266981596968
 30
0.0
  0
VERTEX
  5
EFF4
330
EFF0
100
AcDbEntity
  8
Pel_TXT
100
AcDbVertex
100
AcDb2dVertex
 10
9.58584409361093
 20
3.198332892428215
 30
0.0
  0
VERTEX
  5
EFF5
330
EFF0
100
AcDbEntity
  8
Pel_TXT
100
AcDbVertex
100
AcDb2dVertex
 10
9.669993181134451
 20
3.149749394094449
 30
0.0
  0
VERTEX
  5
EFF6
330
EFF0
100
AcDbEntity
  8
Pel_TXT
100
AcDbVertex
100
AcDb2dVertex
 10
9.68564318113445
 20
3.176855989232905
 30
0.0
  0
VERTEX
  5
EFF7
330
EFF0
100
AcDbEntity
  8
Pel_TXT
100
AcDbVertex
100
AcDb2dVertex
 10
9.666873965980371
 20
3.187692400654593
 30
0.0
  0
VERTEX
  5
EFF8
330
EFF0
100
AcDbEntity
  8
Pel_TXT
100
AcDbVertex
100
AcDb2dVertex
 10
9.723382317448374
 20
3.202833767796053
 30
0.0
 42
-0.0845844068405892
  0
VERTEX
  5
EFF9
330
EFF0
100
AcDbEntity
  8
Pel_TXT
100
AcDbVertex
100
AcDb2dVertex
 10
9.745492775043635
 20
3.205742513136618
 30
0.0
 42
-0.3967034860515609
  0
VERTEX
  5
EFFA
330
EFF0
100
AcDbEntity
  8
Pel_TXT
100
AcDbVertex
100
AcDb2dVertex
 10
9.759307638293998
 20
3.188840477881285
 30
0.0
 42
-0.3652657100786246
  0
VERTEX
  5
EFFB
330
EFF0
100
AcDbEntity
  8
Pel_TXT
100
AcDbVertex
100
AcDb2dVertex
 10
9.748138760865046
 20
3.177736021887431
 30
0.0
  0
VERTEX
  5
EFFC
330
EFF0
100
AcDbEntity
  8
Pel_TXT
100
AcDbVertex
100
AcDb2dVertex
 10
9.704412396288523
 20
3.166019577811218
 30
0.0
  0
VERTEX
  5
EFFD
330
EFF0
100
AcDbEntity
  8
Pel_TXT
100
AcDbVertex
100
AcDb2dVertex
 10
9.685643181134448
 20
3.176855989232905
 30
0.0
  0
VERTEX
  5
EFFE
330
EFF0
100
AcDbEntity
  8
Pel_TXT
100
AcDbVertex
100
AcDb2dVertex
 10
9.669993181134451
 20
3.149749394094449
 30
0.0
  0
VERTEX
  5
EFFF
330
EFF0
100
AcDbEntity
  8
Pel_TXT
100
AcDbVertex
100
AcDb2dVertex
 10
9.775679548676624
 20
3.0887313413443
 30
0.0
  0
VERTEX
  5
F000
330
EFF0
100
AcDbEntity
  8
Pel_TXT
100
AcDbVertex
100
AcDb2dVertex
 10
9.81843614381508
 20
3.100187936482754
 30
0.0
  0
VERTEX
  5
F001
330
EFF0
100
AcDbEntity
  8
Pel_TXT
100
AcDbVertex
100
AcDb2dVertex
 10
9.74262443627594
 20
3.143957846238202
 30
0.0
  0
VERTEX
  5
F002
330
EFF0
100
AcDbEntity
  8
Pel_TXT
100
AcDbVertex
100
AcDb2dVertex
 10
9.757922838408248
 20
3.148057040735039
 30
0.0
  0
VERTEX
  5
F003
330
EFF0
100
AcDbEntity
  8
Pel_TXT
100
AcDbVertex
100
AcDb2dVertex
 10
9.903949334091983
 20
3.123101126759659
 30
0.0
  0
VERTEX
  5
F004
330
EFF0
100
AcDbEntity
  8
Pel_TXT
100
AcDbVertex
100
AcDb2dVertex
 10
9.946705929230441
 20
3.134557721898112
 30
0.0
  0
VERTEX
  5
F005
330
EFF0
100
AcDbEntity
  8
Pel_TXT
100
AcDbVertex
100
AcDb2dVertex
 10
9.779570059192625
 20
3.158769407753145
 30
0.0
 42
0.2107276795032547
  0
SEQEND
  5
F006
330
EFF0
100
AcDbEntity
  8
Pel_TXT
  0
POLYLINE
  5
F007
330
EF70
100
AcDbEntity
  8
Pel_TXT
100
AcDb2dPolyline
 66
     1
 10
0.0
 20
0.0
 30
0.0
 70
     1
  0
VERTEX
  5
F008
330
F007
100
AcDbEntity
  8
Pel_TXT
100
AcDbVertex
100
AcDb2dVertex
 10
9.6180455464307
 20
3.143599248123153
 30
0.0
 42
0.0517892576861204
  0
VERTEX
  5
F009
330
F007
100
AcDbEntity
  8
Pel_TXT
100
AcDbVertex
100
AcDb2dVertex
 10
9.58161037845886
 20
3.161114402209932
 30
0.0
  0
VERTEX
  5
F00A
330
F007
100
AcDbEntity
  8
Pel_TXT
100
AcDbVertex
100
AcDb2dVertex
 10
9.571035846636283
 20
3.131654230655274
 30
0.0
 42
-0.0447724325999882
  0
VERTEX
  5
F00B
330
F007
100
AcDbEntity
  8
Pel_TXT
100
AcDbVertex
100
AcDb2dVertex
 10
9.604434333185723
 20
3.115906906176378
 30
0.0
 42
-0.2327042929649516
  0
VERTEX
  5
F00C
330
F007
100
AcDbEntity
  8
Pel_TXT
100
AcDbVertex
100
AcDb2dVertex
 10
9.621702441559953
 20
3.092366003559611
 30
0.0
 42
-0.4279251975622668
  0
VERTEX
  5
F00D
330
F007
100
AcDbEntity
  8
Pel_TXT
100
AcDbVertex
100
AcDb2dVertex
 10
9.604538527857277
 20
3.076785600549051
 30
0.0
 42
-0.0317946629726671
  0
VERTEX
  5
F00E
330
F007
100
AcDbEntity
  8
Pel_TXT
100
AcDbVertex
100
AcDb2dVertex
 10
9.570727069884423
 20
3.079079075444334
 30
0.0
 42
-0.0341119921422415
  0
VERTEX
  5
F00F
330
F007
100
AcDbEntity
  8
Pel_TXT
100
AcDbVertex
100
AcDb2dVertex
 10
9.544032787130676
 20
3.084536988323616
 30
0.0
 42
-0.0833665214976907
  0
VERTEX
  5
F010
330
F007
100
AcDbEntity
  8
Pel_TXT
100
AcDbVertex
100
AcDb2dVertex
 10
9.484027405938102
 20
3.112510208260047
 30
0.0
 42
-0.4284933200085863
  0
VERTEX
  5
F011
330
F007
100
AcDbEntity
  8
Pel_TXT
100
AcDbVertex
100
AcDb2dVertex
 10
9.478352609986714
 20
3.136174472498859
 30
0.0
 42
-0.1684531600105431
  0
VERTEX
  5
F012
330
F007
100
AcDbEntity
  8
Pel_TXT
100
AcDbVertex
100
AcDb2dVertex
 10
9.494284692173268
 20
3.144859586478724
 30
0.0
 42
-0.0721952626105618
  0
VERTEX
  5
F013
330
F007
100
AcDbEntity
  8
Pel_TXT
100
AcDbVertex
100
AcDb2dVertex
 10
9.535367535444784
 20
3.141204555717084
 30
0.0
 42
-0.0447724326000407
  0
VERTEX
  5
F014
330
F007
100
AcDbEntity
  8
Pel_TXT
100
AcDbVertex
100
AcDb2dVertex
 10
9.571035846636283
 20
3.131654230655273
 30
0.0
  0
VERTEX
  5
F015
330
F007
100
AcDbEntity
  8
Pel_TXT
100
AcDbVertex
100
AcDb2dVertex
 10
9.58161037845886
 20
3.161114402209932
 30
0.0
 42
0.0541891931492449
  0
VERTEX
  5
F016
330
F007
100
AcDbEntity
  8
Pel_TXT
100
AcDbVertex
100
AcDb2dVertex
 10
9.540496872002773
 20
3.171016537999927
 30
0.0
 42
0.14976325070627
  0
VERTEX
  5
F017
330
F007
100
AcDbEntity
  8
Pel_TXT
100
AcDbVertex
100
AcDb2dVertex
 10
9.458748356729962
 20
3.16295484516666
 30
0.0
 42
0.2875238904861513
  0
VERTEX
  5
F018
330
F007
100
AcDbEntity
  8
Pel_TXT
100
AcDbVertex
100
AcDb2dVertex
 10
9.439989991061871
 20
3.128436590204778
 30
0.0
 42
0.2250999695428656
  0
VERTEX
  5
F019
330
F007
100
AcDbEntity
  8
Pel_TXT
100
AcDbVertex
100
AcDb2dVertex
 10
9.466978845451508
 20
3.086249141193992
 30
0.0
 42
0.082454308384993
  0
VERTEX
  5
F01A
330
F007
100
AcDbEntity
  8
Pel_TXT
100
AcDbVertex
100
AcDb2dVertex
 10
9.53568777787737
 20
3.054369939734762
 30
0.0
 42
0.0336515295429965
  0
VERTEX
  5
F01B
330
F007
100
AcDbEntity
  8
Pel_TXT
100
AcDbVertex
100
AcDb2dVertex
 10
9.566139913015042
 20
3.048114507892619
 30
0.0
 42
0.0777606769614761
  0
VERTEX
  5
F01C
330
F007
100
AcDbEntity
  8
Pel_TXT
100
AcDbVertex
100
AcDb2dVertex
 10
9.622479715189383
 20
3.047925011355523
 30
0.0
 42
0.4620434619817165
  0
VERTEX
  5
F01D
330
F007
100
AcDbEntity
  8
Pel_TXT
100
AcDbVertex
100
AcDb2dVertex
 10
9.652629134095723
 20
3.104990483781756
 30
0.0
 42
0.1849808036537636
  0
SEQEND
  5
F01E
330
F007
100
AcDbEntity
  8
Pel_TXT
  0
POLYLINE
  5
F01F
330
EF70
100
AcDbEntity
  8
Pel_TXT
100
AcDb2dPolyline
 66
     1
 10
0.0
 20
0.0
 30
0.0
 70
     1
  0
VERTEX
  5
F020
330
F01F
100
AcDbEntity
  8
Pel_TXT
100
AcDbVertex
100
AcDb2dVertex
 10
9.283610750207442
 20
3.053266116570109
 30
0.0
 42
0.1917838718610466
  0
VERTEX
  5
F021
330
F01F
100
AcDbEntity
  8
Pel_TXT
100
AcDbVertex
100
AcDb2dVertex
 10
9.273706925883946
 20
3.082343609770215
 30
0.0
 42
0.2716941856356648
  0
VERTEX
  5
F022
330
F01F
100
AcDbEntity
  8
Pel_TXT
100
AcDbVertex
100
AcDb2dVertex
 10
9.218068950873689
 20
3.09978783993553
 30
0.0
  0
VERTEX
  5
F023
330
F01F
100
AcDbEntity
  8
Pel_TXT
100
AcDbVertex
100
AcDb2dVertex
 10
9.072764951949487
 20
3.060853750766778
 30
0.0
  0
VERTEX
  5
F024
330
F01F
100
AcDbEntity
  8
Pel_TXT
100
AcDbVertex
100
AcDb2dVertex
 10
9.156914039473008
 20
3.012270252433011
 30
0.0
  0
VERTEX
  5
F025
330
F01F
100
AcDbEntity
  8
Pel_TXT
100
AcDbVertex
100
AcDb2dVertex
 10
9.172564039473007
 20
3.039376847571467
 30
0.0
  0
VERTEX
  5
F026
330
F01F
100
AcDbEntity
  8
Pel_TXT
100
AcDbVertex
100
AcDb2dVertex
 10
9.153794824318929
 20
3.050213258993156
 30
0.0
  0
VERTEX
  5
F027
330
F01F
100
AcDbEntity
  8
Pel_TXT
100
AcDbVertex
100
AcDb2dVertex
 10
9.210303175786931
 20
3.065354626134616
 30
0.0
 42
-0.0845844068405892
  0
VERTEX
  5
F028
330
F01F
100
AcDbEntity
  8
Pel_TXT
100
AcDbVertex
100
AcDb2dVertex
 10
9.232413633382192
 20
3.06826337147518
 30
0.0
 42
-0.3967034860515609
  0
VERTEX
  5
F029
330
F01F
100
AcDbEntity
  8
Pel_TXT
100
AcDbVertex
100
AcDb2dVertex
 10
9.246228496632555
 20
3.051361336219847
 30
0.0
 42
-0.3652657100786246
  0
VERTEX
  5
F02A
330
F01F
100
AcDbEntity
  8
Pel_TXT
100
AcDbVertex
100
AcDb2dVertex
 10
9.235059619203603
 20
3.040256880225993
 30
0.0
  0
VERTEX
  5
F02B
330
F01F
100
AcDbEntity
  8
Pel_TXT
100
AcDbVertex
100
AcDb2dVertex
 10
9.19133325462708
 20
3.02854043614978
 30
0.0
  0
VERTEX
  5
F02C
330
F01F
100
AcDbEntity
  8
Pel_TXT
100
AcDbVertex
100
AcDb2dVertex
 10
9.172564039473005
 20
3.039376847571467
 30
0.0
  0
VERTEX
  5
F02D
330
F01F
100
AcDbEntity
  8
Pel_TXT
100
AcDbVertex
100
AcDb2dVertex
 10
9.156914039473008
 20
3.012270252433012
 30
0.0
  0
VERTEX
  5
F02E
330
F01F
100
AcDbEntity
  8
Pel_TXT
100
AcDbVertex
100
AcDb2dVertex
 10
9.262600407015181
 20
2.951252199682862
 30
0.0
  0
VERTEX
  5
F02F
330
F01F
100
AcDbEntity
  8
Pel_TXT
100
AcDbVertex
100
AcDb2dVertex
 10
9.305357002153638
 20
2.962708794821317
 30
0.0
  0
VERTEX
  5
F030
330
F01F
100
AcDbEntity
  8
Pel_TXT
100
AcDbVertex
100
AcDb2dVertex
 10
9.229545294614498
 20
3.006478704576764
 30
0.0
  0
VERTEX
  5
F031
330
F01F
100
AcDbEntity
  8
Pel_TXT
100
AcDbVertex
100
AcDb2dVertex
 10
9.244843696746805
 20
3.010577899073601
 30
0.0
  0
VERTEX
  5
F032
330
F01F
100
AcDbEntity
  8
Pel_TXT
100
AcDbVertex
100
AcDb2dVertex
 10
9.39087019243054
 20
2.985621985098221
 30
0.0
  0
VERTEX
  5
F033
330
F01F
100
AcDbEntity
  8
Pel_TXT
100
AcDbVertex
100
AcDb2dVertex
 10
9.433626787568998
 20
2.997078580236675
 30
0.0
  0
VERTEX
  5
F034
330
F01F
100
AcDbEntity
  8
Pel_TXT
100
AcDbVertex
100
AcDb2dVertex
 10
9.266490917531182
 20
3.021290266091708
 30
0.0
 42
0.2107276795032547
  0
SEQEND
  5
F035
330
F01F
100
AcDbEntity
  8
Pel_TXT
  0
POLYLINE
  5
F036
330
EF70
100
AcDbEntity
  8
Pel_TXT
100
AcDb2dPolyline
 66
     1
 10
0.0
 20
0.0
 30
0.0
 70
     1
  0
VERTEX
  5
F037
330
F036
100
AcDbEntity
  8
Pel_TXT
100
AcDbVertex
100
AcDb2dVertex
 10
8.116401058603084
 20
4.011436227238956
 30
0.0
 42
0.0517892576861204
  0
VERTEX
  5
F038
330
F036
100
AcDbEntity
  8
Pel_TXT
100
AcDbVertex
100
AcDb2dVertex
 10
8.079965890631246
 20
4.028951381325736
 30
0.0
  0
VERTEX
  5
F039
330
F036
100
AcDbEntity
  8
Pel_TXT
100
AcDbVertex
100
AcDb2dVertex
 10
8.069391358808669
 20
3.999491209771077
 30
0.0
 42
-0.0447724325999882
  0
VERTEX
  5
F03A
330
F036
100
AcDbEntity
  8
Pel_TXT
100
AcDbVertex
100
AcDb2dVertex
 10
8.10278984535811
 20
3.983743885292181
 30
0.0
 42
-0.2327042929649516
  0
VERTEX
  5
F03B
330
F036
100
AcDbEntity
  8
Pel_TXT
100
AcDbVertex
100
AcDb2dVertex
 10
8.120057953732338
 20
3.960202982675415
 30
0.0
 42
-0.4279251975622668
  0
VERTEX
  5
F03C
330
F036
100
AcDbEntity
  8
Pel_TXT
100
AcDbVertex
100
AcDb2dVertex
 10
8.102894040029664
 20
3.944622579664855
 30
0.0
 42
-0.0317946629726671
  0
VERTEX
  5
F03D
330
F036
100
AcDbEntity
  8
Pel_TXT
100
AcDbVertex
100
AcDb2dVertex
 10
8.069082582056807
 20
3.946916054560137
 30
0.0
 42
-0.0341119921422415
  0
VERTEX
  5
F03E
330
F036
100
AcDbEntity
  8
Pel_TXT
100
AcDbVertex
100
AcDb2dVertex
 10
8.042388299303063
 20
3.952373967439419
 30
0.0
 42
-0.0833665214976907
  0
VERTEX
  5
F03F
330
F036
100
AcDbEntity
  8
Pel_TXT
100
AcDbVertex
100
AcDb2dVertex
 10
7.982382918110487
 20
3.980347187375851
 30
0.0
 42
-0.4284933200085863
  0
VERTEX
  5
F040
330
F036
100
AcDbEntity
  8
Pel_TXT
100
AcDbVertex
100
AcDb2dVertex
 10
7.9767081221591
 20
4.004011451614662
 30
0.0
 42
-0.1684531600105431
  0
VERTEX
  5
F041
330
F036
100
AcDbEntity
  8
Pel_TXT
100
AcDbVertex
100
AcDb2dVertex
 10
7.992640204345653
 20
4.012696565594527
 30
0.0
 42
-0.0721952626105618
  0
VERTEX
  5
F042
330
F036
100
AcDbEntity
  8
Pel_TXT
100
AcDbVertex
100
AcDb2dVertex
 10
8.033723047617169
 20
4.009041534832888
 30
0.0
 42
-0.0447724326000407
  0
VERTEX
  5
F043
330
F036
100
AcDbEntity
  8
Pel_TXT
100
AcDbVertex
100
AcDb2dVertex
 10
8.069391358808669
 20
3.999491209771076
 30
0.0
  0
VERTEX
  5
F044
330
F036
100
AcDbEntity
  8
Pel_TXT
100
AcDbVertex
100
AcDb2dVertex
 10
8.079965890631246
 20
4.028951381325736
 30
0.0
 42
0.0541891931492449
  0
VERTEX
  5
F045
330
F036
100
AcDbEntity
  8
Pel_TXT
100
AcDbVertex
100
AcDb2dVertex
 10
8.038852384175157
 20
4.038853517115731
 30
0.0
 42
0.14976325070627
  0
VERTEX
  5
F046
330
F036
100
AcDbEntity
  8
Pel_TXT
100
AcDbVertex
100
AcDb2dVertex
 10
7.957103868902348
 20
4.030791824282463
 30
0.0
 42
0.2875238904861513
  0
VERTEX
  5
F047
330
F036
100
AcDbEntity
  8
Pel_TXT
100
AcDbVertex
100
AcDb2dVertex
 10
7.938345503234256
 20
3.996273569320582
 30
0.0
 42
0.2250999695428656
  0
VERTEX
  5
F048
330
F036
100
AcDbEntity
  8
Pel_TXT
100
AcDbVertex
100
AcDb2dVertex
 10
7.965334357623894
 20
3.954086120309795
 30
0.0
 42
0.082454308384993
  0
VERTEX
  5
F049
330
F036
100
AcDbEntity
  8
Pel_TXT
100
AcDbVertex
100
AcDb2dVertex
 10
8.034043290049755
 20
3.922206918850566
 30
0.0
 42
0.0336515295429965
  0
VERTEX
  5
F04A
330
F036
100
AcDbEntity
  8
Pel_TXT
100
AcDbVertex
100
AcDb2dVertex
 10
8.064495425187427
 20
3.915951487008423
 30
0.0
 42
0.0777606769614761
  0
VERTEX
  5
F04B
330
F036
100
AcDbEntity
  8
Pel_TXT
100
AcDbVertex
100
AcDb2dVertex
 10
8.120835227361769
 20
3.915761990471327
 30
0.0
 42
0.4620434619817165
  0
VERTEX
  5
F04C
330
F036
100
AcDbEntity
  8
Pel_TXT
100
AcDbVertex
100
AcDb2dVertex
 10
8.15098464626811
 20
3.97282746289756
 30
0.0
 42
0.1849808036537636
  0
SEQEND
  5
F04D
330
F036
100
AcDbEntity
  8
Pel_TXT
  0
POLYLINE
  5
F04E
330
EF70
100
AcDbEntity
  8
Pel_TXT
100
AcDb2dPolyline
 66
     1
 10
0.0
 20
0.0
 30
0.0
 70
     1
  0
VERTEX
  5
F04F
330
F04E
100
AcDbEntity
  8
Pel_TXT
100
AcDbVertex
100
AcDb2dVertex
 10
8.295045404041271
 20
4.05858223734735
 30
0.0
 42
0.1917838718610466
  0
VERTEX
  5
F050
330
F04E
100
AcDbEntity
  8
Pel_TXT
100
AcDbVertex
100
AcDb2dVertex
 10
8.285141579717773
 20
4.087659730547456
 30
0.0
 42
0.2716941856356648
  0
VERTEX
  5
F051
330
F04E
100
AcDbEntity
  8
Pel_TXT
100
AcDbVertex
100
AcDb2dVertex
 10
8.229503604707517
 20
4.105103960712771
 30
0.0
  0
VERTEX
  5
F052
330
F04E
100
AcDbEntity
  8
Pel_TXT
100
AcDbVertex
100
AcDb2dVertex
 10
8.084199605783314
 20
4.066169871544019
 30
0.0
  0
VERTEX
  5
F053
330
F04E
100
AcDbEntity
  8
Pel_TXT
100
AcDbVertex
100
AcDb2dVertex
 10
8.168348693306835
 20
4.017586373210253
 30
0.0
  0
VERTEX
  5
F054
330
F04E
100
AcDbEntity
  8
Pel_TXT
100
AcDbVertex
100
AcDb2dVertex
 10
8.183998693306836
 20
4.044692968348709
 30
0.0
  0
VERTEX
  5
F055
330
F04E
100
AcDbEntity
  8
Pel_TXT
100
AcDbVertex
100
AcDb2dVertex
 10
8.165229478152756
 20
4.055529379770397
 30
0.0
  0
VERTEX
  5
F056
330
F04E
100
AcDbEntity
  8
Pel_TXT
100
AcDbVertex
100
AcDb2dVertex
 10
8.22173782962076
 20
4.070670746911857
 30
0.0
 42
-0.0845844068405892
  0
VERTEX
  5
F057
330
F04E
100
AcDbEntity
  8
Pel_TXT
100
AcDbVertex
100
AcDb2dVertex
 10
8.243848287216021
 20
4.073579492252422
 30
0.0
 42
-0.3967034860515609
  0
VERTEX
  5
F058
330
F04E
100
AcDbEntity
  8
Pel_TXT
100
AcDbVertex
100
AcDb2dVertex
 10
8.257663150466385
 20
4.056677456997088
 30
0.0
 42
-0.3652657100786246
  0
VERTEX
  5
F059
330
F04E
100
AcDbEntity
  8
Pel_TXT
100
AcDbVertex
100
AcDb2dVertex
 10
8.246494273037431
 20
4.045573001003234
 30
0.0
  0
VERTEX
  5
F05A
330
F04E
100
AcDbEntity
  8
Pel_TXT
100
AcDbVertex
100
AcDb2dVertex
 10
8.202767908460909
 20
4.033856556927021
 30
0.0
  0
VERTEX
  5
F05B
330
F04E
100
AcDbEntity
  8
Pel_TXT
100
AcDbVertex
100
AcDb2dVertex
 10
8.183998693306833
 20
4.044692968348709
 30
0.0
  0
VERTEX
  5
F05C
330
F04E
100
AcDbEntity
  8
Pel_TXT
100
AcDbVertex
100
AcDb2dVertex
 10
8.168348693306835
 20
4.017586373210253
 30
0.0
  0
VERTEX
  5
F05D
330
F04E
100
AcDbEntity
  8
Pel_TXT
100
AcDbVertex
100
AcDb2dVertex
 10
8.274035060849008
 20
3.956568320460103
 30
0.0
  0
VERTEX
  5
F05E
330
F04E
100
AcDbEntity
  8
Pel_TXT
100
AcDbVertex
100
AcDb2dVertex
 10
8.316791655987465
 20
3.968024915598558
 30
0.0
  0
VERTEX
  5
F05F
330
F04E
100
AcDbEntity
  8
Pel_TXT
100
AcDbVertex
100
AcDb2dVertex
 10
8.240979948448327
 20
4.011794825354005
 30
0.0
  0
VERTEX
  5
F060
330
F04E
100
AcDbEntity
  8
Pel_TXT
100
AcDbVertex
100
AcDb2dVertex
 10
8.256278350580632
 20
4.015894019850843
 30
0.0
  0
VERTEX
  5
F061
330
F04E
100
AcDbEntity
  8
Pel_TXT
100
AcDbVertex
100
AcDb2dVertex
 10
8.402304846264367
 20
3.990938105875462
 30
0.0
  0
VERTEX
  5
F062
330
F04E
100
AcDbEntity
  8
Pel_TXT
100
AcDbVertex
100
AcDb2dVertex
 10
8.445061441402827
 20
4.002394701013916
 30
0.0
  0
VERTEX
  5
F063
330
F04E
100
AcDbEntity
  8
Pel_TXT
100
AcDbVertex
100
AcDb2dVertex
 10
8.27792557136501
 20
4.026606386868949
 30
0.0
 42
0.2107276795032547
  0
SEQEND
  5
F064
330
F04E
100
AcDbEntity
  8
Pel_TXT
  0
POLYLINE
  5
F065
330
EF70
100
AcDbEntity
  8
Pel_TXT
100
AcDb2dPolyline
 66
     1
 10
0.0
 20
0.0
 30
0.0
 70
     1
  0
VERTEX
  5
F066
330
F065
100
AcDbEntity
  8
Pel_TXT
100
AcDbVertex
100
AcDb2dVertex
 10
7.781966262379827
 20
3.921103095685912
 30
0.0
 42
0.1917838718610466
  0
VERTEX
  5
F067
330
F065
100
AcDbEntity
  8
Pel_TXT
100
AcDbVertex
100
AcDb2dVertex
 10
7.772062438056331
 20
3.950180588886018
 30
0.0
 42
0.2716941856356648
  0
VERTEX
  5
F068
330
F065
100
AcDbEntity
  8
Pel_TXT
100
AcDbVertex
100
AcDb2dVertex
 10
7.716424463046075
 20
3.967624819051334
 30
0.0
  0
VERTEX
  5
F069
330
F065
100
AcDbEntity
  8
Pel_TXT
100
AcDbVertex
100
AcDb2dVertex
 10
7.571120464121873
 20
3.928690729882582
 30
0.0
  0
VERTEX
  5
F06A
330
F065
100
AcDbEntity
  8
Pel_TXT
100
AcDbVertex
100
AcDb2dVertex
 10
7.655269551645393
 20
3.880107231548815
 30
0.0
  0
VERTEX
  5
F06B
330
F065
100
AcDbEntity
  8
Pel_TXT
100
AcDbVertex
100
AcDb2dVertex
 10
7.670919551645392
 20
3.907213826687271
 30
0.0
  0
VERTEX
  5
F06C
330
F065
100
AcDbEntity
  8
Pel_TXT
100
AcDbVertex
100
AcDb2dVertex
 10
7.652150336491314
 20
3.918050238108959
 30
0.0
  0
VERTEX
  5
F06D
330
F065
100
AcDbEntity
  8
Pel_TXT
100
AcDbVertex
100
AcDb2dVertex
 10
7.708658687959316
 20
3.933191605250419
 30
0.0
 42
-0.0845844068405892
  0
VERTEX
  5
F06E
330
F065
100
AcDbEntity
  8
Pel_TXT
100
AcDbVertex
100
AcDb2dVertex
 10
7.730769145554577
 20
3.936100350590984
 30
0.0
 42
-0.3967034860515609
  0
VERTEX
  5
F06F
330
F065
100
AcDbEntity
  8
Pel_TXT
100
AcDbVertex
100
AcDb2dVertex
 10
7.744584008804941
 20
3.919198315335651
 30
0.0
 42
-0.3652657100786246
  0
VERTEX
  5
F070
330
F065
100
AcDbEntity
  8
Pel_TXT
100
AcDbVertex
100
AcDb2dVertex
 10
7.733415131375989
 20
3.908093859341797
 30
0.0
  0
VERTEX
  5
F071
330
F065
100
AcDbEntity
  8
Pel_TXT
100
AcDbVertex
100
AcDb2dVertex
 10
7.689688766799466
 20
3.896377415265584
 30
0.0
  0
VERTEX
  5
F072
330
F065
100
AcDbEntity
  8
Pel_TXT
100
AcDbVertex
100
AcDb2dVertex
 10
7.670919551645391
 20
3.907213826687271
 30
0.0
  0
VERTEX
  5
F073
330
F065
100
AcDbEntity
  8
Pel_TXT
100
AcDbVertex
100
AcDb2dVertex
 10
7.655269551645393
 20
3.880107231548815
 30
0.0
  0
VERTEX
  5
F074
330
F065
100
AcDbEntity
  8
Pel_TXT
100
AcDbVertex
100
AcDb2dVertex
 10
7.760955919187566
 20
3.819089178798666
 30
0.0
  0
VERTEX
  5
F075
330
F065
100
AcDbEntity
  8
Pel_TXT
100
AcDbVertex
100
AcDb2dVertex
 10
7.803712514326023
 20
3.830545773937121
 30
0.0
  0
VERTEX
  5
F076
330
F065
100
AcDbEntity
  8
Pel_TXT
100
AcDbVertex
100
AcDb2dVertex
 10
7.727900806786883
 20
3.874315683692568
 30
0.0
  0
VERTEX
  5
F077
330
F065
100
AcDbEntity
  8
Pel_TXT
100
AcDbVertex
100
AcDb2dVertex
 10
7.743199208919191
 20
3.878414878189405
 30
0.0
  0
VERTEX
  5
F078
330
F065
100
AcDbEntity
  8
Pel_TXT
100
AcDbVertex
100
AcDb2dVertex
 10
7.889225704602925
 20
3.853458964214025
 30
0.0
  0
VERTEX
  5
F079
330
F065
100
AcDbEntity
  8
Pel_TXT
100
AcDbVertex
100
AcDb2dVertex
 10
7.931982299741384
 20
3.864915559352478
 30
0.0
  0
VERTEX
  5
F07A
330
F065
100
AcDbEntity
  8
Pel_TXT
100
AcDbVertex
100
AcDb2dVertex
 10
7.764846429703568
 20
3.889127245207511
 30
0.0
 42
0.2107276795032547
  0
SEQEND
  5
F07B
330
F065
100
AcDbEntity
  8
Pel_TXT
  0
ENDBLK
  5
F07E
330
EF70
100
AcDbEntity
  8
0
100
AcDbBlockEnd
  0
ENDSEC
  0
SECTION
  2
ENTITIES
  0
INSERT
  5
E24D
330
1F
100
AcDbEntity
  8
0
100
AcDbBlockReference
  2
0A6K
 10
2.060438152827437
 20
29.44199999999998
 30
0.0
  0
INSERT
  5
E254
102
{ACAD_REACTORS
330
E270
102
}
330
1F
100
AcDbEntity
  8
0
100
AcDbBlockReference
  2
0A6G
 10
2.060438152827437
 20
33.44199999999998
 30
0.0
  0
DIMENSION
  5
E255
102
{ACAD_XDICTIONARY
360
E264
102
}
102
{ACAD_REACTORS
330
E270
102
}
330
1F
100
AcDbEntity
  8
0
100
AcDbDimension
  2
*D2
 10
7.328000000000001
 20
33.0
 30
0.0
 11
7.328000000000001
 21
32.0
 31
0.0
 70
   160
 71
     5
 42
0.5
  3
3 inch Scale
100
AcDbAlignedDimension
 13
6.578000000000001
 23
33.5
 33
0.0
 14
6.578000000000001
 24
33.0
 34
0.0
 50
90.0
100
AcDbRotatedDimension
  0
LINE
  5
E296
330
1F
100
AcDbEntity
  8
0
100
AcDbLine
 10
7.328000000000001
 20
33.0
 30
0.0
 11
7.328000000000001
 21
33.5
 31
0.0
  0
LINE
  5
E297
330
1F
100
AcDbEntity
  8
0
100
AcDbLine
 10
8.202999999999999
 20
29.0
 30
0.0
 11
8.202999999999999
 21
29.5
 31
0.0
  0
DIMENSION
  5
E298
330
1F
100
AcDbEntity
  8
0
100
AcDbDimension
  2
*D3
 10
8.202999999999999
 20
29.0
 30
0.0
 11
8.202999999999999
 21
28.0
 31
0.0
 70
   160
 71
     5
 42
0.5
  3
3 inch Scale
100
AcDbAlignedDimension
 13
7.452999999999999
 23
29.5
 33
0.0
 14
7.452999999999999
 24
29.0
 34
0.0
 50
90.0
100
AcDbRotatedDimension
  0
MTEXT
  5
E2B2
330
1F
100
AcDbEntity
  8
0
100
AcDbMText
 10
4.826114838249187
 20
32.48808811185654
 30
0.0
 40
0.28
 41
2.947804847899138
 71
     2
 72
     5
  1
#0A6G\P1/2" x 3-9/16"\Plx = 2.117in.\PE = 10,100ksi
  7
Arial
 73
     1
 44
1.0
1001
ACAD
1000
MTEXTBEGIN
1070
    73
1070
     1
1070
    44
1040
1.0
1070
    74
1070
     0
1000
MTEXTEND
  0
MTEXT
  5
E2B3
330
1F
100
AcDbEntity
  8
0
100
AcDbMText
 10
5.845456927819697
 20
31.60558293838171
 30
0.0
 40
0.14
 41
0.2207151388143753
 71
     2
 72
     5
  1
4
  7
Arial
 73
     1
 44
1.0
1001
ACAD
1000
MTEXTBEGIN
1070
    73
1070
     1
1070
    44
1040
1.0
1070
    74
1070
     0
1000
MTEXTEND
  0
MTEXT
  5
E2B5
330
1F
100
AcDbEntity
  8
0
100
AcDbMText
 10
5.956088403345802
 20
27.61812885234244
 30
0.0
 40
0.14
 41
0.2207151388143753
 71
     2
 72
     5
  1
4
  7
Arial
 73
     1
 44
1.0
1001
ACAD
1000
MTEXTBEGIN
1070
    73
1070
     1
1070
    44
1040
1.0
1070
    74
1070
     0
1000
MTEXTEND
  0
MTEXT
  5
E2B6
330
1F
100
AcDbEntity
  8
0
100
AcDbMText
 10
4.826191078249185
 20
28.48808811185654
 30
0.0
 40
0.28
 41
2.947804847899138
 71
     2
 72
     5
  1
#0A6G\P1/2" x 4-9/16"\Plx = 3.7050in.\PE = 10,100ksi
  7
Arial
 73
     1
 44
1.0
1001
ACAD
1000
MTEXTBEGIN
1070
    73
1070
     1
1070
    44
1040
1.0
1070
    74
1070
     0
1000
MTEXTEND
  0
INSERT
  5
E6A8
330
1F
100
AcDbEntity
  8
0
100
AcDbBlockReference
  2
512C
 10
2.375
 20
18.0
 30
0.0
  0
INSERT
  5
E710
330
1F
100
AcDbEntity
  8
0
100
AcDbBlockReference
  2
000F
 10
11.0625
 20
18.0
 30
0.0
  0
INSERT
  5
E7B6
330
1F
100
AcDbEntity
  8
0
100
AcDbBlockReference
  2
512A
 10
20.28125000000001
 20
18.0
 30
0.0
  0
INSERT
  5
E7FC
330
1F
100
AcDbEntity
  8
0
100
AcDbBlockReference
  2
512B
 10
2.375
 20
9.000000000000007
 30
0.0
  0
INSERT
  5
E8E7
330
1F
100
AcDbEntity
  8
0
100
AcDbBlockReference
  2
512D
 10
11.0625
 20
9.000000000000007
 30
0.0
  0
MTEXT
  5
E8EC
330
1F
100
AcDbEntity
  8
0
100
AcDbMText
 10
4.826191078249185
 20
17.25
 30
0.0
 40
0.28
 41
3.817830571167246
 71
     2
 72
     5
  1
#512C\PAngle Mullion Anchor
  7
Arial
 73
     1
 44
1.0
1001
ACAD
1000
MTEXTBEGIN
1070
    73
1070
     1
1070
    44
1040
1.0
1070
    74
1070
     0
1000
MTEXTEND
  0
MTEXT
  5
E8F1
330
1F
100
AcDbEntity
  8
0
100
AcDbMText
 10
4.826191078249185
 20
8.250000000000007
 30
0.0
 40
0.28
 41
3.817830571167246
 71
     2
 72
     5
  1
#512B\PSubsill Mullion Anchor
  7
Arial
 73
     1
 44
1.0
1001
ACAD
1000
MTEXTBEGIN
1070
    73
1070
     1
1070
    44
1040
1.0
1070
    74
1070
     0
1000
MTEXTEND
  0
MTEXT
  5
E8F2
330
1F
100
AcDbEntity
  8
0
100
AcDbMText
 10
12.83190642462837
 20
17.25
 30
0.0
 40
0.28
 41
3.817830571167246
 71
     2
 72
     5
  1
#00F\PHigh Performance Anchor
  7
Arial
 73
     1
 44
1.0
1001
ACAD
1000
MTEXTBEGIN
1070
    73
1070
     1
1070
    44
1040
1.0
1070
    74
1070
     0
1000
MTEXTEND
  0
MTEXT
  5
E8F3
330
1F
100
AcDbEntity
  8
0
100
AcDbMText
 10
12.52341696421306
 20
8.250000000000007
 30
0.0
 40
0.28
 41
3.817830571167246
 71
     2
 72
     5
  1
#512D\PFin Mullion Anchor
  7
Arial
 73
     1
 44
1.0
1001
ACAD
1000
MTEXTBEGIN
1070
    73
1070
     1
1070
    44
1040
1.0
1070
    74
1070
     0
1000
MTEXTEND
  0
MTEXT
  5
E8F4
330
1F
100
AcDbEntity
  8
0
100
AcDbMText
 10
23.07640399932862
 20
17.25
 30
0.0
 40
0.28
 41
3.817830571167246
 71
     2
 72
     5
  1
#512A\PWood Mullion Anchor
  7
Arial
 73
     1
 44
1.0
1001
ACAD
1000
MTEXTBEGIN
1070
    73
1070
     1
1070
    44
1040
1.0
1070
    74
1070
     0
1000
MTEXTEND
  0
MTEXT
  5
E94D
330
1F
100
AcDbEntity
  8
0
100
AcDbMText
 10
23.07640399932862
 20
8.250000000000007
 30
0.0
 40
0.28
 41
4.594240517351772
 71
     2
 72
     5
  1
#500P\P20" Plate
  7
Arial
 73
     1
 44
1.0
1001
ACAD
1000
MTEXTBEGIN
1070
    73
1070
     1
1070
    44
1040
1.0
1070
    74
1070
     0
1000
MTEXTEND
  0
INSERT
  5
F07F
330
1F
100
AcDbEntity
  8
0
100
AcDbBlockReference
  2
500P
 10
18.0353021381127
 20
9.000000000000007
 30
0.0
 41
0.5
 42
0.5
 43
0.5
  0
LINE
  5
F3E8
330
1F
100
AcDbEntity
  8
0
 48
25.4
100
AcDbLine
 10
26.39552229532672
 20
12.36969045102522
 30
0.0
 11
25.49523928840231
 21
12.93589761677412
 31
0.0
  0
LINE
  5
F3E9
330
1F
100
AcDbEntity
  8
0
 48
25.4
100
AcDbLine
 10
16.68288219879611
 20
9.783572972604472
 30
0.0
 11
15.78259919611995
 21
10.34978013568156
 31
0.0
  0
LINE
  5
F3EA
330
1F
100
AcDbEntity
  8
0
 48
25.4
100
AcDbLine
 10
15.92710016244719
 20
10.25890027521268
 30
0.0
 11
25.63974039303083
 21
12.84501779312976
 31
0.0
  0
SOLID
  5
F683
330
1F
100
AcDbEntity
  8
0
 48
25.4
100
AcDbTrace
 10
16.27867914059466
 20
9.251086321537599
 30
0.0
 11
16.13607093116732
 21
9.209069356621597
 31
0.0
 12
15.8933048918223
 22
9.501637126789006
 32
0.0
 13
15.8933048918223
 23
9.501637126789006
 33
0.0
  0
SOLID
  5
F7B2
330
1F
100
AcDbEntity
  8
0
 48
25.4
100
AcDbTrace
 10
16.38882460139647
 20
10.46807720252879
 30
0.0
 11
16.61683523835449
 21
10.32467645463104
 31
0.0
 12
15.92710016244719
 22
10.25890027521268
 32
0.0
 13
15.92710016244719
 23
10.25890027521268
 33
0.0
  0
SOLID
  5
F7B3
330
1F
100
AcDbEntity
  8
0
 48
25.4
100
AcDbTrace
 10
24.95000531712352
 20
12.7792416137114
 30
0.0
 11
25.17801595408153
 21
12.63584086581365
 31
0.0
 12
25.63974039303083
 22
12.84501779312976
 32
0.0
 13
25.63974039303083
 23
12.84501779312976
 33
0.0
  0
LINE
  5
F7B9
330
1F
100
AcDbEntity
  8
0
 48
25.4
100
AcDbLine
 10
17.78234896348824
 20
8.925471859535562
 30
0.0
 11
16.58624834523166
 21
8.573062149638035
 31
0.0
  0
LINE
  5
F7BA
330
1F
100
AcDbEntity
  8
0
 48
25.4
100
AcDbLine
 10
16.65623121750546
 20
9.726419758788296
 30
0.0
 11
15.65349694358436
 21
9.430981992781692
 31
0.0
  0
LINE
  5
F7BF
330
1F
100
AcDbEntity
  8
0
 48
25.4
100
AcDbLine
 10
16.87146485330105
 20
8.657096105755558
 30
0.0
 11
15.89330489182229
 21
9.501637126789216
 31
0.0
  0
SOLID
  5
F7EA
330
1F
100
AcDbEntity
  8
0
 48
25.4
100
AcDbTrace
 10
16.67448030472155
 20
8.892272131885881
 30
0.0
 11
16.54662162138664
 21
8.854600851715813
 31
0.0
 12
16.87146485330333
 22
8.657096105752808
 32
0.0
 13
16.87146485330333
 23
8.657096105752808
 33
0.0
  0
TEXT
  5
F9C2
330
1F
100
AcDbEntity
  8
0
100
AcDbText
 10
16.41042343351311
 20
9.192963407206306
 30
0.0
 40
0.28
  1
3"
 50
317.7760819012016
 51
30.0
100
AcDbText
  0
TEXT
  5
F9C3
330
1F
100
AcDbEntity
  8
0
100
AcDbText
 10
15.74902341588526
 20
9.153716951661998
 30
0.0
 40
0.28
  1
 [76]
 50
317.7760819012016
 51
30.0
100
AcDbText
  0
TEXT
  5
F9C7
330
1F
100
AcDbEntity
  8
0
100
AcDbText
 10
20.35455178761498
 20
11.5136315791915
 30
0.0
 40
0.28
  1
20"
 50
15.06116654772501
 51
330.0
  7
Arial
100
AcDbText
  0
TEXT
  5
F9C8
330
1F
100
AcDbEntity
  8
0
100
AcDbText
 10
20.37071791799039
 20
11.09335306512588
 30
0.0
 40
0.28
  1
 [508]
 50
15.06116654772501
 51
330.0
  7
Arial
100
AcDbText
  0
VIEWPORT
  5
CBD9
102
{ACAD_XDICTIONARY
360
FBF6
102
}
330
CBD2
100
AcDbEntity
 67
     1
  8
0
100
AcDbViewport
 10
3.968749891115924
 20
5.218749628292292
 30
0.0
 40
17.62601621246861
 41
11.63799974576694
 68
     1
 69
     1
 12
3.968749891115924
 22
5.218749628292292
 13
0.0
 23
0.0
 14
0.5
 24
0.5
 15
0.5
 25
0.5
 16
0.0
 26
0.0
 36
1.0
 17
0.0
 27
0.0
 37
0.0
 42
50.0
 43
0.0
 44
0.0
 45
11.63799974576694
 50
0.0
 51
0.0
 72
  5000
 90
    32800
  1

281
     0
 71
     1
 74
     0
110
0.0
120
0.0
130
0.0
111
1.0
121
0.0
131
0.0
112
0.0
122
1.0
132
0.0
 79
     0
146
0.0
  0
VIEWPORT
  5
D915
102
{ACAD_XDICTIONARY
360
FBF8
102
}
330
CBD2
100
AcDbEntity
 67
     1
  8
0
100
AcDbViewport
 10
3.968749882715535
 20
5.218749625349884
 30
0.0
 40
7.928490862866247
 41
10.43240584937289
 68
     2
 69
     2
 12
3.6875
 22
4.3125
 13
0.0
 23
0.0
 14
0.125
 24
0.125
 15
0.5
 25
0.5
 16
0.0
 26
0.0
 36
1.0
 17
0.0
 27
0.0
 37
0.0
 42
50.0
 43
0.0
 44
0.0
 45
9.704115760475342
 50
0.0
 51
0.0
 72
  5000
 90
    32768
  1

281
     0
 71
     1
 74
     0
110
0.0
120
0.0
130
0.0
111
1.0
121
0.0
131
0.0
112
0.0
122
1.0
132
0.0
 79
     0
146
0.0
  0
ENDSEC
  0
SECTION
  2
OBJECTS
  0
DICTIONARY
  5
C
330
0
100
AcDbDictionary
281
     1
  3
ACAD_COLOR
350
A6AD
  3
ACAD_GROUP
350
D
  3
ACAD_LAYOUT
350
1A
  3
ACAD_MATERIAL
350
A6AC
  3
ACAD_MLINESTYLE
350
17
  3
ACAD_PLOTSETTINGS
350
19
  3
ACAD_PLOTSTYLENAME
350
E
  3
AcadDim
350
15D
  3
ACDBHEADERROUNDTRIPXREC
350
FBE3
  3
AcDbVariableDictionary
350
79D9
  3
ADE_QUERY_LIBRARY
350
1012
  3
AMAcad
350
1B9
  3
ASE_INDEX_DICTIONARY
350
E43C
  3
AVAT_FILE_STORE
350
FD6
1001
ADE
1000
ADE02C004
1000
[Query]
1000
CaseSensitiveMatch=0
1000
SaveCurrQueryInSession=1
1000
MkSelSetWithQryObj=0
1000
ShowBlockAsInsPt=0
1000
CreateAssociativeHatchObjects=0
1000
ReferenceBoundaryForAreaLocation=1
1000
ShowImageAsBoundary=1
1000
DefaultJoinOperator=2
1000
ColorForAdd=red
1000
ColorForRemove=red
1000
BlockLocnForQuery=1
1000
TextLocnForQuery=1
1000
[Save Back]
1000
RedefineBlockDefinitions=1
1000
RedefineLayerDefinitions=1
1000
RedefineTextStyleDefinitions=1
1000
RemoveUnusedGroups=1
1000
EraseSavedBackObjects=1
1000
RemoveLockAfterSave=1
1000
CreateHistoryFileOfChanges=0
1000
CreateBackupFileOfSourceDwg=1
1000
DontAddObjectsToSaveSet=0
1000
MarkObjectsForEditingWithoutPrompting=0
1000
[Coordinate Transformation]
1000
RestoreLastActiveDwgsOnStartup=1
1000
ActivateDwgsOnAttach=1
1000
AdjustSizesAndScalesForChangesInUnits=1
1000
AdjustRotationsForMapDistortions=1
1000
AdjustSizesAndScalesForMapDistortions=1
1000
AdjustElevations=1
1000
AdjustZeroRotationObjects=1
1000
ReconnectDbOnWSOpen=1
1000
NoOfSQLConditionsInHistory=10
  0
DICTIONARY
  5
F851
330
2
100
AcDbDictionary
280
     1
281
     1
  3
ACAD_LAYERSTATES
360
F852
  0
DICTIONARY
  5
D9A1
330
1F
100
AcDbDictionary
280
     1
281
     1
  0
DICTIONARY
  5
E24A
330
E247
100
AcDbDictionary
280
     1
281
     1
  3
ACAD_SORTENTS
360
F9D7
  0
DICTIONARY
  5
E251
330
E24E
100
AcDbDictionary
280
     1
281
     1
  3
ACAD_SORTENTS
360
F9C1
  0
DICTIONARY
  5
EB56
330
E65B
100
AcDbDictionary
280
     1
281
     1
  3
ACAD_SORTENTS
360
EB57
  0
DICTIONARY
  5
E70D
330
E6A9
100
AcDbDictionary
280
     1
281
     1
  0
DICTIONARY
  5
E7B3
330
E764
100
AcDbDictionary
280
     1
281
     1
  3
ACAD_SORTENTS
360
EC13
  0
DICTIONARY
  5
ED49
330
E7B9
100
AcDbDictionary
280
     1
281
     1
  3
ACAD_SORTENTS
360
ED4A
  0
DICTIONARY
  5
E8E4
330
E873
100
AcDbDictionary
280
     1
281
     1
  3
ACAD_SORTENTS
360
EABC
  0
DICTIONARY
  5
F76F
330
EF4B
100
AcDbDictionary
280
     1
281
     1
  3
ACAD_SORTENTS
360
F770
  0
DICTIONARY
  5
F07C
330
EF70
100
AcDbDictionary
280
     1
281
     1
  0
DICTIONARY
  5
E264
330
E255
100
AcDbDictionary
280
     1
281
     1
  3
ACAD_DIMASSOC
360
E270
  0
DICTIONARY
  5
FBF6
330
CBD9
100
AcDbDictionary
280
     1
281
     1
  3
ACAD_XREC_ROUNDTRIP
360
FBF7
  0
DICTIONARY
  5
FBF8
330
D915
100
AcDbDictionary
280
     1
281
     1
  3
ACAD_XREC_ROUNDTRIP
360
FBF9
  0
DICTIONARY
  5
A6AD
102
{ACAD_REACTORS
330
C
102
}
330
C
100
AcDbDictionary
281
     1
  0
DICTIONARY
  5
D
102
{ACAD_REACTORS
330
C
102
}
330
C
100
AcDbDictionary
281
     1
  0
DICTIONARY
  5
1A
102
{ACAD_REACTORS
330
C
102
}
330
C
100
AcDbDictionary
281
     1
  3
Layout1
350
CBD3
  3
Model
350
22
  0
DICTIONARY
  5
A6AC
102
{ACAD_REACTORS
330
C
102
}
330
C
100
AcDbDictionary
281
     1
  0
DICTIONARY
  5
17
102
{ACAD_REACTORS
330
C
102
}
330
C
100
AcDbDictionary
281
     1
  3
Standard
350
18
  0
DICTIONARY
  5
19
102
{ACAD_REACTORS
330
C
102
}
330
C
100
AcDbDictionary
281
     1
  3
22x17 Xerox8830
350
CBD1
  3
22x34 Xerox8830
350
CBD0
  3
8.5x11(row 1)
350
B30E
  3
8.5x11(row 2)
350
BF67
  3
8.5x11(row 3)
350
BF68
  3
8.5x11(row 4)
350
BF69
  0
ACDBDICTIONARYWDFLT
  5
E
102
{ACAD_REACTORS
330
C
102
}
330
C
100
AcDbDictionary
281
     1
  3
Normal
350
F
100
AcDbDictionaryWithDefault
340
F
  0
XRECORD
  5
15D
102
{ACAD_REACTORS
330
C
102
}
330
C
100
AcDbXrecord
280
     1
 90
   990106
  3

 60
     0
 61
     0
 62
     1
 63
     3
 64
     0
 65
     0
 66
     0
 67
     3
 68
     0
 69
     0
 70
     0
 71
     0
 72
     0
 40
0.0
170
     2
340
0
  0
DICTIONARY
  5
FBE3
102
{ACAD_REACTORS
330
C
102
}
330
C
100
AcDbDictionary
281
     1
  3
COLORDICT
350
FBE5
  3
MATERIALDICT
350
FBE4
  0
DICTIONARY
  5
79D9
102
{ACAD_REACTORS
330
C
102
}
330
C
100
AcDbDictionary
281
     1
  3
DIMASSOC
350
79DA
  3
PROJECTNAME
350
E40F
  0
DICTIONARY
  5
1012
102
{ACAD_REACTORS
330
C
102
}
330
C
100
AcDbDictionary
281
     1
  3
_CurrQry
350
1047
  0
DICTIONARY
  5
1B9
102
{ACAD_REACTORS
330
C
102
}
330
C
100
AcDbDictionary
281
     1
  3
AM_LOADER
350
1BA
  0
DICTIONARY
  5
E43C
102
{ACAD_REACTORS
330
C
102
}
330
C
100
AcDbDictionary
281
     1
  3
ASEBlockHierarchyIndexRecord
350
E43D
1001
DCO15
1040
1552045739.274
  0
DICTIONARY
  5
FD6
102
{ACAD_REACTORS
330
C
102
}
330
C
100
AcDbDictionary
281
     1
  0
DICTIONARY
  5
F852
102
{ACAD_REACTORS
330
F851
102
}
330
F851
100
AcDbDictionary
281
     1
  0
SORTENTSTABLE
  5
F9D7
102
{ACAD_REACTORS
330
E24A
102
}
330
E24A
100
AcDbSortentsTable
330
E247
  0
SORTENTSTABLE
  5
F9C1
102
{ACAD_REACTORS
330
E251
102
}
330
E251
100
AcDbSortentsTable
330
E24E
  0
SORTENTSTABLE
  5
EB57
102
{ACAD_REACTORS
330
EB56
102
}
330
EB56
100
AcDbSortentsTable
330
E65B
  0
SORTENTSTABLE
  5
EC13
102
{ACAD_REACTORS
330
E7B3
102
}
330
E7B3
100
AcDbSortentsTable
330
E764
  0
SORTENTSTABLE
  5
ED4A
102
{ACAD_REACTORS
330
ED49
102
}
330
ED49
100
AcDbSortentsTable
330
E7B9
  0
SORTENTSTABLE
  5
EABC
102
{ACAD_REACTORS
330
E8E4
102
}
330
E8E4
100
AcDbSortentsTable
330
E873
  0
SORTENTSTABLE
  5
F770
102
{ACAD_REACTORS
330
F76F
102
}
330
F76F
100
AcDbSortentsTable
330
EF4B
  0
DIMASSOC
  5
E270
102
{ACAD_REACTORS
330
E264
102
}
330
E264
100
AcDbDimAssoc
330
E255
 90
        3
 70
     0
 71
     0
  1
AcDbOsnapPointRef
 72
     1
331
E254
331
E250
 73
     2
 91
        2
 40
1.0
 10
0.0
 20
0.0
 30
2.000000000000000E+50
 75
     0
  1
AcDbOsnapPointRef
 72
     1
331
E254
331
E250
 73
     2
 91
        3
 40
1.0
 10
0.0
 20
0.0
 30
2.000000000000000E+50
 75
     0
  0
XRECORD
  5
FBF7
102
{ACAD_REACTORS
330
FBF6
102
}
330
FBF6
100
AcDbXrecord
280
     1
102
SHADEPLOT
 70
     0
  0
XRECORD
  5
FBF9
102
{ACAD_REACTORS
330
FBF8
102
}
330
FBF8
100
AcDbXrecord
280
     1
102
SHADEPLOT
 70
     0
  0
LAYOUT
  5
CBD3
102
{ACAD_XDICTIONARY
360
FBF4
102
}
102
{ACAD_REACTORS
330
1A
102
}
330
1A
100
AcDbPlotSettings
  1

  2
pdfFactory Pro
  4
Letter
  6

 40
7.143749713897705
 41
7.143756389617919
 42
7.14373779296875
 43
7.14373779296875
 44
215.8999938964844
 45
279.3999938964844
 46
0.0
 47
0.0
 48
0.0
 49
0.0
140
0.0
141
0.0
142
1.0
143
1.0
 70
   688
 72
     0
 73
     0
 74
     5
  7
PellaCAD 2000.ctb
 75
    16
147
1.0
148
0.0
149
0.0
100
AcDbLayout
  1
Layout1
 70
     1
 71
     1
 10
-0.2812499887361301
 20
-0.2812502515597606
 11
8.218749770967978
 21
10.71874950814434
 12
0.0
 22
0.0
 32
0.0
 14
0.0045044512824113
 24
0.0025467006634372
 34
0.0
 15
7.932995314148659
 25
10.43495255003633
 35
0.0
146
0.0
 13
0.0
 23
0.0
 33
0.0
 16
1.0
 26
0.0
 36
0.0
 17
0.0
 27
1.0
 37
0.0
 76
     0
330
CBD2
331
CBD9
  0
LAYOUT
  5
22
102
{ACAD_XDICTIONARY
360
FBE6
102
}
102
{ACAD_REACTORS
330
1A
102
}
330
1A
100
AcDbPlotSettings
  1

  2
pdfFactory Pro
  4
D size sheet
  6

 40
3.174999952316284
 41
3.174999952316284
 42
3.17498779296875
 43
3.17498779296875
 44
558.7999877929687
 45
863.6000366210938
 46
0.0
 47
0.0
 48
0.0
 49
0.0
140
0.0
141
0.0
142
1.0
143
1.0
 70
 11956
 72
     0
 73
     0
 74
     1
  7
PellaCAD 2000.ctb
 75
    16
147
1.0
148
120.2389910741592
149
15.246356212616
100
AcDbLayout
  1
Model
 70
     1
 71
     0
 10
0.0
 20
0.0
 11
12.0
 21
9.0
 12
0.0
 22
0.0
 32
0.0
 14
0.0
 24
0.0
 34
0.0
 15
0.0
 25
0.0
 35
0.0
146
0.0
 13
0.0
 23
0.0
 33
0.0
 16
1.0
 26
0.0
 36
0.0
 17
0.0
 27
1.0
 37
0.0
 76
     0
330
1F
  0
MLINESTYLE
  5
18
102
{ACAD_REACTORS
330
17
102
}
330
17
100
AcDbMlineStyle
  2
STANDARD
 70
     0
  3

 62
   256
 51
90.0
 52
90.0
 71
     2
 49
0.5
 62
   256
  6
BYLAYER
 49
-0.5
 62
   256
  6
BYLAYER
  0
PLOTSETTINGS
  5
CBD1
102
{ACAD_XDICTIONARY
360
FBF2
102
}
102
{ACAD_REACTORS
330
19
102
}
330
19
100
AcDbPlotSettings
  1
22x17 Xerox8830
  2
Xes 8830 for 2004.pc3
  4
ANSI_C_(22.00_x_17.00_Inches)
  6

 40
6.793749809265136
 41
6.793749809265136
 42
6.79376220703125
 43
6.79376220703125
 44
558.7999877929687
 45
431.7999877929687
 46
0.0
 47
35.81399999999999
 48
0.0
 49
0.0
140
0.0
141
0.0
142
1.0
143
1.49524349949159
 70
   692
 72
     0
 73
     0
 74
     1
  7
PellaCAD 2000.ctb
 75
     0
147
0.6687873917124656
148
-21.59157886640523
149
-6.230335335960706
  0
PLOTSETTINGS
  5
CBD0
102
{ACAD_XDICTIONARY
360
FBF0
102
}
102
{ACAD_REACTORS
330
19
102
}
330
19
100
AcDbPlotSettings
  1
22x34 Xerox8830
  2
Xes 8830 for 2004.pc3
  4
ANSI_D_(22.00_x_34.00_Inches)
  6

 40
6.793749809265136
 41
6.793749809265136
 42
6.79376220703125
 43
6.79376220703125
 44
558.7999877929687
 45
863.5999755859375
 46
13.462
 47
17.272
 48
0.0
 49
0.0
140
0.0
141
0.0
142
1.0
143
1.0
 70
   692
 72
     0
 73
     1
 74
     1
  7
PellaCAD 2000.ctb
 75
    16
147
1.0
148
-21.59157886640523
149
-6.230335335960706
  0
PLOTSETTINGS
  5
B30E
102
{ACAD_XDICTIONARY
360
FBE8
102
}
102
{ACAD_REACTORS
330
19
102
}
330
19
100
AcDbPlotSettings
  1
8.5x11(row 1)
  2
\\pelsprnt02\PECSP13
  4
Letter
  6

 40
7.143749713897705
 41
5.027085304260253
 42
7.14373779296875
 43
5.027069091796875
 44
215.8999938964844
 45
279.3999938964844
 46
2.285999999999999
 47
3.556
 48
0.0
 49
0.0
140
0.0
141
0.0
142
1.0
143
1.0
 70
   692
 72
     0
 73
     0
 74
     1
  7
PellaCAD 2000.ctb
 75
    16
147
1.0
148
-4.158432903504825
149
-3.617288020760524
  0
PLOTSETTINGS
  5
BF67
102
{ACAD_XDICTIONARY
360
FBEA
102
}
102
{ACAD_REACTORS
330
19
102
}
330
19
100
AcDbPlotSettings
  1
8.5x11(row 2)
  2
\\pelsprnt01\PEASP5
  4
User144
  6

 40
6.349999904632568
 41
4.233341693878173
 42
6.349990844726562
 43
4.23333740234375
 44
215.8999938964844
 45
279.3999938964844
 46
3.047999999999999
 47
4.318
 48
0.0
 49
0.0
140
0.0
141
0.0
142
1.0
143
1.0
 70
   692
 72
     0
 73
     0
 74
     1
  7
PellaCAD 2000.ctb
 75
    16
147
1.0
148
-4.158432903504825
149
-3.617288020760524
  0
PLOTSETTINGS
  5
BF68
102
{ACAD_XDICTIONARY
360
FBEC
102
}
102
{ACAD_REACTORS
330
19
102
}
330
19
100
AcDbPlotSettings
  1
8.5x11(row 3)
  2
\\pelsprnt01\peslp0
  4
Letter
  6

 40
5.365749835968017
 41
5.408084392547607
 42
5.4080810546875
 43
5.365753173828125
 44
215.8999938964844
 45
279.3999938964844
 46
4.064
 47
3.302
 48
0.0
 49
0.0
140
0.0
141
0.0
142
1.0
143
1.0
 70
   692
 72
     0
 73
     0
 74
     1
  7
PellaCAD 2000.ctb
 75
    16
147
1.0
148
-4.158432903504825
149
-3.617288020760524
  0
PLOTSETTINGS
  5
BF69
102
{ACAD_XDICTIONARY
360
FBEE
102
}
102
{ACAD_REACTORS
330
19
102
}
330
19
100
AcDbPlotSettings
  1
8.5x11(row 4)
  2
\\pelsprnt02\PEASP6
  4
Letter
  6

 40
7.143749713897705
 41
5.027085304260253
 42
7.14373779296875
 43
5.027069091796875
 44
215.8999938964844
 45
279.3999938964844
 46
2.285999999999999
 47
3.556
 48
0.0
 49
0.0
140
0.0
141
0.0
142
1.0
143
1.0
 70
   692
 72
     0
 73
     0
 74
     1
  7
PellaCAD 2000.ctb
 75
    16
147
1.0
148
-4.158432903504825
149
-3.617288020760524
  0
ACDBPLACEHOLDER
  5
F
102
{ACAD_REACTORS
330
E
102
}
330
E
  0
XRECORD
  5
FBE5
102
{ACAD_REACTORS
330
FBE3
102
}
330
FBE3
100
AcDbXrecord
280
     1
340
A6AD
  0
XRECORD
  5
FBE4
102
{ACAD_REACTORS
330
FBE3
102
}
330
FBE3
100
AcDbXrecord
280
     1
340
A6AC
  0
DICTIONARYVAR
  5
79DA
102
{ACAD_REACTORS
330
79D9
102
}
330
79D9
100
DictionaryVariables
280
     0
  1
2
  0
DICTIONARYVAR
  5
E40F
102
{ACAD_REACTORS
330
79D9
102
}
330
79D9
100
DictionaryVariables
280
     0
  1

  0
XRECORD
  5
1047
102
{ACAD_REACTORS
330
1012
102
}
330
1012
100
AcDbXrecord
280
     1
1000
ADE02C001
1070
     1
1070
     0
1002
{
1002
}
1002
{
1002
}
1002
{
1002
}
1000

  0
ACAD_PROXY_OBJECT
  5
1BA
102
{ACAD_REACTORS
330
1B9
102
}
330
1B9
100
AcDbProxyObject
 90
      499
 91
      504
 95
   983063
 70
     0
 93
       51
310
40502896026454
 94
        0
1001
ACAD
1000
AcRTDxfName
1000
AMLOADER
1000
AcRTDxfName
1000
AMLOADER
  0
XRECORD
  5
E43D
102
{ACAD_REACTORS
330
E43C
102
}
330
E43C
100
AcDbXrecord
280
     1
330
E6A8
330
E710
330
E7B6
330
E7FC
330
E8E7
330
0
330
0
330
0
330
E24D
330
E254
  0
DICTIONARY
  5
FBF4
330
CBD3
100
AcDbDictionary
280
     1
281
     1
  3
ACAD_XREC_ROUNDTRIP
360
FBF5
  0
DICTIONARY
  5
FBE6
330
22
100
AcDbDictionary
280
     1
281
     1
  3
ACAD_XREC_ROUNDTRIP
360
FBE7
  0
DICTIONARY
  5
FBF2
330
CBD1
100
AcDbDictionary
280
     1
281
     1
  3
ACAD_XREC_ROUNDTRIP
360
FBF3
  0
DICTIONARY
  5
FBF0
330
CBD0
100
AcDbDictionary
280
     1
281
     1
  3
ACAD_XREC_ROUNDTRIP
360
FBF1
  0
DICTIONARY
  5
FBE8
330
B30E
100
AcDbDictionary
280
     1
281
     1
  3
ACAD_XREC_ROUNDTRIP
360
FBE9
  0
DICTIONARY
  5
FBEA
330
BF67
100
AcDbDictionary
280
     1
281
     1
  3
ACAD_XREC_ROUNDTRIP
360
FBEB
  0
DICTIONARY
  5
FBEC
330
BF68
100
AcDbDictionary
280
     1
281
     1
  3
ACAD_XREC_ROUNDTRIP
360
FBED
  0
DICTIONARY
  5
FBEE
330
BF69
100
AcDbDictionary
280
     1
281
     1
  3
ACAD_XREC_ROUNDTRIP
360
FBEF
  0
XRECORD
  5
FBF5
102
{ACAD_REACTORS
330
FBF4
102
}
330
FBF4
100
AcDbXrecord
280
     1
102
SHADEPLOT
 70
     1
102
SHADEPLOTRESLEVEL
 70
     2
102
SHADEPLOTCUSTOMDPI
 70
   150
  0
XRECORD
  5
FBE7
102
{ACAD_REACTORS
330
FBE6
102
}
330
FBE6
100
AcDbXrecord
280
     1
102
SHADEPLOT
 70
     0
102
SHADEPLOTRESLEVEL
 70
     2
102
SHADEPLOTCUSTOMDPI
 70
   300
  0
XRECORD
  5
FBF3
102
{ACAD_REACTORS
330
FBF2
102
}
330
FBF2
100
AcDbXrecord
280
     1
102
SHADEPLOT
 70
     1
102
SHADEPLOTRESLEVEL
 70
     2
102
SHADEPLOTCUSTOMDPI
 70
   200
  0
XRECORD
  5
FBF1
102
{ACAD_REACTORS
330
FBF0
102
}
330
FBF0
100
AcDbXrecord
280
     1
102
SHADEPLOT
 70
     1
102
SHADEPLOTRESLEVEL
 70
     2
102
SHADEPLOTCUSTOMDPI
 70
   200
  0
XRECORD
  5
FBE9
102
{ACAD_REACTORS
330
FBE8
102
}
330
FBE8
100
AcDbXrecord
280
     1
102
SHADEPLOT
 70
     1
102
SHADEPLOTRESLEVEL
 70
     2
102
SHADEPLOTCUSTOMDPI
 70
   300
  0
XRECORD
  5
FBEB
102
{ACAD_REACTORS
330
FBEA
102
}
330
FBEA
100
AcDbXrecord
280
     1
102
SHADEPLOT
 70
     1
102
SHADEPLOTRESLEVEL
 70
     2
102
SHADEPLOTCUSTOMDPI
 70
   300
  0
XRECORD
  5
FBED
102
{ACAD_REACTORS
330
FBEC
102
}
330
FBEC
100
AcDbXrecord
280
     1
102
SHADEPLOT
 70
     1
102
SHADEPLOTRESLEVEL
 70
     2
102
SHADEPLOTCUSTOMDPI
 70
   300
  0
XRECORD
  5
FBEF
102
{ACAD_REACTORS
330
FBEE
102
}
330
FBEE
100
AcDbXrecord
280
     1
102
SHADEPLOT
 70
     1
102
SHADEPLOTRESLEVEL
 70
     2
102
SHADEPLOTCUSTOMDPI
 70
   300
  0
ENDSEC
  0
EOF
