  0
SECTION
  2
HEADER
  9
$ACADVER
  1
AC1015
  9
$ACADMAINTVER
 70
    18
  9
$DWGCODEPAGE
  3
ANSI_1252
  9
$INSBASE
 10
0.0
 20
0.0
 30
0.0
  9
$EXTMIN
 10
1.04791266756122
 20
-0.3910412592327645
 30
-0.0015258207003583
  9
$EXTMAX
 10
28.59613043872655
 20
34.02991532720189
 30
0.0000000349246037
  9
$LIMMIN
 10
0.0
 20
0.0
  9
$LIMMAX
 10
12.0
 20
9.0
  9
$ORTHOMODE
 70
     0
  9
$REGENMODE
 70
     1
  9
$FILLMODE
 70
     1
  9
$QTEXTMODE
 70
     0
  9
$MIRRTEXT
 70
     0
  9
$LTSCALE
 40
0.5
  9
$ATTMODE
 70
     1
  9
$TEXTSIZE
 40
0.2
  9
$TRACEWID
 40
0.05
  9
$TEXTSTYLE
  7
Standard
  9
$CLAYER
  8
0
  9
$CELTYPE
  6
ByLayer
  9
$CECOLOR
 62
   256
  9
$CELTSCALE
 40
1.0
  9
$DISPSILH
 70
     0
  9
$DIMSCALE
 40
1.0
  9
$DIMASZ
 40
2.666666666666666
  9
$DIMEXO
 40
3.0
  9
$DIMDLI
 40
0.2
  9
$DIMRND
 40
0.0
  9
$DIMDLE
 40
0.0
  9
$DIMEXE
 40
1.5
  9
$DIMTP
 40
0.0
  9
$DIMTM
 40
0.0
  9
$DIMTXT
 40
1.919999999999999
  9
$DIMCEN
 40
0.09
  9
$DIMTSZ
 40
0.0
  9
$DIMTOL
 70
     0
  9
$DIMLIM
 70
     0
  9
$DIMTIH
 70
     0
  9
$DIMTOH
 70
     1
  9
$DIMSE1
 70
     0
  9
$DIMSE2
 70
     0
  9
$DIMTAD
 70
     1
  9
$DIMZIN
 70
     2
  9
$DIMBLK
  1

  9
$DIMASO
 70
     1
  9
$DIMSHO
 70
     1
  9
$DIMPOST
  1
"
  9
$DIMAPOST
  1

  9
$DIMALT
 70
     0
  9
$DIMALTD
 70
     2
  9
$DIMALTF
 40
25.4
  9
$DIMLFAC
 40
1.0
  9
$DIMTOFL
 70
     0
  9
$DIMTVP
 40
0.0
  9
$DIMTIX
 70
     0
  9
$DIMSOXD
 70
     0
  9
$DIMSAH
 70
     0
  9
$DIMBLK1
  1

  9
$DIMBLK2
  1

  9
$DIMSTYLE
  2
Standard
  9
$DIMCLRD
 70
    30
  9
$DIMCLRE
 70
    30
  9
$DIMCLRT
 70
     7
  9
$DIMTFAC
 40
0.75
  9
$DIMGAP
 40
1.199999999999999
  9
$DIMJUST
 70
     0
  9
$DIMSD1
 70
     0
  9
$DIMSD2
 70
     0
  9
$DIMTOLJ
 70
     1
  9
$DIMTZIN
 70
     0
  9
$DIMALTZ
 70
     0
  9
$DIMALTTZ
 70
     0
  9
$DIMUPT
 70
     0
  9
$DIMDEC
 70
     3
  9
$DIMTDEC
 70
     3
  9
$DIMALTU
 70
     2
  9
$DIMALTTD
 70
     2
  9
$DIMTXSTY
  7
ARCHQUIK
  9
$DIMAUNIT
 70
     0
  9
$DIMADEC
 70
     3
  9
$DIMALTRND
 40
0.0
  9
$DIMAZIN
 70
     1
  9
$DIMDSEP
 70
    46
  9
$DIMATFIT
 70
     3
  9
$DIMFRAC
 70
     1
  9
$DIMLDRBLK
  1

  9
$DIMLUNIT
 70
     2
  9
$DIMLWD
 70
    -2
  9
$DIMLWE
 70
    -2
  9
$DIMTMOVE
 70
     0
  9
$LUNITS
 70
     2
  9
$LUPREC
 70
     4
  9
$SKETCHINC
 40
0.1
  9
$FILLETRAD
 40
0.0
  9
$AUNITS
 70
     0
  9
$AUPREC
 70
     3
  9
$MENU
  1
.
  9
$ELEVATION
 40
0.0
  9
$PELEVATION
 40
0.0
  9
$THICKNESS
 40
0.0
  9
$LIMCHECK
 70
     0
  9
$CHAMFERA
 40
0.5
  9
$CHAMFERB
 40
0.5
  9
$CHAMFERC
 40
1.0
  9
$CHAMFERD
 40
0.0
  9
$SKPOLY
 70
     0
  9
$TDCREATE
 40
2453879.320572338
  9
$TDUCREATE
 40
2453879.570572338
  9
$TDUPDATE
 40
2454074.711494352
  9
$TDUUPDATE
 40
2454074.961494352
  9
$TDINDWG
 40
0.1473455787
  9
$TDUSRTIMER
 40
0.1473448611
  9
$USRTIMER
 70
     1
  9
$ANGBASE
 50
0.0
  9
$ANGDIR
 70
     0
  9
$PDMODE
 70
    33
  9
$PDSIZE
 40
0.016
  9
$PLINEWID
 40
0.0
  9
$SPLFRAME
 70
     0
  9
$SPLINETYPE
 70
     6
  9
$SPLINESEGS
 70
     8
  9
$HANDSEED
  5
DDAB
  9
$SURFTAB1
 70
     6
  9
$SURFTAB2
 70
     6
  9
$SURFTYPE
 70
     6
  9
$SURFU
 70
     6
  9
$SURFV
 70
     6
  9
$UCSBASE
  2

  9
$UCSNAME
  2

  9
$UCSORG
 10
0.0
 20
0.0
 30
0.0
  9
$UCSXDIR
 10
1.0
 20
0.0
 30
0.0
  9
$UCSYDIR
 10
0.0
 20
1.0
 30
0.0
  9
$UCSORTHOREF
  2

  9
$UCSORTHOVIEW
 70
     0
  9
$UCSORGTOP
 10
0.0
 20
0.0
 30
0.0
  9
$UCSORGBOTTOM
 10
0.0
 20
0.0
 30
0.0
  9
$UCSORGLEFT
 10
0.0
 20
0.0
 30
0.0
  9
$UCSORGRIGHT
 10
0.0
 20
0.0
 30
0.0
  9
$UCSORGFRONT
 10
0.0
 20
0.0
 30
0.0
  9
$UCSORGBACK
 10
0.0
 20
0.0
 30
0.0
  9
$PUCSBASE
  2

  9
$PUCSNAME
  2

  9
$PUCSORG
 10
0.0
 20
0.0
 30
0.0
  9
$PUCSXDIR
 10
1.0
 20
0.0
 30
0.0
  9
$PUCSYDIR
 10
0.0
 20
1.0
 30
0.0
  9
$PUCSORTHOREF
  2

  9
$PUCSORTHOVIEW
 70
     0
  9
$PUCSORGTOP
 10
0.0
 20
0.0
 30
0.0
  9
$PUCSORGBOTTOM
 10
0.0
 20
0.0
 30
0.0
  9
$PUCSORGLEFT
 10
0.0
 20
0.0
 30
0.0
  9
$PUCSORGRIGHT
 10
0.0
 20
0.0
 30
0.0
  9
$PUCSORGFRONT
 10
0.0
 20
0.0
 30
0.0
  9
$PUCSORGBACK
 10
0.0
 20
0.0
 30
0.0
  9
$USERI1
 70
     0
  9
$USERI2
 70
     0
  9
$USERI3
 70
     0
  9
$USERI4
 70
     0
  9
$USERI5
 70
     0
  9
$USERR1
 40
0.0
  9
$USERR2
 40
0.0
  9
$USERR3
 40
22.0
  9
$USERR4
 40
0.0
  9
$USERR5
 40
0.0
  9
$WORLDVIEW
 70
     1
  9
$SHADEDGE
 70
     3
  9
$SHADEDIF
 70
    70
  9
$TILEMODE
 70
     1
  9
$MAXACTVP
 70
    64
  9
$PINSBASE
 10
0.0
 20
0.0
 30
0.0
  9
$PLIMCHECK
 70
     0
  9
$PEXTMIN
 10
1.000000000000000E+20
 20
1.000000000000000E+20
 30
1.000000000000000E+20
  9
$PEXTMAX
 10
-1.000000000000000E+20
 20
-1.000000000000000E+20
 30
-1.000000000000000E+20
  9
$PLIMMIN
 10
-0.2674709530327264
 20
-0.2674704649316983
  9
$PLIMMAX
 10
10.73252880667138
 20
8.23252929477241
  9
$UNITMODE
 70
     0
  9
$VISRETAIN
 70
     1
  9
$PLINEGEN
 70
     0
  9
$PSLTSCALE
 70
     1
  9
$TREEDEPTH
 70
  3020
  9
$CMLSTYLE
  2
Standard
  9
$CMLJUST
 70
     0
  9
$CMLSCALE
 40
1.0
  9
$PROXYGRAPHICS
 70
     1
  9
$MEASUREMENT
 70
     0
  9
$CELWEIGHT
370
    -1
  9
$ENDCAPS
280
     0
  9
$JOINSTYLE
280
     0
  9
$LWDISPLAY
290
     0
  9
$INSUNITS
 70
     1
  9
$HYPERLINKBASE
  1

  9
$STYLESHEET
  1

  9
$XEDIT
290
     1
  9
$CEPSNTYPE
380
     0
  9
$PSTYLEMODE
290
     1
  9
$FINGERPRINTGUID
  2
{FDEAD576-A652-11D2-9A35-0060089B3A3F}
  9
$VERSIONGUID
  2
{5E3143F7-D9C3-45D5-B01A-D76E4636639B}
  9
$EXTNAMES
290
     1
  9
$PSVPSCALE
 40
0.0
  9
$OLESTARTUP
290
     0
  0
ENDSEC
  0
SECTION
  2
CLASSES
  0
CLASS
  1
ACDBDICTIONARYWDFLT
  2
AcDbDictionaryWithDefault
  3
ObjectDBX Classes
 90
        0
280
     0
281
     0
  0
CLASS
  1
ACDBPLACEHOLDER
  2
AcDbPlaceHolder
  3
ObjectDBX Classes
 90
        0
280
     0
281
     0
  0
CLASS
  1
LAYOUT
  2
AcDbLayout
  3
ObjectDBX Classes
 90
        0
280
     0
281
     0
  0
CLASS
  1
PLOTSETTINGS
  2
AcDbPlotSettings
  3
ObjectDBX Classes
 90
        0
280
     0
281
     0
  0
CLASS
  1
AMLOADER
  2
AMLoader
  3
AMAcad
 90
        0
280
     0
281
     0
  0
CLASS
  1
DICTIONARYVAR
  2
AcDbDictionaryVar
  3
ObjectDBX Classes
 90
        0
280
     0
281
     0
  0
CLASS
  1
SORTENTSTABLE
  2
AcDbSortentsTable
  3
ObjectDBX Classes
 90
        0
280
     0
281
     0
  0
CLASS
  1
DIMASSOC
  2
AcDbDimAssoc
  3
"AcDbDimAssoc|Product Desc:     AcDim ARX App For Dimension|Company:          Autodesk, Inc.|WEB Address:      www.autodesk.com"
 90
        0
280
     0
281
     0
  0
ENDSEC
  0
SECTION
  2
TABLES
  0
TABLE
  2
VPORT
  5
8
330
0
100
AcDbSymbolTable
 70
     3
  0
VPORT
  5
DD95
330
8
100
AcDbSymbolTableRecord
100
AcDbViewportTableRecord
  2
*Active
 70
     0
 10
0.0
 20
0.0
 11
1.0
 21
1.0
 12
14.82202155314388
 22
16.81943703398456
 13
0.0
 23
0.0
 14
0.0625
 24
0.0625
 15
0.5
 25
0.5
 16
0.0
 26
0.0
 36
1.0
 17
0.0
 27
0.0
 37
0.0
 40
34.70194398714024
 41
1.491825613079019
 42
50.0
 43
0.0
 44
0.0
 50
0.0
 51
0.0
 71
     0
 72
  5000
 73
     1
 74
     0
 75
     0
 76
     0
 77
     0
 78
     0
281
     0
 65
     1
110
0.0
120
0.0
130
0.0
111
1.0
121
0.0
131
0.0
112
0.0
122
1.0
132
0.0
 79
     0
146
0.0
  0
ENDTAB
  0
TABLE
  2
LTYPE
  5
5
330
0
100
AcDbSymbolTable
 70
     1
  0
LTYPE
  5
14
330
5
100
AcDbSymbolTableRecord
100
AcDbLinetypeTableRecord
  2
ByBlock
 70
     0
  3

 72
    65
 73
     0
 40
0.0
  0
LTYPE
  5
15
330
5
100
AcDbSymbolTableRecord
100
AcDbLinetypeTableRecord
  2
ByLayer
 70
     0
  3

 72
    65
 73
     0
 40
0.0
  0
LTYPE
  5
16
330
5
100
AcDbSymbolTableRecord
100
AcDbLinetypeTableRecord
  2
Continuous
 70
     0
  3
Solid line
 72
    65
 73
     0
 40
0.0
  0
ENDTAB
  0
TABLE
  2
LAYER
  5
2
102
{ACAD_XDICTIONARY
360
D03C
102
}
330
0
100
AcDbSymbolTable
 70
     8
  0
LAYER
  5
10
330
2
100
AcDbSymbolTableRecord
100
AcDbLayerTableRecord
  2
0
 70
     0
 62
     7
  6
Continuous
370
    -3
390
F
  0
LAYER
  5
D035
330
2
100
AcDbSymbolTableRecord
100
AcDbLayerTableRecord
  2
Pel_Hatch
 70
     0
 62
     7
  6
Continuous
370
    -3
390
F
  0
LAYER
  5
D036
330
2
100
AcDbSymbolTableRecord
100
AcDbLayerTableRecord
  2
Pel_Outline
 70
     0
 62
    62
  6
Continuous
370
    -3
390
F
  0
LAYER
  5
D037
330
2
100
AcDbSymbolTableRecord
100
AcDbLayerTableRecord
  2
Pel_Cross Section
 70
     0
 62
     7
  6
Continuous
370
    -3
390
F
  0
LAYER
  5
D9E7
330
2
100
AcDbSymbolTableRecord
100
AcDbLayerTableRecord
  2
Defpoints
 70
     0
 62
     7
  6
Continuous
290
     0
370
    -3
390
F
  0
ENDTAB
  0
TABLE
  2
STYLE
  5
3
330
0
100
AcDbSymbolTable
 70
     3
  0
STYLE
  5
11
330
3
100
AcDbSymbolTableRecord
100
AcDbTextStyleTableRecord
  2
Standard
 70
     0
 40
0.0
 41
1.0
 50
0.0
 71
     0
 42
0.2
  3
ARIAL.TTF
  4

1001
ACAD
1000
Arial
1071
       34
  0
STYLE
  5
CB
330
3
100
AcDbSymbolTableRecord
100
AcDbTextStyleTableRecord
  2
ARCHQUIK
 70
     0
 40
0.0
 41
1.0
 50
0.0
 71
     0
 42
0.09
  3
archquik.shx
  4

  0
STYLE
  5
D039
330
3
100
AcDbSymbolTableRecord
100
AcDbTextStyleTableRecord
  2
Arial
 70
     0
 40
0.0
 41
1.0
 50
0.0
 71
     0
 42
0.2
  3
ARIAL.TTF
  4

1001
ACAD
1000
Arial
1071
       34
  0
ENDTAB
  0
TABLE
  2
VIEW
  5
6
330
0
100
AcDbSymbolTable
 70
     0
  0
ENDTAB
  0
TABLE
  2
UCS
  5
7
330
0
100
AcDbSymbolTable
 70
     0
  0
ENDTAB
  0
TABLE
  2
APPID
  5
9
330
0
100
AcDbSymbolTable
 70
     6
  0
APPID
  5
12
330
9
100
AcDbSymbolTableRecord
100
AcDbRegAppTableRecord
  2
ACAD
 70
     0
  0
APPID
  5
1B8
330
9
100
AcDbSymbolTableRecord
100
AcDbRegAppTableRecord
  2
AMAcad
 70
     0
  0
APPID
  5
FBF
330
9
100
AcDbSymbolTableRecord
100
AcDbRegAppTableRecord
  2
ADE
 70
     0
  0
APPID
  5
1010
330
9
100
AcDbSymbolTableRecord
100
AcDbRegAppTableRecord
  2
DCO15
 70
     0
  0
APPID
  5
2B00
330
9
100
AcDbSymbolTableRecord
100
AcDbRegAppTableRecord
  2
ADCADD_ZZ
 70
     0
  0
APPID
  5
2B01
330
9
100
AcDbSymbolTableRecord
100
AcDbRegAppTableRecord
  2
SDSK_PMN
 70
     0
  0
ENDTAB
  0
TABLE
  2
DIMSTYLE
  5
A
330
0
100
AcDbSymbolTable
 70
     2
100
AcDbDimStyleTable
 71
     1
340
27
  0
DIMSTYLE
105
27
330
A
100
AcDbSymbolTableRecord
100
AcDbDimStyleTableRecord
  2
Standard
 70
     0
 41
2.666666666666666
 42
3.0
 43
0.2
 44
0.0625
 73
     0
 77
     1
 78
     2
140
0.08
146
0.75
147
1.199999999999999
176
    30
177
    30
178
     7
179
     3
271
     6
272
     6
276
     1
279
     2
340
CB
  0
DIMSTYLE
105
D03A
102
{ACAD_REACTORS
330
D0FD
330
D0FE
330
D100
330
D104
330
D108
330
D10C
330
D10F
330
D114
330
D115
330
D116
330
D119
330
D11A
330
D11B
330
D11C
330
D11D
330
D11E
330
D11F
330
D120
330
D121
330
D122
330
D123
330
D124
330
D125
330
D126
330
D127
330
D128
330
D129
330
D12A
330
D12B
330
D12C
330
D12D
330
D12E
330
D12F
330
D130
330
D131
330
D136
330
D137
330
D146
330
D147
330
D148
330
D0D2
330
D0D3
330
D0D8
330
D0DA
330
D0DB
330
D0DE
330
D0F1
330
D0F2
102
}
330
A
100
AcDbSymbolTableRecord
100
AcDbDimStyleTableRecord
  2
6 inch Scale
 70
     0
  3
"\X
 41
0.25
 42
0.25
 43
0.2
 44
0.125
 73
     0
 74
     0
 77
     1
 78
    10
140
0.14
146
0.75
147
0.0625
170
     1
171
     0
176
   256
177
   256
178
   255
179
     3
274
     0
276
     2
277
     5
279
     2
340
D039
371
    -1
372
    -1
  0
ENDTAB
  0
TABLE
  2
BLOCK_RECORD
  5
1
330
0
100
AcDbSymbolTable
 70
    63
  0
BLOCK_RECORD
  5
1F
102
{ACAD_XDICTIONARY
360
D74C
102
}
330
1
100
AcDbSymbolTableRecord
100
AcDbBlockTableRecord
  2
*Model_Space
340
22
  0
BLOCK_RECORD
  5
CBD2
330
1
100
AcDbSymbolTableRecord
100
AcDbBlockTableRecord
  2
*Paper_Space
340
CBD3
  0
BLOCK_RECORD
  5
CC3C
102
{ACAD_XDICTIONARY
360
CC3D
102
}
330
1
100
AcDbSymbolTableRecord
100
AcDbBlockTableRecord
  2
ACC31D0 Colonial
340
0
102
{BLKREFS
331
D0EC
102
}
  0
BLOCK_RECORD
  5
CC67
102
{ACAD_XDICTIONARY
360
CC68
102
}
330
1
100
AcDbSymbolTableRecord
100
AcDbBlockTableRecord
  2
acc3146 Narrow Stool
340
0
102
{BLKREFS
331
D0ED
102
}
  0
BLOCK_RECORD
  5
CC7C
102
{ACAD_XDICTIONARY
360
CC7D
102
}
330
1
100
AcDbSymbolTableRecord
100
AcDbBlockTableRecord
  2
ACC3204 Wide Stool
340
0
102
{BLKREFS
331
D0EE
102
}
  0
BLOCK_RECORD
  5
CC91
102
{ACAD_XDICTIONARY
360
CC92
102
}
330
1
100
AcDbSymbolTableRecord
100
AcDbBlockTableRecord
  2
3315
340
0
102
{BLKREFS
331
D0EF
102
}
  0
BLOCK_RECORD
  5
CCA5
102
{ACAD_XDICTIONARY
360
CCA6
102
}
330
1
100
AcDbSymbolTableRecord
100
AcDbBlockTableRecord
  2
3544
340
0
102
{BLKREFS
331
D0F3
102
}
  0
BLOCK_RECORD
  5
CCBF
102
{ACAD_XDICTIONARY
360
CCC0
102
}
330
1
100
AcDbSymbolTableRecord
100
AcDbBlockTableRecord
  2
33M4
340
0
102
{BLKREFS
331
D0F4
102
}
  0
BLOCK_RECORD
  5
CCD2
102
{ACAD_XDICTIONARY
360
CCD3
102
}
330
1
100
AcDbSymbolTableRecord
100
AcDbBlockTableRecord
  2
33P2
340
0
102
{BLKREFS
331
D0F5
102
}
  0
BLOCK_RECORD
  5
CCE5
102
{ACAD_XDICTIONARY
360
CCE6
102
}
330
1
100
AcDbSymbolTableRecord
100
AcDbBlockTableRecord
  2
38L5
340
0
102
{BLKREFS
331
D0F6
102
}
  0
BLOCK_RECORD
  5
CCF8
102
{ACAD_XDICTIONARY
360
CCF9
102
}
330
1
100
AcDbSymbolTableRecord
100
AcDbBlockTableRecord
  2
38L6
340
0
102
{BLKREFS
331
D0F7
102
}
  0
BLOCK_RECORD
  5
CD0B
102
{ACAD_XDICTIONARY
360
CD0C
102
}
330
1
100
AcDbSymbolTableRecord
100
AcDbBlockTableRecord
  2
3419
340
0
102
{BLKREFS
331
D0F8
102
}
  0
BLOCK_RECORD
  5
CD1E
102
{ACAD_XDICTIONARY
360
CD1F
102
}
330
1
100
AcDbSymbolTableRecord
100
AcDbBlockTableRecord
  2
3443
340
0
102
{BLKREFS
331
D0F9
102
}
  0
BLOCK_RECORD
  5
CD31
102
{ACAD_XDICTIONARY
360
CD32
102
}
330
1
100
AcDbSymbolTableRecord
100
AcDbBlockTableRecord
  2
ACC32E6
340
0
102
{BLKREFS
331
D0FA
102
}
  0
BLOCK_RECORD
  5
CD47
102
{ACAD_XDICTIONARY
360
CD48
102
}
330
1
100
AcDbSymbolTableRecord
100
AcDbBlockTableRecord
  2
ACC380R
340
0
102
{BLKREFS
331
D0FB
102
}
  0
BLOCK_RECORD
  5
CD5D
102
{ACAD_XDICTIONARY
360
CD5E
102
}
330
1
100
AcDbSymbolTableRecord
100
AcDbBlockTableRecord
  2
ACC250H
340
0
102
{BLKREFS
331
D145
102
}
  0
BLOCK_RECORD
  5
D003
102
{ACAD_XDICTIONARY
360
D004
102
}
330
1
100
AcDbSymbolTableRecord
100
AcDbBlockTableRecord
  2
31D0 Colonial
340
0
102
{BLKREFS
331
D0D1
102
}
  0
BLOCK_RECORD
  5
D14A
330
1
100
AcDbSymbolTableRecord
100
AcDbBlockTableRecord
  2
*D15
340
0
  0
BLOCK_RECORD
  5
D157
330
1
100
AcDbSymbolTableRecord
100
AcDbBlockTableRecord
  2
*D16
340
0
  0
BLOCK_RECORD
  5
D164
330
1
100
AcDbSymbolTableRecord
100
AcDbBlockTableRecord
  2
*D17
340
0
  0
BLOCK_RECORD
  5
D170
330
1
100
AcDbSymbolTableRecord
100
AcDbBlockTableRecord
  2
*D18
340
0
  0
BLOCK_RECORD
  5
D17C
330
1
100
AcDbSymbolTableRecord
100
AcDbBlockTableRecord
  2
*D19
340
0
  0
BLOCK_RECORD
  5
D189
330
1
100
AcDbSymbolTableRecord
100
AcDbBlockTableRecord
  2
*D20
340
0
  0
BLOCK_RECORD
  5
D196
330
1
100
AcDbSymbolTableRecord
100
AcDbBlockTableRecord
  2
*D21
340
0
  0
BLOCK_RECORD
  5
D1A4
330
1
100
AcDbSymbolTableRecord
100
AcDbBlockTableRecord
  2
*D22
340
0
  0
BLOCK_RECORD
  5
D1B1
330
1
100
AcDbSymbolTableRecord
100
AcDbBlockTableRecord
  2
*D23
340
0
  0
BLOCK_RECORD
  5
D1BE
330
1
100
AcDbSymbolTableRecord
100
AcDbBlockTableRecord
  2
*D24
340
0
  0
BLOCK_RECORD
  5
D1CB
330
1
100
AcDbSymbolTableRecord
100
AcDbBlockTableRecord
  2
*D25
340
0
  0
BLOCK_RECORD
  5
D1D7
330
1
100
AcDbSymbolTableRecord
100
AcDbBlockTableRecord
  2
*D26
340
0
  0
BLOCK_RECORD
  5
D1E4
330
1
100
AcDbSymbolTableRecord
100
AcDbBlockTableRecord
  2
*D27
340
0
  0
BLOCK_RECORD
  5
D1F1
330
1
100
AcDbSymbolTableRecord
100
AcDbBlockTableRecord
  2
*D28
340
0
  0
BLOCK_RECORD
  5
D1FD
330
1
100
AcDbSymbolTableRecord
100
AcDbBlockTableRecord
  2
*D29
340
0
  0
BLOCK_RECORD
  5
D20A
330
1
100
AcDbSymbolTableRecord
100
AcDbBlockTableRecord
  2
*D30
340
0
  0
BLOCK_RECORD
  5
D217
330
1
100
AcDbSymbolTableRecord
100
AcDbBlockTableRecord
  2
*D31
340
0
  0
BLOCK_RECORD
  5
D224
330
1
100
AcDbSymbolTableRecord
100
AcDbBlockTableRecord
  2
*D32
340
0
  0
BLOCK_RECORD
  5
D230
330
1
100
AcDbSymbolTableRecord
100
AcDbBlockTableRecord
  2
*D33
340
0
  0
BLOCK_RECORD
  5
D23C
330
1
100
AcDbSymbolTableRecord
100
AcDbBlockTableRecord
  2
*D34
340
0
  0
BLOCK_RECORD
  5
D248
330
1
100
AcDbSymbolTableRecord
100
AcDbBlockTableRecord
  2
*D35
340
0
  0
BLOCK_RECORD
  5
D254
330
1
100
AcDbSymbolTableRecord
100
AcDbBlockTableRecord
  2
*D36
340
0
  0
BLOCK_RECORD
  5
D261
330
1
100
AcDbSymbolTableRecord
100
AcDbBlockTableRecord
  2
*D37
340
0
  0
BLOCK_RECORD
  5
D26E
330
1
100
AcDbSymbolTableRecord
100
AcDbBlockTableRecord
  2
*D38
340
0
  0
BLOCK_RECORD
  5
D27A
330
1
100
AcDbSymbolTableRecord
100
AcDbBlockTableRecord
  2
*D39
340
0
  0
BLOCK_RECORD
  5
D287
330
1
100
AcDbSymbolTableRecord
100
AcDbBlockTableRecord
  2
*D40
340
0
  0
BLOCK_RECORD
  5
D294
330
1
100
AcDbSymbolTableRecord
100
AcDbBlockTableRecord
  2
*D41
340
0
  0
BLOCK_RECORD
  5
D2A0
330
1
100
AcDbSymbolTableRecord
100
AcDbBlockTableRecord
  2
*D42
340
0
  0
BLOCK_RECORD
  5
D2AD
330
1
100
AcDbSymbolTableRecord
100
AcDbBlockTableRecord
  2
*D43
340
0
  0
BLOCK_RECORD
  5
D2BA
330
1
100
AcDbSymbolTableRecord
100
AcDbBlockTableRecord
  2
*D44
340
0
  0
BLOCK_RECORD
  5
D2C7
330
1
100
AcDbSymbolTableRecord
100
AcDbBlockTableRecord
  2
*D45
340
0
  0
BLOCK_RECORD
  5
D2D3
330
1
100
AcDbSymbolTableRecord
100
AcDbBlockTableRecord
  2
*D46
340
0
  0
BLOCK_RECORD
  5
D2DF
330
1
100
AcDbSymbolTableRecord
100
AcDbBlockTableRecord
  2
*D47
340
0
  0
BLOCK_RECORD
  5
D2EC
330
1
100
AcDbSymbolTableRecord
100
AcDbBlockTableRecord
  2
*D48
340
0
  0
BLOCK_RECORD
  5
D2F9
330
1
100
AcDbSymbolTableRecord
100
AcDbBlockTableRecord
  2
*D49
340
0
  0
BLOCK_RECORD
  5
D306
330
1
100
AcDbSymbolTableRecord
100
AcDbBlockTableRecord
  2
*D50
340
0
  0
BLOCK_RECORD
  5
D312
330
1
100
AcDbSymbolTableRecord
100
AcDbBlockTableRecord
  2
*D51
340
0
  0
BLOCK_RECORD
  5
D31E
330
1
100
AcDbSymbolTableRecord
100
AcDbBlockTableRecord
  2
*D52
340
0
  0
BLOCK_RECORD
  5
D32C
330
1
100
AcDbSymbolTableRecord
100
AcDbBlockTableRecord
  2
*D53
340
0
  0
BLOCK_RECORD
  5
D339
330
1
100
AcDbSymbolTableRecord
100
AcDbBlockTableRecord
  2
*D54
340
0
  0
BLOCK_RECORD
  5
D346
330
1
100
AcDbSymbolTableRecord
100
AcDbBlockTableRecord
  2
*D55
340
0
  0
BLOCK_RECORD
  5
D353
330
1
100
AcDbSymbolTableRecord
100
AcDbBlockTableRecord
  2
*D56
340
0
  0
BLOCK_RECORD
  5
D360
330
1
100
AcDbSymbolTableRecord
100
AcDbBlockTableRecord
  2
*D57
340
0
  0
BLOCK_RECORD
  5
D381
330
1
100
AcDbSymbolTableRecord
100
AcDbBlockTableRecord
  2
*D58
340
0
  0
BLOCK_RECORD
  5
D38E
330
1
100
AcDbSymbolTableRecord
100
AcDbBlockTableRecord
  2
*D59
340
0
  0
BLOCK_RECORD
  5
D39C
330
1
100
AcDbSymbolTableRecord
100
AcDbBlockTableRecord
  2
*D60
340
0
  0
BLOCK_RECORD
  5
D3A9
330
1
100
AcDbSymbolTableRecord
100
AcDbBlockTableRecord
  2
*D61
340
0
  0
BLOCK_RECORD
  5
D3B7
330
1
100
AcDbSymbolTableRecord
100
AcDbBlockTableRecord
  2
*D62
340
0
  0
ENDTAB
  0
ENDSEC
  0
SECTION
  2
BLOCKS
  0
BLOCK
  5
20
330
1F
100
AcDbEntity
  8
0
100
AcDbBlockBegin
  2
*Model_Space
 70
     0
 10
0.0
 20
0.0
 30
0.0
  3
*Model_Space
  1

  0
ENDBLK
  5
21
330
1F
100
AcDbEntity
  8
0
100
AcDbBlockEnd
  0
BLOCK
  5
CBD4
330
CBD2
100
AcDbEntity
 67
     1
  8
0
100
AcDbBlockBegin
  2
*Paper_Space
 70
     0
 10
0.0
 20
0.0
 30
0.0
  3
*Paper_Space
  1

  0
ENDBLK
  5
CBD5
330
CBD2
100
AcDbEntity
 67
     1
  8
0
100
AcDbBlockEnd
  0
BLOCK
  5
CC3F
330
CC3C
100
AcDbEntity
  8
0
100
AcDbBlockBegin
  2
ACC31D0 Colonial
 70
     0
 10
0.0
 20
0.0
 30
0.0
  3
ACC31D0 Colonial
  1

  0
POLYLINE
  5
CC40
102
{ACAD_REACTORS
330
CC55
102
}
330
CC3C
100
AcDbEntity
  8
Pel_Cross Section
  6
Continuous
 62
     3
100
AcDb2dPolyline
 66
     1
 10
0.0
 20
0.0
 30
0.0
 70
     1
  0
VERTEX
  5
D790
330
CC40
100
AcDbEntity
  8
Pel_Cross Section
  6
Continuous
 62
     3
100
AcDbVertex
100
AcDb2dVertex
 10
0.75
 20
2.223808999999995
 30
0.0
  0
VERTEX
  5
D791
330
CC40
100
AcDbEntity
  8
Pel_Cross Section
  6
Continuous
 62
     3
100
AcDbVertex
100
AcDb2dVertex
 10
0.75
 20
1.749999999999992
 30
0.0
  0
VERTEX
  5
D792
330
CC40
100
AcDbEntity
  8
Pel_Cross Section
  6
Continuous
 62
     3
100
AcDbVertex
100
AcDb2dVertex
 10
0.6880000000000006
 20
1.749999999999992
 30
0.0
 42
-0.0714559852478829
  0
VERTEX
  5
D793
330
CC40
100
AcDbEntity
  8
Pel_Cross Section
  6
Continuous
 62
     3
100
AcDbVertex
100
AcDb2dVertex
 10
0.6374578713513497
 20
1.398146600338588
 30
0.0
  0
VERTEX
  5
D794
330
CC40
100
AcDbEntity
  8
Pel_Cross Section
  6
Continuous
 62
     3
100
AcDbVertex
100
AcDb2dVertex
 10
0.550542128648651
 20
1.101853399661404
 30
0.0
 42
0.0714559852478834
  0
VERTEX
  5
D795
330
CC40
100
AcDbEntity
  8
Pel_Cross Section
  6
Continuous
 62
     3
100
AcDbVertex
100
AcDb2dVertex
 10
0.5
 20
0.7499999999999894
 30
0.0
  0
VERTEX
  5
D796
330
CC40
100
AcDbEntity
  8
Pel_Cross Section
  6
Continuous
 62
     3
100
AcDbVertex
100
AcDb2dVertex
 10
0.4369999999999994
 20
0.7499999999999894
 30
0.0
  0
VERTEX
  5
D797
330
CC40
100
AcDbEntity
  8
Pel_Cross Section
  6
Continuous
 62
     3
100
AcDbVertex
100
AcDb2dVertex
 10
0.4369999999999994
 20
0.3440000000000012
 30
0.0
  0
VERTEX
  5
D798
330
CC40
100
AcDbEntity
  8
Pel_Cross Section
  6
Continuous
 62
     3
100
AcDbVertex
100
AcDb2dVertex
 10
0.375
 20
0.3440000000000012
 30
0.0
 42
-0.1399088654239762
  0
VERTEX
  5
D799
330
CC40
100
AcDbEntity
  8
Pel_Cross Section
  6
Continuous
 62
     3
100
AcDbVertex
100
AcDb2dVertex
 10
0.3280000006036845
 20
0.1793214755818191
 30
0.0
 42
0.1399089885617641
  0
VERTEX
  5
D79A
330
CC40
100
AcDbEntity
  8
Pel_Cross Section
  6
Continuous
 62
     3
100
AcDbVertex
100
AcDb2dVertex
 10
0.2810000000000006
 20
0.0146429999999995
 30
0.0
  0
VERTEX
  5
D79B
330
CC40
100
AcDbEntity
  8
Pel_Cross Section
  6
Continuous
 62
     3
100
AcDbVertex
100
AcDb2dVertex
 10
0.2810000000000006
 20
0.0098129999999941
 30
0.0
  0
VERTEX
  5
D79C
330
CC40
100
AcDbEntity
  8
Pel_Cross Section
  6
Continuous
 62
     3
100
AcDbVertex
100
AcDb2dVertex
 10
0.0
 20
-0.0000000000000071
 30
0.0
  0
VERTEX
  5
D79D
330
CC40
100
AcDbEntity
  8
Pel_Cross Section
  6
Continuous
 62
     3
100
AcDbVertex
100
AcDb2dVertex
 10
0.0
 20
0.625
 30
0.0
 42
0.2280720461942016
  0
VERTEX
  5
D79E
330
CC40
100
AcDbEntity
  8
Pel_Cross Section
  6
Continuous
 62
     3
100
AcDbVertex
100
AcDb2dVertex
 10
0.0469999999999979
 20
0.7226779999999913
 30
0.0
  0
VERTEX
  5
D79F
330
CC40
100
AcDbEntity
  8
Pel_Cross Section
  6
Continuous
 62
     3
100
AcDbVertex
100
AcDb2dVertex
 10
0.0470007834883894
 20
1.654490721224874
 30
0.0
 42
0.2240766004830583
  0
VERTEX
  5
D7A0
330
CC40
100
AcDbEntity
  8
Pel_Cross Section
  6
Continuous
 62
     3
100
AcDbVertex
100
AcDb2dVertex
 10
0.0000006110440669
 20
1.75032869473835
 30
0.0
  0
VERTEX
  5
D7A1
330
CC40
100
AcDbEntity
  8
Pel_Cross Section
  6
Continuous
 62
     3
100
AcDbVertex
100
AcDb2dVertex
 10
0.0
 20
2.25
 30
0.0
  0
VERTEX
  5
D7A2
330
CC40
100
AcDbEntity
  8
Pel_Cross Section
  6
Continuous
 62
     3
100
AcDbVertex
100
AcDb2dVertex
 10
0.75
 20
2.223808999999995
 30
0.0
  0
SEQEND
  5
D7A3
330
CC40
100
AcDbEntity
  8
Pel_Cross Section
  6
Continuous
 62
     3
  0
HATCH
  5
CC55
330
CC3C
100
AcDbEntity
  8
Pel_Hatch
 62
     2
100
AcDbHatch
 10
0.0
 20
0.0
 30
0.0
210
0.0
220
0.0
230
1.0
  2
WOOD
 70
     0
 71
     1
 91
        1
 92
        1
 93
       18
 72
     1
 10
0.75
 20
2.223808999999995
 11
0.75
 21
1.749999999999997
 72
     1
 10
0.75
 20
1.749999999999992
 11
0.6880000000000006
 21
1.749999999999992
 72
     2
 10
-0.5620000000000048
 20
1.749999999999992
 40
1.250000000000005
 50
360.0
 51
376.348718
 73
     0
 72
     1
 10
0.6374578713513497
 20
1.398146600338588
 11
0.5505421286486505
 21
1.101853399661401
 72
     2
 10
1.750000000000009
 20
0.7499999999999965
 40
1.250000000000008
 50
163.651282
 51
180.0000000000001
 73
     1
 72
     1
 10
0.5
 20
0.7499999999999894
 11
0.4369999999999994
 21
0.7499999999999894
 72
     1
 10
0.4369999999999994
 20
0.7499999999999894
 11
0.4369999999999994
 21
0.3439999999999967
 72
     1
 10
0.4369999999999994
 20
0.3440000000000012
 11
0.375
 21
0.3440000000000012
 72
     2
 10
0.0629996509911024
 20
0.3440000488294785
 40
0.3120003490089001
 50
0.0000089670512956
 51
31.85796528775763
 73
     0
 72
     2
 10
0.5929999999999894
 20
0.0146430000000031
 40
0.3119999999999879
 50
148.1420160000006
 51
180.0000000000006
 73
     1
 72
     1
 10
0.2810000000000006
 20
0.0146429999999995
 11
0.2810000000000006
 21
0.0098129999999969
 72
     1
 10
0.2810000000000006
 20
0.0098129999999941
 11
-0.0000000000000001
 21
-0.0000000000000071
 72
     1
 10
0.0
 20
-0.0000000000000071
 11
0.0
 21
0.6249999999999975
 72
     2
 10
-0.0779998318124609
 20
0.7226779616411641
 40
0.1249998318124663
 50
308.6087906010565
 51
360.0000175824153
 73
     1
 72
     1
 10
0.0469999999999979
 20
0.7226779999999913
 11
0.0470007834883881
 21
1.654490721224871
 72
     2
 10
-0.0780559999999984
 20
1.652604999999994
 40
0.125070999999998
 50
0.8638930000005043
 51
51.38395700000045
 73
     1
 72
     1
 10
0.0000006110440669
 20
1.75032869473835
 11
0.0
 21
2.250000000000001
 72
     1
 10
0.0
 20
2.25
 11
0.7500000000000004
 21
2.223808999999994
 97
        1
330
CC40
 75
     0
 76
     1
 52
45.0
 41
0.1
 77
     0
 78
    12
 53
134.9999999999999
 43
-8.225236510320778
 44
-31.29093174097245
 45
0.0000000000000001
 46
0.565685424949238
 79
     2
 49
0.3999999999999997
 49
-3.599999999999999
 53
134.9999999999999
 43
-9.003053969625977
 44
-30.37169292542993
 45
0.0000000000000001
 46
0.565685424949238
 79
     2
 49
0.3999999999999997
 49
-1.599999999999998
 53
108.4349488199999
 43
-8.508079222795396
 44
-31.57377445344707
 45
-0.0000000315939274
 46
0.5656853990186144
 79
     2
 49
0.8944271999999994
 49
-8.049844699999997
 53
149.03624347
 43
-7.235287016659608
 44
-32.56372394710823
 45
-0.0000000171703305
 46
0.5656854934639299
 79
     2
 49
0.4123105999999999
 49
-2.886173899999999
 53
149.03624347
 43
-7.871683119727503
 44
-32.06874920027765
 45
-0.0000000171703305
 46
0.5656854934639299
 79
     2
 49
0.4123105999999999
 49
-2.886173899999999
 53
149.03624347
 43
-6.457469557354405
 44
-32.35159191275226
 45
-0.0000000171703305
 46
0.5656854934639299
 79
     2
 49
0.4123105999999999
 49
-2.886173899999999
 53
120.9637565299999
 43
-8.790921935270015
 44
-30.72524631602321
 45
0.0000000171703306
 46
0.5656854934639297
 79
     2
 49
0.4123105999999999
 49
-16.08011189999999
 53
120.9637565299999
 43
-11.6193490600162
 44
-25.63407749148006
 45
0.0000000171703306
 46
0.5656854934639297
 79
     2
 49
0.4123105999999999
 49
-16.08011189999999
 53
120.9637565299999
 43
-14.4477761847624
 44
-21.10859409188616
 45
0.0000000171703306
 46
0.5656854934639297
 79
     2
 49
0.4123105999999999
 49
-16.08011189999999
 53
161.56505118
 43
-9.639450072693872
 44
-29.87671817859935
 45
0.0000000315939274
 46
0.5656853990186144
 79
     2
 49
0.4472136
 49
-8.4970583
 53
161.56505118
 43
-3.982595823201492
 44
-31.57377445344707
 45
0.0000000315939274
 46
0.5656853990186144
 79
     2
 49
0.4472136
 49
-8.4970583
 53
161.56505118
 43
-6.811022947947679
 44
-30.44240360354859
 45
0.0000000315939274
 46
0.5656853990186144
 79
     2
 49
0.4472136
 49
-8.4970583
 98
        1
 10
-8.649500579032705
 20
-31.14951038473514
  0
POLYLINE
  5
CC56
330
CC3C
100
AcDbEntity
  8
Pel_Outline
100
AcDb2dPolyline
 66
     1
 10
0.0
 20
0.0
 30
0.0
  0
VERTEX
  5
D7A6
330
CC56
100
AcDbEntity
  8
Pel_Outline
100
AcDbVertex
100
AcDb2dVertex
 10
0.0
 20
2.25
 30
0.0
  0
VERTEX
  5
D7A7
330
CC56
100
AcDbEntity
  8
Pel_Outline
100
AcDbVertex
100
AcDb2dVertex
 10
0.75
 20
2.223808999999995
 30
0.0
  0
VERTEX
  5
D7A8
330
CC56
100
AcDbEntity
  8
Pel_Outline
100
AcDbVertex
100
AcDb2dVertex
 10
0.75
 20
1.749999999999992
 30
0.0
  0
VERTEX
  5
D7A9
330
CC56
100
AcDbEntity
  8
Pel_Outline
100
AcDbVertex
100
AcDb2dVertex
 10
0.6880000000000006
 20
1.749999999999992
 30
0.0
 42
-0.0714559864029643
  0
VERTEX
  5
D7AA
330
CC56
100
AcDbEntity
  8
Pel_Outline
100
AcDbVertex
100
AcDb2dVertex
 10
0.6374578697339209
 20
1.398146594824826
 30
0.0
  0
VERTEX
  5
D7AB
330
CC56
100
AcDbEntity
  8
Pel_Outline
100
AcDbVertex
100
AcDb2dVertex
 10
0.550542128648651
 20
1.101853399661404
 30
0.0
 42
0.0714559852478825
  0
VERTEX
  5
D7AC
330
CC56
100
AcDbEntity
  8
Pel_Outline
100
AcDbVertex
100
AcDb2dVertex
 10
0.5
 20
0.7499999999999894
 30
0.0
  0
VERTEX
  5
D7AD
330
CC56
100
AcDbEntity
  8
Pel_Outline
100
AcDbVertex
100
AcDb2dVertex
 10
0.4369999999999994
 20
0.7499999999999894
 30
0.0
  0
VERTEX
  5
D7AE
330
CC56
100
AcDbEntity
  8
Pel_Outline
100
AcDbVertex
100
AcDb2dVertex
 10
0.4369999999999994
 20
0.3440000000000012
 30
0.0
  0
VERTEX
  5
D7AF
330
CC56
100
AcDbEntity
  8
Pel_Outline
100
AcDbVertex
100
AcDb2dVertex
 10
0.3750000000000009
 20
0.3440000080947136
 30
0.0
 42
-0.1399088720370873
  0
VERTEX
  5
D7B0
330
CC56
100
AcDbEntity
  8
Pel_Outline
100
AcDbVertex
100
AcDb2dVertex
 10
0.3280000006036845
 20
0.1793214755818191
 30
0.0
 42
0.1436442017335222
  0
VERTEX
  5
D7B1
330
CC56
100
AcDbEntity
  8
Pel_Outline
100
AcDbVertex
100
AcDb2dVertex
 10
0.2810000000000006
 20
0.0098129999999941
 30
0.0
  0
VERTEX
  5
D7B2
330
CC56
100
AcDbEntity
  8
Pel_Outline
100
AcDbVertex
100
AcDb2dVertex
 10
0.0
 20
-0.0000000000000071
 30
0.0
  0
SEQEND
  5
D7B3
330
CC56
100
AcDbEntity
  8
Pel_Outline
  0
ENDBLK
  5
CC66
330
CC3C
100
AcDbEntity
  8
0
100
AcDbBlockEnd
  0
BLOCK
  5
CC6A
330
CC67
100
AcDbEntity
  8
0
100
AcDbBlockBegin
  2
acc3146 Narrow Stool
 70
     0
 10
0.0
 20
0.0
 30
0.0
  3
acc3146 Narrow Stool
  1

  0
POLYLINE
  5
CC6B
102
{ACAD_REACTORS
330
CC73
102
}
330
CC67
100
AcDbEntity
  8
Pel_Cross Section
 62
     3
100
AcDb2dPolyline
 66
     1
 10
0.0
 20
0.0
 30
0.0
 70
     1
  0
VERTEX
  5
D7C8
330
CC6B
100
AcDbEntity
  8
Pel_Cross Section
 62
     3
100
AcDbVertex
100
AcDb2dVertex
 10
-0.0000000000000022
 20
0.6249999999999965
 30
0.0
  0
VERTEX
  5
D7C9
330
CC6B
100
AcDbEntity
  8
Pel_Cross Section
 62
     3
100
AcDbVertex
100
AcDb2dVertex
 10
2.187999999999999
 20
0.6249999999999965
 30
0.0
 42
-0.4142135623730951
  0
VERTEX
  5
D7CA
330
CC6B
100
AcDbEntity
  8
Pel_Cross Section
 62
     3
100
AcDbVertex
100
AcDb2dVertex
 10
2.437999999999999
 20
0.3749999999999858
 30
0.0
  0
VERTEX
  5
D7CB
330
CC6B
100
AcDbEntity
  8
Pel_Cross Section
 62
     3
100
AcDbVertex
100
AcDb2dVertex
 10
2.437999999999999
 20
-0.0000000000000142
 30
0.0
  0
VERTEX
  5
D7CC
330
CC6B
100
AcDbEntity
  8
Pel_Cross Section
 62
     3
100
AcDbVertex
100
AcDb2dVertex
 10
-0.0000000000000022
 20
-0.0000000000000142
 30
0.0
  0
VERTEX
  5
D7CD
330
CC6B
100
AcDbEntity
  8
Pel_Cross Section
 62
     3
100
AcDbVertex
100
AcDb2dVertex
 10
-0.0000000000000022
 20
0.6249999999999965
 30
0.0
  0
SEQEND
  5
D7CE
330
CC6B
100
AcDbEntity
  8
Pel_Cross Section
 62
     3
  0
HATCH
  5
CC73
330
CC67
100
AcDbEntity
  8
Pel_Hatch
 62
     2
100
AcDbHatch
 10
0.0
 20
0.0
 30
0.0
210
0.0
220
0.0
230
1.0
  2
WOOD
 70
     0
 71
     1
 91
        1
 92
        7
 72
     1
 73
     1
 93
        5
 10
2.437999999999999
 20
-0.0000000000000178
 42
0.0
 10
2.437999999999999
 20
0.3749999999999858
 42
0.4142135623730951
 10
2.187999999999999
 20
0.6249999999999965
 42
0.0
 10
-0.0000000000000022
 20
0.6249999999999929
 42
0.0
 10
-0.0000000000000027
 20
-0.0000000000000178
 42
0.0
 97
        1
330
CC6B
 75
     0
 76
     1
 52
135.0
 41
0.1409430792215229
 77
     0
 78
    12
 53
225.0
 43
-2.847053701283299
 44
-26.42643181742542
 45
-0.7972944566308131
 46
0.0000000000000001
 79
     2
 49
0.5637723168860919
 49
-5.073950851974827
 53
225.0
 43
-4.14265719330837
 44
-27.52271169529278
 45
-0.7972944566308131
 46
0.0000000000000001
 79
     2
 49
0.5637723168860919
 49
-2.255089267544367
 53
198.43494882
 43
-2.448406472967893
 44
-26.82507904574082
 45
-0.7972944200833938
 46
-0.000000044529454
 79
     2
 49
1.260633237074849
 49
-11.34569899273056
 53
239.03624347
 43
-1.053141173863969
 44
-25.03116651832149
 45
-0.7972945531975292
 46
-0.0000000242003925
 79
     2
 49
0.5811232555967364
 49
-4.067862366347917
 53
239.03624347
 43
-1.750773823415931
 44
-25.92812278203116
 45
-0.7972945531975292
 46
-0.0000000242003925
 79
     2
 49
0.5811232555967364
 49
-4.067862366347917
 53
239.03624347
 43
-1.352126595100523
 44
-23.93488664045413
 45
-0.7972945531975292
 46
-0.0000000242003925
 79
     2
 49
0.5811232555967364
 49
-4.067862366347917
 53
210.9637565299999
 43
-3.644348157914112
 44
-27.22372627405623
 45
-0.7972945531975291
 46
0.0000000242003927
 79
     2
 49
0.5811232555967362
 49
-22.66380485412653
 53
210.9637565299999
 43
-10.81999826759143
 44
-31.21019855721029
 45
-0.7972945531975291
 46
0.0000000242003927
 79
     2
 49
0.5811232555967362
 49
-22.66380485412653
 53
210.9637565299999
 43
-17.19835392063793
 44
-35.19667084036436
 45
-0.7972945531975291
 46
0.0000000242003927
 79
     2
 49
0.5811232555967362
 49
-22.66380485412653
 53
251.56505118
 43
-4.840289842860332
 44
-28.41966795900245
 45
-0.7972944200833938
 46
0.0000000445294541
 79
     2
 49
0.6303166185374245
 49
-11.97601561126798
 53
251.56505118
 43
-2.448406472967892
 44
-20.44672339269432
 45
-0.7972944200833938
 46
0.0000000445294541
 79
     2
 49
0.6303166185374245
 49
-11.97601561126798
 53
251.56505118
 43
-4.042995386229518
 44
-24.43319567584838
 45
-0.7972944200833938
 46
0.0000000445294541
 79
     2
 49
0.6303166185374245
 49
-11.97601561126798
 47
0.0039273814838722
 98
        1
 10
1.552335078416231
 20
0.2461632056604515
  0
POLYLINE
  5
CC75
330
CC67
100
AcDbEntity
  8
Pel_Outline
100
AcDb2dPolyline
 66
     1
 10
0.0
 20
0.0
 30
0.0
  0
VERTEX
  5
D7D1
330
CC75
100
AcDbEntity
  8
Pel_Outline
100
AcDbVertex
100
AcDb2dVertex
 10
-0.0000000000000022
 20
0.6249999999999965
 30
0.0
  0
VERTEX
  5
D7D2
330
CC75
100
AcDbEntity
  8
Pel_Outline
100
AcDbVertex
100
AcDb2dVertex
 10
2.187999999999999
 20
0.6249999999999965
 30
0.0
 42
-0.4142135623730962
  0
VERTEX
  5
D7D3
330
CC75
100
AcDbEntity
  8
Pel_Outline
100
AcDbVertex
100
AcDb2dVertex
 10
2.437999999999996
 20
0.3749999999999893
 30
0.0
  0
VERTEX
  5
D7D4
330
CC75
100
AcDbEntity
  8
Pel_Outline
100
AcDbVertex
100
AcDb2dVertex
 10
2.437999999999999
 20
-0.0000000000000142
 30
0.0
  0
SEQEND
  5
D7D5
330
CC75
100
AcDbEntity
  8
Pel_Outline
  0
ENDBLK
  5
CC7B
330
CC67
100
AcDbEntity
  8
0
100
AcDbBlockEnd
  0
BLOCK
  5
CC7F
330
CC7C
100
AcDbEntity
  8
0
 62
     2
100
AcDbBlockBegin
  2
ACC3204 Wide Stool
 70
     0
 10
0.0
 20
0.0
 30
0.0
  3
ACC3204 Wide Stool
  1

  0
POLYLINE
  5
CC80
102
{ACAD_REACTORS
330
CC88
102
}
330
CC7C
100
AcDbEntity
  8
Pel_Cross Section
 62
     3
100
AcDb2dPolyline
 66
     1
 10
0.0
 20
0.0
 30
0.0
 70
     1
  0
VERTEX
  5
D7EA
330
CC80
100
AcDbEntity
  8
Pel_Cross Section
 62
     3
100
AcDbVertex
100
AcDb2dVertex
 10
-0.0000000000000053
 20
0.6249999999999965
 30
0.0
  0
VERTEX
  5
D7EB
330
CC80
100
AcDbEntity
  8
Pel_Cross Section
 62
     3
100
AcDbVertex
100
AcDb2dVertex
 10
4.187499999999994
 20
0.6249999999999965
 30
0.0
 42
-0.4142135623730951
  0
VERTEX
  5
D7EC
330
CC80
100
AcDbEntity
  8
Pel_Cross Section
 62
     3
100
AcDbVertex
100
AcDb2dVertex
 10
4.437499999999994
 20
0.3749999999999893
 30
0.0
  0
VERTEX
  5
D7ED
330
CC80
100
AcDbEntity
  8
Pel_Cross Section
 62
     3
100
AcDbVertex
100
AcDb2dVertex
 10
4.437499999999994
 20
-0.0000000000000036
 30
0.0
  0
VERTEX
  5
D7EE
330
CC80
100
AcDbEntity
  8
Pel_Cross Section
 62
     3
100
AcDbVertex
100
AcDb2dVertex
 10
-0.0000000000000053
 20
-0.0000000000000036
 30
0.0
  0
VERTEX
  5
D7EF
330
CC80
100
AcDbEntity
  8
Pel_Cross Section
 62
     3
100
AcDbVertex
100
AcDb2dVertex
 10
-0.0000000000000053
 20
0.6249999999999965
 30
0.0
  0
SEQEND
  5
D7F0
330
CC80
100
AcDbEntity
  8
Pel_Cross Section
 62
     3
  0
HATCH
  5
CC88
330
CC7C
100
AcDbEntity
  8
Pel_Hatch
 62
     2
100
AcDbHatch
 10
0.0
 20
0.0
 30
0.0
210
0.0
220
0.0
230
1.0
  2
WOOD
 70
     0
 71
     1
 91
        1
 92
        1
 93
        5
 72
     1
 10
-0.0000000000000053
 20
0.6249999999999965
 11
4.187499999999992
 21
0.6249999999999965
 72
     2
 10
4.187499999999992
 20
0.3749999999999929
 40
0.2499999999999983
 50
270.0000000000004
 51
360.0000000000008
 73
     0
 72
     1
 10
4.437499999999994
 20
0.3749999999999893
 11
4.437499999999994
 21
-0.0000000000000098
 72
     1
 10
4.437499999999994
 20
-0.0000000000000036
 11
-0.0000000000000027
 21
-0.0000000000000036
 72
     1
 10
-0.0000000000000053
 20
-0.0000000000000036
 11
-0.0000000000000053
 21
0.6249999999999975
 97
        1
330
CC80
 75
     0
 76
     1
 52
135.0
 41
0.1409430792215229
 77
     0
 78
    12
 53
225.0
 43
-8.887641955033787
 44
-26.43237640014886
 45
-0.7972944566308131
 46
0.0000000000000001
 79
     2
 49
0.5637723168860918
 49
-5.073950851974826
 53
225.0
 43
-10.18324544705886
 44
-27.52865627801623
 45
-0.7972944566308131
 46
0.0000000000000001
 79
     2
 49
0.5637723168860918
 49
-2.255089267544367
 53
198.43494882
 43
-8.488994726718383
 44
-26.83102362846427
 45
-0.7972944200833938
 46
-0.000000044529454
 79
     2
 49
1.260633237074849
 49
-11.34569899273056
 53
239.03624347
 43
-7.09372942761446
 44
-25.03711110104494
 45
-0.7972945531975294
 46
-0.0000000242003925
 79
     2
 49
0.5811232555967364
 49
-4.067862366347917
 53
239.03624347
 43
-7.791362077166422
 44
-25.9340673647546
 45
-0.7972945531975294
 46
-0.0000000242003925
 79
     2
 49
0.5811232555967364
 49
-4.067862366347917
 53
239.03624347
 43
-7.392714848851014
 44
-23.94083122317757
 45
-0.7972945531975294
 46
-0.0000000242003925
 79
     2
 49
0.5811232555967364
 49
-4.067862366347917
 53
210.96375653
 43
-9.684936411664603
 44
-27.22967085677967
 45
-0.7972945531975292
 46
0.0000000242003927
 79
     2
 49
0.5811232555967364
 49
-22.66380485412653
 53
210.96375653
 43
-16.86058652134192
 44
-31.21614313993374
 45
-0.7972945531975292
 46
0.0000000242003927
 79
     2
 49
0.5811232555967364
 49
-22.66380485412653
 53
210.96375653
 43
-23.23894217438843
 44
-35.20261542308781
 45
-0.7972945531975292
 46
0.0000000242003927
 79
     2
 49
0.5811232555967364
 49
-22.66380485412653
 53
251.56505118
 43
-10.88087809661082
 44
-28.4256125417259
 45
-0.7972944200833938
 46
0.0000000445294541
 79
     2
 49
0.6303166185374245
 49
-11.97601561126798
 53
251.56505118
 43
-8.488994726718383
 44
-20.45266797541777
 45
-0.7972944200833938
 46
0.0000000445294541
 79
     2
 49
0.6303166185374245
 49
-11.97601561126798
 53
251.56505118
 43
-10.08358363998001
 44
-24.43914025857183
 45
-0.7972944200833938
 46
0.0000000445294541
 79
     2
 49
0.6303166185374245
 49
-11.97601561126798
 98
        1
 10
-5.368242567456697
 20
-23.59043211518724
  0
POLYLINE
  5
CC8A
330
CC7C
100
AcDbEntity
  8
Pel_Outline
100
AcDb2dPolyline
 66
     1
 10
0.0
 20
0.0
 30
0.0
  0
VERTEX
  5
D7F3
330
CC8A
100
AcDbEntity
  8
Pel_Outline
100
AcDbVertex
100
AcDb2dVertex
 10
-0.0000000000000053
 20
0.6249999999999965
 30
0.0
  0
VERTEX
  5
D7F4
330
CC8A
100
AcDbEntity
  8
Pel_Outline
100
AcDbVertex
100
AcDb2dVertex
 10
4.187499999999994
 20
0.6249999999999965
 30
0.0
 42
-0.4142135623730973
  0
VERTEX
  5
D7F5
330
CC8A
100
AcDbEntity
  8
Pel_Outline
100
AcDbVertex
100
AcDb2dVertex
 10
4.437499999999994
 20
0.3749999999999893
 30
0.0
  0
VERTEX
  5
D7F6
330
CC8A
100
AcDbEntity
  8
Pel_Outline
100
AcDbVertex
100
AcDb2dVertex
 10
4.437499999999994
 20
-0.0000000000000036
 30
0.0
  0
SEQEND
  5
D7F7
330
CC8A
100
AcDbEntity
  8
Pel_Outline
  0
ENDBLK
  5
CC90
330
CC7C
100
AcDbEntity
  8
0
 62
     2
100
AcDbBlockEnd
  0
BLOCK
  5
CC94
330
CC91
100
AcDbEntity
  8
0
 62
     2
100
AcDbBlockBegin
  2
3315
 70
     0
 10
0.0
 20
0.0
 30
0.0
  3
3315
  1

  0
LWPOLYLINE
  5
CC95
102
{ACAD_REACTORS
330
CCA3
102
}
330
CC91
100
AcDbEntity
  8
Pel_Cross Section
  6
Continuous
 62
     3
100
AcDbPolyline
 90
       14
 70
     1
 43
0.0
 10
0.1770000159739968
 20
0.4486911715940032
 10
-0.0099999997764844
 20
0.4419349255040004
 10
-0.0099999997764844
 20
0.0483338655903971
 10
0.1770000159739968
 20
0.0418037073686968
 10
0.1770000159739968
 20
-0.2596661029380023
 10
-0.1349999308580028
 20
-0.2596661029380023
 10
-0.8921713829040012
 20
-0.4484499273820007
 10
-1.010999679560004
 20
-0.5481590805569994
 10
-1.150999784470004
 20
-0.5830648718400014
 10
-1.197999954220003
 20
-0.5360649405040015
 10
-1.197999954220003
 20
0.4444517912343003
 10
-1.151000261300003
 20
0.4914517225697992
 10
-0.0100000649690042
 20
0.7759349765255977
 10
0.1770000159739968
 20
0.7759349765255977
  0
POLYLINE
  5
CC96
330
CC91
100
AcDbEntity
  8
Pel_Outline
100
AcDb2dPolyline
 66
     1
 10
0.0
 20
0.0
 30
0.0
  0
VERTEX
  5
D863
330
CC96
100
AcDbEntity
  8
Pel_Outline
100
AcDbVertex
100
AcDb2dVertex
 10
0.1770000159739968
 20
0.7759349765255977
 30
0.0
  0
VERTEX
  5
D864
330
CC96
100
AcDbEntity
  8
Pel_Outline
100
AcDbVertex
100
AcDb2dVertex
 10
-0.0100000649690042
 20
0.7759349765255977
 30
0.0
  0
VERTEX
  5
D865
330
CC96
100
AcDbEntity
  8
Pel_Outline
100
AcDbVertex
100
AcDb2dVertex
 10
-1.151000261300003
 20
0.4914517225697992
 30
0.0
  0
VERTEX
  5
D866
330
CC96
100
AcDbEntity
  8
Pel_Outline
100
AcDbVertex
100
AcDb2dVertex
 10
-1.197999954220003
 20
0.4444517912343003
 30
0.0
  0
VERTEX
  5
D867
330
CC96
100
AcDbEntity
  8
Pel_Outline
100
AcDbVertex
100
AcDb2dVertex
 10
-1.197999954220003
 20
-0.5360649405040015
 30
0.0
  0
VERTEX
  5
D868
330
CC96
100
AcDbEntity
  8
Pel_Outline
100
AcDbVertex
100
AcDb2dVertex
 10
-1.150999784470004
 20
-0.5830648718400014
 30
0.0
  0
VERTEX
  5
D869
330
CC96
100
AcDbEntity
  8
Pel_Outline
100
AcDbVertex
100
AcDb2dVertex
 10
-1.010999679560004
 20
-0.5481590805569994
 30
0.0
  0
VERTEX
  5
D86A
330
CC96
100
AcDbEntity
  8
Pel_Outline
100
AcDbVertex
100
AcDb2dVertex
 10
-0.8921713829040012
 20
-0.4484499273820007
 30
0.0
  0
VERTEX
  5
D86B
330
CC96
100
AcDbEntity
  8
Pel_Outline
100
AcDbVertex
100
AcDb2dVertex
 10
-0.1349999308580028
 20
-0.2596661029380023
 30
0.0
  0
VERTEX
  5
D86C
330
CC96
100
AcDbEntity
  8
Pel_Outline
100
AcDbVertex
100
AcDb2dVertex
 10
0.1770000159739968
 20
-0.2596661029380023
 30
0.0
  0
SEQEND
  5
D86D
330
CC96
100
AcDbEntity
  8
Pel_Outline
  0
HATCH
  5
CCA3
330
CC91
100
AcDbEntity
  8
Pel_Hatch
 62
     2
100
AcDbHatch
 10
0.0
 20
0.0
 30
0.0
210
0.0
220
0.0
230
1.0
  2
WOOD
 70
     0
 71
     1
 91
        1
 92
        1
 93
       14
 72
     1
 10
0.1770000159739968
 20
0.4486911715940032
 11
-0.0099999997764838
 21
0.4419349255040008
 72
     1
 10
-0.0099999997764844
 20
0.4419349255040004
 11
-0.0099999997764844
 21
0.0483338655904017
 72
     1
 10
-0.0099999997764844
 20
0.0483338655903971
 11
0.1770000159739963
 21
0.0418037073686961
 72
     1
 10
0.1770000159739968
 20
0.0418037073686968
 11
0.1770000159739968
 21
-0.2596661029380006
 72
     1
 10
0.1770000159739968
 20
-0.2596661029380023
 11
-0.1349999308580029
 21
-0.2596661029380023
 72
     1
 10
-0.1349999308580028
 20
-0.2596661029380023
 11
-0.8921713829040033
 21
-0.4484499273820035
 72
     1
 10
-0.8921713829040012
 20
-0.4484499273820007
 11
-1.010999679560001
 21
-0.5481590805569994
 72
     1
 10
-1.010999679560004
 20
-0.5481590805569994
 11
-1.150999784470004
 21
-0.5830648718400018
 72
     1
 10
-1.150999784470004
 20
-0.5830648718400014
 11
-1.197999954220004
 21
-0.536064940504001
 72
     1
 10
-1.197999954220003
 20
-0.5360649405040015
 11
-1.197999954220003
 21
0.4444517912342974
 72
     1
 10
-1.197999954220003
 20
0.4444517912343003
 11
-1.151000261300002
 21
0.4914517225698034
 72
     1
 10
-1.151000261300003
 20
0.4914517225697992
 11
-0.0100000649690046
 21
0.7759349765255981
 72
     1
 10
-0.0100000649690042
 20
0.7759349765255977
 11
0.1770000159739964
 21
0.7759349765255977
 72
     1
 10
0.1770000159739968
 20
0.7759349765255977
 11
0.1770000159739968
 21
0.4486911715939982
 97
        1
330
CC95
 75
     0
 76
     1
 52
135.0
 41
0.1208083536184482
 77
     0
 78
    12
 53
225.0
 43
-14.0965787305887
 44
-18.70839395562878
 45
-0.6833952485406968
 46
0.0000000000000001
 79
     2
 49
0.4832334144737929
 49
-4.349100730264136
 53
225.0
 43
-15.20709600946733
 44
-19.64806242237224
 45
-0.6833952485406968
 46
0.0000000000000001
 79
     2
 49
0.4832334144737929
 49
-1.932933657895171
 53
198.43494882
 43
-13.75488110631835
 44
-19.05009157989914
 45
-0.6833952172143374
 46
-0.0000000381681035
 79
     2
 49
1.080542774635585
 49
-9.724884850911911
 53
239.03624347
 43
-12.55893942137213
 44
-17.51245227068257
 45
-0.6833953313121679
 46
-0.0000000207431936
 79
     2
 49
0.4981056476543455
 49
-3.486739171155356
 53
239.03624347
 43
-13.15691026384524
 44
-18.28127192529085
 45
-0.6833953313121679
 46
-0.0000000207431936
 79
     2
 49
0.4981056476543455
 49
-3.486739171155356
 53
239.03624347
 43
-12.81521263957489
 44
-16.57278380393911
 45
-0.6833953313121679
 46
-0.0000000207431936
 79
     2
 49
0.4981056476543455
 49
-3.486739171155356
 53
210.96375653
 43
-14.77997397912939
 44
-19.39178920416948
 45
-0.6833953313121679
 46
0.0000000207431938
 79
     2
 49
0.4981056476543455
 49
-19.42611844639417
 53
210.96375653
 43
-20.93053121599567
 44
-22.80876544687297
 45
-0.6833953313121679
 46
0.0000000207431938
 79
     2
 49
0.4981056476543455
 49
-19.42611844639417
 53
210.96375653
 43
-26.39769320432125
 44
-26.22574168957645
 45
-0.6833953313121679
 46
0.0000000207431938
 79
     2
 49
0.4981056476543455
 49
-19.42611844639417
 53
251.56505118
 43
-15.80506685194044
 44
-20.41688207698053
 45
-0.6833952172143374
 46
0.0000000381681035
 79
     2
 49
0.5402713873177924
 49
-10.2651562382297
 53
251.56505118
 43
-13.75488110631835
 44
-13.58292959157356
 45
-0.6833952172143374
 46
0.0000000381681035
 79
     2
 49
0.5402713873177924
 49
-10.2651562382297
 53
251.56505118
 43
-15.12167160339974
 44
-16.99990583427704
 45
-0.6833952172143374
 46
0.0000000381681035
 79
     2
 49
0.5402713873177924
 49
-10.2651562382297
 98
        1
 10
-14.26742754272387
 20
-19.22094039203431
  0
ENDBLK
  5
CCA4
330
CC91
100
AcDbEntity
  8
0
 62
     2
100
AcDbBlockEnd
  0
BLOCK
  5
CCA8
330
CCA5
100
AcDbEntity
  8
0
 62
     2
100
AcDbBlockBegin
  2
3544
 70
     0
 10
0.0
 20
0.0
 30
0.0
  3
3544
  1

  0
LWPOLYLINE
  5
CCA9
102
{ACAD_REACTORS
330
CCAA
102
}
330
CCA5
100
AcDbEntity
  8
Pel_Cross Section
 62
     3
100
AcDbPolyline
 90
       22
 70
     1
 43
0.0
 10
-0.5642067000000047
 20
-1.104414609999999
 10
-0.3120000000000052
 20
-1.031000000000002
 10
-0.3120000000000052
 20
-0.907
 10
0.1879999999999979
 20
-0.907
 10
0.195612999999998
 20
-1.125000000000017
 10
4.186236947471174
 20
-1.125000000000024
 10
4.186236947471174
 20
-0.8733159299615742
 10
4.375
 20
-0.8733159299615742
 10
4.374999999999996
 20
-0.2875301999999991
 10
4.187999999999995
 20
-0.2796679000000104
 10
4.187999999999995
 20
-0.0310000000000024
 10
0.2058979999999977
 20
-0.0310000000000024
 10
0.1879999999999979
 20
-0.0620000000000012
 10
0.1701019999999982
 20
-0.0310000000000024
 10
0.017897999999998
 20
-0.0310000000000024
 10
-0.0000000000000018
 20
-0.0620000000000012
 10
-0.0178980000000015
 20
-0.0310000000000024
 10
-1.062500000029106
 20
-0.343
 10
-1.062500000000001
 20
-1.063000000000009
 10
-1.000500000000001
 20
-1.125000000000017
 10
-0.8125000000000017
 20
-1.125000000000017
 42
-0.9205234193464683
 10
-0.5642066832161663
 20
-1.104414615951125
  0
HATCH
  5
CCAA
330
CCA5
100
AcDbEntity
  8
Pel_Hatch
 62
     2
100
AcDbHatch
 10
0.0
 20
0.0
 30
0.0
210
0.0
220
0.0
230
1.0
  2
WOOD
 70
     0
 71
     1
 91
        1
 92
        1
 93
       22
 72
     1
 10
-0.5642067000000047
 20
-1.104414609999999
 11
-0.3120000000000052
 21
-1.030999999999997
 72
     1
 10
-0.3120000000000052
 20
-1.031000000000002
 11
-0.3120000000000052
 21
-0.9070000000000035
 72
     1
 10
-0.3120000000000052
 20
-0.907
 11
0.1879999999999968
 21
-0.907
 72
     1
 10
0.1879999999999979
 20
-0.907
 11
0.1956129999999981
 21
-1.125000000000009
 72
     1
 10
0.195612999999998
 20
-1.125000000000017
 11
4.186236947471173
 21
-1.125000000000024
 72
     1
 10
4.186236947471174
 20
-1.125000000000024
 11
4.186236947471174
 21
-0.873315929961584
 72
     1
 10
4.186236947471174
 20
-0.8733159299615742
 11
4.375
 21
-0.8733159299615742
 72
     1
 10
4.375
 20
-0.8733159299615742
 11
4.374999999999998
 21
-0.287530199999998
 72
     1
 10
4.374999999999996
 20
-0.2875301999999991
 11
4.187999999999996
 21
-0.2796679000000084
 72
     1
 10
4.187999999999995
 20
-0.2796679000000104
 11
4.187999999999995
 21
-0.031
 72
     1
 10
4.187999999999995
 20
-0.0310000000000024
 11
0.2058979999999959
 21
-0.0310000000000024
 72
     1
 10
0.2058979999999977
 20
-0.0310000000000024
 11
0.1879999999999981
 21
-0.0620000000000066
 72
     1
 10
0.1879999999999979
 20
-0.0620000000000012
 11
0.1701019999999984
 21
-0.030999999999997
 72
     1
 10
0.1701019999999982
 20
-0.0310000000000024
 11
0.0178979999999976
 21
-0.0310000000000024
 72
     1
 10
0.017897999999998
 20
-0.0310000000000024
 11
-0.0000000000000016
 21
-0.0620000000000066
 72
     1
 10
-0.0000000000000018
 20
-0.0620000000000012
 11
-0.0178980000000014
 21
-0.030999999999997
 72
     1
 10
-0.0178980000000015
 20
-0.0310000000000024
 11
-1.062500000029106
 21
-0.3430000000000053
 72
     1
 10
-1.062500000029106
 20
-0.343
 11
-1.062500000000001
 21
-1.063000000000006
 72
     1
 10
-1.062500000000001
 20
-1.063000000000009
 11
-1.000500000000001
 21
-1.12500000000001
 72
     1
 10
-1.000500000000001
 20
-1.125000000000017
 11
-0.8125000000000017
 21
-1.125000000000017
 72
     2
 10
-0.6875000000000023
 20
-1.125000000000021
 40
0.1249999999999996
 50
180.0000000000016
 51
350.5211760000025
 73
     0
 72
     1
 10
-0.5642066832161663
 20
-1.104414615951125
 11
-0.5642067000000035
 21
-1.104414610000008
 97
        1
330
CCA9
 75
     0
 76
     1
 52
135.0
 41
0.2
 77
     0
 78
    12
 53
225.0
 43
-6.271450361339733
 44
-17.44725527304967
 45
-1.131370849898476
 46
0.0000000000000002
 79
     2
 49
0.8000000000000005
 49
-7.20000000000001
 53
225.0
 43
-8.109927992424758
 44
-19.00289019166007
 45
-1.131370849898476
 46
0.0000000000000002
 79
     2
 49
0.8000000000000005
 49
-3.200000000000002
 53
198.4349488199999
 43
-5.705764936390496
 44
-18.0129406979989
 45
-1.131370798037228
 46
-0.0000000631878547
 79
     2
 49
1.788854400000001
 49
-16.0996894
 53
239.03624347
 43
-3.725865949068162
 44
-15.46735628572734
 45
-1.131370986927859
 46
-0.000000034340661
 79
     2
 49
0.8246211999999998
 49
-5.772347799999995
 53
239.03624347
 43
-4.715815442729329
 44
-16.74014849186312
 45
-1.131370986927859
 46
-0.000000034340661
 79
     2
 49
0.8246211999999998
 49
-5.772347799999995
 53
239.03624347
 43
-4.150130017780091
 44
-13.91172136711693
 45
-1.131370986927859
 46
-0.000000034340661
 79
     2
 49
0.8246211999999998
 49
-5.772347799999995
 53
210.9637565299999
 43
-7.402821211238208
 44
-18.57862612294814
 45
-1.131370986927859
 46
0.0000000343406613
 79
     2
 49
0.824621199999999
 49
-32.16022379999998
 53
210.9637565299999
 43
-17.58515886032449
 44
-24.23548037244052
 45
-1.131370986927859
 46
0.0000000343406613
 79
     2
 49
0.824621199999999
 49
-32.16022379999998
 53
210.9637565299999
 43
-26.6361256595123
 44
-29.8923346219329
 45
-1.131370986927859
 46
0.0000000343406613
 79
     2
 49
0.824621199999999
 49
-32.16022379999998
 53
251.56505118
 43
-9.099877486085922
 44
-20.27568239779586
 45
-1.131370798037228
 46
0.0000000631878548
 79
     2
 49
0.8944271999999989
 49
-16.99411659999999
 53
251.56505118
 43
-5.705764936390495
 44
-8.961973898811102
 45
-1.131370798037228
 46
0.0000000631878548
 79
     2
 49
0.8944271999999989
 49
-16.99411659999999
 53
251.56505118
 43
-7.968506636187445
 44
-14.61882814830348
 45
-1.131370798037228
 46
0.0000000631878548
 79
     2
 49
0.8944271999999989
 49
-16.99411659999999
 98
        1
 10
-6.554293073814353
 20
-18.29578341047352
  0
POLYLINE
  5
CCAB
330
CCA5
100
AcDbEntity
  8
Pel_Outline
100
AcDb2dPolyline
 66
     1
 10
0.0
 20
0.0
 30
0.0
  0
VERTEX
  5
D83E
330
CCAB
100
AcDbEntity
  8
Pel_Outline
100
AcDbVertex
100
AcDb2dVertex
 10
4.187999999999995
 20
-0.0310000000000024
 30
0.0
  0
VERTEX
  5
D83F
330
CCAB
100
AcDbEntity
  8
Pel_Outline
100
AcDbVertex
100
AcDb2dVertex
 10
4.187999999999995
 20
-0.2796679000000104
 30
0.0
  0
VERTEX
  5
D840
330
CCAB
100
AcDbEntity
  8
Pel_Outline
100
AcDbVertex
100
AcDb2dVertex
 10
4.374999999999996
 20
-0.2875301999999991
 30
0.0
  0
VERTEX
  5
D841
330
CCAB
100
AcDbEntity
  8
Pel_Outline
100
AcDbVertex
100
AcDb2dVertex
 10
4.375
 20
-0.8733159299615742
 30
0.0
  0
VERTEX
  5
D842
330
CCAB
100
AcDbEntity
  8
Pel_Outline
100
AcDbVertex
100
AcDb2dVertex
 10
4.186236947471174
 20
-0.8733159299615742
 30
0.0
  0
VERTEX
  5
D843
330
CCAB
100
AcDbEntity
  8
Pel_Outline
100
AcDbVertex
100
AcDb2dVertex
 10
4.186236947471174
 20
-1.125000000000024
 30
0.0
  0
VERTEX
  5
D844
330
CCAB
100
AcDbEntity
  8
Pel_Outline
100
AcDbVertex
100
AcDb2dVertex
 10
0.195612999999998
 20
-1.125000000000017
 30
0.0
  0
VERTEX
  5
D845
330
CCAB
100
AcDbEntity
  8
Pel_Outline
100
AcDbVertex
100
AcDb2dVertex
 10
0.1879999999999979
 20
-0.907
 30
0.0
  0
VERTEX
  5
D846
330
CCAB
100
AcDbEntity
  8
Pel_Outline
100
AcDbVertex
100
AcDb2dVertex
 10
-0.3120000000000052
 20
-0.907
 30
0.0
  0
VERTEX
  5
D847
330
CCAB
100
AcDbEntity
  8
Pel_Outline
100
AcDbVertex
100
AcDb2dVertex
 10
-0.3120000000000052
 20
-1.031000000000002
 30
0.0
  0
VERTEX
  5
D848
330
CCAB
100
AcDbEntity
  8
Pel_Outline
100
AcDbVertex
100
AcDb2dVertex
 10
-0.5642067000000047
 20
-1.104414609999999
 30
0.0
 42
0.9205234499589458
  0
VERTEX
  5
D849
330
CCAB
100
AcDbEntity
  8
Pel_Outline
100
AcDbVertex
100
AcDb2dVertex
 10
-0.8125000000000017
 20
-1.125000000000021
 30
0.0
  0
VERTEX
  5
D84A
330
CCAB
100
AcDbEntity
  8
Pel_Outline
100
AcDbVertex
100
AcDb2dVertex
 10
-1.000500000000001
 20
-1.125000000000017
 30
0.0
  0
VERTEX
  5
D84B
330
CCAB
100
AcDbEntity
  8
Pel_Outline
100
AcDbVertex
100
AcDb2dVertex
 10
-1.062500000000001
 20
-1.063000000000009
 30
0.0
  0
VERTEX
  5
D84C
330
CCAB
100
AcDbEntity
  8
Pel_Outline
100
AcDbVertex
100
AcDb2dVertex
 10
-1.062500000014554
 20
-0.343
 30
0.0
  0
VERTEX
  5
D84D
330
CCAB
100
AcDbEntity
  8
Pel_Outline
100
AcDbVertex
100
AcDb2dVertex
 10
-0.0178980000000015
 20
-0.0310000000000024
 30
0.0
  0
SEQEND
  5
D84E
330
CCAB
100
AcDbEntity
  8
Pel_Outline
  0
ENDBLK
  5
CCBE
330
CCA5
100
AcDbEntity
  8
0
 62
     2
100
AcDbBlockEnd
  0
BLOCK
  5
CCC2
330
CCBF
100
AcDbEntity
  8
0
 62
     2
100
AcDbBlockBegin
  2
33M4
 70
     0
 10
0.0
 20
0.0
 30
0.0
  3
33M4
  1

  0
LWPOLYLINE
  5
CCC3
102
{ACAD_REACTORS
330
CCC4
102
}
330
CCBF
100
AcDbEntity
  8
Pel_Cross Section
  6
Continuous
 62
     3
100
AcDbPolyline
 90
       11
 70
     1
 43
0.0
 10
-0.7499999999999992
 20
0.3119999999999998
 10
-0.8119999999999993
 20
0.3119999999999998
 10
-0.9060000000000005
 20
0.7182495000000002
 10
-0.9680000000000013
 20
0.7182504999999986
 10
-0.9680000000000003
 20
1.186999999999998
 10
0.1879999999999997
 20
1.186999999999998
 10
0.1879999999999997
 20
0.0065649999999988
 10
0.0
 20
-0.0000000000000013
 10
0.0
 20
-0.6880000000000015
 10
-0.7499999999999992
 20
-0.6880000000000015
 10
-0.7499999999999992
 20
0.3119999999999998
  0
HATCH
  5
CCC4
330
CCBF
100
AcDbEntity
  8
Pel_Hatch
 62
     2
100
AcDbHatch
 10
0.0
 20
0.0
 30
0.0
210
0.0
220
0.0
230
1.0
  2
WOOD
 70
     0
 71
     1
 91
        1
 92
        1
 93
       10
 72
     1
 10
-0.7499999999999992
 20
0.3119999999999998
 11
-0.8119999999999993
 21
0.3119999999999998
 72
     1
 10
-0.8119999999999993
 20
0.3119999999999998
 11
-0.9060000000000005
 21
0.7182494999999989
 72
     1
 10
-0.9060000000000005
 20
0.7182495000000002
 11
-0.9679999999999999
 21
0.7182504999999991
 72
     1
 10
-0.9680000000000013
 20
0.7182504999999986
 11
-0.9680000000000003
 21
1.186999999999998
 72
     1
 10
-0.9680000000000003
 20
1.186999999999998
 11
0.1879999999999988
 21
1.186999999999998
 72
     1
 10
0.1879999999999997
 20
1.186999999999998
 11
0.1879999999999997
 21
0.0065649999999995
 72
     1
 10
0.1879999999999997
 20
0.0065649999999988
 11
0.0000000000000004
 21
-0.0000000000000013
 72
     1
 10
0.0
 20
-0.0000000000000013
 11
0.0
 21
-0.6880000000000016
 72
     1
 10
0.0
 20
-0.6880000000000015
 11
-0.75
 21
-0.6880000000000015
 72
     1
 10
-0.7499999999999992
 20
-0.6880000000000015
 11
-0.7499999999999992
 21
0.312
 97
        1
330
CCC3
 75
     0
 76
     1
 52
45.0
 41
0.1610778048245976
 77
     0
 78
    12
 53
134.9999999999999
 43
-3.330982066900306
 44
-3.723351197446643
 45
0.0000000000000002
 46
0.9111936647209288
 79
     2
 49
0.6443112192983904
 49
-5.798800973685513
 53
134.9999999999999
 43
-4.583873355891584
 44
-2.242661492275133
 45
0.0000000000000002
 46
0.9111936647209288
 79
     2
 49
0.6443112192983904
 49
-2.577244877193561
 53
108.43494882
 43
-3.786578899260771
 44
-4.178948029807107
 45
-0.0000000508908046
 46
0.9111936229524497
 79
     2
 49
1.440723699514113
 49
-12.96651313454921
 53
149.03624347
 43
-1.73639315363868
 44
-5.773536943068734
 45
-0.0000000276575915
 46
0.9111937750828905
 79
     2
 49
0.6641408635391273
 49
-4.648985561540476
 53
149.03624347
 43
-2.761486026449726
 44
-4.97624248643792
 45
-0.0000000276575915
 46
0.9111937750828905
 79
     2
 49
0.6641408635391273
 49
-4.648985561540476
 53
149.03624347
 43
-0.483501864647403
 44
-5.431839318798385
 45
-0.0000000276575915
 46
0.9111937750828905
 79
     2
 49
0.6641408635391273
 49
-4.648985561540476
 53
120.9637565299999
 43
-4.242175731621236
 44
-2.812157532725713
 45
0.0000000276575917
 46
0.9111937750828904
 79
     2
 49
0.6641408635391272
 49
-25.90149126185889
 53
120.9637565299999
 43
-8.798144055225879
 44
5.388585449762645
 45
0.0000000276575917
 46
0.9111937750828904
 79
     2
 49
0.6641408635391272
 49
-25.90149126185889
 53
120.9637565299999
 43
-13.35411237883052
 44
12.67813476753008
 45
0.0000000276575917
 46
0.9111937750828904
 79
     2
 49
0.6641408635391272
 49
-25.90149126185889
 53
161.56505118
 43
-5.608966228702629
 44
-1.44536703564432
 45
0.0000000508908047
 46
0.9111936229524497
 79
     2
 49
0.7203618497570568
 49
-13.68687498430627
 53
161.56505118
 43
3.502970418506662
 44
-4.178948029807107
 45
0.0000000508908047
 46
0.9111936229524497
 79
     2
 49
0.7203618497570568
 49
-13.68687498430627
 53
161.56505118
 43
-1.052997905097984
 44
-2.356560700365249
 45
0.0000000508908047
 46
0.9111936229524497
 79
     2
 49
0.7203618497570568
 49
-13.68687498430627
 98
        1
 10
-6.581472631820114
 20
-4.019604646599391
  0
POLYLINE
  5
CCC6
330
CCBF
100
AcDbEntity
  8
Pel_Outline
100
AcDb2dPolyline
 66
     1
 10
0.0
 20
0.0
 30
0.0
  0
VERTEX
  5
D95B
330
CCC6
100
AcDbEntity
  8
Pel_Outline
100
AcDbVertex
100
AcDb2dVertex
 10
0.1880000000000015
 20
0.006565000000001
 30
0.0
  0
VERTEX
  5
D95C
330
CCC6
100
AcDbEntity
  8
Pel_Outline
100
AcDbVertex
100
AcDb2dVertex
 10
0.1879999999999997
 20
1.186999999999998
 30
0.0
  0
VERTEX
  5
D95D
330
CCC6
100
AcDbEntity
  8
Pel_Outline
100
AcDbVertex
100
AcDb2dVertex
 10
-0.9680000000000003
 20
1.186999999999998
 30
0.0
  0
VERTEX
  5
D95E
330
CCC6
100
AcDbEntity
  8
Pel_Outline
100
AcDbVertex
100
AcDb2dVertex
 10
-0.9680000000000013
 20
0.7182504999999986
 30
0.0
  0
VERTEX
  5
D95F
330
CCC6
100
AcDbEntity
  8
Pel_Outline
100
AcDbVertex
100
AcDb2dVertex
 10
-0.9060000000000005
 20
0.7182495000000002
 30
0.0
  0
VERTEX
  5
D960
330
CCC6
100
AcDbEntity
  8
Pel_Outline
100
AcDbVertex
100
AcDb2dVertex
 10
-0.8119999999999993
 20
0.3119999999999998
 30
0.0
  0
VERTEX
  5
D961
330
CCC6
100
AcDbEntity
  8
Pel_Outline
100
AcDbVertex
100
AcDb2dVertex
 10
-0.7499999999999992
 20
0.3119999999999998
 30
0.0
  0
VERTEX
  5
D962
330
CCC6
100
AcDbEntity
  8
Pel_Outline
100
AcDbVertex
100
AcDb2dVertex
 10
-0.7499999999999992
 20
-0.6880000000000015
 30
0.0
  0
VERTEX
  5
D963
330
CCC6
100
AcDbEntity
  8
Pel_Outline
100
AcDbVertex
100
AcDb2dVertex
 10
0.0
 20
-0.6880000000000015
 30
0.0
  0
SEQEND
  5
D964
330
CCC6
100
AcDbEntity
  8
Pel_Outline
  0
ENDBLK
  5
CCD1
330
CCBF
100
AcDbEntity
  8
0
 62
     2
100
AcDbBlockEnd
  0
BLOCK
  5
CCD5
330
CCD2
100
AcDbEntity
  8
0
 62
     2
100
AcDbBlockBegin
  2
33P2
 70
     0
 10
0.0
 20
0.0
 30
0.0
  3
33P2
  1

  0
LWPOLYLINE
  5
CCD6
102
{ACAD_REACTORS
330
CCD7
102
}
330
CCD2
100
AcDbEntity
  8
Pel_Cross Section
  6
Continuous
 62
     3
100
AcDbPolyline
 90
        9
 70
     1
 43
0.0
 10
0.0
 20
1.182145138480727
 10
0.0
 20
-0.6928548615192725
 10
-0.9380000000000014
 20
-0.6928548615192725
 10
-0.9380000000000014
 20
0.307145138480728
 10
-1.0
 20
0.307145138480728
 10
-1.088125000000003
 20
0.713395138480728
 10
-1.156
 20
0.713395138480728
 10
-1.156
 20
1.182145138480727
 10
0.0
 20
1.182145138480727
  0
HATCH
  5
CCD7
330
CCD2
100
AcDbEntity
  8
Pel_Hatch
 62
     2
100
AcDbHatch
 10
0.0
 20
0.0
 30
0.0
210
0.0
220
0.0
230
1.0
  2
WOOD
 70
     0
 71
     1
 91
        1
 92
        1
 93
        8
 72
     1
 10
0.0
 20
1.182145138480727
 11
0.0
 21
-0.692854861519272
 72
     1
 10
0.0
 20
-0.6928548615192725
 11
-0.9380000000000007
 21
-0.6928548615192725
 72
     1
 10
-0.9380000000000014
 20
-0.6928548615192725
 11
-0.9380000000000014
 21
0.3071451384807287
 72
     1
 10
-0.9380000000000014
 20
0.307145138480728
 11
-1.0
 21
0.307145138480728
 72
     1
 10
-1.0
 20
0.307145138480728
 11
-1.088125000000001
 21
0.7133951384807274
 72
     1
 10
-1.088125000000003
 20
0.713395138480728
 11
-1.156000000000002
 21
0.713395138480728
 72
     1
 10
-1.156
 20
0.713395138480728
 11
-1.156
 21
1.182145138480727
 72
     1
 10
-1.156
 20
1.182145138480727
 11
-0.0000000000000004
 21
1.182145138480727
 97
        1
330
CCD6
 75
     0
 76
     1
 52
45.0
 41
0.1308757164199856
 77
     0
 78
    12
 53
134.9999999999999
 43
-8.149936162870913
 44
-3.685493855932121
 45
0.0000000000000001
 46
0.7403448525857548
 79
     2
 49
0.5235028656799421
 49
-4.711525791119478
 53
134.9999999999999
 43
-9.167910335176326
 44
-2.482433470480269
 45
0.0000000000000001
 46
0.7403448525857548
 79
     2
 49
0.5235028656799421
 49
-2.094011462719768
 53
108.4349488199999
 43
-8.52010858916379
 44
-4.055666282224998
 45
-0.0000000413487788
 46
0.7403448186488652
 79
     2
 49
1.170588005855216
 49
-10.53529192182123
 53
149.03624347
 43
-6.854332670845842
 44
-5.351269774250069
 45
-0.0000000224717931
 46
0.7403449422548486
 79
     2
 49
0.5396144516255412
 49
-3.777300768751636
 53
149.03624347
 43
-7.687220630004818
 44
-4.703468028237534
 45
-0.0000000224717931
 46
0.7403449422548486
 79
     2
 49
0.5396144516255412
 49
-3.777300768751636
 53
149.03624347
 43
-5.836358498540429
 44
-5.073640454530411
 45
-0.0000000224717931
 46
0.7403449422548486
 79
     2
 49
0.5396144516255412
 49
-3.777300768751636
 53
120.9637565299999
 43
-8.890281015456668
 44
-2.945149003346366
 45
0.0000000224717933
 46
0.7403449422548486
 79
     2
 49
0.539614451625541
 49
-21.04496165026034
 53
120.9637565299999
 43
-12.59200527838544
 44
3.717954669925426
 45
0.0000000224717933
 46
0.7403449422548486
 79
     2
 49
0.539614451625541
 49
-21.04496165026034
 53
120.9637565299999
 43
-16.29372954131422
 44
9.640713490611467
 45
0.0000000224717933
 46
0.7403449422548486
 79
     2
 49
0.539614451625541
 49
-21.04496165026034
 53
161.56505118
 43
-10.0007982943353
 44
-1.834631724467734
 45
0.0000000413487788
 46
0.7403448186488654
 79
     2
 49
0.5852940029276084
 49
-11.12058592474884
 53
161.56505118
 43
-2.597349768477751
 44
-4.055666282224998
 45
0.0000000413487788
 46
0.7403448186488654
 79
     2
 49
0.5852940029276084
 49
-11.12058592474884
 53
161.56505118
 43
-6.299074031406527
 44
-2.574976577053489
 45
0.0000000413487788
 46
0.7403448186488654
 79
     2
 49
0.5852940029276084
 49
-11.12058592474884
 98
        1
 10
-11.02706005432591
 20
-3.691730007326501
  0
POLYLINE
  5
CCD9
330
CCD2
100
AcDbEntity
  8
Pel_Outline
100
AcDb2dPolyline
 66
     1
 10
0.0
 20
0.0
 30
0.0
  0
VERTEX
  5
D979
330
CCD9
100
AcDbEntity
  8
Pel_Outline
100
AcDbVertex
100
AcDb2dVertex
 10
0.0
 20
-0.0000000000000013
 30
0.0
  0
VERTEX
  5
D97A
330
CCD9
100
AcDbEntity
  8
Pel_Outline
100
AcDbVertex
100
AcDb2dVertex
 10
0.0
 20
1.182145138480727
 30
0.0
  0
VERTEX
  5
D97B
330
CCD9
100
AcDbEntity
  8
Pel_Outline
100
AcDbVertex
100
AcDb2dVertex
 10
-1.156000000000002
 20
1.182145138480727
 30
0.0
  0
VERTEX
  5
D97C
330
CCD9
100
AcDbEntity
  8
Pel_Outline
100
AcDbVertex
100
AcDb2dVertex
 10
-1.156
 20
0.713395138480728
 30
0.0
  0
VERTEX
  5
D97D
330
CCD9
100
AcDbEntity
  8
Pel_Outline
100
AcDbVertex
100
AcDb2dVertex
 10
-1.088125000000002
 20
0.713395138480728
 30
0.0
  0
VERTEX
  5
D97E
330
CCD9
100
AcDbEntity
  8
Pel_Outline
100
AcDbVertex
100
AcDb2dVertex
 10
-1.0
 20
0.3071451384807284
 30
0.0
  0
VERTEX
  5
D97F
330
CCD9
100
AcDbEntity
  8
Pel_Outline
100
AcDbVertex
100
AcDb2dVertex
 10
-0.9380000000000014
 20
0.3071451384807284
 30
0.0
  0
VERTEX
  5
D980
330
CCD9
100
AcDbEntity
  8
Pel_Outline
100
AcDbVertex
100
AcDb2dVertex
 10
-0.9380000000000014
 20
-0.6928548615192725
 30
0.0
  0
VERTEX
  5
D981
330
CCD9
100
AcDbEntity
  8
Pel_Outline
100
AcDbVertex
100
AcDb2dVertex
 10
0.0
 20
-0.6928548615192725
 30
0.0
  0
SEQEND
  5
D982
330
CCD9
100
AcDbEntity
  8
Pel_Outline
  0
ENDBLK
  5
CCE4
330
CCD2
100
AcDbEntity
  8
0
 62
     2
100
AcDbBlockEnd
  0
BLOCK
  5
CCE8
330
CCE5
100
AcDbEntity
  8
0
 62
     2
100
AcDbBlockBegin
  2
38L5
 70
     0
 10
0.0
 20
0.0
 30
0.0
  3
38L5
  1

  0
LWPOLYLINE
  5
CCE9
102
{ACAD_REACTORS
330
CCEA
102
}
330
CCE5
100
AcDbEntity
  8
Pel_Cross Section
  6
Continuous
 62
     3
100
AcDbPolyline
 90
        9
 70
     1
 43
0.0
 10
-0.0000000000000036
 20
2.80714513848072
 10
-0.0000000000000036
 20
-0.6928548615192814
 10
-0.9380000000000068
 20
-0.6928548615192814
 10
-0.9380000000000032
 20
1.932145138480727
 10
-1.000000000000004
 20
1.932145138480727
 10
-1.094000000000004
 20
2.307145138480718
 10
-1.156000000000005
 20
2.307145138480718
 10
-1.156000000000005
 20
2.80714513848072
 10
-0.0000000000000036
 20
2.80714513848072
  0
HATCH
  5
CCEA
330
CCE5
100
AcDbEntity
  8
Pel_Hatch
 62
     2
100
AcDbHatch
 10
0.0
 20
0.0
 30
0.0
210
0.0
220
0.0
230
1.0
  2
WOOD
 70
     0
 71
     1
 91
        1
 92
        1
 93
        8
 72
     1
 10
-0.0000000000000036
 20
2.80714513848072
 11
-0.0000000000000036
 21
-0.6928548615192809
 72
     1
 10
-0.0000000000000036
 20
-0.6928548615192814
 11
-0.9380000000000059
 21
-0.6928548615192814
 72
     1
 10
-0.9380000000000068
 20
-0.6928548615192814
 11
-0.9380000000000032
 21
1.932145138480721
 72
     1
 10
-0.9380000000000032
 20
1.932145138480727
 11
-1.000000000000004
 21
1.932145138480727
 72
     1
 10
-1.000000000000004
 20
1.932145138480727
 11
-1.094000000000004
 21
2.307145138480724
 72
     1
 10
-1.094000000000004
 20
2.307145138480718
 11
-1.156000000000005
 21
2.307145138480718
 72
     1
 10
-1.156000000000005
 20
2.307145138480718
 11
-1.156000000000005
 21
2.80714513848072
 72
     1
 10
-1.156000000000005
 20
2.80714513848072
 11
-0.000000000000004
 21
2.80714513848072
 97
        1
330
CCE9
 75
     0
 76
     1
 52
45.0
 41
0.1610778048245976
 77
     0
 78
    12
 53
134.9999999999999
 43
-7.83543669900384
 44
-11.49104711058636
 45
0.0000000000000002
 46
0.9111936647209287
 79
     2
 49
0.6443112192983902
 49
-5.798800973685511
 53
134.9999999999999
 43
-9.088327987995118
 44
-10.01035740541485
 45
0.0000000000000002
 46
0.9111936647209287
 79
     2
 49
0.6443112192983902
 49
-2.57724487719356
 53
108.4349488199999
 43
-8.291033531364305
 44
-11.94664394294682
 45
-0.0000000508908046
 46
0.9111936229524493
 79
     2
 49
1.440723699514113
 49
-12.96651313454921
 53
149.03624347
 43
-6.240847785742214
 44
-13.54123285620845
 45
-0.0000000276575915
 46
0.9111937750828904
 79
     2
 49
0.6641408635391271
 49
-4.648985561540476
 53
149.03624347
 43
-7.26594065855326
 44
-12.74393839957764
 45
-0.0000000276575915
 46
0.9111937750828904
 79
     2
 49
0.6641408635391271
 49
-4.648985561540476
 53
149.03624347
 43
-4.987956496750935
 44
-13.1995352319381
 45
-0.0000000276575915
 46
0.9111937750828904
 79
     2
 49
0.6641408635391271
 49
-4.648985561540476
 53
120.9637565299999
 43
-8.746630363724769
 44
-10.57985344586543
 45
0.0000000276575917
 46
0.91119377508289
 79
     2
 49
0.6641408635391271
 49
-25.90149126185889
 53
120.9637565299999
 43
-13.30259868732941
 44
-2.379110463377074
 45
0.0000000276575917
 46
0.91119377508289
 79
     2
 49
0.6641408635391271
 49
-25.90149126185889
 53
120.9637565299999
 43
-17.85856701093406
 44
4.910438854390365
 45
0.0000000276575917
 46
0.91119377508289
 79
     2
 49
0.6641408635391271
 49
-25.90149126185889
 53
161.56505118
 43
-10.11342086080616
 44
-9.213062948784038
 45
0.0000000508908047
 46
0.9111936229524495
 79
     2
 49
0.7203618497570568
 49
-13.68687498430627
 53
161.56505118
 43
-1.001484213596873
 44
-11.94664394294682
 45
0.0000000508908047
 46
0.9111936229524495
 79
     2
 49
0.7203618497570568
 49
-13.68687498430627
 53
161.56505118
 43
-5.557452537201518
 44
-10.12425661350496
 45
0.0000000508908047
 46
0.9111936229524495
 79
     2
 49
0.7203618497570568
 49
-13.68687498430627
 98
        1
 10
-0.0000000000000036
 20
0.0571451384807187
  0
POLYLINE
  5
CCEC
330
CCE5
100
AcDbEntity
  8
Pel_Outline
100
AcDb2dPolyline
 66
     1
 10
0.0
 20
0.0
 30
0.0
  0
VERTEX
  5
D919
330
CCEC
100
AcDbEntity
  8
Pel_Outline
100
AcDbVertex
100
AcDb2dVertex
 10
0.0
 20
-0.0000000000000036
 30
0.0
  0
VERTEX
  5
D91A
330
CCEC
100
AcDbEntity
  8
Pel_Outline
100
AcDbVertex
100
AcDb2dVertex
 10
0.0
 20
2.807145138480724
 30
0.0
  0
VERTEX
  5
D91B
330
CCEC
100
AcDbEntity
  8
Pel_Outline
100
AcDbVertex
100
AcDb2dVertex
 10
-1.156000000000005
 20
2.807145138480722
 30
0.0
  0
VERTEX
  5
D91C
330
CCEC
100
AcDbEntity
  8
Pel_Outline
100
AcDbVertex
100
AcDb2dVertex
 10
-1.156000000000005
 20
2.30714513848072
 30
0.0
  0
VERTEX
  5
D91D
330
CCEC
100
AcDbEntity
  8
Pel_Outline
100
AcDbVertex
100
AcDb2dVertex
 10
-1.094000000000004
 20
2.30714513848072
 30
0.0
  0
VERTEX
  5
D91E
330
CCEC
100
AcDbEntity
  8
Pel_Outline
100
AcDbVertex
100
AcDb2dVertex
 10
-1.000000000000004
 20
1.932145138480727
 30
0.0
  0
VERTEX
  5
D91F
330
CCEC
100
AcDbEntity
  8
Pel_Outline
100
AcDbVertex
100
AcDb2dVertex
 10
-0.9380000000000032
 20
1.932145138480727
 30
0.0
  0
VERTEX
  5
D920
330
CCEC
100
AcDbEntity
  8
Pel_Outline
100
AcDbVertex
100
AcDb2dVertex
 10
-0.9380000000000068
 20
-0.6928548615192796
 30
0.0
  0
VERTEX
  5
D921
330
CCEC
100
AcDbEntity
  8
Pel_Outline
100
AcDbVertex
100
AcDb2dVertex
 10
-0.0000000000000036
 20
-0.6928548615192796
 30
0.0
  0
SEQEND
  5
D922
330
CCEC
100
AcDbEntity
  8
Pel_Outline
  0
ENDBLK
  5
CCF7
330
CCE5
100
AcDbEntity
  8
0
 62
     2
100
AcDbBlockEnd
  0
BLOCK
  5
CCFB
330
CCF8
100
AcDbEntity
  8
0
 62
     2
100
AcDbBlockBegin
  2
38L6
 70
     0
 10
0.0
 20
0.0
 30
0.0
  3
38L6
  1

  0
LWPOLYLINE
  5
CCFC
102
{ACAD_REACTORS
330
CCFD
102
}
330
CCF8
100
AcDbEntity
  8
Pel_Cross Section
  6
Continuous
 62
     3
100
AcDbPolyline
 90
       11
 70
     1
 43
0.0
 10
-0.7500000000000018
 20
1.936999999999999
 10
-0.8120000000000011
 20
1.936999999999999
 10
-0.9060000000000005
 20
2.311998999999996
 10
-0.9680000000000026
 20
2.311999999999997
 10
-0.9680000000000026
 20
2.811999999999999
 10
0.1879999999999988
 20
2.811999999999999
 10
0.1879999999999988
 20
0.0065649999999984
 10
-0.0000000000000027
 20
-0.0000000000000036
 10
-0.0000000000000027
 20
-0.6880000000000042
 10
-0.7500000000000018
 20
-0.6880000000000042
 10
-0.7500000000000018
 20
1.936999999999999
  0
HATCH
  5
CCFD
330
CCF8
100
AcDbEntity
  8
Pel_Hatch
 62
     2
100
AcDbHatch
 10
0.0
 20
0.0
 30
0.0
210
0.0
220
0.0
230
1.0
  2
WOOD
 70
     0
 71
     1
 91
        1
 92
        1
 93
       10
 72
     1
 10
-0.7500000000000018
 20
1.936999999999999
 11
-0.8120000000000011
 21
1.936999999999999
 72
     1
 10
-0.8120000000000011
 20
1.936999999999999
 11
-0.9060000000000005
 21
2.311998999999998
 72
     1
 10
-0.9060000000000005
 20
2.311998999999996
 11
-0.9680000000000017
 21
2.311999999999998
 72
     1
 10
-0.9680000000000026
 20
2.311999999999997
 11
-0.9680000000000026
 21
2.811999999999999
 72
     1
 10
-0.9680000000000026
 20
2.811999999999999
 11
0.1879999999999979
 21
2.811999999999999
 72
     1
 10
0.1879999999999988
 20
2.811999999999999
 11
0.1879999999999988
 21
0.006564999999997
 72
     1
 10
0.1879999999999988
 20
0.0065649999999984
 11
-0.0000000000000018
 21
-0.0000000000000027
 72
     1
 10
-0.0000000000000027
 20
-0.0000000000000036
 11
-0.0000000000000027
 21
-0.6880000000000043
 72
     1
 10
-0.0000000000000027
 20
-0.6880000000000042
 11
-0.7500000000000026
 21
-0.6880000000000042
 72
     1
 10
-0.7500000000000018
 20
-0.6880000000000042
 11
-0.7500000000000018
 21
1.936999999999997
 97
        1
330
CCFC
 75
     0
 76
     1
 52
45.0
 41
0.1610778048245976
 77
     0
 78
    12
 53
134.9999999999999
 43
-3.143423920631931
 44
-11.48619224906709
 45
0.0000000000000002
 46
0.9111936647209288
 79
     2
 49
0.6443112192983904
 49
-5.798800973685513
 53
134.9999999999999
 43
-4.396315209623208
 44
-10.00550254389558
 45
0.0000000000000002
 46
0.9111936647209288
 79
     2
 49
0.6443112192983904
 49
-2.577244877193561
 53
108.43494882
 43
-3.599020752992395
 44
-11.94178908142755
 45
-0.0000000508908046
 46
0.9111936229524497
 79
     2
 49
1.440723699514113
 49
-12.96651313454921
 53
149.03624347
 43
-1.548835007370305
 44
-13.53637799468918
 45
-0.0000000276575915
 46
0.9111937750828905
 79
     2
 49
0.6641408635391273
 49
-4.648985561540476
 53
149.03624347
 43
-2.573927880181351
 44
-12.73908353805837
 45
-0.0000000276575915
 46
0.9111937750828905
 79
     2
 49
0.6641408635391273
 49
-4.648985561540476
 53
149.03624347
 43
-0.2959437183790272
 44
-13.19468037041883
 45
-0.0000000276575915
 46
0.9111937750828905
 79
     2
 49
0.6641408635391273
 49
-4.648985561540476
 53
120.9637565299999
 43
-4.05461758535286
 44
-10.57499858434616
 45
0.0000000276575917
 46
0.9111937750828904
 79
     2
 49
0.6641408635391272
 49
-25.90149126185889
 53
120.9637565299999
 43
-8.610585908957506
 44
-2.3742556018578
 45
0.0000000276575917
 46
0.9111937750828904
 79
     2
 49
0.6641408635391272
 49
-25.90149126185889
 53
120.9637565299999
 43
-13.16655423256215
 44
4.915293715909632
 45
0.0000000276575917
 46
0.9111937750828904
 79
     2
 49
0.6641408635391272
 49
-25.90149126185889
 53
161.56505118
 43
-5.421408082434254
 44
-9.208208087264766
 45
0.0000000508908047
 46
0.9111936229524497
 79
     2
 49
0.7203618497570568
 49
-13.68687498430627
 53
161.56505118
 43
3.690528564775038
 44
-11.94178908142755
 45
0.0000000508908047
 46
0.9111936229524497
 79
     2
 49
0.7203618497570568
 49
-13.68687498430627
 53
161.56505118
 43
-0.8654397588296088
 44
-10.1194017519857
 45
0.0000000508908047
 46
0.9111936229524497
 79
     2
 49
0.7203618497570568
 49
-13.68687498430627
 98
        1
 10
-0.0000000000000027
 20
-0.0000000000000036
  0
POLYLINE
  5
CCFF
330
CCF8
100
AcDbEntity
  8
Pel_Outline
100
AcDb2dPolyline
 66
     1
 10
0.0
 20
0.0
 30
0.0
  0
VERTEX
  5
D8FB
330
CCFF
100
AcDbEntity
  8
Pel_Outline
100
AcDbVertex
100
AcDb2dVertex
 10
0.1879999999999988
 20
0.0065649999999984
 30
0.0
  0
VERTEX
  5
D8FC
330
CCFF
100
AcDbEntity
  8
Pel_Outline
100
AcDbVertex
100
AcDb2dVertex
 10
0.1879999999999988
 20
2.811999999999999
 30
0.0
  0
VERTEX
  5
D8FD
330
CCFF
100
AcDbEntity
  8
Pel_Outline
100
AcDbVertex
100
AcDb2dVertex
 10
-0.9680000000000026
 20
2.811999999999999
 30
0.0
  0
VERTEX
  5
D8FE
330
CCFF
100
AcDbEntity
  8
Pel_Outline
100
AcDbVertex
100
AcDb2dVertex
 10
-0.9680000000000026
 20
2.311999999999997
 30
0.0
  0
VERTEX
  5
D8FF
330
CCFF
100
AcDbEntity
  8
Pel_Outline
100
AcDbVertex
100
AcDb2dVertex
 10
-0.9060000000000005
 20
2.311998999999996
 30
0.0
  0
VERTEX
  5
D900
330
CCFF
100
AcDbEntity
  8
Pel_Outline
100
AcDbVertex
100
AcDb2dVertex
 10
-0.8120000000000011
 20
1.936999999999999
 30
0.0
  0
VERTEX
  5
D901
330
CCFF
100
AcDbEntity
  8
Pel_Outline
100
AcDbVertex
100
AcDb2dVertex
 10
-0.7500000000000018
 20
1.936999999999999
 30
0.0
  0
VERTEX
  5
D902
330
CCFF
100
AcDbEntity
  8
Pel_Outline
100
AcDbVertex
100
AcDb2dVertex
 10
-0.7500000000000018
 20
-0.6880000000000042
 30
0.0
  0
VERTEX
  5
D903
330
CCFF
100
AcDbEntity
  8
Pel_Outline
100
AcDbVertex
100
AcDb2dVertex
 10
-0.0000000000000027
 20
-0.6880000000000042
 30
0.0
  0
SEQEND
  5
D904
330
CCFF
100
AcDbEntity
  8
Pel_Outline
  0
ENDBLK
  5
CD0A
330
CCF8
100
AcDbEntity
  8
0
 62
     2
100
AcDbBlockEnd
  0
BLOCK
  5
CD0E
330
CD0B
100
AcDbEntity
  8
0
 62
     2
100
AcDbBlockBegin
  2
3419
 70
     0
 10
0.0
 20
0.0
 30
0.0
  3
3419
  1

  0
HATCH
  5
CD0F
330
CD0B
100
AcDbEntity
  8
Pel_Hatch
 62
     2
100
AcDbHatch
 10
0.0
 20
0.0
 30
0.0
210
0.0
220
0.0
230
1.0
  2
WOOD
 70
     0
 71
     1
 91
        1
 92
        1
 93
        8
 72
     1
 10
0.0
 20
1.249999999999997
 11
0.0
 21
-0.6250000000000023
 72
     1
 10
0.0
 20
-0.6250000000000031
 11
-0.9380000000000025
 21
-0.6250000000000031
 72
     1
 10
-0.9380000000000023
 20
-0.6250000000000031
 11
-0.9380000000000023
 21
0.374999999999995
 72
     1
 10
-0.9380000000000023
 20
0.3749999999999951
 11
-1.0
 21
0.3749999999999951
 72
     1
 10
-1.0
 20
0.3749999999999951
 11
-1.094
 21
0.7499999999999969
 72
     1
 10
-1.094000000000001
 20
0.7499999999999978
 11
-1.156000000000002
 21
0.7499999999999978
 72
     1
 10
-1.156000000000002
 20
0.7499999999999978
 11
-1.156000000000002
 21
1.249999999999997
 72
     1
 10
-1.156000000000002
 20
1.249999999999997
 11
-0.0000000000000004
 21
1.249999999999997
 97
        1
330
CD10
 75
     0
 76
     1
 52
45.0
 41
0.1308757164199856
 77
     0
 78
    12
 53
134.9999999999999
 43
-16.57552662293397
 44
-3.614498266138425
 45
0.0000000000000001
 46
0.7403448525857548
 79
     2
 49
0.5235028656799421
 49
-4.711525791119478
 53
134.9999999999999
 43
-17.59350079523938
 44
-2.411437880686572
 45
0.0000000000000001
 46
0.7403448525857548
 79
     2
 49
0.5235028656799421
 49
-2.094011462719768
 53
108.4349488199999
 43
-16.94569904922685
 44
-3.984670692431302
 45
-0.0000000413487788
 46
0.7403448186488652
 79
     2
 49
1.170588005855216
 49
-10.53529192182123
 53
149.03624347
 43
-15.2799231309089
 44
-5.280274184456373
 45
-0.0000000224717931
 46
0.7403449422548486
 79
     2
 49
0.5396144516255412
 49
-3.777300768751636
 53
149.03624347
 43
-16.11281109006787
 44
-4.632472438443837
 45
-0.0000000224717931
 46
0.7403449422548486
 79
     2
 49
0.5396144516255412
 49
-3.777300768751636
 53
149.03624347
 43
-14.26194895860349
 44
-5.002644864736715
 45
-0.0000000224717931
 46
0.7403449422548486
 79
     2
 49
0.5396144516255412
 49
-3.777300768751636
 53
120.9637565299999
 43
-17.31587147551971
 44
-2.87415341355267
 45
0.0000000224717933
 46
0.7403449422548486
 79
     2
 49
0.539614451625541
 49
-21.04496165026034
 53
120.9637565299999
 43
-21.0175957384485
 44
3.788950259719122
 45
0.0000000224717933
 46
0.7403449422548486
 79
     2
 49
0.539614451625541
 49
-21.04496165026034
 53
120.9637565299999
 43
-24.71932000137728
 44
9.711709080405162
 45
0.0000000224717933
 46
0.7403449422548486
 79
     2
 49
0.539614451625541
 49
-21.04496165026034
 53
161.56505118
 43
-18.42638875439836
 44
-1.763636134674037
 45
0.0000000413487788
 46
0.7403448186488654
 79
     2
 49
0.5852940029276084
 49
-11.12058592474884
 53
161.56505118
 43
-11.0229402285408
 44
-3.984670692431302
 45
0.0000000413487788
 46
0.7403448186488654
 79
     2
 49
0.5852940029276084
 49
-11.12058592474884
 53
161.56505118
 43
-14.72466449146958
 44
-2.503980987259792
 45
0.0000000413487788
 46
0.7403448186488654
 79
     2
 49
0.5852940029276084
 49
-11.12058592474884
 98
        1
 10
0.0
 20
-0.0000000000000031
  0
LWPOLYLINE
  5
CD10
102
{ACAD_REACTORS
330
CD0F
102
}
330
CD0B
100
AcDbEntity
  8
Pel_Cross Section
  6
Continuous
 62
     3
100
AcDbPolyline
 90
        9
 70
     1
 43
0.0
 10
0.0
 20
1.249999999999997
 10
0.0
 20
-0.6250000000000031
 10
-0.9380000000000023
 20
-0.6250000000000031
 10
-0.9380000000000023
 20
0.3749999999999951
 10
-1.0
 20
0.3749999999999951
 10
-1.094000000000001
 20
0.7499999999999978
 10
-1.156000000000002
 20
0.7499999999999978
 10
-1.156000000000002
 20
1.249999999999997
 10
0.0
 20
1.249999999999997
  0
POLYLINE
  5
CD12
330
CD0B
100
AcDbEntity
  8
Pel_Outline
100
AcDb2dPolyline
 66
     1
 10
0.0
 20
0.0
 30
0.0
  0
VERTEX
  5
D9B5
330
CD12
100
AcDbEntity
  8
Pel_Outline
100
AcDbVertex
100
AcDb2dVertex
 10
0.0
 20
-0.0000000000000009
 30
0.0
  0
VERTEX
  5
D9B6
330
CD12
100
AcDbEntity
  8
Pel_Outline
100
AcDbVertex
100
AcDb2dVertex
 10
0.0
 20
1.249999999999997
 30
0.0
  0
VERTEX
  5
D9B7
330
CD12
100
AcDbEntity
  8
Pel_Outline
100
AcDbVertex
100
AcDb2dVertex
 10
-1.156000000000002
 20
1.249999999999997
 30
0.0
  0
VERTEX
  5
D9B8
330
CD12
100
AcDbEntity
  8
Pel_Outline
100
AcDbVertex
100
AcDb2dVertex
 10
-1.156000000000002
 20
0.7499999999999978
 30
0.0
  0
VERTEX
  5
D9B9
330
CD12
100
AcDbEntity
  8
Pel_Outline
100
AcDbVertex
100
AcDb2dVertex
 10
-1.094000000000001
 20
0.7499999999999978
 30
0.0
  0
VERTEX
  5
D9BA
330
CD12
100
AcDbEntity
  8
Pel_Outline
100
AcDbVertex
100
AcDb2dVertex
 10
-1.0
 20
0.3749999999999956
 30
0.0
  0
VERTEX
  5
D9BB
330
CD12
100
AcDbEntity
  8
Pel_Outline
100
AcDbVertex
100
AcDb2dVertex
 10
-0.9380000000000023
 20
0.3749999999999956
 30
0.0
  0
VERTEX
  5
D9BC
330
CD12
100
AcDbEntity
  8
Pel_Outline
100
AcDbVertex
100
AcDb2dVertex
 10
-0.9380000000000023
 20
-0.6250000000000027
 30
0.0
  0
VERTEX
  5
D9BD
330
CD12
100
AcDbEntity
  8
Pel_Outline
100
AcDbVertex
100
AcDb2dVertex
 10
0.0
 20
-0.6250000000000027
 30
0.0
  0
SEQEND
  5
D9BE
330
CD12
100
AcDbEntity
  8
Pel_Outline
  0
ENDBLK
  5
CD1D
330
CD0B
100
AcDbEntity
  8
0
 62
     2
100
AcDbBlockEnd
  0
BLOCK
  5
CD21
330
CD1E
100
AcDbEntity
  8
0
 62
     2
100
AcDbBlockBegin
  2
3443
 70
     0
 10
0.0
 20
0.0
 30
0.0
  3
3443
  1

  0
HATCH
  5
CD22
330
CD1E
100
AcDbEntity
  8
Pel_Hatch
 62
     2
100
AcDbHatch
 10
0.0
 20
0.0
 30
0.0
210
0.0
220
0.0
230
1.0
  2
WOOD
 70
     0
 71
     1
 91
        1
 92
        1
 93
       10
 72
     1
 10
-0.7500000000000018
 20
0.3119999999999985
 11
-0.8120000000000029
 21
0.3119999999999985
 72
     1
 10
-0.8120000000000029
 20
0.3119999999999985
 11
-0.9059999999999996
 21
0.6869990000000006
 72
     1
 10
-0.9060000000000005
 20
0.6869990000000006
 11
-0.9680000000000017
 21
0.6869999999999985
 72
     1
 10
-0.9680000000000017
 20
0.686999999999999
 11
-0.9680000000000017
 21
1.186999999999998
 72
     1
 10
-0.9680000000000017
 20
1.186999999999998
 11
0.1879999999999966
 21
1.186999999999998
 72
     1
 10
0.187999999999997
 20
1.186999999999998
 11
0.187999999999997
 21
0.0065649999999995
 72
     1
 10
0.187999999999997
 20
0.0065649999999993
 11
-0.0000000000000018
 21
-0.0000000000000009
 72
     1
 10
-0.0000000000000018
 20
-0.0000000000000009
 11
-0.0000000000000018
 21
-0.6880000000000016
 72
     1
 10
-0.0000000000000018
 20
-0.6880000000000015
 11
-0.7500000000000022
 21
-0.6880000000000015
 72
     1
 10
-0.7500000000000018
 20
-0.6880000000000015
 11
-0.7500000000000018
 21
0.3119999999999987
 97
        1
330
CD23
 75
     0
 76
     1
 52
45.0
 41
0.1208083536184482
 77
     0
 78
    12
 53
134.9999999999999
 43
-11.69315158454769
 44
-3.706504358697563
 45
0.0000000000000001
 46
0.6833952485406968
 79
     2
 49
0.4832334144737927
 49
-4.349100730264135
 53
134.9999999999999
 43
-12.63282005129115
 44
-2.595987079818931
 45
0.0000000000000001
 46
0.6833952485406968
 79
     2
 49
0.4832334144737927
 49
-1.93293365789517
 53
108.43494882
 43
-12.03484920881804
 44
-4.048201982967912
 45
-0.0000000381681035
 46
0.6833952172143372
 79
     2
 49
1.080542774635584
 49
-9.724884850911907
 53
149.03624347
 43
-10.49720989960147
 44
-5.244143667914131
 45
-0.0000000207431936
 46
0.6833953313121679
 79
     2
 49
0.4981056476543455
 49
-3.486739171155357
 53
149.03624347
 43
-11.26602955420976
 44
-4.646172825441021
 45
-0.0000000207431936
 46
0.6833953313121679
 79
     2
 49
0.4981056476543455
 49
-3.486739171155357
 53
149.03624347
 43
-9.557541432858014
 44
-4.987870449711371
 45
-0.0000000207431936
 46
0.6833953313121679
 79
     2
 49
0.4981056476543455
 49
-3.486739171155357
 53
120.9637565299999
 43
-12.37654683308839
 44
-3.023109110156866
 45
0.0000000207431938
 46
0.6833953313121679
 79
     2
 49
0.4981056476543454
 49
-19.42611844639417
 53
120.9637565299999
 43
-15.79352307579187
 44
3.127448126709404
 45
0.0000000207431938
 46
0.6833953313121679
 79
     2
 49
0.4981056476543454
 49
-19.42611844639417
 53
120.9637565299999
 43
-19.21049931849536
 44
8.594610115034978
 45
0.0000000207431938
 46
0.6833953313121679
 79
     2
 49
0.4981056476543454
 49
-19.42611844639417
 53
161.56505118
 43
-13.40163970589944
 44
-1.998016237345821
 45
0.0000000381681035
 46
0.6833952172143372
 79
     2
 49
0.5402713873177926
 49
-10.2651562382297
 53
161.56505118
 43
-6.567687220492467
 44
-4.048201982967913
 45
0.0000000381681035
 46
0.6833952172143372
 79
     2
 49
0.5402713873177926
 49
-10.2651562382297
 53
161.56505118
 43
-9.984663463195952
 44
-2.681411485886518
 45
0.0000000381681035
 46
0.6833952172143372
 79
     2
 49
0.5402713873177926
 49
-10.2651562382297
 98
        1
 10
-0.0000000000000018
 20
-0.1249999999999991
  0
LWPOLYLINE
  5
CD23
102
{ACAD_REACTORS
330
CD22
102
}
330
CD1E
100
AcDbEntity
  8
Pel_Cross Section
  6
Continuous
 62
     3
100
AcDbPolyline
 90
       11
 70
     1
 43
0.0
 10
-0.7500000000000018
 20
0.3119999999999985
 10
-0.8120000000000029
 20
0.3119999999999985
 10
-0.9060000000000005
 20
0.6869990000000006
 10
-0.9680000000000017
 20
0.686999999999999
 10
-0.9680000000000017
 20
1.186999999999998
 10
0.187999999999997
 20
1.186999999999998
 10
0.187999999999997
 20
0.0065649999999993
 10
-0.0000000000000018
 20
-0.0000000000000009
 10
-0.0000000000000018
 20
-0.6880000000000015
 10
-0.7500000000000018
 20
-0.6880000000000015
 10
-0.7500000000000018
 20
0.3119999999999985
  0
POLYLINE
  5
CD25
330
CD1E
100
AcDbEntity
  8
Pel_Outline
100
AcDb2dPolyline
 66
     1
 10
0.0
 20
0.0
 30
0.0
  0
VERTEX
  5
D997
330
CD25
100
AcDbEntity
  8
Pel_Outline
100
AcDbVertex
100
AcDb2dVertex
 10
0.1880000000000006
 20
0.0065649999999984
 30
0.0
  0
VERTEX
  5
D998
330
CD25
100
AcDbEntity
  8
Pel_Outline
100
AcDbVertex
100
AcDb2dVertex
 10
0.187999999999997
 20
1.186999999999998
 30
0.0
  0
VERTEX
  5
D999
330
CD25
100
AcDbEntity
  8
Pel_Outline
100
AcDbVertex
100
AcDb2dVertex
 10
-0.9680000000000017
 20
1.186999999999998
 30
0.0
  0
VERTEX
  5
D99A
330
CD25
100
AcDbEntity
  8
Pel_Outline
100
AcDbVertex
100
AcDb2dVertex
 10
-0.9680000000000017
 20
0.686999999999999
 30
0.0
  0
VERTEX
  5
D99B
330
CD25
100
AcDbEntity
  8
Pel_Outline
100
AcDbVertex
100
AcDb2dVertex
 10
-0.9060000000000005
 20
0.6869990000000006
 30
0.0
  0
VERTEX
  5
D99C
330
CD25
100
AcDbEntity
  8
Pel_Outline
100
AcDbVertex
100
AcDb2dVertex
 10
-0.8120000000000029
 20
0.3119999999999985
 30
0.0
  0
VERTEX
  5
D99D
330
CD25
100
AcDbEntity
  8
Pel_Outline
100
AcDbVertex
100
AcDb2dVertex
 10
-0.7500000000000018
 20
0.3119999999999985
 30
0.0
  0
VERTEX
  5
D99E
330
CD25
100
AcDbEntity
  8
Pel_Outline
100
AcDbVertex
100
AcDb2dVertex
 10
-0.7500000000000018
 20
-0.6880000000000015
 30
0.0
  0
VERTEX
  5
D99F
330
CD25
100
AcDbEntity
  8
Pel_Outline
100
AcDbVertex
100
AcDb2dVertex
 10
-0.0000000000000018
 20
-0.6880000000000015
 30
0.0
  0
SEQEND
  5
D9A0
330
CD25
100
AcDbEntity
  8
Pel_Outline
  0
ENDBLK
  5
CD30
330
CD1E
100
AcDbEntity
  8
0
 62
     2
100
AcDbBlockEnd
  0
BLOCK
  5
CD34
330
CD31
100
AcDbEntity
  8
0
 62
     2
100
AcDbBlockBegin
  2
ACC32E6
 70
     0
 10
0.0
 20
0.0
 30
0.0
  3
ACC32E6
  1

  0
ARC
  5
CD35
330
CD31
100
AcDbEntity
  8
0
  6
Continuous
 62
     2
100
AcDbCircle
 10
1.5
 20
1.5
 30
0.0
 40
0.9850177080559333
100
AcDbArc
 50
180.0
 51
0.0
  0
ARC
  5
CD36
330
CD31
100
AcDbEntity
  8
0
  6
Continuous
 62
     2
100
AcDbCircle
 10
1.5
 20
1.499999999999992
 30
0.0
 40
1.106702490224372
100
AcDbArc
 50
180.0
 51
0.0
  0
ARC
  5
CD37
330
CD31
100
AcDbEntity
  8
0
  6
Continuous
 62
     2
100
AcDbCircle
 10
1.5
 20
1.5
 30
0.0
 40
1.252304688009981
100
AcDbArc
 50
180.0
 51
0.0
  0
ARC
  5
CD38
330
CD31
100
AcDbEntity
  8
0
  6
Continuous
 62
     2
100
AcDbCircle
 10
1.5
 20
1.5
 30
0.0
 40
1.325105786902785
100
AcDbArc
 50
180.0
 51
0.0
  0
ARC
  5
CD39
330
CD31
100
AcDbEntity
  8
0
  6
Continuous
 62
     2
100
AcDbCircle
 10
1.5
 20
1.5
 30
0.0
 40
0.9850177080559333
100
AcDbArc
 50
0.0
 51
180.0
  0
ARC
  5
CD3A
330
CD31
100
AcDbEntity
  8
0
  6
Continuous
 62
     2
100
AcDbCircle
 10
1.5
 20
1.5
 30
0.0
 40
1.106702490224372
100
AcDbArc
 50
0.0
 51
180.0
  0
ARC
  5
CD3B
330
CD31
100
AcDbEntity
  8
0
  6
Continuous
 62
     2
100
AcDbCircle
 10
1.5
 20
1.5
 30
0.0
 40
1.252304688009981
100
AcDbArc
 50
0.0
 51
180.0
  0
ARC
  5
CD3C
330
CD31
100
AcDbEntity
  8
0
  6
Continuous
 62
     2
100
AcDbCircle
 10
1.5
 20
1.5
 30
0.0
 40
1.325105786902785
100
AcDbArc
 50
0.0
 51
180.0
  0
ARC
  5
CD3D
330
CD31
100
AcDbEntity
  8
0
  6
Continuous
 62
     2
100
AcDbCircle
 10
1.5
 20
1.5
 30
0.0
 40
0.2476953119900169
100
AcDbArc
 50
0.0
 51
180.0
  0
ARC
  5
CD3E
330
CD31
100
AcDbEntity
  8
0
  6
Continuous
 62
     2
100
AcDbCircle
 10
1.5
 20
1.5
 30
0.0
 40
0.5149822919440666
100
AcDbArc
 50
0.0
 51
180.0
  0
ARC
  5
CD3F
330
CD31
100
AcDbEntity
  8
0
  6
Continuous
 62
     2
100
AcDbCircle
 10
1.5
 20
1.5
 30
0.0
 40
0.3932975097756271
100
AcDbArc
 50
0.0
 51
180.0
  0
ARC
  5
CD40
330
CD31
100
AcDbEntity
  8
0
  6
Continuous
 62
     2
100
AcDbCircle
 10
1.5
 20
1.5
 30
0.0
 40
0.3932975097756271
100
AcDbArc
 50
180.0
 51
0.0
  0
ARC
  5
CD41
330
CD31
100
AcDbEntity
  8
0
  6
Continuous
 62
     2
100
AcDbCircle
 10
1.5
 20
1.499999999999992
 30
0.0
 40
0.2476953119900169
100
AcDbArc
 50
180.0
 51
0.0
  0
ARC
  5
CD42
330
CD31
100
AcDbEntity
  8
0
  6
Continuous
 62
     2
100
AcDbCircle
 10
1.5
 20
1.5
 30
0.0
 40
0.5149822919440666
100
AcDbArc
 50
180.0
 51
0.0
  0
ARC
  5
CD43
330
CD31
100
AcDbEntity
  8
0
  6
Continuous
 62
     2
100
AcDbCircle
 10
1.5
 20
1.5
 30
0.0
 40
0.1748942130972118
100
AcDbArc
 50
180.0
 51
0.0
  0
ARC
  5
CD44
330
CD31
100
AcDbEntity
  8
0
  6
Continuous
 62
     2
100
AcDbCircle
 10
1.5
 20
1.5
 30
0.0
 40
0.1748942130972118
100
AcDbArc
 50
0.0
 51
180.0
  0
LWPOLYLINE
  5
CD45
330
CD31
100
AcDbEntity
  8
0
 62
     3
100
AcDbPolyline
 90
        4
 70
     1
 43
0.0
 10
0.0
 20
0.0
 10
3.0
 20
0.0
 10
3.0
 20
2.999999999999996
 10
0.0
 20
2.999999999999996
  0
ENDBLK
  5
CD46
330
CD31
100
AcDbEntity
  8
0
 62
     2
100
AcDbBlockEnd
  0
BLOCK
  5
CD4A
330
CD47
100
AcDbEntity
  8
0
100
AcDbBlockBegin
  2
ACC380R
 70
     0
 10
0.0
 20
0.0
 30
0.0
  3
ACC380R
  1

  0
HATCH
  5
CD4B
330
CD47
100
AcDbEntity
  8
Pel_Hatch
 62
     2
100
AcDbHatch
 10
0.0
 20
0.0
 30
0.0
210
0.0
220
0.0
230
1.0
  2
WOOD
 70
     0
 71
     1
 91
        1
 92
        1
 93
        6
 72
     1
 10
2.812499999999987
 20
0.9687500000000053
 11
-0.6875000000000111
 21
0.9687500000000046
 72
     1
 10
-0.6875000000000107
 20
0.9687500000000035
 11
-0.687500000000007
 21
0.0000000000000027
 72
     1
 10
-0.6875000000000036
 20
0.0000000000000018
 11
-0.0000000000000039
 21
0.0000000000000019
 72
     1
 10
-0.0000000000000036
 20
0.0000000000000018
 11
-0.0000000000000035
 21
-0.1874999999999978
 72
     1
 10
-0.0000000000000036
 20
-0.1874999999999964
 11
2.812499999999992
 21
-0.187499999999994
 72
     1
 10
2.812499999999991
 20
-0.1874999999999929
 11
2.81249999999999
 21
0.9687500000000056
 97
        1
330
CD4C
 75
     0
 76
     1
 52
-44.99999999999999
 41
0.1610778048245976
 77
     0
 78
    12
 53
45.0
 43
-11.4856922490671
 44
11.81331655361313
 45
0.9111936647209288
 46
0.0
 79
     2
 49
0.6443112192983903
 49
-5.798800973685512
 53
45.0
 43
-10.00500254389558
 44
13.0662078426044
 45
0.9111936647209288
 46
0.0
 79
     2
 49
0.6443112192983903
 49
-2.577244877193561
 53
18.43494882
 43
-11.94128908142756
 44
12.26891338597359
 45
0.9111936229524497
 46
0.0000000508908048
 79
     2
 49
1.440723699514113
 49
-12.96651313454921
 53
59.03624347000001
 43
-13.53587799468919
 44
10.2187276403515
 45
0.9111937750828905
 46
0.0000000276575917
 79
     2
 49
0.6641408635391271
 49
-4.648985561540476
 53
59.03624347000001
 43
-12.73858353805837
 44
11.24382051316255
 45
0.9111937750828905
 46
0.0000000276575917
 79
     2
 49
0.6641408635391271
 49
-4.648985561540476
 53
59.03624347000001
 43
-13.19418037041884
 44
8.965836351360227
 45
0.9111937750828905
 46
0.0000000276575917
 79
     2
 49
0.6641408635391271
 49
-4.648985561540476
 53
30.96375653000001
 43
-10.57449858434617
 44
12.72451021833406
 45
0.9111937750828904
 46
-0.0000000276575915
 79
     2
 49
0.6641408635391273
 49
-25.90149126185889
 53
30.96375653000001
 43
-2.37375560185781
 44
17.2804785419387
 45
0.9111937750828904
 46
-0.0000000276575915
 79
     2
 49
0.6641408635391273
 49
-25.90149126185889
 53
30.96375653000001
 43
4.915793715909622
 44
21.83644686554335
 45
0.9111937750828904
 46
-0.0000000276575915
 79
     2
 49
0.6641408635391273
 49
-25.90149126185889
 53
71.56505118000001
 43
-9.207708087264775
 44
14.09130071541545
 45
0.9111936229524497
 46
-0.0000000508908045
 79
     2
 49
0.7203618497570565
 49
-13.68687498430626
 53
71.56505118000001
 43
-11.94128908142756
 44
4.979364068206162
 45
0.9111936229524497
 46
-0.0000000508908045
 79
     2
 49
0.7203618497570565
 49
-13.68687498430626
 53
71.56505118000001
 43
-10.1189017519857
 44
9.535332391810808
 45
0.9111936229524497
 46
-0.0000000508908045
 79
     2
 49
0.7203618497570565
 49
-13.68687498430626
 98
        1
 10
-2.562500000000005
 20
13.7497499287124
  0
POLYLINE
  5
CD4C
102
{ACAD_REACTORS
330
CD4B
102
}
330
CD47
100
AcDbEntity
  8
Pel_Cross Section
 62
     3
370
     0
100
AcDb2dPolyline
 66
     1
 10
0.0
 20
0.0
 30
0.0
 70
   129
  0
VERTEX
  5
D939
330
CD4C
100
AcDbEntity
  8
Pel_Cross Section
 62
     3
370
     0
100
AcDbVertex
100
AcDb2dVertex
 10
2.812499999999987
 20
0.9687500000000053
 30
0.0
  0
VERTEX
  5
D93A
330
CD4C
100
AcDbEntity
  8
Pel_Cross Section
 62
     3
370
     0
100
AcDbVertex
100
AcDb2dVertex
 10
-0.6875000000000107
 20
0.9687500000000035
 30
0.0
  0
VERTEX
  5
D93B
330
CD4C
100
AcDbEntity
  8
Pel_Cross Section
 62
     3
370
     0
100
AcDbVertex
100
AcDb2dVertex
 10
-0.6875000000000036
 20
0.0000000000000018
 30
0.0
  0
VERTEX
  5
D93C
330
CD4C
100
AcDbEntity
  8
Pel_Cross Section
 62
     3
370
     0
100
AcDbVertex
100
AcDb2dVertex
 10
-0.0000000000000036
 20
0.0000000000000018
 30
0.0
  0
VERTEX
  5
D93D
330
CD4C
100
AcDbEntity
  8
Pel_Cross Section
 62
     3
370
     0
100
AcDbVertex
100
AcDb2dVertex
 10
-0.0000000000000036
 20
-0.1874999999999964
 30
0.0
  0
VERTEX
  5
D93E
330
CD4C
100
AcDbEntity
  8
Pel_Cross Section
 62
     3
370
     0
100
AcDbVertex
100
AcDb2dVertex
 10
2.812499999999991
 20
-0.1874999999999929
 30
0.0
  0
SEQEND
  5
D93F
330
CD4C
100
AcDbEntity
  8
Pel_Cross Section
 62
     3
370
     0
  0
POLYLINE
  5
CD55
330
CD47
100
AcDbEntity
  8
Pel_Outline
100
AcDb2dPolyline
 66
     1
 10
0.0
 20
0.0
 30
0.0
  0
VERTEX
  5
D941
330
CD55
100
AcDbEntity
  8
Pel_Outline
100
AcDbVertex
100
AcDb2dVertex
 10
-0.0000000000000036
 20
-0.1874999999999964
 30
0.0
  0
VERTEX
  5
D942
330
CD55
100
AcDbEntity
  8
Pel_Outline
100
AcDbVertex
100
AcDb2dVertex
 10
2.812499999999991
 20
-0.1874999999999929
 30
0.0
  0
VERTEX
  5
D943
330
CD55
100
AcDbEntity
  8
Pel_Outline
100
AcDbVertex
100
AcDb2dVertex
 10
2.812499999999987
 20
0.9687500000000053
 30
0.0
  0
VERTEX
  5
D944
330
CD55
100
AcDbEntity
  8
Pel_Outline
100
AcDbVertex
100
AcDb2dVertex
 10
-0.6875000000000107
 20
0.9687500000000035
 30
0.0
  0
VERTEX
  5
D945
330
CD55
100
AcDbEntity
  8
Pel_Outline
100
AcDbVertex
100
AcDb2dVertex
 10
-0.6875000000000036
 20
0.0000000000000018
 30
0.0
  0
SEQEND
  5
D946
330
CD55
100
AcDbEntity
  8
Pel_Outline
  0
ENDBLK
  5
CD5C
330
CD47
100
AcDbEntity
  8
0
100
AcDbBlockEnd
  0
BLOCK
  5
CD60
330
CD5D
100
AcDbEntity
  8
0
100
AcDbBlockBegin
  2
ACC250H
 70
     0
 10
0.0
 20
0.0
 30
0.0
  3
ACC250H
  1

  0
POLYLINE
  5
CD61
102
{ACAD_REACTORS
330
CD80
102
}
330
CD5D
100
AcDbEntity
  8
Pel_Cross Section
 62
     3
370
     0
100
AcDb2dPolyline
 66
     1
 10
0.0
 20
0.0
 30
0.0
 70
   129
  0
VERTEX
  5
D8AE
330
CD61
100
AcDbEntity
  8
Pel_Cross Section
 62
     3
370
     0
100
AcDbVertex
100
AcDb2dVertex
 10
4.375
 20
-0.2565301838949594
 30
0.0
  0
VERTEX
  5
D8AF
330
CD61
100
AcDbEntity
  8
Pel_Cross Section
 62
     3
370
     0
100
AcDbVertex
100
AcDb2dVertex
 10
4.187999999999995
 20
-0.2500000000000035
 30
0.0
  0
VERTEX
  5
D8B0
330
CD61
100
AcDbEntity
  8
Pel_Cross Section
 62
     3
370
     0
100
AcDbVertex
100
AcDb2dVertex
 10
4.187999999999995
 20
0.0
 30
0.0
  0
VERTEX
  5
D8B1
330
CD61
100
AcDbEntity
  8
Pel_Cross Section
 62
     3
370
     0
100
AcDbVertex
100
AcDb2dVertex
 10
0.2058978583448798
 20
0.0000000000000036
 30
0.0
  0
VERTEX
  5
D8B2
330
CD61
100
AcDbEntity
  8
Pel_Cross Section
 62
     3
370
     0
100
AcDbVertex
100
AcDb2dVertex
 10
0.1879999999999953
 20
-0.0309999999999988
 30
0.0
  0
VERTEX
  5
D8B3
330
CD61
100
AcDbEntity
  8
Pel_Cross Section
 62
     3
370
     0
100
AcDbVertex
100
AcDb2dVertex
 10
0.1701021416551178
 20
0.0000000000000036
 30
0.0
  0
VERTEX
  5
D8B4
330
CD61
100
AcDbEntity
  8
Pel_Cross Section
 62
     3
370
     0
100
AcDbVertex
100
AcDb2dVertex
 10
0.0178978583448739
 20
0.0
 30
0.0
  0
VERTEX
  5
D8B5
330
CD61
100
AcDbEntity
  8
Pel_Cross Section
 62
     3
370
     0
100
AcDbVertex
100
AcDb2dVertex
 10
0.0000000000000036
 20
-0.0310000000000024
 30
0.0
  0
VERTEX
  5
D8B6
330
CD61
100
AcDbEntity
  8
Pel_Cross Section
 62
     3
370
     0
100
AcDbVertex
100
AcDb2dVertex
 10
-0.0155378360047394
 20
-0.0040876786001043
 30
0.0
  0
VERTEX
  5
D8B7
330
CD61
100
AcDbEntity
  8
Pel_Cross Section
 62
     3
370
     0
100
AcDbVertex
100
AcDb2dVertex
 10
-1.062000000000004
 20
-0.2650000000000006
 30
0.0
  0
VERTEX
  5
D8B8
330
CD61
100
AcDbEntity
  8
Pel_Cross Section
 62
     3
370
     0
100
AcDbVertex
100
AcDb2dVertex
 10
-1.062000000000004
 20
-1.782000000000003
 30
0.0
  0
VERTEX
  5
D8B9
330
CD61
100
AcDbEntity
  8
Pel_Cross Section
 62
     3
370
     0
100
AcDbVertex
100
AcDb2dVertex
 10
-1.000000000000003
 20
-1.844000000000001
 30
0.0
  0
VERTEX
  5
D8BA
330
CD61
100
AcDbEntity
  8
Pel_Cross Section
 62
     3
370
     0
100
AcDbVertex
100
AcDb2dVertex
 10
-0.8119999999999976
 20
-1.844000000000001
 30
0.0
 42
-1.0
  0
VERTEX
  5
D8BB
330
CD61
100
AcDbEntity
  8
Pel_Cross Section
 62
     3
370
     0
100
AcDbVertex
100
AcDb2dVertex
 10
-0.5619999999999977
 20
-1.844000000000001
 30
0.0
  0
VERTEX
  5
D8BC
330
CD61
100
AcDbEntity
  8
Pel_Cross Section
 62
     3
370
     0
100
AcDbVertex
100
AcDb2dVertex
 10
-0.3119999999999941
 20
-1.75
 30
0.0
  0
VERTEX
  5
D8BD
330
CD61
100
AcDbEntity
  8
Pel_Cross Section
 62
     3
370
     0
100
AcDbVertex
100
AcDb2dVertex
 10
-0.3119999999999941
 20
-1.625999999999997
 30
0.0
  0
VERTEX
  5
D8BE
330
CD61
100
AcDbEntity
  8
Pel_Cross Section
 62
     3
370
     0
100
AcDbVertex
100
AcDb2dVertex
 10
0.1879999999999953
 20
-1.625999999999997
 30
0.0
  0
VERTEX
  5
D8BF
330
CD61
100
AcDbEntity
  8
Pel_Cross Section
 62
     3
370
     0
100
AcDbVertex
100
AcDb2dVertex
 10
0.1956127277492001
 20
-1.844000000000001
 30
0.0
  0
VERTEX
  5
D8C0
330
CD61
100
AcDbEntity
  8
Pel_Cross Section
 62
     3
370
     0
100
AcDbVertex
100
AcDb2dVertex
 10
0.3749999999999964
 20
-1.844000000000001
 30
0.0
  0
VERTEX
  5
D8C1
330
CD61
100
AcDbEntity
  8
Pel_Cross Section
 62
     3
370
     0
100
AcDbVertex
100
AcDb2dVertex
 10
0.3749999999999964
 20
-1.093999999999997
 30
0.0
  0
VERTEX
  5
D8C2
330
CD61
100
AcDbEntity
  8
Pel_Cross Section
 62
     3
370
     0
100
AcDbVertex
100
AcDb2dVertex
 10
1.375
 20
-1.093999999999997
 30
0.0
  0
VERTEX
  5
D8C3
330
CD61
100
AcDbEntity
  8
Pel_Cross Section
 62
     3
370
     0
100
AcDbVertex
100
AcDb2dVertex
 10
1.375
 20
-1.844000000000004
 30
0.0
  0
VERTEX
  5
D8C4
330
CD61
100
AcDbEntity
  8
Pel_Cross Section
 62
     3
370
     0
100
AcDbVertex
100
AcDb2dVertex
 10
2.875000000000003
 20
-1.844000000000004
 30
0.0
  0
VERTEX
  5
D8C5
330
CD61
100
AcDbEntity
  8
Pel_Cross Section
 62
     3
370
     0
100
AcDbVertex
100
AcDb2dVertex
 10
2.875000000000003
 20
-1.094000000000001
 30
0.0
  0
VERTEX
  5
D8C6
330
CD61
100
AcDbEntity
  8
Pel_Cross Section
 62
     3
370
     0
100
AcDbVertex
100
AcDb2dVertex
 10
3.875000000000003
 20
-1.094000000000001
 30
0.0
  0
VERTEX
  5
D8C7
330
CD61
100
AcDbEntity
  8
Pel_Cross Section
 62
     3
370
     0
100
AcDbVertex
100
AcDb2dVertex
 10
3.875000000000003
 20
-1.844000000000004
 30
0.0
  0
VERTEX
  5
D8C8
330
CD61
100
AcDbEntity
  8
Pel_Cross Section
100
AcDbVertex
100
AcDb2dVertex
 10
4.186236947471169
 20
-1.844000000000001
 30
0.0
  0
VERTEX
  5
D8C9
330
CD61
100
AcDbEntity
  8
Pel_Cross Section
 62
     3
370
     0
100
AcDbVertex
100
AcDb2dVertex
 10
4.186236947471169
 20
-1.592315929961568
 30
0.0
  0
VERTEX
  5
D8CA
330
CD61
100
AcDbEntity
  8
Pel_Cross Section
100
AcDbVertex
100
AcDb2dVertex
 10
4.375
 20
-1.592315929961568
 30
0.0
  0
SEQEND
  5
D8CB
330
CD61
100
AcDbEntity
  8
Pel_Cross Section
 62
     3
370
     0
  0
HATCH
  5
CD80
330
CD5D
100
AcDbEntity
  8
Pel_Hatch
 62
     2
370
     0
100
AcDbHatch
 10
0.0
 20
0.0
 30
0.0
210
0.0
220
0.0
230
1.0
  2
WOOD
 70
     0
 71
     1
 91
        1
 92
        1
 93
       29
 72
     1
 10
4.375
 20
-0.2565301838949594
 11
4.187999999999994
 21
-0.2500000000000022
 72
     1
 10
4.187999999999995
 20
-0.2500000000000035
 11
4.187999999999995
 21
-0.0000000000000017
 72
     1
 10
4.187999999999995
 20
0.0
 11
0.2058978583448807
 21
0.0000000000000036
 72
     1
 10
0.2058978583448798
 20
0.0000000000000036
 11
0.1879999999999999
 21
-0.0309999999999935
 72
     1
 10
0.1879999999999953
 20
-0.0309999999999988
 11
0.170102141655119
 21
-0.0000000000000018
 72
     1
 10
0.1701021416551178
 20
0.0000000000000036
 11
0.0178978583448734
 21
0.0
 72
     1
 10
0.0178978583448739
 20
0.0
 11
-0.0000000000000024
 21
-0.030999999999997
 72
     1
 10
0.0000000000000036
 20
-0.0310000000000024
 11
-0.0155378360047386
 21
-0.004087678600108
 72
     1
 10
-0.0155378360047394
 20
-0.0040876786001043
 11
-1.061999999999998
 21
-0.2650000000000027
 72
     1
 10
-1.062000000000004
 20
-0.2650000000000006
 11
-1.062000000000004
 21
-1.782
 72
     1
 10
-1.062000000000004
 20
-1.782000000000003
 11
-1.000000000000003
 21
-1.844000000000001
 72
     1
 10
-1.000000000000003
 20
-1.844000000000001
 11
-0.8120000000000029
 21
-1.844000000000001
 72
     2
 10
-0.6870000000000012
 20
-1.844000000000001
 40
0.1250000000000009
 50
180.0
 51
360.0
 73
     0
 72
     1
 10
-0.5619999999999977
 20
-1.844000000000001
 11
-0.3119999999999922
 21
-1.749999999999997
 72
     1
 10
-0.3119999999999941
 20
-1.75
 11
-0.3119999999999941
 21
-1.626000000000001
 72
     1
 10
-0.3119999999999941
 20
-1.625999999999997
 11
0.187999999999999
 21
-1.625999999999997
 72
     1
 10
0.1879999999999953
 20
-1.625999999999997
 11
0.1956127277492008
 21
-1.844
 72
     1
 10
0.1956127277492001
 20
-1.844000000000001
 11
0.3749999999999968
 21
-1.844000000000001
 72
     1
 10
0.3749999999999964
 20
-1.844000000000001
 11
0.3749999999999964
 21
-1.093999999999999
 72
     1
 10
0.3749999999999964
 20
-1.093999999999997
 11
1.375
 21
-1.093999999999997
 72
     1
 10
1.375
 20
-1.093999999999997
 11
1.375
 21
-1.844000000000002
 72
     1
 10
1.375
 20
-1.844000000000004
 11
2.874999999999997
 21
-1.844000000000004
 72
     1
 10
2.875000000000003
 20
-1.844000000000004
 11
2.875000000000003
 21
-1.094000000000002
 72
     1
 10
2.875000000000003
 20
-1.094000000000001
 11
3.875000000000003
 21
-1.094000000000001
 72
     1
 10
3.875000000000003
 20
-1.094000000000001
 11
3.875000000000003
 21
-1.844000000000002
 72
     1
 10
3.875000000000003
 20
-1.844000000000004
 11
4.186236947471174
 21
-1.844000000000001
 72
     1
 10
4.186236947471169
 20
-1.844000000000001
 11
4.186236947471169
 21
-1.592315929961571
 72
     1
 10
4.186236947471169
 20
-1.592315929961568
 11
4.374999999999994
 21
-1.592315929961568
 72
     1
 10
4.375
 20
-1.592315929961568
 11
4.375
 21
-0.2565301838949587
 97
        1
330
CD61
 75
     0
 76
     1
 52
135.0
 41
0.2
 77
     0
 78
    12
 53
225.0
 43
-15.45214178741843
 44
-20.67780626814053
 45
-1.131370849898476
 46
0.0000000000000002
 79
     2
 49
0.8000000000000003
 49
-7.200000000000003
 53
225.0
 43
-17.29061941850345
 44
-22.23344118675093
 45
-1.131370849898476
 46
0.0000000000000002
 79
     2
 49
0.8000000000000003
 49
-3.200000000000001
 53
198.43494882
 43
-14.88645636246919
 44
-21.24349169308976
 45
-1.131370798037228
 46
-0.0000000631878546
 79
     2
 49
1.7888544
 49
-16.0996894
 53
239.03624347
 43
-12.90655737514686
 44
-18.69790728081819
 45
-1.131370986927859
 46
-0.000000034340661
 79
     2
 49
0.8246211999999999
 49
-5.772347799999998
 53
239.03624347
 43
-13.89650686880802
 44
-19.97069948695397
 45
-1.131370986927859
 46
-0.000000034340661
 79
     2
 49
0.8246211999999999
 49
-5.772347799999998
 53
239.03624347
 43
-13.33082144385878
 44
-17.14227236220778
 45
-1.131370986927859
 46
-0.000000034340661
 79
     2
 49
0.8246211999999999
 49
-5.772347799999998
 53
210.9637565299999
 43
-16.5835126373169
 44
-21.809177118039
 45
-1.131370986927859
 46
0.0000000343406613
 79
     2
 49
0.8246211999999996
 49
-32.16022379999999
 53
210.9637565299999
 43
-26.76585028640319
 44
-27.46603136753138
 45
-1.131370986927859
 46
0.0000000343406613
 79
     2
 49
0.8246211999999996
 49
-32.16022379999999
 53
210.9637565299999
 43
-35.816817085591
 44
-33.12288561702376
 45
-1.131370986927859
 46
0.0000000343406613
 79
     2
 49
0.8246211999999996
 49
-32.16022379999999
 53
251.56505118
 43
-18.28056891216462
 44
-23.50623339288671
 45
-1.131370798037228
 46
0.0000000631878547
 79
     2
 49
0.8944271999999994
 49
-16.99411659999999
 53
251.56505118
 43
-14.88645636246919
 44
-12.19252489390195
 45
-1.131370798037228
 46
0.0000000631878547
 79
     2
 49
0.8944271999999994
 49
-16.99411659999999
 53
251.56505118
 43
-17.14919806226613
 44
-17.84937914339433
 45
-1.131370798037228
 46
0.0000000631878547
 79
     2
 49
0.8944271999999994
 49
-16.99411659999999
 98
        1
 10
-15.73498449989305
 20
-21.52633440556438
  0
POLYLINE
  5
CD82
330
CD5D
100
AcDbEntity
  8
Pel_Outline
100
AcDb2dPolyline
 66
     1
 10
0.0
 20
0.0
 30
0.0
  0
VERTEX
  5
D8CE
330
CD82
100
AcDbEntity
  8
Pel_Outline
100
AcDbVertex
100
AcDb2dVertex
 10
-0.0155378360047394
 20
-0.0040876786001043
 30
0.0
  0
VERTEX
  5
D8CF
330
CD82
100
AcDbEntity
  8
Pel_Outline
100
AcDbVertex
100
AcDb2dVertex
 10
-1.062000000000004
 20
-0.2650000000000006
 30
0.0
  0
VERTEX
  5
D8D0
330
CD82
100
AcDbEntity
  8
Pel_Outline
100
AcDbVertex
100
AcDb2dVertex
 10
-1.062000000000004
 20
-1.782000000000003
 30
0.0
  0
VERTEX
  5
D8D1
330
CD82
100
AcDbEntity
  8
Pel_Outline
100
AcDbVertex
100
AcDb2dVertex
 10
-1.000000000000003
 20
-1.844000000000001
 30
0.0
  0
VERTEX
  5
D8D2
330
CD82
100
AcDbEntity
  8
Pel_Outline
100
AcDbVertex
100
AcDb2dVertex
 10
-0.8119999999999976
 20
-1.844000000000001
 30
0.0
 42
-0.9999999999999714
  0
VERTEX
  5
D8D3
330
CD82
100
AcDbEntity
  8
Pel_Outline
100
AcDbVertex
100
AcDb2dVertex
 10
-0.5619999999999977
 20
-1.844000000000001
 30
0.0
  0
VERTEX
  5
D8D4
330
CD82
100
AcDbEntity
  8
Pel_Outline
100
AcDbVertex
100
AcDb2dVertex
 10
-0.3119999999999941
 20
-1.75
 30
0.0
  0
VERTEX
  5
D8D5
330
CD82
100
AcDbEntity
  8
Pel_Outline
100
AcDbVertex
100
AcDb2dVertex
 10
-0.3119999999999941
 20
-1.625999999999997
 30
0.0
  0
VERTEX
  5
D8D6
330
CD82
100
AcDbEntity
  8
Pel_Outline
100
AcDbVertex
100
AcDb2dVertex
 10
0.1879999999999953
 20
-1.625999999999997
 30
0.0
  0
VERTEX
  5
D8D7
330
CD82
100
AcDbEntity
  8
Pel_Outline
100
AcDbVertex
100
AcDb2dVertex
 10
0.1956127277492001
 20
-1.844000000000001
 30
0.0
  0
VERTEX
  5
D8D8
330
CD82
100
AcDbEntity
  8
Pel_Outline
100
AcDbVertex
100
AcDb2dVertex
 10
0.3749999999999964
 20
-1.844000000000001
 30
0.0
  0
VERTEX
  5
D8D9
330
CD82
100
AcDbEntity
  8
Pel_Outline
100
AcDbVertex
100
AcDb2dVertex
 10
0.3749999999999964
 20
-1.093999999999997
 30
0.0
  0
VERTEX
  5
D8DA
330
CD82
100
AcDbEntity
  8
Pel_Outline
100
AcDbVertex
100
AcDb2dVertex
 10
1.375
 20
-1.093999999999997
 30
0.0
  0
VERTEX
  5
D8DB
330
CD82
100
AcDbEntity
  8
Pel_Outline
100
AcDbVertex
100
AcDb2dVertex
 10
1.375
 20
-1.844000000000004
 30
0.0
  0
VERTEX
  5
D8DC
330
CD82
100
AcDbEntity
  8
Pel_Outline
100
AcDbVertex
100
AcDb2dVertex
 10
2.875000000000003
 20
-1.844000000000004
 30
0.0
  0
VERTEX
  5
D8DD
330
CD82
100
AcDbEntity
  8
Pel_Outline
100
AcDbVertex
100
AcDb2dVertex
 10
2.875000000000003
 20
-1.094000000000001
 30
0.0
  0
VERTEX
  5
D8DE
330
CD82
100
AcDbEntity
  8
Pel_Outline
100
AcDbVertex
100
AcDb2dVertex
 10
3.875000000000003
 20
-1.094000000000001
 30
0.0
  0
VERTEX
  5
D8DF
330
CD82
100
AcDbEntity
  8
Pel_Outline
100
AcDbVertex
100
AcDb2dVertex
 10
3.875000000000003
 20
-1.844000000000004
 30
0.0
  0
VERTEX
  5
D8E0
330
CD82
100
AcDbEntity
  8
Pel_Outline
100
AcDbVertex
100
AcDb2dVertex
 10
4.186236947471169
 20
-1.844000000000001
 30
0.0
  0
VERTEX
  5
D8E1
330
CD82
100
AcDbEntity
  8
Pel_Outline
100
AcDbVertex
100
AcDb2dVertex
 10
4.186236947471169
 20
-1.592315929961568
 30
0.0
  0
VERTEX
  5
D8E2
330
CD82
100
AcDbEntity
  8
Pel_Outline
100
AcDbVertex
100
AcDb2dVertex
 10
4.375
 20
-1.592315929961568
 30
0.0
  0
VERTEX
  5
D8E3
330
CD82
100
AcDbEntity
  8
Pel_Outline
100
AcDbVertex
100
AcDb2dVertex
 10
4.375
 20
-0.2565301838949594
 30
0.0
  0
VERTEX
  5
D8E4
330
CD82
100
AcDbEntity
  8
Pel_Outline
100
AcDbVertex
100
AcDb2dVertex
 10
4.187999999999995
 20
-0.2500000000000035
 30
0.0
  0
VERTEX
  5
D8E5
330
CD82
100
AcDbEntity
  8
Pel_Outline
100
AcDbVertex
100
AcDb2dVertex
 10
4.187999999999995
 20
0.0
 30
0.0
  0
SEQEND
  5
D8E6
330
CD82
100
AcDbEntity
  8
Pel_Outline
  0
ENDBLK
  5
CD9C
330
CD5D
100
AcDbEntity
  8
0
100
AcDbBlockEnd
  0
BLOCK
  5
D005
330
D003
100
AcDbEntity
  8
0
100
AcDbBlockBegin
  2
31D0 Colonial
 70
     0
 10
0.0
 20
0.0
 30
0.0
  3
31D0 Colonial
  1

  0
POLYLINE
  5
D006
102
{ACAD_REACTORS
330
D013
102
}
330
D003
100
AcDbEntity
  8
Pel_Cross Section
  6
Continuous
 62
     3
100
AcDb2dPolyline
 66
     1
 10
0.0
 20
0.0
 30
0.0
 70
     1
  0
VERTEX
  5
D750
330
D006
100
AcDbEntity
  8
Pel_Cross Section
 62
     3
100
AcDbVertex
100
AcDb2dVertex
 10
0.0496654396843241
 20
1.641939435963873
 30
0.0
 42
0.4142135623730951
  0
VERTEX
  5
D751
330
D006
100
AcDbEntity
  8
Pel_Cross Section
 62
     3
100
AcDbVertex
100
AcDb2dVertex
 10
-0.0000000000000009
 20
1.691604875648199
 30
0.0
  0
VERTEX
  5
D752
330
D006
100
AcDbEntity
  8
Pel_Cross Section
 62
     3
100
AcDbVertex
100
AcDb2dVertex
 10
-0.0000000000000009
 20
2.234944785794759
 30
0.0
  0
VERTEX
  5
D753
330
D006
100
AcDbEntity
  8
Pel_Cross Section
 62
     3
100
AcDbVertex
100
AcDb2dVertex
 10
0.4648685154453123
 20
2.234944785794759
 30
0.0
 42
-0.4931451298783273
  0
VERTEX
  5
D754
330
D006
100
AcDbEntity
  8
Pel_Cross Section
 62
     3
100
AcDbVertex
100
AcDb2dVertex
 10
0.6778692708702452
 20
1.957357070729067
 30
0.0
  0
VERTEX
  5
D755
330
D006
100
AcDbEntity
  8
Pel_Cross Section
 62
     3
100
AcDbVertex
100
AcDb2dVertex
 10
0.1801052639498648
 20
0.0996765067227301
 30
0.0
 42
-0.2679491924311235
  0
VERTEX
  5
D756
330
D006
100
AcDbEntity
  8
Pel_Cross Section
 62
     3
100
AcDbVertex
100
AcDb2dVertex
 10
0.1098677255670619
 20
0.0294389683399423
 30
0.0
  0
VERTEX
  5
D757
330
D006
100
AcDbEntity
  8
Pel_Cross Section
 62
     3
100
AcDbVertex
100
AcDb2dVertex
 10
-0.0000000000000009
 20
-0.0000000000000071
 30
0.0
  0
VERTEX
  5
D758
330
D006
100
AcDbEntity
  8
Pel_Cross Section
 62
     3
100
AcDbVertex
100
AcDb2dVertex
 10
-0.0000000000000009
 20
0.5661860124013316
 30
0.0
 42
0.4142135623731029
  0
VERTEX
  5
D759
330
D006
100
AcDbEntity
  8
Pel_Cross Section
 62
     3
100
AcDbVertex
100
AcDb2dVertex
 10
0.0496654396843241
 20
0.6158514520856571
 30
0.0
  0
VERTEX
  5
D75A
330
D006
100
AcDbEntity
  8
Pel_Cross Section
 62
     3
100
AcDbVertex
100
AcDb2dVertex
 10
0.0496654396843241
 20
1.641939435963873
 30
0.0
  0
SEQEND
  5
D75B
330
D006
100
AcDbEntity
  8
Pel_Cross Section
  6
Continuous
 62
     3
  0
HATCH
  5
D013
330
D003
100
AcDbEntity
  8
Pel_Hatch
 62
     2
100
AcDbHatch
 10
0.0
 20
0.0
 30
0.0
210
0.0
220
0.0
230
1.0
  2
WOOD
 70
     0
 71
     1
 91
        1
 92
        7
 72
     1
 73
     1
 93
       10
 10
0.6778692708702452
 20
1.957357070729067
 42
0.4931451298783273
 10
0.4648685154453123
 20
2.234944785794759
 42
0.0
 10
-0.0000000000000009
 20
2.234944785794759
 42
0.0
 10
-0.0000000000000009
 20
1.691604875648199
 42
-0.4142135623730951
 10
0.0496654396843241
 20
1.641939435963873
 42
0.0
 10
0.0496654396843241
 20
0.6158514520856571
 42
-0.4142135623731029
 10
-0.0000000000000009
 20
0.5661860124013316
 42
0.0
 10
-0.0000000000000009
 20
-0.0000000000000071
 42
0.0
 10
0.1098677255670619
 20
0.0294389683399423
 42
0.2679491924311235
 10
0.1801052639498648
 20
0.0996765067227301
 42
0.0
 97
        1
330
D006
 75
     0
 76
     1
 52
45.0
 41
0.13
 77
     0
 78
    12
 53
134.9999999999999
 43
-2.474450086989291
 44
-30.37984174800428
 45
0.0000000000000001
 46
0.7353910524340095
 79
     2
 49
0.5200000000000001
 49
-4.679999999999999
 53
134.9999999999999
 43
-3.485612784086054
 44
-29.18483128779901
 45
0.0000000000000001
 46
0.7353910524340095
 79
     2
 49
0.5200000000000001
 49
-2.08
 53
108.4349488199999
 43
-2.842145613206295
 44
-30.74753727422128
 45
-0.0000000410721055
 46
0.7353910187241987
 79
     2
 49
1.16275536
 49
-10.46479811
 53
149.03624347
 43
-1.187515745229774
 44
-32.0344716159808
 45
-0.0000000223214297
 46
0.7353911415031088
 79
     2
 49
0.5360037800000002
 49
-3.75202607
 53
149.03624347
 43
-2.014830679218035
 44
-31.39100444510104
 45
-0.0000000223214297
 46
0.7353911415031088
 79
     2
 49
0.5360037800000002
 49
-3.75202607
 53
149.03624347
 43
-0.176353048133012
 44
-31.75869997131805
 45
-0.0000000223214297
 46
0.7353911415031088
 79
     2
 49
0.5360037800000002
 49
-3.75202607
 53
120.9637565299999
 43
-3.2098411394233
 44
-29.64445069557026
 45
0.0000000223214299
 46
0.7353911415031088
 79
     2
 49
0.5360037800000002
 49
-20.90414547
 53
120.9637565299999
 43
-6.886796401593348
 44
-23.02593122366418
 45
0.0000000223214299
 46
0.7353911415031088
 79
     2
 49
0.5360037800000002
 49
-20.90414547
 53
120.9637565299999
 43
-10.56375166376339
 44
-17.1428028041921
 45
0.0000000223214299
 46
0.7353911415031088
 79
     2
 49
0.5360037800000002
 49
-20.90414547
 53
161.56505118
 43
-4.312927718074314
 44
-28.54136411691925
 45
0.0000000410721056
 46
0.7353910187241989
 79
     2
 49
0.58137768
 49
-11.04617579
 53
161.56505118
 43
3.040982806265779
 44
-30.74753727422128
 45
0.0000000410721056
 46
0.7353910187241989
 79
     2
 49
0.58137768
 49
-11.04617579
 53
161.56505118
 43
-0.6359724559042679
 44
-29.27675516935326
 45
0.0000000410721056
 46
0.7353910187241989
 79
     2
 49
0.58137768
 49
-11.04617579
 47
0.0067532726200842
 98
        1
 10
0.419496775754622
 20
1.821821237112452
  0
POLYLINE
  5
D015
330
D003
100
AcDbEntity
  8
Pel_Outline
100
AcDb2dPolyline
 66
     1
 10
0.0
 20
0.0
 30
0.0
  0
VERTEX
  5
D75E
330
D015
100
AcDbEntity
  8
Pel_Outline
100
AcDbVertex
100
AcDb2dVertex
 10
-0.0000000000000009
 20
2.234944785794759
 30
0.0
  0
VERTEX
  5
D75F
330
D015
100
AcDbEntity
  8
Pel_Outline
100
AcDbVertex
100
AcDb2dVertex
 10
0.4648685154453052
 20
2.234944785794759
 30
0.0
 42
-0.4931454260313865
  0
VERTEX
  5
D760
330
D015
100
AcDbEntity
  8
Pel_Outline
100
AcDbVertex
100
AcDb2dVertex
 10
0.6778692164862359
 20
1.957356867765163
 30
0.0
  0
VERTEX
  5
D761
330
D015
100
AcDbEntity
  8
Pel_Outline
100
AcDbVertex
100
AcDb2dVertex
 10
0.1801052639498648
 20
0.0996765067227301
 30
0.0
 42
-0.267949192431133
  0
VERTEX
  5
D762
330
D015
100
AcDbEntity
  8
Pel_Outline
100
AcDbVertex
100
AcDb2dVertex
 10
0.1098677255670704
 20
0.0294389683399388
 30
0.0
  0
VERTEX
  5
D763
330
D015
100
AcDbEntity
  8
Pel_Outline
100
AcDbVertex
100
AcDb2dVertex
 10
0.0000000000000009
 20
-0.0000000000000071
 30
0.0
  0
SEQEND
  5
D764
330
D015
100
AcDbEntity
  8
Pel_Outline
  0
ENDBLK
  5
D01D
330
D003
100
AcDbEntity
  8
0
100
AcDbBlockEnd
  0
BLOCK
  5
D155
330
D14A
100
AcDbEntity
  8
0
100
AcDbBlockBegin
  2
*D15
 70
     1
 10
0.0
 20
0.0
 30
0.0
  3
*D15
  1

  0
LINE
  5
DCEC
330
D14A
100
AcDbEntity
  8
0
100
AcDbLine
 10
6.285295813567724
 20
32.75278652731858
 30
0.0
 11
6.285295813567724
 21
33.12444092416187
 31
0.0
  0
LINE
  5
DCED
330
D14A
100
AcDbEntity
  8
0
100
AcDbLine
 10
7.030277408832644
 20
32.75278652731858
 30
0.0
 11
7.030277408832644
 21
33.12444092416187
 31
0.0
  0
LINE
  5
DCEE
330
D14A
100
AcDbEntity
  8
0
100
AcDbLine
 10
6.535295813567724
 20
32.99944092416187
 30
0.0
 11
6.780277408832644
 21
32.99944092416187
 31
0.0
  0
MTEXT
  5
DCEF
330
D14A
100
AcDbEntity
  8
0
 62
   255
100
AcDbMText
 10
6.657786611200184
 20
33.81237237027374
 30
0.0
 40
0.28
 41
0.0
 71
     5
 72
     1
  1
\A1;3/4"
  7
Arial
 73
     1
 44
1.0
1001
ACAD
1000
MTEXTBEGIN
1070
    73
1070
     1
1070
    44
1040
1.0
1070
    74
1070
     0
1000
MTEXTEND
  0
MTEXT
  5
DCF0
330
D14A
100
AcDbEntity
  8
0
 62
   255
100
AcDbMText
 10
6.657786611200184
 20
33.36306131979625
 30
0.0
 40
0.28
 41
0.0
 71
     5
 72
     1
  1
\A1;[19]
  7
Arial
 73
     1
 44
1.0
1001
ACAD
1000
MTEXTBEGIN
1070
    73
1070
     1
1070
    44
1040
1.0
1070
    74
1070
     0
1000
MTEXTEND
  0
SOLID
  5
DCF1
330
D14A
100
AcDbEntity
  8
0
100
AcDbTrace
 10
6.535295813567724
 20
33.04110759082853
 30
0.0
 11
6.535295813567724
 21
32.9577742574952
 31
0.0
 12
6.285295813567724
 22
32.99944092416187
 32
0.0
 13
6.285295813567724
 23
32.99944092416187
 33
0.0
  0
SOLID
  5
DCF2
330
D14A
100
AcDbEntity
  8
0
100
AcDbTrace
 10
6.780277408832644
 20
33.04110759082853
 30
0.0
 11
6.780277408832644
 21
32.9577742574952
 31
0.0
 12
7.030277408832644
 22
32.99944092416187
 32
0.0
 13
7.030277408832644
 23
32.99944092416187
 33
0.0
  0
POINT
  5
DCF3
330
D14A
100
AcDbEntity
  8
Defpoints
 62
     0
100
AcDbPoint
 10
6.285295813567724
 20
32.50278652731859
 30
0.0
  0
POINT
  5
DCF4
330
D14A
100
AcDbEntity
  8
Defpoints
 62
     0
100
AcDbPoint
 10
7.030277408832644
 20
32.50278652731859
 30
0.0
  0
POINT
  5
DCF5
330
D14A
100
AcDbEntity
  8
Defpoints
 62
     0
100
AcDbPoint
 10
7.030277408832644
 20
32.99944092416187
 30
0.0
  0
ENDBLK
  5
D156
330
D14A
100
AcDbEntity
  8
0
100
AcDbBlockEnd
  0
BLOCK
  5
D162
330
D157
100
AcDbEntity
  8
0
100
AcDbBlockBegin
  2
*D16
 70
     1
 10
0.0
 20
0.0
 30
0.0
  3
*D16
  1

  0
LINE
  5
DCD8
330
D157
100
AcDbEntity
  8
0
100
AcDbLine
 10
21.36681526740423
 20
29.51640676698483
 30
0.0
 11
21.36681526740423
 21
30.13638836224975
 31
0.0
  0
LINE
  5
DCD9
330
D157
100
AcDbEntity
  8
0
100
AcDbLine
 10
24.34674164846391
 20
29.51640676698483
 30
0.0
 11
24.34674164846391
 21
30.13638836224975
 31
0.0
  0
LINE
  5
DCDA
330
D157
100
AcDbEntity
  8
0
100
AcDbLine
 10
21.61681526740423
 20
30.01138836224975
 30
0.0
 11
22.38535622055345
 21
30.01138836224975
 31
0.0
  0
LINE
  5
DCDB
330
D157
100
AcDbEntity
  8
0
100
AcDbLine
 10
24.09674164846391
 20
30.01138836224975
 30
0.0
 11
23.3282006953147
 21
30.01138836224975
 31
0.0
  0
MTEXT
  5
DCDC
330
D157
100
AcDbEntity
  8
0
 62
   255
100
AcDbMText
 10
22.85677845793407
 20
30.01138836224975
 30
0.0
 40
0.28
 41
0.0
 71
     5
 72
     1
  1
\A1;3"\P [76]
  7
Arial
 73
     1
 44
1.0
1001
ACAD
1000
MTEXTBEGIN
1070
    73
1070
     1
1070
    44
1040
1.0
1070
    74
1070
     0
1000
MTEXTEND
  0
SOLID
  5
DCDD
330
D157
100
AcDbEntity
  8
0
100
AcDbTrace
 10
21.61681526740423
 20
30.05305502891641
 30
0.0
 11
21.61681526740423
 21
29.96972169558308
 31
0.0
 12
21.36681526740423
 22
30.01138836224975
 32
0.0
 13
21.36681526740423
 23
30.01138836224975
 33
0.0
  0
SOLID
  5
DCDE
330
D157
100
AcDbEntity
  8
0
100
AcDbTrace
 10
24.09674164846391
 20
30.05305502891641
 30
0.0
 11
24.09674164846391
 21
29.96972169558308
 31
0.0
 12
24.34674164846391
 22
30.01138836224975
 32
0.0
 13
24.34674164846391
 23
30.01138836224975
 33
0.0
  0
POINT
  5
DCDF
330
D157
100
AcDbEntity
  8
Defpoints
 62
     0
100
AcDbPoint
 10
21.36681526740423
 20
29.26640676698483
 30
0.0
  0
POINT
  5
DCE0
330
D157
100
AcDbEntity
  8
Defpoints
 62
     0
100
AcDbPoint
 10
24.34674164846391
 20
29.26640676698483
 30
0.0
  0
POINT
  5
DCE1
330
D157
100
AcDbEntity
  8
Defpoints
 62
     0
100
AcDbPoint
 10
24.34674164846391
 20
30.01138836224975
 30
0.0
  0
ENDBLK
  5
D163
330
D157
100
AcDbEntity
  8
0
100
AcDbBlockEnd
  0
BLOCK
  5
D16E
330
D164
100
AcDbEntity
  8
0
100
AcDbBlockBegin
  2
*D17
 70
     1
 10
0.0
 20
0.0
 30
0.0
  3
*D17
  1

  0
LINE
  5
DC5D
330
D164
100
AcDbEntity
  8
0
100
AcDbLine
 10
2.775993376314801
 20
18.58501340647251
 30
0.0
 11
2.156011781049872
 21
18.58501340647251
 31
0.0
  0
LINE
  5
DC5E
330
D164
100
AcDbEntity
  8
0
100
AcDbLine
 10
2.775993376300347
 20
19.36178088313541
 30
0.0
 11
2.156011781049873
 21
19.36178088313541
 31
0.0
  0
LINE
  5
DC5F
330
D164
100
AcDbEntity
  8
0
100
AcDbLine
 10
2.281011781049872
 20
18.83501340647251
 30
0.0
 11
2.281011781049873
 21
19.11178088313541
 31
0.0
  0
MTEXT
  5
DC60
330
D164
100
AcDbEntity
  8
0
 62
   255
100
AcDbMText
 10
2.281011781049882
 20
17.84003181120759
 30
0.0
 40
0.28
 41
0.0
 71
     5
 72
     1
  1
\A1;25/32"\P [20]
  7
Arial
 11
0.0000000000000001
 21
1.0
 31
0.0
 73
     1
 44
1.0
1001
ACAD
1000
MTEXTBEGIN
1070
    73
1070
     1
1070
    44
1040
1.0
1070
    74
1070
     0
1000
MTEXTEND
  0
SOLID
  5
DC61
330
D164
100
AcDbEntity
  8
0
100
AcDbTrace
 10
2.239345114383206
 20
18.83501340647251
 30
0.0
 11
2.322678447716539
 21
18.83501340647251
 31
0.0
 12
2.281011781049872
 22
18.58501340647251
 32
0.0
 13
2.281011781049872
 23
18.58501340647251
 33
0.0
  0
SOLID
  5
DC62
330
D164
100
AcDbEntity
  8
0
100
AcDbTrace
 10
2.239345114383206
 20
19.11178088313541
 30
0.0
 11
2.322678447716539
 21
19.11178088313541
 31
0.0
 12
2.281011781049873
 22
19.36178088313541
 32
0.0
 13
2.281011781049873
 23
19.36178088313541
 33
0.0
  0
POINT
  5
DC63
330
D164
100
AcDbEntity
  8
Defpoints
 62
     0
100
AcDbPoint
 10
3.025993376314801
 20
18.58501340647251
 30
0.0
  0
POINT
  5
DC64
330
D164
100
AcDbEntity
  8
Defpoints
 62
     0
100
AcDbPoint
 10
3.025993376300347
 20
19.36178088313541
 30
0.0
  0
POINT
  5
DC65
330
D164
100
AcDbEntity
  8
Defpoints
 62
     0
100
AcDbPoint
 10
2.281011781049873
 20
19.36178088313541
 30
0.0
  0
ENDBLK
  5
D16F
330
D164
100
AcDbEntity
  8
0
100
AcDbBlockEnd
  0
BLOCK
  5
D17A
330
D170
100
AcDbEntity
  8
0
100
AcDbBlockBegin
  2
*D18
 70
     1
 10
0.0
 20
0.0
 30
0.0
  3
*D18
  1

  0
LINE
  5
DC4B
330
D170
100
AcDbEntity
  8
0
100
AcDbLine
 10
2.775993376314801
 20
18.58501340647251
 30
0.0
 11
1.411030185784959
 21
18.58501340647251
 31
0.0
  0
LINE
  5
DC4C
330
D170
100
AcDbEntity
  8
0
100
AcDbLine
 10
3.849162210410627
 20
19.67169322676561
 30
0.0
 11
1.411030185784959
 21
19.67169322676561
 31
0.0
  0
LINE
  5
DC4D
330
D170
100
AcDbEntity
  8
0
100
AcDbLine
 10
1.536030185784959
 20
18.83501340647251
 30
0.0
 11
1.536030185784959
 21
19.42169322676561
 31
0.0
  0
MTEXT
  5
DC4E
330
D170
100
AcDbEntity
  8
0
 62
   255
100
AcDbMText
 10
1.536030185784963
 20
19.12835331661907
 30
0.0
 40
0.28
 41
0.0
 71
     5
 72
     1
  1
\A1;1 3/32"\P [28]
  7
Arial
 11
0.0000000000000001
 21
1.0
 31
0.0
 73
     1
 44
1.0
1001
ACAD
1000
MTEXTBEGIN
1070
    73
1070
     1
1070
    44
1040
1.0
1070
    74
1070
     0
1000
MTEXTEND
  0
SOLID
  5
DC4F
330
D170
100
AcDbEntity
  8
0
100
AcDbTrace
 10
1.494363519118292
 20
18.83501340647251
 30
0.0
 11
1.577696852451625
 21
18.83501340647251
 31
0.0
 12
1.536030185784959
 22
18.58501340647251
 32
0.0
 13
1.536030185784959
 23
18.58501340647251
 33
0.0
  0
SOLID
  5
DC50
330
D170
100
AcDbEntity
  8
0
100
AcDbTrace
 10
1.494363519118292
 20
19.42169322676561
 30
0.0
 11
1.577696852451625
 21
19.42169322676561
 31
0.0
 12
1.536030185784959
 22
19.67169322676561
 32
0.0
 13
1.536030185784959
 23
19.67169322676561
 33
0.0
  0
POINT
  5
DC51
330
D170
100
AcDbEntity
  8
Defpoints
 62
     0
100
AcDbPoint
 10
3.025993376314801
 20
18.58501340647251
 30
0.0
  0
POINT
  5
DC52
330
D170
100
AcDbEntity
  8
Defpoints
 62
     0
100
AcDbPoint
 10
4.099162210410627
 20
19.67169322676561
 30
0.0
  0
POINT
  5
DC53
330
D170
100
AcDbEntity
  8
Defpoints
 62
     0
100
AcDbPoint
 10
1.536030185784959
 20
19.67169322676561
 30
0.0
  0
ENDBLK
  5
D17B
330
D170
100
AcDbEntity
  8
0
100
AcDbBlockEnd
  0
BLOCK
  5
D187
330
D17C
100
AcDbEntity
  8
0
100
AcDbBlockBegin
  2
*D19
 70
     1
 10
0.0
 20
0.0
 30
0.0
  3
*D19
  1

  0
LINE
  5
DC38
330
D17C
100
AcDbEntity
  8
0
100
AcDbLine
 10
2.775993376314801
 20
19.36178088313541
 30
0.0
 11
2.156011781049874
 21
19.36178088313541
 31
0.0
  0
LINE
  5
DC39
330
D17C
100
AcDbEntity
  8
0
100
AcDbLine
 10
3.849162210410627
 20
19.67169322676561
 30
0.0
 11
2.156011781049874
 21
19.67169322676561
 31
0.0
  0
LINE
  5
DC3A
330
D17C
100
AcDbEntity
  8
0
100
AcDbLine
 10
2.281011781049874
 20
19.11178088313541
 30
0.0
 11
2.281011781049874
 21
18.86178088313541
 31
0.0
  0
LINE
  5
DC3B
330
D17C
100
AcDbEntity
  8
0
100
AcDbLine
 10
2.281011781049874
 20
19.92169322676561
 30
0.0
 11
2.281011781049874
 21
20.17169322676561
 31
0.0
  0
MTEXT
  5
DC3C
330
D17C
100
AcDbEntity
  8
0
 62
   255
100
AcDbMText
 10
2.281011781049882
 20
20.32162843349881
 30
0.0
 40
0.28
 41
0.0
 71
     5
 72
     1
  1
\A1;5/16"\P [8]
  7
Arial
 11
0.0000000000000001
 21
1.0
 31
0.0
 73
     1
 44
1.0
1001
ACAD
1000
MTEXTBEGIN
1070
    73
1070
     1
1070
    44
1040
1.0
1070
    74
1070
     0
1000
MTEXTEND
  0
SOLID
  5
DC3D
330
D17C
100
AcDbEntity
  8
0
100
AcDbTrace
 10
2.239345114383208
 20
19.11178088313541
 30
0.0
 11
2.322678447716541
 21
19.11178088313541
 31
0.0
 12
2.281011781049874
 22
19.36178088313541
 32
0.0
 13
2.281011781049874
 23
19.36178088313541
 33
0.0
  0
SOLID
  5
DC3E
330
D17C
100
AcDbEntity
  8
0
100
AcDbTrace
 10
2.239345114383208
 20
19.92169322676561
 30
0.0
 11
2.322678447716541
 21
19.92169322676561
 31
0.0
 12
2.281011781049874
 22
19.67169322676561
 32
0.0
 13
2.281011781049874
 23
19.67169322676561
 33
0.0
  0
POINT
  5
DC3F
330
D17C
100
AcDbEntity
  8
Defpoints
 62
     0
100
AcDbPoint
 10
3.025993376314801
 20
19.36178088313541
 30
0.0
  0
POINT
  5
DC40
330
D17C
100
AcDbEntity
  8
Defpoints
 62
     0
100
AcDbPoint
 10
4.099162210410627
 20
19.67169322676561
 30
0.0
  0
POINT
  5
DC41
330
D17C
100
AcDbEntity
  8
Defpoints
 62
     0
100
AcDbPoint
 10
2.281011781049874
 20
19.67169322676561
 30
0.0
  0
ENDBLK
  5
D188
330
D17C
100
AcDbEntity
  8
0
100
AcDbBlockEnd
  0
BLOCK
  5
D194
330
D189
100
AcDbEntity
  8
0
100
AcDbBlockBegin
  2
*D20
 70
     1
 10
0.0
 20
0.0
 30
0.0
  3
*D20
  1

  0
LINE
  5
DC24
330
D189
100
AcDbEntity
  8
0
100
AcDbLine
 10
3.025993376314801
 20
18.33501340647251
 30
0.0
 11
3.025993376314801
 21
17.71503181120759
 31
0.0
  0
LINE
  5
DC25
330
D189
100
AcDbEntity
  8
0
100
AcDbLine
 10
8.427109941999919
 20
18.33501340647251
 30
0.0
 11
8.427109941999919
 21
17.71503181120759
 31
0.0
  0
LINE
  5
DC26
330
D189
100
AcDbEntity
  8
0
100
AcDbLine
 10
3.275993376314801
 20
17.84003181120759
 30
0.0
 11
4.959372259430211
 21
17.84003181120759
 31
0.0
  0
LINE
  5
DC27
330
D189
100
AcDbEntity
  8
0
100
AcDbLine
 10
8.177109941999919
 20
17.84003181120759
 30
0.0
 11
6.493731058884509
 21
17.84003181120759
 31
0.0
  0
MTEXT
  5
DC28
330
D189
100
AcDbEntity
  8
0
 62
   255
100
AcDbMText
 10
5.72655165915736
 20
17.84003181120759
 30
0.0
 40
0.28
 41
0.0
 71
     5
 72
     1
  1
\A1;5 13/32"\P [137]
  7
Arial
 73
     1
 44
1.0
1001
ACAD
1000
MTEXTBEGIN
1070
    73
1070
     1
1070
    44
1040
1.0
1070
    74
1070
     0
1000
MTEXTEND
  0
SOLID
  5
DC29
330
D189
100
AcDbEntity
  8
0
100
AcDbTrace
 10
3.275993376314801
 20
17.88169847787426
 30
0.0
 11
3.275993376314801
 21
17.79836514454093
 31
0.0
 12
3.025993376314801
 22
17.84003181120759
 32
0.0
 13
3.025993376314801
 23
17.84003181120759
 33
0.0
  0
SOLID
  5
DC2A
330
D189
100
AcDbEntity
  8
0
100
AcDbTrace
 10
8.177109941999919
 20
17.88169847787426
 30
0.0
 11
8.177109941999919
 21
17.79836514454093
 31
0.0
 12
8.427109941999919
 22
17.84003181120759
 32
0.0
 13
8.427109941999919
 23
17.84003181120759
 33
0.0
  0
POINT
  5
DC2B
330
D189
100
AcDbEntity
  8
Defpoints
 62
     0
100
AcDbPoint
 10
3.025993376314801
 20
18.58501340647251
 30
0.0
  0
POINT
  5
DC2C
330
D189
100
AcDbEntity
  8
Defpoints
 62
     0
100
AcDbPoint
 10
8.427109941999919
 20
18.58501340647251
 30
0.0
  0
POINT
  5
DC2D
330
D189
100
AcDbEntity
  8
Defpoints
 62
     0
100
AcDbPoint
 10
8.427109941999919
 20
17.84003181120759
 30
0.0
  0
ENDBLK
  5
D195
330
D189
100
AcDbEntity
  8
0
100
AcDbBlockEnd
  0
BLOCK
  5
D1A2
330
D196
100
AcDbEntity
  8
0
100
AcDbBlockBegin
  2
*D21
 70
     1
 10
0.0
 20
0.0
 30
0.0
  3
*D21
  1

  0
LINE
  5
DC0F
330
D196
100
AcDbEntity
  8
0
100
AcDbLine
 10
8.241361197580534
 20
19.92169322676561
 30
0.0
 11
8.241361197580534
 21
20.54167482203054
 31
0.0
  0
LINE
  5
DC10
330
D196
100
AcDbEntity
  8
0
100
AcDbLine
 10
8.427109941999919
 20
19.92169322676561
 30
0.0
 11
8.427109941999919
 21
20.54167482203054
 31
0.0
  0
LINE
  5
DC11
330
D196
100
AcDbEntity
  8
0
100
AcDbLine
 10
7.991361197580534
 20
20.41667482203054
 30
0.0
 11
7.741361197580534
 21
20.41667482203054
 31
0.0
  0
LINE
  5
DC12
330
D196
100
AcDbEntity
  8
0
100
AcDbLine
 10
8.677109941999919
 20
20.41667482203054
 30
0.0
 11
8.927109941999919
 21
20.41667482203054
 31
0.0
  0
MTEXT
  5
DC13
330
D196
100
AcDbEntity
  8
0
 62
   255
100
AcDbMText
 10
8.334235569790227
 20
21.22903328042071
 30
0.0
 40
0.28
 41
0.0
 71
     5
 72
     1
  1
\A1;3/16"
  7
Arial
 73
     1
 44
1.0
1001
ACAD
1000
MTEXTBEGIN
1070
    73
1070
     1
1070
    44
1040
1.0
1070
    74
1070
     0
1000
MTEXTEND
  0
MTEXT
  5
DC14
330
D196
100
AcDbEntity
  8
0
 62
   255
100
AcDbMText
 10
8.334235569790227
 20
20.78029521766492
 30
0.0
 40
0.28
 41
0.0
 71
     5
 72
     1
  1
\A1;[5]
  7
Arial
 73
     1
 44
1.0
1001
ACAD
1000
MTEXTBEGIN
1070
    73
1070
     1
1070
    44
1040
1.0
1070
    74
1070
     0
1000
MTEXTEND
  0
SOLID
  5
DC15
330
D196
100
AcDbEntity
  8
0
100
AcDbTrace
 10
7.991361197580534
 20
20.45834148869721
 30
0.0
 11
7.991361197580534
 21
20.37500815536387
 31
0.0
 12
8.241361197580534
 22
20.41667482203054
 32
0.0
 13
8.241361197580534
 23
20.41667482203054
 33
0.0
  0
SOLID
  5
DC16
330
D196
100
AcDbEntity
  8
0
100
AcDbTrace
 10
8.677109941999919
 20
20.45834148869721
 30
0.0
 11
8.677109941999919
 21
20.37500815536387
 31
0.0
 12
8.427109941999919
 22
20.41667482203054
 32
0.0
 13
8.427109941999919
 23
20.41667482203054
 33
0.0
  0
POINT
  5
DC17
330
D196
100
AcDbEntity
  8
Defpoints
 62
     0
100
AcDbPoint
 10
8.241361197580534
 20
19.67169322676561
 30
0.0
  0
POINT
  5
DC18
330
D196
100
AcDbEntity
  8
Defpoints
 62
     0
100
AcDbPoint
 10
8.427109941999919
 20
19.67169322676561
 30
0.0
  0
POINT
  5
DC19
330
D196
100
AcDbEntity
  8
Defpoints
 62
     0
100
AcDbPoint
 10
8.427109941999919
 20
20.41667482203054
 30
0.0
  0
ENDBLK
  5
D1A3
330
D196
100
AcDbEntity
  8
0
100
AcDbBlockEnd
  0
BLOCK
  5
D1AF
330
D1A4
100
AcDbEntity
  8
0
100
AcDbBlockBegin
  2
*D22
 70
     1
 10
0.0
 20
0.0
 30
0.0
  3
*D22
  1

  0
LINE
  5
DBFA
330
D1A4
100
AcDbEntity
  8
0
100
AcDbLine
 10
8.677109941999919
 20
19.41687952325944
 30
0.0
 11
9.297091537264838
 21
19.41687952325944
 31
0.0
  0
LINE
  5
DBFB
330
D1A4
100
AcDbEntity
  8
0
100
AcDbLine
 10
8.677109941999919
 20
19.67169322676561
 30
0.0
 11
9.297091537264838
 21
19.67169322676561
 31
0.0
  0
LINE
  5
DBFC
330
D1A4
100
AcDbEntity
  8
0
100
AcDbLine
 10
9.172091537264838
 20
19.16687952325944
 30
0.0
 11
9.172091537264838
 21
18.91687952325944
 31
0.0
  0
LINE
  5
DBFD
330
D1A4
100
AcDbEntity
  8
0
100
AcDbLine
 10
9.172091537264838
 20
19.92169322676561
 30
0.0
 11
9.17209153726484
 21
20.17169322676561
 31
0.0
  0
MTEXT
  5
DBFE
330
D1A4
100
AcDbEntity
  8
0
 62
   255
100
AcDbMText
 10
9.850285967745763
 20
19.54428637501253
 30
0.0
 40
0.28
 41
0.0
 71
     5
 72
     1
  1
\A1;1/4"\P [6]
  7
Arial
 11
0.0000000000000001
 21
1.0
 31
0.0
 73
     1
 44
1.0
1001
ACAD
1000
MTEXTBEGIN
1070
    73
1070
     1
1070
    44
1040
1.0
1070
    74
1070
     0
1000
MTEXTEND
  0
SOLID
  5
DBFF
330
D1A4
100
AcDbEntity
  8
0
100
AcDbTrace
 10
9.130424870598172
 20
19.16687952325944
 30
0.0
 11
9.213758203931504
 21
19.16687952325944
 31
0.0
 12
9.172091537264838
 22
19.41687952325944
 32
0.0
 13
9.172091537264838
 23
19.41687952325944
 33
0.0
  0
SOLID
  5
DC00
330
D1A4
100
AcDbEntity
  8
0
100
AcDbTrace
 10
9.130424870598172
 20
19.92169322676561
 30
0.0
 11
9.213758203931504
 21
19.92169322676561
 31
0.0
 12
9.172091537264838
 22
19.67169322676561
 32
0.0
 13
9.172091537264838
 23
19.67169322676561
 33
0.0
  0
POINT
  5
DC01
330
D1A4
100
AcDbEntity
  8
Defpoints
 62
     0
100
AcDbPoint
 10
8.427109941999919
 20
19.41687952325944
 30
0.0
  0
POINT
  5
DC02
330
D1A4
100
AcDbEntity
  8
Defpoints
 62
     0
100
AcDbPoint
 10
8.427109941999919
 20
19.67169322676561
 30
0.0
  0
POINT
  5
DC03
330
D1A4
100
AcDbEntity
  8
Defpoints
 62
     0
100
AcDbPoint
 10
9.172091537264838
 20
19.67169322676561
 30
0.0
  0
ENDBLK
  5
D1B0
330
D1A4
100
AcDbEntity
  8
0
100
AcDbBlockEnd
  0
BLOCK
  5
D1BC
330
D1B1
100
AcDbEntity
  8
0
100
AcDbBlockBegin
  2
*D23
 70
     1
 10
0.0
 20
0.0
 30
0.0
  3
*D23
  1

  0
LINE
  5
DBE6
330
D1B1
100
AcDbEntity
  8
0
100
AcDbLine
 10
12.98197735211061
 20
18.33501340647251
 30
0.0
 11
12.98197735211061
 21
17.71503181120759
 31
0.0
  0
LINE
  5
DBE7
330
D1B1
100
AcDbEntity
  8
0
100
AcDbLine
 10
14.34777691382306
 20
18.33501340647251
 30
0.0
 11
14.34777691382306
 21
17.71503181120759
 31
0.0
  0
LINE
  5
DBE8
330
D1B1
100
AcDbEntity
  8
0
100
AcDbLine
 10
12.73197735211061
 20
17.84003181120759
 30
0.0
 11
12.48197735211061
 21
17.84003181120759
 31
0.0
  0
LINE
  5
DBE9
330
D1B1
100
AcDbEntity
  8
0
100
AcDbLine
 10
14.59777691382306
 20
17.84003181120759
 30
0.0
 11
14.84777691382306
 21
17.84003181120759
 31
0.0
  0
MTEXT
  5
DBEA
330
D1B1
100
AcDbEntity
  8
0
 62
   255
100
AcDbMText
 10
13.66487713296683
 20
17.84003181120759
 30
0.0
 40
0.28
 41
0.0
 71
     5
 72
     1
  1
\A1;1 3/8"\P [35]
  7
Arial
 73
     1
 44
1.0
1001
ACAD
1000
MTEXTBEGIN
1070
    73
1070
     1
1070
    44
1040
1.0
1070
    74
1070
     0
1000
MTEXTEND
  0
SOLID
  5
DBEB
330
D1B1
100
AcDbEntity
  8
0
100
AcDbTrace
 10
12.73197735211061
 20
17.88169847787426
 30
0.0
 11
12.73197735211061
 21
17.79836514454093
 31
0.0
 12
12.98197735211061
 22
17.84003181120759
 32
0.0
 13
12.98197735211061
 23
17.84003181120759
 33
0.0
  0
SOLID
  5
DBEC
330
D1B1
100
AcDbEntity
  8
0
100
AcDbTrace
 10
14.59777691382306
 20
17.88169847787426
 30
0.0
 11
14.59777691382306
 21
17.79836514454093
 31
0.0
 12
14.34777691382306
 22
17.84003181120759
 32
0.0
 13
14.34777691382306
 23
17.84003181120759
 33
0.0
  0
POINT
  5
DBED
330
D1B1
100
AcDbEntity
  8
Defpoints
 62
     0
100
AcDbPoint
 10
12.98197735211061
 20
18.58501340647251
 30
0.0
  0
POINT
  5
DBEE
330
D1B1
100
AcDbEntity
  8
Defpoints
 62
     0
100
AcDbPoint
 10
14.34777691382306
 20
18.58501340647251
 30
0.0
  0
POINT
  5
DBEF
330
D1B1
100
AcDbEntity
  8
Defpoints
 62
     0
100
AcDbPoint
 10
14.34777691382306
 20
17.84003181120759
 30
0.0
  0
ENDBLK
  5
D1BD
330
D1B1
100
AcDbEntity
  8
0
100
AcDbBlockEnd
  0
BLOCK
  5
D1C9
330
D1BE
100
AcDbEntity
  8
0
100
AcDbBlockBegin
  2
*D24
 70
     1
 10
0.0
 20
0.0
 30
0.0
  3
*D24
  1

  0
LINE
  5
DBD2
330
D1BE
100
AcDbEntity
  8
0
100
AcDbLine
 10
14.16202808900228
 20
20.18491990647277
 30
0.0
 11
14.16202808900228
 21
20.80490150173769
 31
0.0
  0
LINE
  5
DBD3
330
D1BE
100
AcDbEntity
  8
0
100
AcDbLine
 10
14.34777691382306
 20
20.18491990647277
 30
0.0
 11
14.34777691382306
 21
20.80490150173769
 31
0.0
  0
LINE
  5
DBD4
330
D1BE
100
AcDbEntity
  8
0
100
AcDbLine
 10
13.91202808900229
 20
20.67990150173769
 30
0.0
 11
13.66202808900229
 21
20.67990150173769
 31
0.0
  0
LINE
  5
DBD5
330
D1BE
100
AcDbEntity
  8
0
100
AcDbLine
 10
14.59777691382306
 20
20.67990150173769
 30
0.0
 11
14.84777691382306
 21
20.67990150173769
 31
0.0
  0
MTEXT
  5
DBD6
330
D1BE
100
AcDbEntity
  8
0
 62
   255
100
AcDbMText
 10
13.66537369215901
 20
20.67990150173769
 30
0.0
 40
0.28
 41
0.0
 71
     5
 72
     1
  1
\A1;3/16"\P [5]
  7
Arial
 73
     1
 44
1.0
1001
ACAD
1000
MTEXTBEGIN
1070
    73
1070
     1
1070
    44
1040
1.0
1070
    74
1070
     0
1000
MTEXTEND
  0
SOLID
  5
DBD7
330
D1BE
100
AcDbEntity
  8
0
100
AcDbTrace
 10
13.91202808900229
 20
20.72156816840436
 30
0.0
 11
13.91202808900229
 21
20.63823483507102
 31
0.0
 12
14.16202808900228
 22
20.67990150173769
 32
0.0
 13
14.16202808900228
 23
20.67990150173769
 33
0.0
  0
SOLID
  5
DBD8
330
D1BE
100
AcDbEntity
  8
0
100
AcDbTrace
 10
14.59777691382306
 20
20.72156816840436
 30
0.0
 11
14.59777691382306
 21
20.63823483507102
 31
0.0
 12
14.34777691382306
 22
20.67990150173769
 32
0.0
 13
14.34777691382306
 23
20.67990150173769
 33
0.0
  0
POINT
  5
DBD9
330
D1BE
100
AcDbEntity
  8
Defpoints
 62
     0
100
AcDbPoint
 10
14.16202808900228
 20
19.93491990647276
 30
0.0
  0
POINT
  5
DBDA
330
D1BE
100
AcDbEntity
  8
Defpoints
 62
     0
100
AcDbPoint
 10
14.34777691382306
 20
19.93491990647276
 30
0.0
  0
POINT
  5
DBDB
330
D1BE
100
AcDbEntity
  8
Defpoints
 62
     0
100
AcDbPoint
 10
14.34777691382306
 20
20.67990150173769
 30
0.0
  0
ENDBLK
  5
D1CA
330
D1BE
100
AcDbEntity
  8
0
100
AcDbBlockEnd
  0
BLOCK
  5
D1D5
330
D1CB
100
AcDbEntity
  8
0
100
AcDbBlockBegin
  2
*D25
 70
     1
 10
0.0
 20
0.0
 30
0.0
  3
*D25
  1

  0
LINE
  5
DBBF
330
D1CB
100
AcDbEntity
  8
0
100
AcDbLine
 10
12.73197735211061
 20
19.6523401886619
 30
0.0
 11
12.11199575684569
 21
19.6523401886619
 31
0.0
  0
LINE
  5
DBC0
330
D1CB
100
AcDbEntity
  8
0
100
AcDbLine
 10
12.73197735211061
 20
18.58501340647251
 30
0.0
 11
12.11199575684569
 21
18.58501340647251
 31
0.0
  0
LINE
  5
DBC1
330
D1CB
100
AcDbEntity
  8
0
100
AcDbLine
 10
12.23699575684568
 20
19.4023401886619
 30
0.0
 11
12.23699575684568
 21
18.83501340647251
 31
0.0
  0
MTEXT
  5
DBC2
330
D1CB
100
AcDbEntity
  8
0
 62
   255
100
AcDbMText
 10
12.23699575684568
 20
19.11867679756746
 30
0.0
 40
0.28
 41
0.0
 71
     5
 72
     1
  1
\A1;1 1/16"\P [27]
  7
Arial
 11
0.0000000000000001
 21
1.0
 31
0.0
 73
     1
 44
1.0
1001
ACAD
1000
MTEXTBEGIN
1070
    73
1070
     1
1070
    44
1040
1.0
1070
    74
1070
     0
1000
MTEXTEND
  0
SOLID
  5
DBC3
330
D1CB
100
AcDbEntity
  8
0
100
AcDbTrace
 10
12.19532909017902
 20
19.4023401886619
 30
0.0
 11
12.27866242351235
 21
19.4023401886619
 31
0.0
 12
12.23699575684568
 22
19.6523401886619
 32
0.0
 13
12.23699575684568
 23
19.6523401886619
 33
0.0
  0
SOLID
  5
DBC4
330
D1CB
100
AcDbEntity
  8
0
100
AcDbTrace
 10
12.19532909017902
 20
18.83501340647251
 30
0.0
 11
12.27866242351235
 21
18.83501340647251
 31
0.0
 12
12.23699575684568
 22
18.58501340647251
 32
0.0
 13
12.23699575684568
 23
18.58501340647251
 33
0.0
  0
POINT
  5
DBC5
330
D1CB
100
AcDbEntity
  8
Defpoints
 62
     0
100
AcDbPoint
 10
12.98197735211061
 20
19.6523401886619
 30
0.0
  0
POINT
  5
DBC6
330
D1CB
100
AcDbEntity
  8
Defpoints
 62
     0
100
AcDbPoint
 10
12.98197735211061
 20
18.58501340647251
 30
0.0
  0
POINT
  5
DBC7
330
D1CB
100
AcDbEntity
  8
Defpoints
 62
     0
100
AcDbPoint
 10
12.23699575684568
 20
18.58501340647251
 30
0.0
  0
ENDBLK
  5
D1D6
330
D1CB
100
AcDbEntity
  8
0
100
AcDbBlockEnd
  0
BLOCK
  5
D1E2
330
D1D7
100
AcDbEntity
  8
0
100
AcDbBlockBegin
  2
*D26
 70
     1
 10
0.0
 20
0.0
 30
0.0
  3
*D26
  1

  0
LINE
  5
DBAC
330
D1D7
100
AcDbEntity
  8
0
100
AcDbLine
 10
14.59777691382306
 20
18.58501340647251
 30
0.0
 11
15.21775850908798
 21
18.58501340647251
 31
0.0
  0
LINE
  5
DBAD
330
D1D7
100
AcDbEntity
  8
0
100
AcDbLine
 10
14.59777691382306
 20
19.93491990647277
 30
0.0
 11
15.21775850908798
 21
19.93491990647277
 31
0.0
  0
LINE
  5
DBAE
330
D1D7
100
AcDbEntity
  8
0
100
AcDbLine
 10
15.09275850908798
 20
18.33501340647251
 30
0.0
 11
15.09275850908798
 21
18.08501340647251
 31
0.0
  0
LINE
  5
DBAF
330
D1D7
100
AcDbEntity
  8
0
100
AcDbLine
 10
15.09275850908799
 20
20.18491990647277
 30
0.0
 11
15.09275850908799
 21
20.43491990647277
 31
0.0
  0
MTEXT
  5
DBB0
330
D1D7
100
AcDbEntity
  8
0
 62
   255
100
AcDbMText
 10
15.09275850908798
 20
19.25996665647264
 30
0.0
 40
0.28
 41
0.0
 71
     5
 72
     1
  1
\A1;1 3/8"\P [34]
  7
Arial
 11
0.0000000000000001
 21
1.0
 31
0.0
 73
     1
 44
1.0
1001
ACAD
1000
MTEXTBEGIN
1070
    73
1070
     1
1070
    44
1040
1.0
1070
    74
1070
     0
1000
MTEXTEND
  0
SOLID
  5
DBB1
330
D1D7
100
AcDbEntity
  8
0
100
AcDbTrace
 10
15.05109184242132
 20
18.33501340647251
 30
0.0
 11
15.13442517575465
 21
18.33501340647251
 31
0.0
 12
15.09275850908798
 22
18.58501340647251
 32
0.0
 13
15.09275850908798
 23
18.58501340647251
 33
0.0
  0
SOLID
  5
DBB2
330
D1D7
100
AcDbEntity
  8
0
100
AcDbTrace
 10
15.05109184242132
 20
20.18491990647277
 30
0.0
 11
15.13442517575465
 21
20.18491990647277
 31
0.0
 12
15.09275850908798
 22
19.93491990647277
 32
0.0
 13
15.09275850908798
 23
19.93491990647277
 33
0.0
  0
POINT
  5
DBB3
330
D1D7
100
AcDbEntity
  8
Defpoints
 62
     0
100
AcDbPoint
 10
14.34777691382306
 20
18.58501340647251
 30
0.0
  0
POINT
  5
DBB4
330
D1D7
100
AcDbEntity
  8
Defpoints
 62
     0
100
AcDbPoint
 10
14.34777691382306
 20
19.93491990647277
 30
0.0
  0
POINT
  5
DBB5
330
D1D7
100
AcDbEntity
  8
Defpoints
 62
     0
100
AcDbPoint
 10
15.09275850908798
 20
19.93491990647277
 30
0.0
  0
ENDBLK
  5
D1E3
330
D1D7
100
AcDbEntity
  8
0
100
AcDbBlockEnd
  0
BLOCK
  5
D1EF
330
D1E4
100
AcDbEntity
  8
0
100
AcDbBlockBegin
  2
*D27
 70
     1
 10
0.0
 20
0.0
 30
0.0
  3
*D27
  1

  0
LINE
  5
DB98
330
D1E4
100
AcDbEntity
  8
0
100
AcDbLine
 10
10.91250426500686
 20
4.762903040581079
 30
0.0
 11
10.29252266974194
 21
4.762903040581079
 31
0.0
  0
LINE
  5
DB99
330
D1E4
100
AcDbEntity
  8
0
100
AcDbLine
 10
11.12904558203053
 20
2.900449052418785
 30
0.0
 11
10.29252266974194
 21
2.900449052418786
 31
0.0
  0
LINE
  5
DB9A
330
D1E4
100
AcDbEntity
  8
0
100
AcDbLine
 10
10.41752266974194
 20
4.512903040581079
 30
0.0
 11
10.41752266974194
 21
4.368132390292567
 31
0.0
  0
LINE
  5
DB9B
330
D1E4
100
AcDbEntity
  8
0
100
AcDbLine
 10
10.41752266974194
 20
3.150449052418786
 30
0.0
 11
10.41752266974194
 21
3.295219702707301
 31
0.0
  0
MTEXT
  5
DB9C
330
D1E4
100
AcDbEntity
  8
0
 62
   255
100
AcDbMText
 10
10.41752266974194
 20
3.831676046499936
 30
0.0
 40
0.28
 41
0.0
 71
     5
 72
     1
  1
\A1;1 7/8"\P [47]
  7
Arial
 11
0.0000000000000001
 21
1.0
 31
0.0
 73
     1
 44
1.0
1001
ACAD
1000
MTEXTBEGIN
1070
    73
1070
     1
1070
    44
1040
1.0
1070
    74
1070
     0
1000
MTEXTEND
  0
SOLID
  5
DB9D
330
D1E4
100
AcDbEntity
  8
0
100
AcDbTrace
 10
10.37585600307528
 20
4.512903040581079
 30
0.0
 11
10.45918933640861
 21
4.512903040581079
 31
0.0
 12
10.41752266974194
 22
4.762903040581079
 32
0.0
 13
10.41752266974194
 23
4.762903040581079
 33
0.0
  0
SOLID
  5
DB9E
330
D1E4
100
AcDbEntity
  8
0
100
AcDbTrace
 10
10.37585600307528
 20
3.150449052418786
 30
0.0
 11
10.45918933640861
 21
3.150449052418786
 31
0.0
 12
10.41752266974194
 22
2.900449052418786
 32
0.0
 13
10.41752266974194
 23
2.900449052418786
 33
0.0
  0
POINT
  5
DB9F
330
D1E4
100
AcDbEntity
  8
Defpoints
 62
     0
100
AcDbPoint
 10
11.16250426500686
 20
4.762903040581079
 30
0.0
  0
POINT
  5
DBA0
330
D1E4
100
AcDbEntity
  8
Defpoints
 62
     0
100
AcDbPoint
 10
11.37904558203053
 20
2.900449052418785
 30
0.0
  0
POINT
  5
DBA1
330
D1E4
100
AcDbEntity
  8
Defpoints
 62
     0
100
AcDbPoint
 10
10.41752266974194
 20
2.900449052418786
 30
0.0
  0
ENDBLK
  5
D1F0
330
D1E4
100
AcDbEntity
  8
0
100
AcDbBlockEnd
  0
BLOCK
  5
D1FB
330
D1F1
100
AcDbEntity
  8
0
100
AcDbBlockBegin
  2
*D28
 70
     1
 10
0.0
 20
0.0
 30
0.0
  3
*D28
  1

  0
LINE
  5
DB85
330
D1F1
100
AcDbEntity
  8
0
100
AcDbLine
 10
11.16250426500686
 20
5.012903040581079
 30
0.0
 11
11.16250426500686
 21
5.632884635846004
 31
0.0
  0
LINE
  5
DB86
330
D1F1
100
AcDbEntity
  8
0
100
AcDbLine
 10
12.31076923050852
 20
5.012903040581079
 30
0.0
 11
12.31076923050852
 21
5.632884635846004
 31
0.0
  0
LINE
  5
DB87
330
D1F1
100
AcDbEntity
  8
0
100
AcDbLine
 10
11.41250426500686
 20
5.507884635846004
 30
0.0
 11
12.06076923050853
 21
5.507884635846004
 31
0.0
  0
MTEXT
  5
DB88
330
D1F1
100
AcDbEntity
  8
0
 62
   255
100
AcDbMText
 10
11.73663674775769
 20
5.507884635846004
 30
0.0
 40
0.28
 41
0.0
 71
     5
 72
     1
  1
\A1;1 5/32"\P [29]
  7
Arial
 73
     1
 44
1.0
1001
ACAD
1000
MTEXTBEGIN
1070
    73
1070
     1
1070
    44
1040
1.0
1070
    74
1070
     0
1000
MTEXTEND
  0
SOLID
  5
DB89
330
D1F1
100
AcDbEntity
  8
0
100
AcDbTrace
 10
11.41250426500686
 20
5.549551302512671
 30
0.0
 11
11.41250426500686
 21
5.466217969179337
 31
0.0
 12
11.16250426500686
 22
5.507884635846004
 32
0.0
 13
11.16250426500686
 23
5.507884635846004
 33
0.0
  0
SOLID
  5
DB8A
330
D1F1
100
AcDbEntity
  8
0
100
AcDbTrace
 10
12.06076923050853
 20
5.549551302512671
 30
0.0
 11
12.06076923050853
 21
5.466217969179337
 31
0.0
 12
12.31076923050852
 22
5.507884635846004
 32
0.0
 13
12.31076923050852
 23
5.507884635846004
 33
0.0
  0
POINT
  5
DB8B
330
D1F1
100
AcDbEntity
  8
Defpoints
 62
     0
100
AcDbPoint
 10
11.16250426500686
 20
4.762903040581079
 30
0.0
  0
POINT
  5
DB8C
330
D1F1
100
AcDbEntity
  8
Defpoints
 62
     0
100
AcDbPoint
 10
12.31076923050852
 20
4.762903040581079
 30
0.0
  0
POINT
  5
DB8D
330
D1F1
100
AcDbEntity
  8
Defpoints
 62
     0
100
AcDbPoint
 10
12.31076923050852
 20
5.507884635846004
 30
0.0
  0
ENDBLK
  5
D1FC
330
D1F1
100
AcDbEntity
  8
0
100
AcDbBlockEnd
  0
BLOCK
  5
D208
330
D1FD
100
AcDbEntity
  8
0
100
AcDbBlockBegin
  2
*D29
 70
     1
 10
0.0
 20
0.0
 30
0.0
  3
*D29
  1

  0
LINE
  5
DB72
330
D1FD
100
AcDbEntity
  8
0
100
AcDbLine
 10
12.12402717729545
 20
2.650449052418785
 30
0.0
 11
12.12402717729545
 21
2.278794655575506
 31
0.0
  0
LINE
  5
DB73
330
D1FD
100
AcDbEntity
  8
0
100
AcDbLine
 10
12.31076923050853
 20
2.650449052418785
 30
0.0
 11
12.31076923050853
 21
2.278794655575506
 31
0.0
  0
LINE
  5
DB74
330
D1FD
100
AcDbEntity
  8
0
100
AcDbLine
 10
11.87402717729545
 20
2.403794655575506
 30
0.0
 11
11.62402717729545
 21
2.403794655575506
 31
0.0
  0
LINE
  5
DB75
330
D1FD
100
AcDbEntity
  8
0
100
AcDbLine
 10
12.56076923050853
 20
2.403794655575506
 30
0.0
 11
12.81076923050853
 21
2.403794655575506
 31
0.0
  0
MTEXT
  5
DB76
330
D1FD
100
AcDbEntity
  8
0
 62
   255
100
AcDbMText
 10
11.62737278045217
 20
2.403794655575506
 30
0.0
 40
0.28
 41
0.0
 71
     5
 72
     1
  1
\A1;3/16"\P [5]
  7
Arial
 73
     1
 44
1.0
1001
ACAD
1000
MTEXTBEGIN
1070
    73
1070
     1
1070
    44
1040
1.0
1070
    74
1070
     0
1000
MTEXTEND
  0
SOLID
  5
DB77
330
D1FD
100
AcDbEntity
  8
0
100
AcDbTrace
 10
11.87402717729545
 20
2.445461322242172
 30
0.0
 11
11.87402717729545
 21
2.362127988908839
 31
0.0
 12
12.12402717729545
 22
2.403794655575506
 32
0.0
 13
12.12402717729545
 23
2.403794655575506
 33
0.0
  0
SOLID
  5
DB78
330
D1FD
100
AcDbEntity
  8
0
100
AcDbTrace
 10
12.56076923050853
 20
2.445461322242172
 30
0.0
 11
12.56076923050853
 21
2.362127988908839
 31
0.0
 12
12.31076923050853
 22
2.403794655575506
 32
0.0
 13
12.31076923050853
 23
2.403794655575506
 33
0.0
  0
POINT
  5
DB79
330
D1FD
100
AcDbEntity
  8
Defpoints
 62
     0
100
AcDbPoint
 10
12.12402717729545
 20
2.900449052418785
 30
0.0
  0
POINT
  5
DB7A
330
D1FD
100
AcDbEntity
  8
Defpoints
 62
     0
100
AcDbPoint
 10
12.31076923050853
 20
2.900449052418785
 30
0.0
  0
POINT
  5
DB7B
330
D1FD
100
AcDbEntity
  8
Defpoints
 62
     0
100
AcDbPoint
 10
12.31076923050853
 20
2.403794655575506
 30
0.0
  0
ENDBLK
  5
D209
330
D1FD
100
AcDbEntity
  8
0
100
AcDbBlockEnd
  0
BLOCK
  5
D215
330
D20A
100
AcDbEntity
  8
0
100
AcDbBlockBegin
  2
*D30
 70
     1
 10
0.0
 20
0.0
 30
0.0
  3
*D30
  1

  0
LINE
  5
DB5E
330
D20A
100
AcDbEntity
  8
0
100
AcDbLine
 10
15.61789467836982
 20
2.857494909985575
 30
0.0
 11
14.9979130831049
 21
2.857494909985576
 31
0.0
  0
LINE
  5
DB5F
330
D20A
100
AcDbEntity
  8
0
100
AcDbLine
 10
15.61789467836982
 20
4.719948898147876
 30
0.0
 11
14.9979130831049
 21
4.719948898147876
 31
0.0
  0
LINE
  5
DB60
330
D20A
100
AcDbEntity
  8
0
100
AcDbLine
 10
15.1229130831049
 20
3.107494909985575
 30
0.0
 11
15.1229130831049
 21
3.25226556027409
 31
0.0
  0
LINE
  5
DB61
330
D20A
100
AcDbEntity
  8
0
100
AcDbLine
 10
15.1229130831049
 20
4.469948898147876
 30
0.0
 11
15.1229130831049
 21
4.325178247859356
 31
0.0
  0
MTEXT
  5
DB62
330
D20A
100
AcDbEntity
  8
0
 62
   255
100
AcDbMText
 10
15.1229130831049
 20
3.788721904066726
 30
0.0
 40
0.28
 41
0.0
 71
     5
 72
     1
  1
\A1;1 7/8"\P [47]
  7
Arial
 11
0.0000000000000001
 21
1.0
 31
0.0
 73
     1
 44
1.0
1001
ACAD
1000
MTEXTBEGIN
1070
    73
1070
     1
1070
    44
1040
1.0
1070
    74
1070
     0
1000
MTEXTEND
  0
SOLID
  5
DB63
330
D20A
100
AcDbEntity
  8
0
100
AcDbTrace
 10
15.08124641643824
 20
3.107494909985575
 30
0.0
 11
15.16457974977157
 21
3.107494909985575
 31
0.0
 12
15.1229130831049
 22
2.857494909985575
 32
0.0
 13
15.1229130831049
 23
2.857494909985575
 33
0.0
  0
SOLID
  5
DB64
330
D20A
100
AcDbEntity
  8
0
100
AcDbTrace
 10
15.08124641643824
 20
4.469948898147876
 30
0.0
 11
15.16457974977157
 21
4.469948898147876
 31
0.0
 12
15.1229130831049
 22
4.719948898147876
 32
0.0
 13
15.1229130831049
 23
4.719948898147876
 33
0.0
  0
POINT
  5
DB65
330
D20A
100
AcDbEntity
  8
Defpoints
 62
     0
100
AcDbPoint
 10
15.86789467836982
 20
2.857494909985575
 30
0.0
  0
POINT
  5
DB66
330
D20A
100
AcDbEntity
  8
Defpoints
 62
     0
100
AcDbPoint
 10
15.86789467836982
 20
4.719948898147876
 30
0.0
  0
POINT
  5
DB67
330
D20A
100
AcDbEntity
  8
Defpoints
 62
     0
100
AcDbPoint
 10
15.1229130831049
 20
4.719948898147876
 30
0.0
  0
ENDBLK
  5
D216
330
D20A
100
AcDbEntity
  8
0
100
AcDbBlockEnd
  0
BLOCK
  5
D222
330
D217
100
AcDbEntity
  8
0
100
AcDbBlockBegin
  2
*D31
 70
     1
 10
0.0
 20
0.0
 30
0.0
  3
*D31
  1

  0
LINE
  5
DB4A
330
D217
100
AcDbEntity
  8
0
100
AcDbLine
 10
2.589690220298876
 20
10.57151290356474
 30
0.0
 11
1.969708625033942
 21
10.57151290356474
 31
0.0
  0
LINE
  5
DB4B
330
D217
100
AcDbEntity
  8
0
100
AcDbLine
 10
2.589690220298876
 20
14.0480936814677
 30
0.0
 11
1.969708625033943
 21
14.0480936814677
 31
0.0
  0
LINE
  5
DB4C
330
D217
100
AcDbEntity
  8
0
100
AcDbLine
 10
2.094708625033942
 20
10.82151290356474
 30
0.0
 11
2.094708625033943
 21
11.7602637290783
 31
0.0
  0
LINE
  5
DB4D
330
D217
100
AcDbEntity
  8
0
100
AcDbLine
 10
2.094708625033943
 20
13.7980936814677
 30
0.0
 11
2.094708625033943
 21
12.85934285595415
 31
0.0
  0
MTEXT
  5
DB4E
330
D217
100
AcDbEntity
  8
0
 62
   255
100
AcDbMText
 10
2.094708625033955
 20
12.30980329251623
 30
0.0
 40
0.28
 41
0.0
 71
     5
 72
     1
  1
\A1;3 1/2"\P [88]
  7
Arial
 11
0.0000000000000001
 21
1.0
 31
0.0
 73
     1
 44
1.0
1001
ACAD
1000
MTEXTBEGIN
1070
    73
1070
     1
1070
    44
1040
1.0
1070
    74
1070
     0
1000
MTEXTEND
  0
SOLID
  5
DB4F
330
D217
100
AcDbEntity
  8
0
100
AcDbTrace
 10
2.053041958367276
 20
10.82151290356474
 30
0.0
 11
2.136375291700609
 21
10.82151290356474
 31
0.0
 12
2.094708625033942
 22
10.57151290356474
 32
0.0
 13
2.094708625033942
 23
10.57151290356474
 33
0.0
  0
SOLID
  5
DB50
330
D217
100
AcDbEntity
  8
0
100
AcDbTrace
 10
2.053041958367276
 20
13.7980936814677
 30
0.0
 11
2.13637529170061
 21
13.7980936814677
 31
0.0
 12
2.094708625033943
 22
14.0480936814677
 32
0.0
 13
2.094708625033943
 23
14.0480936814677
 33
0.0
  0
POINT
  5
DB51
330
D217
100
AcDbEntity
  8
Defpoints
 62
     0
100
AcDbPoint
 10
2.839690220298876
 20
10.57151290356474
 30
0.0
  0
POINT
  5
DB52
330
D217
100
AcDbEntity
  8
Defpoints
 62
     0
100
AcDbPoint
 10
2.839690220298876
 20
14.0480936814677
 30
0.0
  0
POINT
  5
DB53
330
D217
100
AcDbEntity
  8
Defpoints
 62
     0
100
AcDbPoint
 10
2.094708625033943
 20
14.0480936814677
 30
0.0
  0
ENDBLK
  5
D223
330
D217
100
AcDbEntity
  8
0
100
AcDbBlockEnd
  0
BLOCK
  5
D22E
330
D224
100
AcDbEntity
  8
0
100
AcDbBlockBegin
  2
*D32
 70
     1
 10
0.0
 20
0.0
 30
0.0
  3
*D32
  1

  0
LINE
  5
DB37
330
D224
100
AcDbEntity
  8
0
100
AcDbLine
 10
15.86789467836982
 20
4.969948898147876
 30
0.0
 11
15.86789467836982
 21
5.589930493412794
 31
0.0
  0
LINE
  5
DB38
330
D224
100
AcDbEntity
  8
0
100
AcDbLine
 10
17.01615964387148
 20
4.969948898147876
 30
0.0
 11
17.01615964387148
 21
5.589930493412794
 31
0.0
  0
LINE
  5
DB39
330
D224
100
AcDbEntity
  8
0
100
AcDbLine
 10
16.11789467836982
 20
5.464930493412794
 30
0.0
 11
16.76615964387148
 21
5.464930493412794
 31
0.0
  0
MTEXT
  5
DB3A
330
D224
100
AcDbEntity
  8
0
 62
   255
100
AcDbMText
 10
16.44202716112065
 20
5.464930493412794
 30
0.0
 40
0.28
 41
0.0
 71
     5
 72
     1
  1
\A1;1 5/32"\P [29]
  7
Arial
 73
     1
 44
1.0
1001
ACAD
1000
MTEXTBEGIN
1070
    73
1070
     1
1070
    44
1040
1.0
1070
    74
1070
     0
1000
MTEXTEND
  0
SOLID
  5
DB3B
330
D224
100
AcDbEntity
  8
0
100
AcDbTrace
 10
16.11789467836982
 20
5.50659716007946
 30
0.0
 11
16.11789467836982
 21
5.423263826746127
 31
0.0
 12
15.86789467836982
 22
5.464930493412794
 32
0.0
 13
15.86789467836982
 23
5.464930493412794
 33
0.0
  0
SOLID
  5
DB3C
330
D224
100
AcDbEntity
  8
0
100
AcDbTrace
 10
16.76615964387148
 20
5.50659716007946
 30
0.0
 11
16.76615964387148
 21
5.423263826746127
 31
0.0
 12
17.01615964387148
 22
5.464930493412794
 32
0.0
 13
17.01615964387148
 23
5.464930493412794
 33
0.0
  0
POINT
  5
DB3D
330
D224
100
AcDbEntity
  8
Defpoints
 62
     0
100
AcDbPoint
 10
15.86789467836982
 20
4.719948898147876
 30
0.0
  0
POINT
  5
DB3E
330
D224
100
AcDbEntity
  8
Defpoints
 62
     0
100
AcDbPoint
 10
17.01615964387148
 20
4.719948898147876
 30
0.0
  0
POINT
  5
DB3F
330
D224
100
AcDbEntity
  8
Defpoints
 62
     0
100
AcDbPoint
 10
17.01615964387148
 20
5.464930493412794
 30
0.0
  0
ENDBLK
  5
D22F
330
D224
100
AcDbEntity
  8
0
100
AcDbBlockEnd
  0
BLOCK
  5
D23A
330
D230
100
AcDbEntity
  8
0
100
AcDbBlockBegin
  2
*D33
 70
     1
 10
0.0
 20
0.0
 30
0.0
  3
*D33
  1

  0
LINE
  5
DB25
330
D230
100
AcDbEntity
  8
0
100
AcDbLine
 10
2.839690220298876
 20
14.2980936814677
 30
0.0
 11
2.839690220298876
 21
14.91807527673262
 31
0.0
  0
LINE
  5
DB26
330
D230
100
AcDbEntity
  8
0
100
AcDbLine
 10
3.987955185800537
 20
14.2980936814677
 30
0.0
 11
3.987955185800537
 21
14.91807527673262
 31
0.0
  0
LINE
  5
DB27
330
D230
100
AcDbEntity
  8
0
100
AcDbLine
 10
3.089690220298876
 20
14.79307527673262
 30
0.0
 11
3.737955185800537
 21
14.79307527673262
 31
0.0
  0
MTEXT
  5
DB28
330
D230
100
AcDbEntity
  8
0
 62
   255
100
AcDbMText
 10
3.413822703049689
 20
14.79307527673262
 30
0.0
 40
0.28
 41
0.0
 71
     5
 72
     1
  1
\A1;1 5/32"\P [29]
  7
Arial
 73
     1
 44
1.0
1001
ACAD
1000
MTEXTBEGIN
1070
    73
1070
     1
1070
    44
1040
1.0
1070
    74
1070
     0
1000
MTEXTEND
  0
SOLID
  5
DB29
330
D230
100
AcDbEntity
  8
0
100
AcDbTrace
 10
3.089690220298876
 20
14.83474194339929
 30
0.0
 11
3.089690220298876
 21
14.75140861006595
 31
0.0
 12
2.839690220298876
 22
14.79307527673262
 32
0.0
 13
2.839690220298876
 23
14.79307527673262
 33
0.0
  0
SOLID
  5
DB2A
330
D230
100
AcDbEntity
  8
0
100
AcDbTrace
 10
3.737955185800537
 20
14.83474194339929
 30
0.0
 11
3.737955185800537
 21
14.75140861006595
 31
0.0
 12
3.987955185800537
 22
14.79307527673262
 32
0.0
 13
3.987955185800537
 23
14.79307527673262
 33
0.0
  0
POINT
  5
DB2B
330
D230
100
AcDbEntity
  8
Defpoints
 62
     0
100
AcDbPoint
 10
2.839690220298876
 20
14.0480936814677
 30
0.0
  0
POINT
  5
DB2C
330
D230
100
AcDbEntity
  8
Defpoints
 62
     0
100
AcDbPoint
 10
3.987955185800537
 20
14.0480936814677
 30
0.0
  0
POINT
  5
DB2D
330
D230
100
AcDbEntity
  8
Defpoints
 62
     0
100
AcDbPoint
 10
3.987955185800537
 20
14.79307527673262
 30
0.0
  0
ENDBLK
  5
D23B
330
D230
100
AcDbEntity
  8
0
100
AcDbBlockEnd
  0
BLOCK
  5
D246
330
D23C
100
AcDbEntity
  8
0
100
AcDbBlockBegin
  2
*D34
 70
     1
 10
0.0
 20
0.0
 30
0.0
  3
*D34
  1

  0
LINE
  5
DB13
330
D23C
100
AcDbEntity
  8
0
100
AcDbLine
 10
7.31356571993232
 20
14.2980936814677
 30
0.0
 11
7.31356571993232
 21
14.91807527673262
 31
0.0
  0
LINE
  5
DB14
330
D23C
100
AcDbEntity
  8
0
100
AcDbLine
 10
8.46183068543398
 20
14.2980936814677
 30
0.0
 11
8.46183068543398
 21
14.91807527673262
 31
0.0
  0
LINE
  5
DB15
330
D23C
100
AcDbEntity
  8
0
100
AcDbLine
 10
7.56356571993232
 20
14.79307527673262
 30
0.0
 11
8.21183068543398
 21
14.79307527673262
 31
0.0
  0
MTEXT
  5
DB16
330
D23C
100
AcDbEntity
  8
0
 62
   255
100
AcDbMText
 10
7.887698202683154
 20
14.79307527673262
 30
0.0
 40
0.28
 41
0.0
 71
     5
 72
     1
  1
\A1;1 5/32"\P [29]
  7
Arial
 73
     1
 44
1.0
1001
ACAD
1000
MTEXTBEGIN
1070
    73
1070
     1
1070
    44
1040
1.0
1070
    74
1070
     0
1000
MTEXTEND
  0
SOLID
  5
DB17
330
D23C
100
AcDbEntity
  8
0
100
AcDbTrace
 10
7.56356571993232
 20
14.83474194339929
 30
0.0
 11
7.56356571993232
 21
14.75140861006595
 31
0.0
 12
7.31356571993232
 22
14.79307527673262
 32
0.0
 13
7.31356571993232
 23
14.79307527673262
 33
0.0
  0
SOLID
  5
DB18
330
D23C
100
AcDbEntity
  8
0
100
AcDbTrace
 10
8.21183068543398
 20
14.83474194339929
 30
0.0
 11
8.21183068543398
 21
14.75140861006595
 31
0.0
 12
8.46183068543398
 22
14.79307527673262
 32
0.0
 13
8.46183068543398
 23
14.79307527673262
 33
0.0
  0
POINT
  5
DB19
330
D23C
100
AcDbEntity
  8
Defpoints
 62
     0
100
AcDbPoint
 10
7.31356571993232
 20
14.0480936814677
 30
0.0
  0
POINT
  5
DB1A
330
D23C
100
AcDbEntity
  8
Defpoints
 62
     0
100
AcDbPoint
 10
8.46183068543398
 20
14.0480936814677
 30
0.0
  0
POINT
  5
DB1B
330
D23C
100
AcDbEntity
  8
Defpoints
 62
     0
100
AcDbPoint
 10
8.46183068543398
 20
14.79307527673262
 30
0.0
  0
ENDBLK
  5
D247
330
D23C
100
AcDbEntity
  8
0
100
AcDbBlockEnd
  0
BLOCK
  5
D252
330
D248
100
AcDbEntity
  8
0
100
AcDbBlockBegin
  2
*D35
 70
     1
 10
0.0
 20
0.0
 30
0.0
  3
*D35
  1

  0
LINE
  5
DB01
330
D248
100
AcDbEntity
  8
0
100
AcDbLine
 10
4.237955185800537
 20
10.57151290356474
 30
0.0
 11
4.857936781065458
 21
10.57151290356474
 31
0.0
  0
LINE
  5
DB02
330
D248
100
AcDbEntity
  8
0
100
AcDbLine
 10
4.237955185800537
 20
11.26143042585165
 30
0.0
 11
4.857936781065458
 21
11.26143042585165
 31
0.0
  0
LINE
  5
DB03
330
D248
100
AcDbEntity
  8
0
100
AcDbLine
 10
4.732936781065458
 20
10.82151290356474
 30
0.0
 11
4.732936781065458
 21
11.01143042585165
 31
0.0
  0
MTEXT
  5
DB04
330
D248
100
AcDbEntity
  8
0
 62
   255
100
AcDbMText
 10
4.732936781065458
 20
11.99221721072547
 30
0.0
 40
0.28
 41
0.0
 71
     5
 72
     1
  1
\A1;11/16"\P [18]
  7
Arial
 11
0.0000000000000001
 21
1.0
 31
0.0
 73
     1
 44
1.0
1001
ACAD
1000
MTEXTBEGIN
1070
    73
1070
     1
1070
    44
1040
1.0
1070
    74
1070
     0
1000
MTEXTEND
  0
SOLID
  5
DB05
330
D248
100
AcDbEntity
  8
0
100
AcDbTrace
 10
4.691270114398791
 20
10.82151290356474
 30
0.0
 11
4.774603447732125
 21
10.82151290356474
 31
0.0
 12
4.732936781065458
 22
10.57151290356474
 32
0.0
 13
4.732936781065458
 23
10.57151290356474
 33
0.0
  0
SOLID
  5
DB06
330
D248
100
AcDbEntity
  8
0
100
AcDbTrace
 10
4.691270114398791
 20
11.01143042585165
 30
0.0
 11
4.774603447732125
 21
11.01143042585165
 31
0.0
 12
4.732936781065458
 22
11.26143042585165
 32
0.0
 13
4.732936781065458
 23
11.26143042585165
 33
0.0
  0
POINT
  5
DB07
330
D248
100
AcDbEntity
  8
Defpoints
 62
     0
100
AcDbPoint
 10
3.987955185800537
 20
10.57151290356474
 30
0.0
  0
POINT
  5
DB08
330
D248
100
AcDbEntity
  8
Defpoints
 62
     0
100
AcDbPoint
 10
3.987955185800537
 20
11.26143042585165
 30
0.0
  0
POINT
  5
DB09
330
D248
100
AcDbEntity
  8
Defpoints
 62
     0
100
AcDbPoint
 10
4.732936781065458
 20
11.26143042585165
 30
0.0
  0
ENDBLK
  5
D253
330
D248
100
AcDbEntity
  8
0
100
AcDbBlockEnd
  0
BLOCK
  5
D25F
330
D254
100
AcDbEntity
  8
0
100
AcDbBlockBegin
  2
*D36
 70
     1
 10
0.0
 20
0.0
 30
0.0
  3
*D36
  1

  0
LINE
  5
DAEE
330
D254
100
AcDbEntity
  8
0
100
AcDbLine
 10
7.063565719932324
 20
10.57151290356474
 30
0.0
 11
6.443584124667395
 21
10.57151290356474
 31
0.0
  0
LINE
  5
DAEF
330
D254
100
AcDbEntity
  8
0
100
AcDbLine
 10
7.063565719932324
 20
14.0480936814677
 30
0.0
 11
6.443584124667395
 21
14.0480936814677
 31
0.0
  0
LINE
  5
DAF0
330
D254
100
AcDbEntity
  8
0
100
AcDbLine
 10
6.568584124667395
 20
10.82151290356474
 30
0.0
 11
6.568584124667395
 21
11.76026372907829
 31
0.0
  0
LINE
  5
DAF1
330
D254
100
AcDbEntity
  8
0
100
AcDbLine
 10
6.568584124667395
 20
13.7980936814677
 30
0.0
 11
6.568584124667395
 21
12.85934285595415
 31
0.0
  0
MTEXT
  5
DAF2
330
D254
100
AcDbEntity
  8
0
 62
   255
100
AcDbMText
 10
6.568584124667403
 20
12.30980329251622
 30
0.0
 40
0.28
 41
0.0
 71
     5
 72
     1
  1
\A1;3 1/2"\P [88]
  7
Arial
 11
0.0000000000000001
 21
1.0
 31
0.0
 73
     1
 44
1.0
1001
ACAD
1000
MTEXTBEGIN
1070
    73
1070
     1
1070
    44
1040
1.0
1070
    74
1070
     0
1000
MTEXTEND
  0
SOLID
  5
DAF3
330
D254
100
AcDbEntity
  8
0
100
AcDbTrace
 10
6.526917458000728
 20
10.82151290356474
 30
0.0
 11
6.610250791334062
 21
10.82151290356474
 31
0.0
 12
6.568584124667395
 22
10.57151290356474
 32
0.0
 13
6.568584124667395
 23
10.57151290356474
 33
0.0
  0
SOLID
  5
DAF4
330
D254
100
AcDbEntity
  8
0
100
AcDbTrace
 10
6.526917458000728
 20
13.7980936814677
 30
0.0
 11
6.610250791334062
 21
13.7980936814677
 31
0.0
 12
6.568584124667395
 22
14.0480936814677
 32
0.0
 13
6.568584124667395
 23
14.0480936814677
 33
0.0
  0
POINT
  5
DAF5
330
D254
100
AcDbEntity
  8
Defpoints
 62
     0
100
AcDbPoint
 10
7.313565719932324
 20
10.57151290356474
 30
0.0
  0
POINT
  5
DAF6
330
D254
100
AcDbEntity
  8
Defpoints
 62
     0
100
AcDbPoint
 10
7.313565719932324
 20
14.0480936814677
 30
0.0
  0
POINT
  5
DAF7
330
D254
100
AcDbEntity
  8
Defpoints
 62
     0
100
AcDbPoint
 10
6.568584124667395
 20
14.0480936814677
 30
0.0
  0
ENDBLK
  5
D260
330
D254
100
AcDbEntity
  8
0
100
AcDbBlockEnd
  0
BLOCK
  5
D26C
330
D261
100
AcDbEntity
  8
0
100
AcDbBlockBegin
  2
*D37
 70
     1
 10
0.0
 20
0.0
 30
0.0
  3
*D37
  1

  0
LINE
  5
DADA
330
D261
100
AcDbEntity
  8
0
100
AcDbLine
 10
3.801213132587461
 20
10.32151290356474
 30
0.0
 11
3.801213132587461
 21
9.949858506721469
 31
0.0
  0
LINE
  5
DADB
330
D261
100
AcDbEntity
  8
0
100
AcDbLine
 10
3.987955185800537
 20
10.32151290356474
 30
0.0
 11
3.987955185800537
 21
9.949858506721469
 31
0.0
  0
LINE
  5
DADC
330
D261
100
AcDbEntity
  8
0
100
AcDbLine
 10
3.551213132587461
 20
10.07485850672147
 30
0.0
 11
3.301213132587461
 21
10.07485850672147
 31
0.0
  0
LINE
  5
DADD
330
D261
100
AcDbEntity
  8
0
100
AcDbLine
 10
4.237955185800537
 20
10.07485850672147
 30
0.0
 11
4.487955185800537
 21
10.07485850672147
 31
0.0
  0
MTEXT
  5
DADE
330
D261
100
AcDbEntity
  8
0
 62
   255
100
AcDbMText
 10
3.894584159194
 20
9.414042883321656
 30
0.0
 40
0.28
 41
0.0
 71
     5
 72
     1
  1
\A1;3/16"\P [5]
  7
Arial
 73
     1
 44
1.0
1001
ACAD
1000
MTEXTBEGIN
1070
    73
1070
     1
1070
    44
1040
1.0
1070
    74
1070
     0
1000
MTEXTEND
  0
SOLID
  5
DADF
330
D261
100
AcDbEntity
  8
0
100
AcDbTrace
 10
3.551213132587461
 20
10.11652517338813
 30
0.0
 11
3.551213132587461
 21
10.0331918400548
 31
0.0
 12
3.801213132587461
 22
10.07485850672147
 32
0.0
 13
3.801213132587461
 23
10.07485850672147
 33
0.0
  0
SOLID
  5
DAE0
330
D261
100
AcDbEntity
  8
0
100
AcDbTrace
 10
4.237955185800537
 20
10.11652517338813
 30
0.0
 11
4.237955185800537
 21
10.0331918400548
 31
0.0
 12
3.987955185800537
 22
10.07485850672147
 32
0.0
 13
3.987955185800537
 23
10.07485850672147
 33
0.0
  0
POINT
  5
DAE1
330
D261
100
AcDbEntity
  8
Defpoints
 62
     0
100
AcDbPoint
 10
3.801213132587461
 20
10.57151290356474
 30
0.0
  0
POINT
  5
DAE2
330
D261
100
AcDbEntity
  8
Defpoints
 62
     0
100
AcDbPoint
 10
3.987955185800537
 20
10.57151290356474
 30
0.0
  0
POINT
  5
DAE3
330
D261
100
AcDbEntity
  8
Defpoints
 62
     0
100
AcDbPoint
 10
3.987955185800537
 20
10.07485850672147
 30
0.0
  0
ENDBLK
  5
D26D
330
D261
100
AcDbEntity
  8
0
100
AcDbBlockEnd
  0
BLOCK
  5
D278
330
D26E
100
AcDbEntity
  8
0
100
AcDbBlockBegin
  2
*D38
 70
     1
 10
0.0
 20
0.0
 30
0.0
  3
*D38
  1

  0
LINE
  5
DAC7
330
D26E
100
AcDbEntity
  8
0
100
AcDbLine
 10
12.84909079686381
 20
10.57151290356474
 30
0.0
 11
13.28282699331249
 21
10.57151290356474
 31
0.0
  0
LINE
  5
DAC8
330
D26E
100
AcDbEntity
  8
0
100
AcDbLine
 10
12.84909079686381
 20
11.25441269922425
 30
0.0
 11
13.28282699331249
 21
11.25441269922425
 31
0.0
  0
LINE
  5
DAC9
330
D26E
100
AcDbEntity
  8
0
100
AcDbLine
 10
13.15782699331249
 20
10.82151290356474
 30
0.0
 11
13.15782699331249
 21
11.00441269922425
 31
0.0
  0
MTEXT
  5
DACA
330
D26E
100
AcDbEntity
  8
0
 62
   255
100
AcDbMText
 10
13.15782699331249
 20
11.99221721072546
 30
0.0
 40
0.28
 41
0.0
 71
     5
 72
     1
  1
\A1;11/16"\P [17]
  7
Arial
 11
0.0000000000000001
 21
1.0
 31
0.0
 73
     1
 44
1.0
1001
ACAD
1000
MTEXTBEGIN
1070
    73
1070
     1
1070
    44
1040
1.0
1070
    74
1070
     0
1000
MTEXTEND
  0
SOLID
  5
DACB
330
D26E
100
AcDbEntity
  8
0
100
AcDbTrace
 10
13.11616032664583
 20
10.82151290356474
 30
0.0
 11
13.19949365997916
 21
10.82151290356474
 31
0.0
 12
13.15782699331249
 22
10.57151290356474
 32
0.0
 13
13.15782699331249
 23
10.57151290356474
 33
0.0
  0
SOLID
  5
DACC
330
D26E
100
AcDbEntity
  8
0
100
AcDbTrace
 10
13.11616032664583
 20
11.00441269922425
 30
0.0
 11
13.19949365997916
 21
11.00441269922425
 31
0.0
 12
13.15782699331249
 22
11.25441269922425
 32
0.0
 13
13.15782699331249
 23
11.25441269922425
 33
0.0
  0
POINT
  5
DACD
330
D26E
100
AcDbEntity
  8
Defpoints
 62
     0
100
AcDbPoint
 10
12.59909079686381
 20
10.57151290356474
 30
0.0
  0
POINT
  5
DACE
330
D26E
100
AcDbEntity
  8
Defpoints
 62
     0
100
AcDbPoint
 10
12.59909079686381
 20
11.25441269922425
 30
0.0
  0
POINT
  5
DACF
330
D26E
100
AcDbEntity
  8
Defpoints
 62
     0
100
AcDbPoint
 10
13.15782699331249
 20
11.25441269922425
 30
0.0
  0
ENDBLK
  5
D279
330
D26E
100
AcDbEntity
  8
0
100
AcDbBlockEnd
  0
BLOCK
  5
D285
330
D27A
100
AcDbEntity
  8
0
100
AcDbBlockBegin
  2
*D39
 70
     1
 10
0.0
 20
0.0
 30
0.0
  3
*D39
  1

  0
LINE
  5
DAB4
330
D27A
100
AcDbEntity
  8
0
100
AcDbLine
 10
12.413093725246
 20
10.32151290356474
 30
0.0
 11
12.413093725246
 21
9.949858506721469
 31
0.0
  0
LINE
  5
DAB5
330
D27A
100
AcDbEntity
  8
0
100
AcDbLine
 10
12.59909079686381
 20
10.32151290356474
 30
0.0
 11
12.59909079686381
 21
9.949858506721469
 31
0.0
  0
LINE
  5
DAB6
330
D27A
100
AcDbEntity
  8
0
100
AcDbLine
 10
12.163093725246
 20
10.07485850672147
 30
0.0
 11
11.913093725246
 21
10.07485850672147
 31
0.0
  0
LINE
  5
DAB7
330
D27A
100
AcDbEntity
  8
0
100
AcDbLine
 10
12.84909079686381
 20
10.07485850672147
 30
0.0
 11
13.09909079686381
 21
10.07485850672147
 31
0.0
  0
MTEXT
  5
DAB8
330
D27A
100
AcDbEntity
  8
0
 62
   255
100
AcDbMText
 10
12.50609226105491
 20
9.451418679917438
 30
0.0
 40
0.28
 41
0.0
 71
     5
 72
     1
  1
\A1;3/16"\P [5]
  7
Arial
 73
     1
 44
1.0
1001
ACAD
1000
MTEXTBEGIN
1070
    73
1070
     1
1070
    44
1040
1.0
1070
    74
1070
     0
1000
MTEXTEND
  0
SOLID
  5
DAB9
330
D27A
100
AcDbEntity
  8
0
100
AcDbTrace
 10
12.163093725246
 20
10.11652517338813
 30
0.0
 11
12.163093725246
 21
10.0331918400548
 31
0.0
 12
12.413093725246
 22
10.07485850672147
 32
0.0
 13
12.413093725246
 23
10.07485850672147
 33
0.0
  0
SOLID
  5
DABA
330
D27A
100
AcDbEntity
  8
0
100
AcDbTrace
 10
12.84909079686381
 20
10.11652517338813
 30
0.0
 11
12.84909079686381
 21
10.0331918400548
 31
0.0
 12
12.59909079686381
 22
10.07485850672147
 32
0.0
 13
12.59909079686381
 23
10.07485850672147
 33
0.0
  0
POINT
  5
DABB
330
D27A
100
AcDbEntity
  8
Defpoints
 62
     0
100
AcDbPoint
 10
12.413093725246
 20
10.57151290356474
 30
0.0
  0
POINT
  5
DABC
330
D27A
100
AcDbEntity
  8
Defpoints
 62
     0
100
AcDbPoint
 10
12.59909079686381
 20
10.57151290356474
 30
0.0
  0
POINT
  5
DABD
330
D27A
100
AcDbEntity
  8
Defpoints
 62
     0
100
AcDbPoint
 10
12.59909079686381
 20
10.07485850672147
 30
0.0
  0
ENDBLK
  5
D286
330
D27A
100
AcDbEntity
  8
0
100
AcDbBlockEnd
  0
BLOCK
  5
D292
330
D287
100
AcDbEntity
  8
0
100
AcDbBlockBegin
  2
*D40
 70
     1
 10
0.0
 20
0.0
 30
0.0
  3
*D40
  1

  0
LINE
  5
DAA0
330
D287
100
AcDbEntity
  8
0
100
AcDbLine
 10
11.20082583136214
 20
10.57151290356474
 30
0.0
 11
10.58084423609722
 21
10.57151290356474
 31
0.0
  0
LINE
  5
DAA1
330
D287
100
AcDbEntity
  8
0
100
AcDbLine
 10
11.20082583136214
 20
14.0480936814677
 30
0.0
 11
10.58084423609722
 21
14.0480936814677
 31
0.0
  0
LINE
  5
DAA2
330
D287
100
AcDbEntity
  8
0
100
AcDbLine
 10
10.70584423609722
 20
10.82151290356474
 30
0.0
 11
10.70584423609722
 21
11.54271939074268
 31
0.0
  0
LINE
  5
DAA3
330
D287
100
AcDbEntity
  8
0
100
AcDbLine
 10
10.70584423609722
 20
13.7980936814677
 30
0.0
 11
10.70584423609722
 21
13.07688719428975
 31
0.0
  0
MTEXT
  5
DAA4
330
D287
100
AcDbEntity
  8
0
 62
   255
100
AcDbMText
 10
10.70584423609722
 20
12.30980329251622
 30
0.0
 40
0.28
 41
0.0
 71
     5
 72
     1
  1
\A1;3 15/32"\P [88]
  7
Arial
 11
0.0000000000000001
 21
1.0
 31
0.0
 73
     1
 44
1.0
1001
ACAD
1000
MTEXTBEGIN
1070
    73
1070
     1
1070
    44
1040
1.0
1070
    74
1070
     0
1000
MTEXTEND
  0
SOLID
  5
DAA5
330
D287
100
AcDbEntity
  8
0
100
AcDbTrace
 10
10.66417756943055
 20
10.82151290356474
 30
0.0
 11
10.74751090276389
 21
10.82151290356474
 31
0.0
 12
10.70584423609722
 22
10.57151290356474
 32
0.0
 13
10.70584423609722
 23
10.57151290356474
 33
0.0
  0
SOLID
  5
DAA6
330
D287
100
AcDbEntity
  8
0
100
AcDbTrace
 10
10.66417756943056
 20
13.7980936814677
 30
0.0
 11
10.74751090276389
 21
13.7980936814677
 31
0.0
 12
10.70584423609722
 22
14.0480936814677
 32
0.0
 13
10.70584423609722
 23
14.0480936814677
 33
0.0
  0
POINT
  5
DAA7
330
D287
100
AcDbEntity
  8
Defpoints
 62
     0
100
AcDbPoint
 10
11.45082583136214
 20
10.57151290356474
 30
0.0
  0
POINT
  5
DAA8
330
D287
100
AcDbEntity
  8
Defpoints
 62
     0
100
AcDbPoint
 10
11.45082583136214
 20
14.0480936814677
 30
0.0
  0
POINT
  5
DAA9
330
D287
100
AcDbEntity
  8
Defpoints
 62
     0
100
AcDbPoint
 10
10.70584423609722
 20
14.0480936814677
 30
0.0
  0
ENDBLK
  5
D293
330
D287
100
AcDbEntity
  8
0
100
AcDbBlockEnd
  0
BLOCK
  5
D29E
330
D294
100
AcDbEntity
  8
0
100
AcDbBlockBegin
  2
*D41
 70
     1
 10
0.0
 20
0.0
 30
0.0
  3
*D41
  1

  0
LINE
  5
DA8D
330
D294
100
AcDbEntity
  8
0
100
AcDbLine
 10
11.45082583136215
 20
14.2980936814677
 30
0.0
 11
11.45082583136215
 21
14.91807527673262
 31
0.0
  0
LINE
  5
DA8E
330
D294
100
AcDbEntity
  8
0
100
AcDbLine
 10
12.59909079686381
 20
14.2980936814677
 30
0.0
 11
12.59909079686381
 21
14.91807527673262
 31
0.0
  0
LINE
  5
DA8F
330
D294
100
AcDbEntity
  8
0
100
AcDbLine
 10
11.70082583136215
 20
14.79307527673262
 30
0.0
 11
12.34909079686381
 21
14.79307527673262
 31
0.0
  0
MTEXT
  5
DA90
330
D294
100
AcDbEntity
  8
0
 62
   255
100
AcDbMText
 10
12.02495831411298
 20
14.79307527673262
 30
0.0
 40
0.28
 41
0.0
 71
     5
 72
     1
  1
\A1;1 5/32"\P [29]
  7
Arial
 73
     1
 44
1.0
1001
ACAD
1000
MTEXTBEGIN
1070
    73
1070
     1
1070
    44
1040
1.0
1070
    74
1070
     0
1000
MTEXTEND
  0
SOLID
  5
DA91
330
D294
100
AcDbEntity
  8
0
100
AcDbTrace
 10
11.70082583136215
 20
14.83474194339929
 30
0.0
 11
11.70082583136215
 21
14.75140861006595
 31
0.0
 12
11.45082583136215
 22
14.79307527673262
 32
0.0
 13
11.45082583136215
 23
14.79307527673262
 33
0.0
  0
SOLID
  5
DA92
330
D294
100
AcDbEntity
  8
0
100
AcDbTrace
 10
12.34909079686381
 20
14.83474194339929
 30
0.0
 11
12.34909079686381
 21
14.75140861006595
 31
0.0
 12
12.59909079686381
 22
14.79307527673262
 32
0.0
 13
12.59909079686381
 23
14.79307527673262
 33
0.0
  0
POINT
  5
DA93
330
D294
100
AcDbEntity
  8
Defpoints
 62
     0
100
AcDbPoint
 10
11.45082583136215
 20
14.0480936814677
 30
0.0
  0
POINT
  5
DA94
330
D294
100
AcDbEntity
  8
Defpoints
 62
     0
100
AcDbPoint
 10
12.59909079686381
 20
14.0480936814677
 30
0.0
  0
POINT
  5
DA95
330
D294
100
AcDbEntity
  8
Defpoints
 62
     0
100
AcDbPoint
 10
12.59909079686381
 20
14.79307527673262
 30
0.0
  0
ENDBLK
  5
D29F
330
D294
100
AcDbEntity
  8
0
100
AcDbBlockEnd
  0
BLOCK
  5
D2AB
330
D2A0
100
AcDbEntity
  8
0
100
AcDbBlockBegin
  2
*D42
 70
     1
 10
0.0
 20
0.0
 30
0.0
  3
*D42
  1

  0
LINE
  5
DA7A
330
D2A0
100
AcDbEntity
  8
0
100
AcDbLine
 10
7.248681582387609
 20
2.86061462299914
 30
0.0
 11
6.628699987122681
 21
2.86061462299914
 31
0.0
  0
LINE
  5
DA7B
330
D2A0
100
AcDbEntity
  8
0
100
AcDbLine
 10
7.248681582387609
 20
4.723068611161441
 30
0.0
 11
6.628699987122681
 21
4.723068611161441
 31
0.0
  0
LINE
  5
DA7C
330
D2A0
100
AcDbEntity
  8
0
100
AcDbLine
 10
6.753699987122681
 20
3.11061462299914
 30
0.0
 11
6.753699987122681
 21
3.25538527328766
 31
0.0
  0
LINE
  5
DA7D
330
D2A0
100
AcDbEntity
  8
0
100
AcDbLine
 10
6.753699987122681
 20
4.473068611161441
 30
0.0
 11
6.753699987122681
 21
4.328297960872926
 31
0.0
  0
MTEXT
  5
DA7E
330
D2A0
100
AcDbEntity
  8
0
 62
   255
100
AcDbMText
 10
6.75369998712269
 20
3.791841617080294
 30
0.0
 40
0.28
 41
0.0
 71
     5
 72
     1
  1
\A1;1 7/8"\P [47]
  7
Arial
 11
0.0000000000000001
 21
1.0
 31
0.0
 73
     1
 44
1.0
1001
ACAD
1000
MTEXTBEGIN
1070
    73
1070
     1
1070
    44
1040
1.0
1070
    74
1070
     0
1000
MTEXTEND
  0
SOLID
  5
DA7F
330
D2A0
100
AcDbEntity
  8
0
100
AcDbTrace
 10
6.712033320456014
 20
3.11061462299914
 30
0.0
 11
6.795366653789348
 21
3.11061462299914
 31
0.0
 12
6.753699987122681
 22
2.86061462299914
 32
0.0
 13
6.753699987122681
 23
2.86061462299914
 33
0.0
  0
SOLID
  5
DA80
330
D2A0
100
AcDbEntity
  8
0
100
AcDbTrace
 10
6.712033320456014
 20
4.473068611161441
 30
0.0
 11
6.795366653789348
 21
4.473068611161441
 31
0.0
 12
6.753699987122681
 22
4.723068611161441
 32
0.0
 13
6.753699987122681
 23
4.723068611161441
 33
0.0
  0
POINT
  5
DA81
330
D2A0
100
AcDbEntity
  8
Defpoints
 62
     0
100
AcDbPoint
 10
7.498681582387609
 20
2.86061462299914
 30
0.0
  0
POINT
  5
DA82
330
D2A0
100
AcDbEntity
  8
Defpoints
 62
     0
100
AcDbPoint
 10
7.498681582387609
 20
4.723068611161441
 30
0.0
  0
POINT
  5
DA83
330
D2A0
100
AcDbEntity
  8
Defpoints
 62
     0
100
AcDbPoint
 10
6.753699987122681
 20
4.723068611161441
 30
0.0
  0
ENDBLK
  5
D2AC
330
D2A0
100
AcDbEntity
  8
0
100
AcDbBlockEnd
  0
BLOCK
  5
D2B8
330
D2AD
100
AcDbEntity
  8
0
100
AcDbBlockBegin
  2
*D43
 70
     1
 10
0.0
 20
0.0
 30
0.0
  3
*D43
  1

  0
LINE
  5
DA66
330
D2AD
100
AcDbEntity
  8
0
100
AcDbLine
 10
2.775993376314797
 20
2.86061462299914
 30
0.0
 11
2.156011781049878
 21
2.86061462299914
 31
0.0
  0
LINE
  5
DA67
330
D2AD
100
AcDbEntity
  8
0
100
AcDbLine
 10
2.780862019895524
 20
4.723068611161437
 30
0.0
 11
2.156011781049878
 21
4.723068611161437
 31
0.0
  0
LINE
  5
DA68
330
D2AD
100
AcDbEntity
  8
0
100
AcDbLine
 10
2.281011781049878
 20
3.11061462299914
 30
0.0
 11
2.281011781049878
 21
3.255385273287653
 31
0.0
  0
LINE
  5
DA69
330
D2AD
100
AcDbEntity
  8
0
100
AcDbLine
 10
2.281011781049878
 20
4.473068611161437
 30
0.0
 11
2.281011781049878
 21
4.328297960872919
 31
0.0
  0
MTEXT
  5
DA6A
330
D2AD
100
AcDbEntity
  8
0
 62
   255
100
AcDbMText
 10
2.281011781049878
 20
3.791841617080287
 30
0.0
 40
0.28
 41
0.0
 71
     5
 72
     1
  1
\A1;1 7/8"\P [47]
  7
Arial
 11
0.0000000000000001
 21
1.0
 31
0.0
 73
     1
 44
1.0
1001
ACAD
1000
MTEXTBEGIN
1070
    73
1070
     1
1070
    44
1040
1.0
1070
    74
1070
     0
1000
MTEXTEND
  0
SOLID
  5
DA6B
330
D2AD
100
AcDbEntity
  8
0
100
AcDbTrace
 10
2.239345114383211
 20
3.11061462299914
 30
0.0
 11
2.322678447716544
 21
3.11061462299914
 31
0.0
 12
2.281011781049878
 22
2.86061462299914
 32
0.0
 13
2.281011781049878
 23
2.86061462299914
 33
0.0
  0
SOLID
  5
DA6C
330
D2AD
100
AcDbEntity
  8
0
100
AcDbTrace
 10
2.239345114383211
 20
4.473068611161437
 30
0.0
 11
2.322678447716544
 21
4.473068611161437
 31
0.0
 12
2.281011781049878
 22
4.723068611161437
 32
0.0
 13
2.281011781049878
 23
4.723068611161437
 33
0.0
  0
POINT
  5
DA6D
330
D2AD
100
AcDbEntity
  8
Defpoints
 62
     0
100
AcDbPoint
 10
3.025993376314797
 20
2.86061462299914
 30
0.0
  0
POINT
  5
DA6E
330
D2AD
100
AcDbEntity
  8
Defpoints
 62
     0
100
AcDbPoint
 10
3.030862019895524
 20
4.723068611161437
 30
0.0
  0
POINT
  5
DA6F
330
D2AD
100
AcDbEntity
  8
Defpoints
 62
     0
100
AcDbPoint
 10
2.281011781049878
 20
4.723068611161437
 30
0.0
  0
ENDBLK
  5
D2B9
330
D2AD
100
AcDbEntity
  8
0
100
AcDbBlockEnd
  0
BLOCK
  5
D2C5
330
D2BA
100
AcDbEntity
  8
0
100
AcDbBlockBegin
  2
*D44
 70
     1
 10
0.0
 20
0.0
 30
0.0
  3
*D44
  1

  0
LINE
  5
DA52
330
D2BA
100
AcDbEntity
  8
0
100
AcDbLine
 10
3.987516288603387
 20
2.610614622999143
 30
0.0
 11
3.987516288603387
 21
1.932069412391079
 31
0.0
  0
LINE
  5
DA53
330
D2BA
100
AcDbEntity
  8
0
100
AcDbLine
 10
4.174258341816463
 20
2.610614622999143
 30
0.0
 11
4.174258341816463
 21
1.932069412391079
 31
0.0
  0
LINE
  5
DA54
330
D2BA
100
AcDbEntity
  8
0
100
AcDbLine
 10
3.737516288603387
 20
2.057069412391079
 30
0.0
 11
3.487516288603387
 21
2.057069412391079
 31
0.0
  0
LINE
  5
DA55
330
D2BA
100
AcDbEntity
  8
0
100
AcDbLine
 10
4.424258341816463
 20
2.057069412391079
 30
0.0
 11
4.674258341816463
 21
2.057069412391079
 31
0.0
  0
MTEXT
  5
DA56
330
D2BA
100
AcDbEntity
  8
0
 62
   255
100
AcDbMText
 10
3.490861891760108
 20
2.057069412391079
 30
0.0
 40
0.28
 41
0.0
 71
     5
 72
     1
  1
\A1;3/16"\P [5]
  7
Arial
 73
     1
 44
1.0
1001
ACAD
1000
MTEXTBEGIN
1070
    73
1070
     1
1070
    44
1040
1.0
1070
    74
1070
     0
1000
MTEXTEND
  0
SOLID
  5
DA57
330
D2BA
100
AcDbEntity
  8
0
100
AcDbTrace
 10
3.737516288603387
 20
2.098736079057746
 30
0.0
 11
3.737516288603387
 21
2.015402745724413
 31
0.0
 12
3.987516288603387
 22
2.057069412391079
 32
0.0
 13
3.987516288603387
 23
2.057069412391079
 33
0.0
  0
SOLID
  5
DA58
330
D2BA
100
AcDbEntity
  8
0
100
AcDbTrace
 10
4.424258341816463
 20
2.098736079057746
 30
0.0
 11
4.424258341816463
 21
2.015402745724413
 31
0.0
 12
4.174258341816463
 22
2.057069412391079
 32
0.0
 13
4.174258341816463
 23
2.057069412391079
 33
0.0
  0
POINT
  5
DA59
330
D2BA
100
AcDbEntity
  8
Defpoints
 62
     0
100
AcDbPoint
 10
3.987516288603387
 20
2.860614622999143
 30
0.0
  0
POINT
  5
DA5A
330
D2BA
100
AcDbEntity
  8
Defpoints
 62
     0
100
AcDbPoint
 10
4.174258341816463
 20
2.860614622999143
 30
0.0
  0
POINT
  5
DA5B
330
D2BA
100
AcDbEntity
  8
Defpoints
 62
     0
100
AcDbPoint
 10
4.174258341816463
 20
2.057069412391079
 30
0.0
  0
ENDBLK
  5
D2C6
330
D2BA
100
AcDbEntity
  8
0
100
AcDbBlockEnd
  0
BLOCK
  5
D2D1
330
D2C7
100
AcDbEntity
  8
0
100
AcDbBlockBegin
  2
*D45
 70
     1
 10
0.0
 20
0.0
 30
0.0
  3
*D45
  1

  0
LINE
  5
DA3F
330
D2C7
100
AcDbEntity
  8
0
100
AcDbLine
 10
7.498681582387609
 20
4.973068611161437
 30
0.0
 11
7.498681582387609
 21
5.593050206426354
 31
0.0
  0
LINE
  5
DA40
330
D2C7
100
AcDbEntity
  8
0
100
AcDbLine
 10
8.646946547889271
 20
4.973068611161437
 30
0.0
 11
8.646946547889271
 21
5.593050206426354
 31
0.0
  0
LINE
  5
DA41
330
D2C7
100
AcDbEntity
  8
0
100
AcDbLine
 10
7.748681582387609
 20
5.468050206426354
 30
0.0
 11
8.396946547889271
 21
5.468050206426354
 31
0.0
  0
MTEXT
  5
DA42
330
D2C7
100
AcDbEntity
  8
0
 62
   255
100
AcDbMText
 10
8.072814065138441
 20
5.468050206426354
 30
0.0
 40
0.28
 41
0.0
 71
     5
 72
     1
  1
\A1;1 5/32"\P [29]
  7
Arial
 73
     1
 44
1.0
1001
ACAD
1000
MTEXTBEGIN
1070
    73
1070
     1
1070
    44
1040
1.0
1070
    74
1070
     0
1000
MTEXTEND
  0
SOLID
  5
DA43
330
D2C7
100
AcDbEntity
  8
0
100
AcDbTrace
 10
7.748681582387609
 20
5.509716873093021
 30
0.0
 11
7.748681582387609
 21
5.426383539759688
 31
0.0
 12
7.498681582387609
 22
5.468050206426354
 32
0.0
 13
7.498681582387609
 23
5.468050206426354
 33
0.0
  0
SOLID
  5
DA44
330
D2C7
100
AcDbEntity
  8
0
100
AcDbTrace
 10
8.396946547889271
 20
5.509716873093021
 30
0.0
 11
8.396946547889271
 21
5.426383539759688
 31
0.0
 12
8.646946547889271
 22
5.468050206426354
 32
0.0
 13
8.646946547889271
 23
5.468050206426354
 33
0.0
  0
POINT
  5
DA45
330
D2C7
100
AcDbEntity
  8
Defpoints
 62
     0
100
AcDbPoint
 10
7.498681582387609
 20
4.723068611161437
 30
0.0
  0
POINT
  5
DA46
330
D2C7
100
AcDbEntity
  8
Defpoints
 62
     0
100
AcDbPoint
 10
8.646946547889271
 20
4.723068611161437
 30
0.0
  0
POINT
  5
DA47
330
D2C7
100
AcDbEntity
  8
Defpoints
 62
     0
100
AcDbPoint
 10
8.646946547889271
 20
5.468050206426354
 30
0.0
  0
ENDBLK
  5
D2D2
330
D2C7
100
AcDbEntity
  8
0
100
AcDbBlockEnd
  0
BLOCK
  5
D2DD
330
D2D3
100
AcDbEntity
  8
0
100
AcDbBlockBegin
  2
*D46
 70
     1
 10
0.0
 20
0.0
 30
0.0
  3
*D46
  1

  0
LINE
  5
DA2D
330
D2D3
100
AcDbEntity
  8
0
100
AcDbLine
 10
3.025993376314799
 20
4.973068611161437
 30
0.0
 11
3.025993376314799
 21
5.593050206426354
 31
0.0
  0
LINE
  5
DA2E
330
D2D3
100
AcDbEntity
  8
0
100
AcDbLine
 10
4.174258341816463
 20
4.973068611161437
 30
0.0
 11
4.174258341816463
 21
5.593050206426354
 31
0.0
  0
LINE
  5
DA2F
330
D2D3
100
AcDbEntity
  8
0
100
AcDbLine
 10
3.275993376314799
 20
5.468050206426354
 30
0.0
 11
3.924258341816463
 21
5.468050206426354
 31
0.0
  0
MTEXT
  5
DA30
330
D2D3
100
AcDbEntity
  8
0
 62
   255
100
AcDbMText
 10
3.600125859065631
 20
5.468050206426354
 30
0.0
 40
0.28
 41
0.0
 71
     5
 72
     1
  1
\A1;1 5/32"\P [29]
  7
Arial
 73
     1
 44
1.0
1001
ACAD
1000
MTEXTBEGIN
1070
    73
1070
     1
1070
    44
1040
1.0
1070
    74
1070
     0
1000
MTEXTEND
  0
SOLID
  5
DA31
330
D2D3
100
AcDbEntity
  8
0
100
AcDbTrace
 10
3.275993376314799
 20
5.509716873093021
 30
0.0
 11
3.275993376314799
 21
5.426383539759688
 31
0.0
 12
3.025993376314799
 22
5.468050206426354
 32
0.0
 13
3.025993376314799
 23
5.468050206426354
 33
0.0
  0
SOLID
  5
DA32
330
D2D3
100
AcDbEntity
  8
0
100
AcDbTrace
 10
3.924258341816463
 20
5.509716873093021
 30
0.0
 11
3.924258341816463
 21
5.426383539759688
 31
0.0
 12
4.174258341816463
 22
5.468050206426354
 32
0.0
 13
4.174258341816463
 23
5.468050206426354
 33
0.0
  0
POINT
  5
DA33
330
D2D3
100
AcDbEntity
  8
Defpoints
 62
     0
100
AcDbPoint
 10
3.025993376314799
 20
4.723068611161437
 30
0.0
  0
POINT
  5
DA34
330
D2D3
100
AcDbEntity
  8
Defpoints
 62
     0
100
AcDbPoint
 10
4.174258341816463
 20
4.723068611161437
 30
0.0
  0
POINT
  5
DA35
330
D2D3
100
AcDbEntity
  8
Defpoints
 62
     0
100
AcDbPoint
 10
4.174258341816463
 20
5.468050206426354
 30
0.0
  0
ENDBLK
  5
D2DE
330
D2D3
100
AcDbEntity
  8
0
100
AcDbBlockEnd
  0
BLOCK
  5
D2EA
330
D2DF
100
AcDbEntity
  8
0
100
AcDbBlockBegin
  2
*D47
 70
     1
 10
0.0
 20
0.0
 30
0.0
  3
*D47
  1

  0
LINE
  5
DA1A
330
D2DF
100
AcDbEntity
  8
0
100
AcDbLine
 10
21.35252530690141
 20
18.39659855168108
 30
0.0
 11
21.35252530690141
 21
17.36756360864531
 31
0.0
  0
LINE
  5
DA1B
330
D2DF
100
AcDbEntity
  8
0
100
AcDbLine
 10
26.75314521817523
 20
18.33501340647251
 30
0.0
 11
26.75314521817523
 21
17.36756360864531
 31
0.0
  0
LINE
  5
DA1C
330
D2DF
100
AcDbEntity
  8
0
100
AcDbLine
 10
21.60252530690141
 20
17.49256360864531
 30
0.0
 11
23.47264085598988
 21
17.49256360864531
 31
0.0
  0
LINE
  5
DA1D
330
D2DF
100
AcDbEntity
  8
0
100
AcDbLine
 10
26.50314521817523
 20
17.49256360864531
 30
0.0
 11
24.63302966908675
 21
17.49256360864531
 31
0.0
  0
MTEXT
  5
DA1E
330
D2DF
100
AcDbEntity
  8
0
 62
   255
100
AcDbMText
 10
24.05283526253832
 20
17.49256360864531
 30
0.0
 40
0.28
 41
0.0
 71
     5
 72
     1
  1
\A1;5 3/8"\P [137]
  7
Arial
 73
     1
 44
1.0
1001
ACAD
1000
MTEXTBEGIN
1070
    73
1070
     1
1070
    44
1040
1.0
1070
    74
1070
     0
1000
MTEXTEND
  0
SOLID
  5
DA1F
330
D2DF
100
AcDbEntity
  8
0
100
AcDbTrace
 10
21.60252530690141
 20
17.53423027531198
 30
0.0
 11
21.60252530690141
 21
17.45089694197864
 31
0.0
 12
21.35252530690141
 22
17.49256360864531
 32
0.0
 13
21.35252530690141
 23
17.49256360864531
 33
0.0
  0
SOLID
  5
DA20
330
D2DF
100
AcDbEntity
  8
0
100
AcDbTrace
 10
26.50314521817523
 20
17.53423027531198
 30
0.0
 11
26.50314521817523
 21
17.45089694197864
 31
0.0
 12
26.75314521817523
 22
17.49256360864531
 32
0.0
 13
26.75314521817523
 23
17.49256360864531
 33
0.0
  0
POINT
  5
DA21
330
D2DF
100
AcDbEntity
  8
Defpoints
 62
     0
100
AcDbPoint
 10
21.35252530690141
 20
18.64659855168108
 30
0.0
  0
POINT
  5
DA22
330
D2DF
100
AcDbEntity
  8
Defpoints
 62
     0
100
AcDbPoint
 10
26.75314521817523
 20
18.58501340647251
 30
0.0
  0
POINT
  5
DA23
330
D2DF
100
AcDbEntity
  8
Defpoints
 62
     0
100
AcDbPoint
 10
26.75314521817523
 20
17.49256360864531
 30
0.0
  0
ENDBLK
  5
D2EB
330
D2DF
100
AcDbEntity
  8
0
100
AcDbBlockEnd
  0
BLOCK
  5
D2F7
330
D2EC
100
AcDbEntity
  8
0
100
AcDbBlockBegin
  2
*D48
 70
     1
 10
0.0
 20
0.0
 30
0.0
  3
*D48
  1

  0
LINE
  5
DA06
330
D2EC
100
AcDbEntity
  8
0
100
AcDbLine
 10
21.16411045210998
 20
18.58501340647251
 30
0.0
 11
20.51822537772838
 21
18.58501340647251
 31
0.0
  0
LINE
  5
DA07
330
D2EC
100
AcDbEntity
  8
0
100
AcDbLine
 10
21.10252530690141
 20
20.15344799170359
 30
0.0
 11
20.51822537772838
 21
20.15344799170359
 31
0.0
  0
LINE
  5
DA08
330
D2EC
100
AcDbEntity
  8
0
100
AcDbLine
 10
20.64322537772838
 20
18.83501340647251
 30
0.0
 11
20.64322537772838
 21
19.90344799170358
 31
0.0
  0
SOLID
  5
DA09
330
D2EC
100
AcDbEntity
  8
0
100
AcDbTrace
 10
20.60155871106171
 20
18.83501340647251
 30
0.0
 11
20.68489204439504
 21
18.83501340647251
 31
0.0
 12
20.64322537772838
 22
18.58501340647251
 32
0.0
 13
20.64322537772838
 23
18.58501340647251
 33
0.0
  0
SOLID
  5
DA0A
330
D2EC
100
AcDbEntity
  8
0
100
AcDbTrace
 10
20.60155871106171
 20
19.90344799170358
 30
0.0
 11
20.68489204439504
 21
19.90344799170358
 31
0.0
 12
20.64322537772838
 22
20.15344799170359
 32
0.0
 13
20.64322537772838
 23
20.15344799170359
 33
0.0
  0
MTEXT
  5
DA0B
330
D2EC
100
AcDbEntity
  8
0
 62
   255
100
AcDbMText
 10
19.98673492752373
 20
19.36923069908805
 30
0.0
 40
0.28
 41
0.0
 71
     5
 72
     1
  1
\A1;1 9/16"
  7
Arial
 11
0.0000000000000001
 21
1.0
 31
0.0
 73
     1
 44
1.0
1001
ACAD
1000
MTEXTBEGIN
1070
    73
1070
     1
1070
    44
1040
1.0
1070
    74
1070
     0
1000
MTEXTEND
  0
MTEXT
  5
DA0C
330
D2EC
100
AcDbEntity
  8
0
 62
   255
100
AcDbMText
 10
20.43595048004761
 20
19.36923069908805
 30
0.0
 40
0.28
 41
0.0
 71
     5
 72
     1
  1
\A1;[40]
  7
Arial
 11
0.0000000000000001
 21
1.0
 31
0.0
 73
     1
 44
1.0
1001
ACAD
1000
MTEXTBEGIN
1070
    73
1070
     1
1070
    44
1040
1.0
1070
    74
1070
     0
1000
MTEXTEND
  0
POINT
  5
DA0D
330
D2EC
100
AcDbEntity
  8
Defpoints
 62
     0
100
AcDbPoint
 10
21.41411045210998
 20
18.58501340647251
 30
0.0
  0
POINT
  5
DA0E
330
D2EC
100
AcDbEntity
  8
Defpoints
 62
     0
100
AcDbPoint
 10
21.35252530690141
 20
20.15344799170359
 30
0.0
  0
POINT
  5
DA0F
330
D2EC
100
AcDbEntity
  8
Defpoints
 62
     0
100
AcDbPoint
 10
20.64322537772838
 20
20.15344799170359
 30
0.0
  0
ENDBLK
  5
D2F8
330
D2EC
100
AcDbEntity
  8
0
100
AcDbBlockEnd
  0
BLOCK
  5
D304
330
D2F9
100
AcDbEntity
  8
0
100
AcDbBlockBegin
  2
*D49
 70
     1
 10
0.0
 20
0.0
 30
0.0
  3
*D49
  1

  0
LINE
  5
D9F2
330
D2F9
100
AcDbEntity
  8
0
100
AcDbLine
 10
21.16411045210998
 20
18.58501340647251
 30
0.0
 11
19.22350167692656
 21
18.58501340647251
 31
0.0
  0
LINE
  5
D9F3
330
D2F9
100
AcDbEntity
  8
0
100
AcDbLine
 10
22.17519734587866
 20
20.41667482203053
 30
0.0
 11
19.22350167692656
 21
20.41667482203053
 31
0.0
  0
LINE
  5
D9F4
330
D2F9
100
AcDbEntity
  8
0
100
AcDbLine
 10
19.34850167692656
 20
18.83501340647251
 30
0.0
 11
19.34850167692656
 21
20.16667482203053
 31
0.0
  0
SOLID
  5
D9F5
330
D2F9
100
AcDbEntity
  8
0
100
AcDbTrace
 10
19.30683501025989
 20
18.83501340647251
 30
0.0
 11
19.39016834359323
 21
18.83501340647251
 31
0.0
 12
19.34850167692656
 22
18.58501340647251
 32
0.0
 13
19.34850167692656
 23
18.58501340647251
 33
0.0
  0
SOLID
  5
D9F6
330
D2F9
100
AcDbEntity
  8
0
100
AcDbTrace
 10
19.30683501025989
 20
20.16667482203053
 30
0.0
 11
19.39016834359323
 21
20.16667482203053
 31
0.0
 12
19.34850167692656
 22
20.41667482203053
 32
0.0
 13
19.34850167692656
 23
20.41667482203053
 33
0.0
  0
MTEXT
  5
D9F7
330
D2F9
100
AcDbEntity
  8
0
 62
   255
100
AcDbMText
 10
18.69239321853638
 20
19.50084411425152
 30
0.0
 40
0.28
 41
0.0
 71
     5
 72
     1
  1
\A1;1 13/16"
  7
Arial
 11
0.0000000000000001
 21
1.0
 31
0.0
 73
     1
 44
1.0
1001
ACAD
1000
MTEXTBEGIN
1070
    73
1070
     1
1070
    44
1040
1.0
1070
    74
1070
     0
1000
MTEXTEND
  0
MTEXT
  5
D9F8
330
D2F9
100
AcDbEntity
  8
0
 62
   255
100
AcDbMText
 10
19.14113128129218
 20
19.50084411425152
 30
0.0
 40
0.28
 41
0.0
 71
     5
 72
     1
  1
\A1;[47]
  7
Arial
 11
0.0000000000000001
 21
1.0
 31
0.0
 73
     1
 44
1.0
1001
ACAD
1000
MTEXTBEGIN
1070
    73
1070
     1
1070
    44
1040
1.0
1070
    74
1070
     0
1000
MTEXTEND
  0
POINT
  5
D9F9
330
D2F9
100
AcDbEntity
  8
Defpoints
 62
     0
100
AcDbPoint
 10
21.41411045210998
 20
18.58501340647251
 30
0.0
  0
POINT
  5
D9FA
330
D2F9
100
AcDbEntity
  8
Defpoints
 62
     0
100
AcDbPoint
 10
22.42519734587866
 20
20.41667482203053
 30
0.0
  0
POINT
  5
D9FB
330
D2F9
100
AcDbEntity
  8
Defpoints
 62
     0
100
AcDbPoint
 10
19.34850167692656
 20
20.41667482203053
 30
0.0
  0
ENDBLK
  5
D305
330
D2F9
100
AcDbEntity
  8
0
100
AcDbBlockEnd
  0
BLOCK
  5
D310
330
D306
100
AcDbEntity
  8
0
100
AcDbBlockBegin
  2
*D50
 70
     1
 10
0.0
 20
0.0
 30
0.0
  3
*D50
  1

  0
LINE
  5
DD8B
330
D306
100
AcDbEntity
  8
0
100
AcDbLine
 10
12.56076923050853
 20
2.900449052418785
 30
0.0
 11
13.18075082577345
 21
2.900449052418785
 31
0.0
  0
LINE
  5
DD8C
330
D306
100
AcDbEntity
  8
0
100
AcDbLine
 10
12.56076923050853
 20
3.59036657470569
 30
0.0
 11
13.18075082577345
 21
3.59036657470569
 31
0.0
  0
LINE
  5
DD8D
330
D306
100
AcDbEntity
  8
0
100
AcDbLine
 10
13.05575082577345
 20
3.150449052418785
 30
0.0
 11
13.05575082577345
 21
3.34036657470569
 31
0.0
  0
MTEXT
  5
DD8E
330
D306
100
AcDbEntity
  8
0
 62
   255
100
AcDbMText
 10
13.05575082577345
 20
4.321153359579511
 30
0.0
 40
0.28
 41
0.0
 71
     5
 72
     1
  1
\A1;11/16"\P [18]
  7
Arial
 11
0.0000000000000001
 21
1.0
 31
0.0
 73
     1
 44
1.0
1001
ACAD
1000
MTEXTBEGIN
1070
    73
1070
     1
1070
    44
1040
1.0
1070
    74
1070
     0
1000
MTEXTEND
  0
SOLID
  5
DD8F
330
D306
100
AcDbEntity
  8
0
100
AcDbTrace
 10
13.01408415910678
 20
3.150449052418785
 30
0.0
 11
13.09741749244011
 21
3.150449052418785
 31
0.0
 12
13.05575082577345
 22
2.900449052418785
 32
0.0
 13
13.05575082577345
 23
2.900449052418785
 33
0.0
  0
SOLID
  5
DD90
330
D306
100
AcDbEntity
  8
0
100
AcDbTrace
 10
13.01408415910678
 20
3.34036657470569
 30
0.0
 11
13.09741749244011
 21
3.34036657470569
 31
0.0
 12
13.05575082577345
 22
3.59036657470569
 32
0.0
 13
13.05575082577345
 23
3.59036657470569
 33
0.0
  0
POINT
  5
DD91
330
D306
100
AcDbEntity
  8
Defpoints
 62
     0
100
AcDbPoint
 10
12.31076923050853
 20
2.900449052418785
 30
0.0
  0
POINT
  5
DD92
330
D306
100
AcDbEntity
  8
Defpoints
 62
     0
100
AcDbPoint
 10
12.31076923050853
 20
3.59036657470569
 30
0.0
  0
POINT
  5
DD93
330
D306
100
AcDbEntity
  8
Defpoints
 62
     0
100
AcDbPoint
 10
13.05575082577345
 20
3.59036657470569
 30
0.0
  0
ENDBLK
  5
D311
330
D306
100
AcDbEntity
  8
0
100
AcDbBlockEnd
  0
BLOCK
  5
D31C
330
D312
100
AcDbEntity
  8
0
100
AcDbBlockBegin
  2
*D51
 70
     1
 10
0.0
 20
0.0
 30
0.0
  3
*D51
  1

  0
LINE
  5
DD79
330
D312
100
AcDbEntity
  8
0
100
AcDbLine
 10
4.424258341816466
 20
2.860614622999143
 30
0.0
 11
5.044239937081387
 21
2.860614622999143
 31
0.0
  0
LINE
  5
DD7A
330
D312
100
AcDbEntity
  8
0
100
AcDbLine
 10
4.424258341816466
 20
3.550532145286048
 30
0.0
 11
5.044239937081387
 21
3.550532145286048
 31
0.0
  0
LINE
  5
DD7B
330
D312
100
AcDbEntity
  8
0
100
AcDbLine
 10
4.919239937081387
 20
3.110614622999143
 30
0.0
 11
4.919239937081387
 21
3.300532145286048
 31
0.0
  0
MTEXT
  5
DD7C
330
D312
100
AcDbEntity
  8
0
 62
   255
100
AcDbMText
 10
4.919239937081387
 20
4.281318930159869
 30
0.0
 40
0.28
 41
0.0
 71
     5
 72
     1
  1
\A1;11/16"\P [18]
  7
Arial
 11
0.0000000000000001
 21
1.0
 31
0.0
 73
     1
 44
1.0
1001
ACAD
1000
MTEXTBEGIN
1070
    73
1070
     1
1070
    44
1040
1.0
1070
    74
1070
     0
1000
MTEXTEND
  0
SOLID
  5
DD7D
330
D312
100
AcDbEntity
  8
0
100
AcDbTrace
 10
4.87757327041472
 20
3.110614622999143
 30
0.0
 11
4.960906603748054
 21
3.110614622999143
 31
0.0
 12
4.919239937081387
 22
2.860614622999143
 32
0.0
 13
4.919239937081387
 23
2.860614622999143
 33
0.0
  0
SOLID
  5
DD7E
330
D312
100
AcDbEntity
  8
0
100
AcDbTrace
 10
4.87757327041472
 20
3.300532145286048
 30
0.0
 11
4.960906603748054
 21
3.300532145286048
 31
0.0
 12
4.919239937081387
 22
3.550532145286048
 32
0.0
 13
4.919239937081387
 23
3.550532145286048
 33
0.0
  0
POINT
  5
DD7F
330
D312
100
AcDbEntity
  8
Defpoints
 62
     0
100
AcDbPoint
 10
4.174258341816466
 20
2.860614622999143
 30
0.0
  0
POINT
  5
DD80
330
D312
100
AcDbEntity
  8
Defpoints
 62
     0
100
AcDbPoint
 10
4.174258341816466
 20
3.550532145286048
 30
0.0
  0
POINT
  5
DD81
330
D312
100
AcDbEntity
  8
Defpoints
 62
     0
100
AcDbPoint
 10
4.919239937081387
 20
3.550532145286048
 30
0.0
  0
ENDBLK
  5
D31D
330
D312
100
AcDbEntity
  8
0
100
AcDbBlockEnd
  0
BLOCK
  5
D32A
330
D31E
100
AcDbEntity
  8
0
100
AcDbBlockBegin
  2
*D52
 70
     1
 10
0.0
 20
0.0
 30
0.0
  3
*D52
  1

  0
LINE
  5
DD65
330
D31E
100
AcDbEntity
  8
0
100
AcDbLine
 10
26.56739647375584
 20
20.6666748380278
 30
0.0
 11
26.56739647375584
 21
21.28665643329273
 31
0.0
  0
LINE
  5
DD66
330
D31E
100
AcDbEntity
  8
0
100
AcDbLine
 10
26.75314521817523
 20
20.6666748380278
 30
0.0
 11
26.75314521817523
 21
21.28665643329273
 31
0.0
  0
LINE
  5
DD67
330
D31E
100
AcDbEntity
  8
0
100
AcDbLine
 10
26.31739647375584
 20
21.16165643329273
 30
0.0
 11
26.06739647375584
 21
21.16165643329273
 31
0.0
  0
LINE
  5
DD68
330
D31E
100
AcDbEntity
  8
0
100
AcDbLine
 10
27.00314521817523
 20
21.16165643329273
 30
0.0
 11
27.25314521817523
 21
21.16165643329273
 31
0.0
  0
MTEXT
  5
DD69
330
D31E
100
AcDbEntity
  8
0
 62
   255
100
AcDbMText
 10
26.66027084596553
 20
21.9740148916829
 30
0.0
 40
0.28
 41
0.0
 71
     5
 72
     1
  1
\A1;3/16"
  7
Arial
 73
     1
 44
1.0
1001
ACAD
1000
MTEXTBEGIN
1070
    73
1070
     1
1070
    44
1040
1.0
1070
    74
1070
     0
1000
MTEXTEND
  0
MTEXT
  5
DD6A
330
D31E
100
AcDbEntity
  8
0
 62
   255
100
AcDbMText
 10
26.66027084596553
 20
21.5252768289271
 30
0.0
 40
0.28
 41
0.0
 71
     5
 72
     1
  1
\A1;[5]
  7
Arial
 73
     1
 44
1.0
1001
ACAD
1000
MTEXTBEGIN
1070
    73
1070
     1
1070
    44
1040
1.0
1070
    74
1070
     0
1000
MTEXTEND
  0
SOLID
  5
DD6B
330
D31E
100
AcDbEntity
  8
0
100
AcDbTrace
 10
26.31739647375584
 20
21.20332309995939
 30
0.0
 11
26.31739647375584
 21
21.11998976662606
 31
0.0
 12
26.56739647375584
 22
21.16165643329273
 32
0.0
 13
26.56739647375584
 23
21.16165643329273
 33
0.0
  0
SOLID
  5
DD6C
330
D31E
100
AcDbEntity
  8
0
100
AcDbTrace
 10
27.00314521817523
 20
21.20332309995939
 30
0.0
 11
27.00314521817523
 21
21.11998976662606
 31
0.0
 12
26.75314521817523
 22
21.16165643329273
 32
0.0
 13
26.75314521817523
 23
21.16165643329273
 33
0.0
  0
POINT
  5
DD6D
330
D31E
100
AcDbEntity
  8
Defpoints
 62
     0
100
AcDbPoint
 10
26.56739647375584
 20
20.4166748380278
 30
0.0
  0
POINT
  5
DD6E
330
D31E
100
AcDbEntity
  8
Defpoints
 62
     0
100
AcDbPoint
 10
26.75314521817523
 20
20.4166748380278
 30
0.0
  0
POINT
  5
DD6F
330
D31E
100
AcDbEntity
  8
Defpoints
 62
     0
100
AcDbPoint
 10
26.75314521817523
 20
21.16165643329273
 30
0.0
  0
ENDBLK
  5
D32B
330
D31E
100
AcDbEntity
  8
0
100
AcDbBlockEnd
  0
BLOCK
  5
D337
330
D32C
100
AcDbEntity
  8
0
100
AcDbBlockBegin
  2
*D53
 70
     1
 10
0.0
 20
0.0
 30
0.0
  3
*D53
  1

  0
LINE
  5
DD50
330
D32C
100
AcDbEntity
  8
0
100
AcDbLine
 10
27.00314521817523
 20
20.16186113452163
 30
0.0
 11
27.62312681344015
 21
20.16186113452163
 31
0.0
  0
LINE
  5
DD51
330
D32C
100
AcDbEntity
  8
0
100
AcDbLine
 10
27.00314521817523
 20
20.4166748380278
 30
0.0
 11
27.62312681344015
 21
20.4166748380278
 31
0.0
  0
LINE
  5
DD52
330
D32C
100
AcDbEntity
  8
0
100
AcDbLine
 10
27.49812681344015
 20
19.91186113452163
 30
0.0
 11
27.49812681344015
 21
19.66186113452163
 31
0.0
  0
LINE
  5
DD53
330
D32C
100
AcDbEntity
  8
0
100
AcDbLine
 10
27.49812681344015
 20
20.6666748380278
 30
0.0
 11
27.49812681344015
 21
20.9166748380278
 31
0.0
  0
MTEXT
  5
DD54
330
D32C
100
AcDbEntity
  8
0
 62
   255
100
AcDbMText
 10
28.17632124392107
 20
20.28926798627472
 30
0.0
 40
0.28
 41
0.0
 71
     5
 72
     1
  1
\A1;1/4"\P [6]
  7
Arial
 11
0.0000000000000001
 21
1.0
 31
0.0
 73
     1
 44
1.0
1001
ACAD
1000
MTEXTBEGIN
1070
    73
1070
     1
1070
    44
1040
1.0
1070
    74
1070
     0
1000
MTEXTEND
  0
SOLID
  5
DD55
330
D32C
100
AcDbEntity
  8
0
100
AcDbTrace
 10
27.45646014677348
 20
19.91186113452163
 30
0.0
 11
27.53979348010682
 21
19.91186113452163
 31
0.0
 12
27.49812681344015
 22
20.16186113452163
 32
0.0
 13
27.49812681344015
 23
20.16186113452163
 33
0.0
  0
SOLID
  5
DD56
330
D32C
100
AcDbEntity
  8
0
100
AcDbTrace
 10
27.45646014677348
 20
20.6666748380278
 30
0.0
 11
27.53979348010682
 21
20.6666748380278
 31
0.0
 12
27.49812681344015
 22
20.4166748380278
 32
0.0
 13
27.49812681344015
 23
20.4166748380278
 33
0.0
  0
POINT
  5
DD57
330
D32C
100
AcDbEntity
  8
Defpoints
 62
     0
100
AcDbPoint
 10
26.75314521817523
 20
20.16186113452163
 30
0.0
  0
POINT
  5
DD58
330
D32C
100
AcDbEntity
  8
Defpoints
 62
     0
100
AcDbPoint
 10
26.75314521817523
 20
20.4166748380278
 30
0.0
  0
POINT
  5
DD59
330
D32C
100
AcDbEntity
  8
Defpoints
 62
     0
100
AcDbPoint
 10
27.49812681344015
 20
20.4166748380278
 30
0.0
  0
ENDBLK
  5
D338
330
D32C
100
AcDbEntity
  8
0
100
AcDbBlockEnd
  0
BLOCK
  5
D344
330
D339
100
AcDbEntity
  8
0
100
AcDbBlockBegin
  2
*D54
 70
     1
 10
0.0
 20
0.0
 30
0.0
  3
*D54
  1

  0
LINE
  5
DD3C
330
D339
100
AcDbEntity
  8
0
100
AcDbLine
 10
27.00314521817523
 20
18.58019970296634
 30
0.0
 11
27.62312681344015
 21
18.58019970296634
 31
0.0
  0
LINE
  5
DD3D
330
D339
100
AcDbEntity
  8
0
100
AcDbLine
 10
27.00314521817523
 20
18.83501340647251
 30
0.0
 11
27.62312681344015
 21
18.83501340647251
 31
0.0
  0
LINE
  5
DD3E
330
D339
100
AcDbEntity
  8
0
100
AcDbLine
 10
27.49812681344015
 20
18.33019970296634
 30
0.0
 11
27.49812681344015
 21
18.08019970296634
 31
0.0
  0
LINE
  5
DD3F
330
D339
100
AcDbEntity
  8
0
100
AcDbLine
 10
27.49812681344015
 20
19.08501340647251
 30
0.0
 11
27.49812681344015
 21
19.33501340647251
 31
0.0
  0
MTEXT
  5
DD40
330
D339
100
AcDbEntity
  8
0
 62
   255
100
AcDbMText
 10
28.17632124392107
 20
18.70760655471942
 30
0.0
 40
0.28
 41
0.0
 71
     5
 72
     1
  1
\A1;1/4"\P [6]
  7
Arial
 11
0.0000000000000001
 21
1.0
 31
0.0
 73
     1
 44
1.0
1001
ACAD
1000
MTEXTBEGIN
1070
    73
1070
     1
1070
    44
1040
1.0
1070
    74
1070
     0
1000
MTEXTEND
  0
SOLID
  5
DD41
330
D339
100
AcDbEntity
  8
0
100
AcDbTrace
 10
27.45646014677348
 20
18.33019970296634
 30
0.0
 11
27.53979348010682
 21
18.33019970296634
 31
0.0
 12
27.49812681344015
 22
18.58019970296634
 32
0.0
 13
27.49812681344015
 23
18.58019970296634
 33
0.0
  0
SOLID
  5
DD42
330
D339
100
AcDbEntity
  8
0
100
AcDbTrace
 10
27.45646014677348
 20
19.08501340647251
 30
0.0
 11
27.53979348010682
 21
19.08501340647251
 31
0.0
 12
27.49812681344015
 22
18.83501340647251
 32
0.0
 13
27.49812681344015
 23
18.83501340647251
 33
0.0
  0
POINT
  5
DD43
330
D339
100
AcDbEntity
  8
Defpoints
 62
     0
100
AcDbPoint
 10
26.75314521817523
 20
18.58019970296634
 30
0.0
  0
POINT
  5
DD44
330
D339
100
AcDbEntity
  8
Defpoints
 62
     0
100
AcDbPoint
 10
26.75314521817523
 20
18.83501340647251
 30
0.0
  0
POINT
  5
DD45
330
D339
100
AcDbEntity
  8
Defpoints
 62
     0
100
AcDbPoint
 10
27.49812681344015
 20
18.83501340647251
 30
0.0
  0
ENDBLK
  5
D345
330
D339
100
AcDbEntity
  8
0
100
AcDbBlockEnd
  0
BLOCK
  5
D351
330
D346
100
AcDbEntity
  8
0
100
AcDbBlockBegin
  2
*D55
 70
     1
 10
0.0
 20
0.0
 30
0.0
  3
*D55
  1

  0
LINE
  5
DD28
330
D346
100
AcDbEntity
  8
0
100
AcDbLine
 10
8.677109941999919
 20
18.58019970296634
 30
0.0
 11
9.297091537264838
 21
18.58019970296634
 31
0.0
  0
LINE
  5
DD29
330
D346
100
AcDbEntity
  8
0
100
AcDbLine
 10
8.677109941999919
 20
18.83501340647251
 30
0.0
 11
9.297091537264838
 21
18.83501340647251
 31
0.0
  0
LINE
  5
DD2A
330
D346
100
AcDbEntity
  8
0
100
AcDbLine
 10
9.172091537264838
 20
18.33019970296634
 30
0.0
 11
9.172091537264838
 21
18.08019970296634
 31
0.0
  0
LINE
  5
DD2B
330
D346
100
AcDbEntity
  8
0
100
AcDbLine
 10
9.172091537264838
 20
19.08501340647251
 30
0.0
 11
9.172091537264838
 21
19.33501340647251
 31
0.0
  0
MTEXT
  5
DD2C
330
D346
100
AcDbEntity
  8
0
 62
   255
100
AcDbMText
 10
9.850285967745763
 20
18.70760655471942
 30
0.0
 40
0.28
 41
0.0
 71
     5
 72
     1
  1
\A1;1/4"\P [6]
  7
Arial
 11
0.0000000000000001
 21
1.0
 31
0.0
 73
     1
 44
1.0
1001
ACAD
1000
MTEXTBEGIN
1070
    73
1070
     1
1070
    44
1040
1.0
1070
    74
1070
     0
1000
MTEXTEND
  0
SOLID
  5
DD2D
330
D346
100
AcDbEntity
  8
0
100
AcDbTrace
 10
9.130424870598172
 20
18.33019970296634
 30
0.0
 11
9.213758203931504
 21
18.33019970296634
 31
0.0
 12
9.172091537264838
 22
18.58019970296634
 32
0.0
 13
9.172091537264838
 23
18.58019970296634
 33
0.0
  0
SOLID
  5
DD2E
330
D346
100
AcDbEntity
  8
0
100
AcDbTrace
 10
9.130424870598172
 20
19.08501340647251
 30
0.0
 11
9.213758203931504
 21
19.08501340647251
 31
0.0
 12
9.172091537264838
 22
18.83501340647251
 32
0.0
 13
9.172091537264838
 23
18.83501340647251
 33
0.0
  0
POINT
  5
DD2F
330
D346
100
AcDbEntity
  8
Defpoints
 62
     0
100
AcDbPoint
 10
8.427109941999919
 20
18.58019970296634
 30
0.0
  0
POINT
  5
DD30
330
D346
100
AcDbEntity
  8
Defpoints
 62
     0
100
AcDbPoint
 10
8.427109941999919
 20
18.83501340647251
 30
0.0
  0
POINT
  5
DD31
330
D346
100
AcDbEntity
  8
Defpoints
 62
     0
100
AcDbPoint
 10
9.172091537264838
 20
18.83501340647251
 30
0.0
  0
ENDBLK
  5
D352
330
D346
100
AcDbEntity
  8
0
100
AcDbBlockEnd
  0
BLOCK
  5
D35E
330
D353
100
AcDbEntity
  8
0
100
AcDbBlockBegin
  2
*D56
 70
     1
 10
0.0
 20
0.0
 30
0.0
  3
*D56
  1

  0
LINE
  5
DD14
330
D353
100
AcDbEntity
  8
0
100
AcDbLine
 10
2.775993376314799
 20
30.26784174152382
 30
0.0
 11
2.156011781049872
 21
30.26784174152382
 31
0.0
  0
LINE
  5
DD15
330
D353
100
AcDbEntity
  8
0
100
AcDbLine
 10
2.775993376314799
 20
32.50278652731859
 30
0.0
 11
2.156011781049873
 21
32.50278652731859
 31
0.0
  0
LINE
  5
DD16
330
D353
100
AcDbEntity
  8
0
100
AcDbLine
 10
2.281011781049872
 20
30.51784174152383
 30
0.0
 11
2.281011781049872
 21
30.83329162418928
 31
0.0
  0
LINE
  5
DD17
330
D353
100
AcDbEntity
  8
0
100
AcDbLine
 10
2.281011781049873
 20
32.25278652731859
 30
0.0
 11
2.281011781049873
 21
31.93733664465313
 31
0.0
  0
MTEXT
  5
DD18
330
D353
100
AcDbEntity
  8
0
 62
   255
100
AcDbMText
 10
2.281011781049878
 20
31.38531413442121
 30
0.0
 40
0.28
 41
0.0
 71
     5
 72
     1
  1
\A1;2 1/4"\P [57]
  7
Arial
 11
0.0000000000000001
 21
1.0
 31
0.0
 73
     1
 44
1.0
1001
ACAD
1000
MTEXTBEGIN
1070
    73
1070
     1
1070
    44
1040
1.0
1070
    74
1070
     0
1000
MTEXTEND
  0
SOLID
  5
DD19
330
D353
100
AcDbEntity
  8
0
100
AcDbTrace
 10
2.239345114383206
 20
30.51784174152383
 30
0.0
 11
2.322678447716539
 21
30.51784174152383
 31
0.0
 12
2.281011781049872
 22
30.26784174152382
 32
0.0
 13
2.281011781049872
 23
30.26784174152382
 33
0.0
  0
SOLID
  5
DD1A
330
D353
100
AcDbEntity
  8
0
100
AcDbTrace
 10
2.239345114383206
 20
32.25278652731859
 30
0.0
 11
2.322678447716539
 21
32.25278652731859
 31
0.0
 12
2.281011781049873
 22
32.50278652731859
 32
0.0
 13
2.281011781049873
 23
32.50278652731859
 33
0.0
  0
POINT
  5
DD1B
330
D353
100
AcDbEntity
  8
Defpoints
 62
     0
100
AcDbPoint
 10
3.025993376314799
 20
30.26784174152382
 30
0.0
  0
POINT
  5
DD1C
330
D353
100
AcDbEntity
  8
Defpoints
 62
     0
100
AcDbPoint
 10
3.025993376314799
 20
32.50278652731859
 30
0.0
  0
POINT
  5
DD1D
330
D353
100
AcDbEntity
  8
Defpoints
 62
     0
100
AcDbPoint
 10
2.281011781049873
 20
32.50278652731859
 30
0.0
  0
ENDBLK
  5
D35F
330
D353
100
AcDbEntity
  8
0
100
AcDbBlockEnd
  0
BLOCK
  5
D36B
330
D360
100
AcDbEntity
  8
0
100
AcDbBlockBegin
  2
*D57
 70
     1
 10
0.0
 20
0.0
 30
0.0
  3
*D57
  1

  0
LINE
  5
DD00
330
D360
100
AcDbEntity
  8
0
100
AcDbLine
 10
3.025993376314797
 20
32.75278652731859
 30
0.0
 11
3.025993376314797
 21
33.12444092416187
 31
0.0
  0
LINE
  5
DD01
330
D360
100
AcDbEntity
  8
0
100
AcDbLine
 10
3.711376443958522
 20
32.75278652731859
 30
0.0
 11
3.711376443958522
 21
33.12444092416187
 31
0.0
  0
LINE
  5
DD02
330
D360
100
AcDbEntity
  8
0
100
AcDbLine
 10
3.275993376314797
 20
32.99944092416187
 30
0.0
 11
3.461376443958522
 21
32.99944092416187
 31
0.0
  0
MTEXT
  5
DD03
330
D360
100
AcDbEntity
  8
0
 62
   255
100
AcDbMText
 10
3.36868491013666
 20
33.81218137436651
 30
0.0
 40
0.28
 41
0.0
 71
     5
 72
     1
  1
\A1;5/8"
  7
Arial
 73
     1
 44
1.0
1001
ACAD
1000
MTEXTBEGIN
1070
    73
1070
     1
1070
    44
1040
1.0
1070
    74
1070
     0
1000
MTEXTEND
  0
MTEXT
  5
DD04
330
D360
100
AcDbEntity
  8
0
 62
   255
100
AcDbMText
 10
3.36868491013666
 20
33.36296582184263
 30
0.0
 40
0.28
 41
0.0
 71
     5
 72
     1
  1
\A1;[17]
  7
Arial
 73
     1
 44
1.0
1001
ACAD
1000
MTEXTBEGIN
1070
    73
1070
     1
1070
    44
1040
1.0
1070
    74
1070
     0
1000
MTEXTEND
  0
SOLID
  5
DD05
330
D360
100
AcDbEntity
  8
0
100
AcDbTrace
 10
3.275993376314797
 20
33.04110759082853
 30
0.0
 11
3.275993376314797
 21
32.9577742574952
 31
0.0
 12
3.025993376314797
 22
32.99944092416187
 32
0.0
 13
3.025993376314797
 23
32.99944092416187
 33
0.0
  0
SOLID
  5
DD06
330
D360
100
AcDbEntity
  8
0
100
AcDbTrace
 10
3.461376443958522
 20
33.04110759082853
 30
0.0
 11
3.461376443958522
 21
32.9577742574952
 31
0.0
 12
3.711376443958522
 22
32.99944092416187
 32
0.0
 13
3.711376443958522
 23
32.99944092416187
 33
0.0
  0
POINT
  5
DD07
330
D360
100
AcDbEntity
  8
Defpoints
 62
     0
100
AcDbPoint
 10
3.025993376314797
 20
32.50278652731859
 30
0.0
  0
POINT
  5
DD08
330
D360
100
AcDbEntity
  8
Defpoints
 62
     0
100
AcDbPoint
 10
3.711376443958522
 20
32.50278652731859
 30
0.0
  0
POINT
  5
DD09
330
D360
100
AcDbEntity
  8
Defpoints
 62
     0
100
AcDbPoint
 10
3.711376443958522
 20
32.99944092416187
 30
0.0
  0
ENDBLK
  5
D36C
330
D360
100
AcDbEntity
  8
0
100
AcDbBlockEnd
  0
BLOCK
  5
D38C
330
D381
100
AcDbEntity
  8
0
100
AcDbBlockBegin
  2
*D58
 70
     1
 10
0.0
 20
0.0
 30
0.0
  3
*D58
  1

  0
LINE
  5
DCC4
330
D381
100
AcDbEntity
  8
0
100
AcDbLine
 10
6.035295813567724
 20
32.50278652731859
 30
0.0
 11
5.415314550520955
 21
32.50278652731859
 31
0.0
  0
LINE
  5
DCC5
330
D381
100
AcDbEntity
  8
0
100
AcDbLine
 10
6.035295813567724
 20
30.26784174152382
 30
0.0
 11
5.415314550520955
 21
30.26784174152382
 31
0.0
  0
LINE
  5
DCC6
330
D381
100
AcDbEntity
  8
0
100
AcDbLine
 10
5.540314550520955
 20
32.25278652731859
 30
0.0
 11
5.540314550520955
 21
31.93733664465313
 31
0.0
  0
LINE
  5
DCC7
330
D381
100
AcDbEntity
  8
0
100
AcDbLine
 10
5.540314550520955
 20
30.51784174152383
 30
0.0
 11
5.540314550520955
 21
30.83329162418928
 31
0.0
  0
MTEXT
  5
DCC8
330
D381
100
AcDbEntity
  8
0
 62
   255
100
AcDbMText
 10
5.540314550520959
 20
31.38531413442121
 30
0.0
 40
0.28
 41
0.0
 71
     5
 72
     1
  1
\A1;2 1/4"\P [57]
  7
Arial
 11
0.0000000000000001
 21
1.0
 31
0.0
 73
     1
 44
1.0
1001
ACAD
1000
MTEXTBEGIN
1070
    73
1070
     1
1070
    44
1040
1.0
1070
    74
1070
     0
1000
MTEXTEND
  0
SOLID
  5
DCC9
330
D381
100
AcDbEntity
  8
0
100
AcDbTrace
 10
5.498647883854288
 20
32.25278652731859
 30
0.0
 11
5.581981217187622
 21
32.25278652731859
 31
0.0
 12
5.540314550520955
 22
32.50278652731859
 32
0.0
 13
5.540314550520955
 23
32.50278652731859
 33
0.0
  0
SOLID
  5
DCCA
330
D381
100
AcDbEntity
  8
0
100
AcDbTrace
 10
5.498647883854288
 20
30.51784174152383
 30
0.0
 11
5.581981217187622
 21
30.51784174152383
 31
0.0
 12
5.540314550520955
 22
30.26784174152382
 32
0.0
 13
5.540314550520955
 23
30.26784174152382
 33
0.0
  0
POINT
  5
DCCB
330
D381
100
AcDbEntity
  8
Defpoints
 62
     0
100
AcDbPoint
 10
6.285295813567724
 20
32.50278652731859
 30
0.0
  0
POINT
  5
DCCC
330
D381
100
AcDbEntity
  8
Defpoints
 62
     0
100
AcDbPoint
 10
6.285295813567724
 20
30.26784174152382
 30
0.0
  0
POINT
  5
DCCD
330
D381
100
AcDbEntity
  8
Defpoints
 62
     0
100
AcDbPoint
 10
5.540314550520955
 20
30.26784174152382
 30
0.0
  0
ENDBLK
  5
D38D
330
D381
100
AcDbEntity
  8
0
100
AcDbBlockEnd
  0
BLOCK
  5
D39A
330
D38E
100
AcDbEntity
  8
0
100
AcDbBlockBegin
  2
*D59
 70
     1
 10
0.0
 20
0.0
 30
0.0
  3
*D59
  1

  0
LINE
  5
DCAF
330
D38E
100
AcDbEntity
  8
0
100
AcDbLine
 10
2.775993376314797
 20
26.91542456283169
 30
0.0
 11
2.156011781049869
 21
26.91542456283169
 31
0.0
  0
LINE
  5
DCB0
330
D38E
100
AcDbEntity
  8
0
100
AcDbLine
 10
2.775993376314797
 20
27.53624255888579
 30
0.0
 11
2.156011781049869
 21
27.53624255888579
 31
0.0
  0
LINE
  5
DCB1
330
D38E
100
AcDbEntity
  8
0
100
AcDbLine
 10
2.281011781049869
 20
26.66542456283169
 30
0.0
 11
2.281011781049869
 21
26.41542456283169
 31
0.0
  0
LINE
  5
DCB2
330
D38E
100
AcDbEntity
  8
0
100
AcDbLine
 10
2.281011781049869
 20
27.78624255888579
 30
0.0
 11
2.281011781049869
 21
28.03624255888579
 31
0.0
  0
MTEXT
  5
DCB3
330
D38E
100
AcDbEntity
  8
0
 62
   255
100
AcDbMText
 10
1.468271330845226
 20
27.22583356085874
 30
0.0
 40
0.28
 41
0.0
 71
     5
 72
     1
  1
\A1;5/8"
  7
Arial
 11
0.0000000000000001
 21
1.0
 31
0.0
 73
     1
 44
1.0
1001
ACAD
1000
MTEXTBEGIN
1070
    73
1070
     1
1070
    44
1040
1.0
1070
    74
1070
     0
1000
MTEXTEND
  0
MTEXT
  5
DCB4
330
D38E
100
AcDbEntity
  8
0
 62
   255
100
AcDbMText
 10
1.917486883369101
 20
27.22583356085874
 30
0.0
 40
0.28
 41
0.0
 71
     5
 72
     1
  1
\A1;[16]
  7
Arial
 11
0.0000000000000001
 21
1.0
 31
0.0
 73
     1
 44
1.0
1001
ACAD
1000
MTEXTBEGIN
1070
    73
1070
     1
1070
    44
1040
1.0
1070
    74
1070
     0
1000
MTEXTEND
  0
SOLID
  5
DCB5
330
D38E
100
AcDbEntity
  8
0
100
AcDbTrace
 10
2.239345114383202
 20
26.66542456283169
 30
0.0
 11
2.322678447716535
 21
26.66542456283169
 31
0.0
 12
2.281011781049869
 22
26.91542456283169
 32
0.0
 13
2.281011781049869
 23
26.91542456283169
 33
0.0
  0
SOLID
  5
DCB6
330
D38E
100
AcDbEntity
  8
0
100
AcDbTrace
 10
2.239345114383203
 20
27.78624255888579
 30
0.0
 11
2.322678447716536
 21
27.78624255888579
 31
0.0
 12
2.281011781049869
 22
27.53624255888579
 32
0.0
 13
2.281011781049869
 23
27.53624255888579
 33
0.0
  0
POINT
  5
DCB7
330
D38E
100
AcDbEntity
  8
Defpoints
 62
     0
100
AcDbPoint
 10
3.025993376314797
 20
26.91542456283169
 30
0.0
  0
POINT
  5
DCB8
330
D38E
100
AcDbEntity
  8
Defpoints
 62
     0
100
AcDbPoint
 10
3.025993376314797
 20
27.53624255888579
 30
0.0
  0
POINT
  5
DCB9
330
D38E
100
AcDbEntity
  8
Defpoints
 62
     0
100
AcDbPoint
 10
2.281011781049869
 20
27.53624255888579
 30
0.0
  0
ENDBLK
  5
D39B
330
D38E
100
AcDbEntity
  8
0
100
AcDbBlockEnd
  0
BLOCK
  5
D3A7
330
D39C
100
AcDbEntity
  8
0
100
AcDbBlockBegin
  2
*D60
 70
     1
 10
0.0
 20
0.0
 30
0.0
  3
*D60
  1

  0
LINE
  5
DC9A
330
D39C
100
AcDbEntity
  8
0
100
AcDbLine
 10
3.025993376314797
 20
26.66542456283169
 30
0.0
 11
3.025993376314797
 21
26.04544296756677
 31
0.0
  0
LINE
  5
DC9B
330
D39C
100
AcDbEntity
  8
0
100
AcDbLine
 10
5.447680215322629
 20
26.66542456283169
 30
0.0
 11
5.447680215322629
 21
26.04544296756677
 31
0.0
  0
LINE
  5
DC9C
330
D39C
100
AcDbEntity
  8
0
100
AcDbLine
 10
3.275993376314797
 20
26.17044296756677
 30
0.0
 11
3.576042116418987
 21
26.17044296756677
 31
0.0
  0
LINE
  5
DC9D
330
D39C
100
AcDbEntity
  8
0
100
AcDbLine
 10
5.197680215322629
 20
26.17044296756677
 30
0.0
 11
4.897631475218441
 21
26.17044296756677
 31
0.0
  0
MTEXT
  5
DC9E
330
D39C
100
AcDbEntity
  8
0
 62
   255
100
AcDbMText
 10
4.236836795818714
 20
26.17044296756677
 30
0.0
 40
0.28
 41
0.0
 71
     5
 72
     1
  1
\A1;2 7/16"\P [62]
  7
Arial
 73
     1
 44
1.0
1001
ACAD
1000
MTEXTBEGIN
1070
    73
1070
     1
1070
    44
1040
1.0
1070
    74
1070
     0
1000
MTEXTEND
  0
SOLID
  5
DC9F
330
D39C
100
AcDbEntity
  8
0
100
AcDbTrace
 10
3.275993376314797
 20
26.21210963423344
 30
0.0
 11
3.275993376314797
 21
26.1287763009001
 31
0.0
 12
3.025993376314797
 22
26.17044296756677
 32
0.0
 13
3.025993376314797
 23
26.17044296756677
 33
0.0
  0
SOLID
  5
DCA0
330
D39C
100
AcDbEntity
  8
0
100
AcDbTrace
 10
5.197680215322629
 20
26.21210963423344
 30
0.0
 11
5.197680215322629
 21
26.1287763009001
 31
0.0
 12
5.447680215322629
 22
26.17044296756677
 32
0.0
 13
5.447680215322629
 23
26.17044296756677
 33
0.0
  0
POINT
  5
DCA1
330
D39C
100
AcDbEntity
  8
Defpoints
 62
     0
100
AcDbPoint
 10
3.025993376314797
 20
26.91542456283169
 30
0.0
  0
POINT
  5
DCA2
330
D39C
100
AcDbEntity
  8
Defpoints
 62
     0
100
AcDbPoint
 10
5.447680215322629
 20
26.91542456283169
 30
0.0
  0
POINT
  5
DCA3
330
D39C
100
AcDbEntity
  8
Defpoints
 62
     0
100
AcDbPoint
 10
5.447680215322629
 20
26.17044296756677
 30
0.0
  0
ENDBLK
  5
D3A8
330
D39C
100
AcDbEntity
  8
0
100
AcDbBlockEnd
  0
BLOCK
  5
D3B5
330
D3A9
100
AcDbEntity
  8
0
100
AcDbBlockBegin
  2
*D61
 70
     1
 10
0.0
 20
0.0
 30
0.0
  3
*D61
  1

  0
LINE
  5
DC85
330
D3A9
100
AcDbEntity
  8
0
100
AcDbLine
 10
8.77616280780489
 20
27.54214736517979
 30
0.0
 11
8.156181212539962
 21
27.54214736517979
 31
0.0
  0
LINE
  5
DC86
330
D3A9
100
AcDbEntity
  8
0
100
AcDbLine
 10
8.77616280780489
 20
26.92132936912569
 30
0.0
 11
8.156181212539962
 21
26.92132936912569
 31
0.0
  0
LINE
  5
DC87
330
D3A9
100
AcDbEntity
  8
0
100
AcDbLine
 10
8.281181212539962
 20
27.79214736517979
 30
0.0
 11
8.281181212539964
 21
28.04214736517979
 31
0.0
  0
LINE
  5
DC88
330
D3A9
100
AcDbEntity
  8
0
100
AcDbLine
 10
8.281181212539962
 20
26.67132936912569
 30
0.0
 11
8.281181212539962
 21
26.42132936912569
 31
0.0
  0
MTEXT
  5
DC89
330
D3A9
100
AcDbEntity
  8
0
 62
   255
100
AcDbMText
 10
7.46844076233532
 20
27.23173836715274
 30
0.0
 40
0.28
 41
0.0
 71
     5
 72
     1
  1
\A1;5/8"
  7
Arial
 11
0.0000000000000001
 21
1.0
 31
0.0
 73
     1
 44
1.0
1001
ACAD
1000
MTEXTBEGIN
1070
    73
1070
     1
1070
    44
1040
1.0
1070
    74
1070
     0
1000
MTEXTEND
  0
MTEXT
  5
DC8A
330
D3A9
100
AcDbEntity
  8
0
 62
   255
100
AcDbMText
 10
7.917656314859195
 20
27.23173836715274
 30
0.0
 40
0.28
 41
0.0
 71
     5
 72
     1
  1
\A1;[16]
  7
Arial
 11
0.0000000000000001
 21
1.0
 31
0.0
 73
     1
 44
1.0
1001
ACAD
1000
MTEXTBEGIN
1070
    73
1070
     1
1070
    44
1040
1.0
1070
    74
1070
     0
1000
MTEXTEND
  0
SOLID
  5
DC8B
330
D3A9
100
AcDbEntity
  8
0
100
AcDbTrace
 10
8.239514545873296
 20
27.79214736517979
 30
0.0
 11
8.322847879206628
 21
27.79214736517979
 31
0.0
 12
8.281181212539962
 22
27.54214736517979
 32
0.0
 13
8.281181212539962
 23
27.54214736517979
 33
0.0
  0
SOLID
  5
DC8C
330
D3A9
100
AcDbEntity
  8
0
100
AcDbTrace
 10
8.239514545873296
 20
26.67132936912569
 30
0.0
 11
8.322847879206628
 21
26.67132936912569
 31
0.0
 12
8.281181212539962
 22
26.92132936912569
 32
0.0
 13
8.281181212539962
 23
26.92132936912569
 33
0.0
  0
POINT
  5
DC8D
330
D3A9
100
AcDbEntity
  8
Defpoints
 62
     0
100
AcDbPoint
 10
9.02616280780489
 20
27.54214736517979
 30
0.0
  0
POINT
  5
DC8E
330
D3A9
100
AcDbEntity
  8
Defpoints
 62
     0
100
AcDbPoint
 10
9.02616280780489
 20
26.92132936912569
 30
0.0
  0
POINT
  5
DC8F
330
D3A9
100
AcDbEntity
  8
Defpoints
 62
     0
100
AcDbPoint
 10
8.281181212539962
 20
26.92132936912569
 30
0.0
  0
ENDBLK
  5
D3B6
330
D3A9
100
AcDbEntity
  8
0
100
AcDbBlockEnd
  0
BLOCK
  5
D3C2
330
D3B7
100
AcDbEntity
  8
0
100
AcDbBlockBegin
  2
*D62
 70
     1
 10
0.0
 20
0.0
 30
0.0
  3
*D62
  1

  0
LINE
  5
DC70
330
D3B7
100
AcDbEntity
  8
0
100
AcDbLine
 10
9.02616280780489
 20
26.67132936912569
 30
0.0
 11
9.02616280780489
 21
26.05134777386077
 31
0.0
  0
LINE
  5
DC71
330
D3B7
100
AcDbEntity
  8
0
100
AcDbLine
 10
13.433970579789
 20
26.67132936912569
 30
0.0
 11
13.433970579789
 21
26.05134777386077
 31
0.0
  0
LINE
  5
DC72
330
D3B7
100
AcDbEntity
  8
0
100
AcDbLine
 10
9.27616280780489
 20
26.17634777386077
 30
0.0
 11
10.56602508397429
 21
26.17634777386077
 31
0.0
  0
LINE
  5
DC73
330
D3B7
100
AcDbEntity
  8
0
100
AcDbLine
 10
13.183970579789
 20
26.17634777386077
 30
0.0
 11
11.89410830361959
 21
26.17634777386077
 31
0.0
  0
MTEXT
  5
DC74
330
D3B7
100
AcDbEntity
  8
0
 62
   255
100
AcDbMText
 10
11.23006669379694
 20
26.17634777386077
 30
0.0
 40
0.28
 41
0.0
 71
     5
 72
     1
  1
\A1;4 7/16"\P [112]
  7
Arial
 73
     1
 44
1.0
1001
ACAD
1000
MTEXTBEGIN
1070
    73
1070
     1
1070
    44
1040
1.0
1070
    74
1070
     0
1000
MTEXTEND
  0
SOLID
  5
DC75
330
D3B7
100
AcDbEntity
  8
0
100
AcDbTrace
 10
9.27616280780489
 20
26.21801444052744
 30
0.0
 11
9.27616280780489
 21
26.1346811071941
 31
0.0
 12
9.02616280780489
 22
26.17634777386077
 32
0.0
 13
9.02616280780489
 23
26.17634777386077
 33
0.0
  0
SOLID
  5
DC76
330
D3B7
100
AcDbEntity
  8
0
100
AcDbTrace
 10
13.183970579789
 20
26.21801444052744
 30
0.0
 11
13.183970579789
 21
26.1346811071941
 31
0.0
 12
13.433970579789
 22
26.17634777386077
 32
0.0
 13
13.433970579789
 23
26.17634777386077
 33
0.0
  0
POINT
  5
DC77
330
D3B7
100
AcDbEntity
  8
Defpoints
 62
     0
100
AcDbPoint
 10
9.02616280780489
 20
26.92132936912569
 30
0.0
  0
POINT
  5
DC78
330
D3B7
100
AcDbEntity
  8
Defpoints
 62
     0
100
AcDbPoint
 10
13.433970579789
 20
26.92132936912569
 30
0.0
  0
POINT
  5
DC79
330
D3B7
100
AcDbEntity
  8
Defpoints
 62
     0
100
AcDbPoint
 10
13.433970579789
 20
26.17634777386077
 30
0.0
  0
ENDBLK
  5
D3C3
330
D3B7
100
AcDbEntity
  8
0
100
AcDbBlockEnd
  0
ENDSEC
  0
SECTION
  2
ENTITIES
  0
INSERT
  5
D0D1
330
1F
100
AcDbEntity
  8
0
100
AcDbBlockReference
  2
31D0 Colonial
 10
3.025993376314799
 20
30.26784174152382
 30
0.0
  0
DIMENSION
  5
D0D2
330
1F
100
AcDbEntity
  8
0
100
AcDbDimension
  2
*D50
 10
13.05575082577345
 20
3.59036657470569
 30
0.0
 11
13.05575082577345
 21
4.321153359579511
 31
0.0
 70
   160
 71
     5
 42
0.6899175222869048
  3
6 inch Scale
100
AcDbAlignedDimension
 13
12.31076923050853
 23
2.900449052418785
 33
0.0
 14
12.31076923050853
 24
3.59036657470569
 34
0.0
 50
90.0
100
AcDbRotatedDimension
1001
ACAD
1000
DSTYLE
1002
{
1070
   140
1040
0.28
1070
   285
1070
     4
1002
}
  0
DIMENSION
  5
D0D3
330
1F
100
AcDbEntity
  8
0
100
AcDbDimension
  2
*D51
 10
4.919239937081387
 20
3.550532145286048
 30
0.0
 11
4.919239937081387
 21
4.281318930159869
 31
0.0
 70
   160
 71
     5
 42
0.6899175222869048
  3
6 inch Scale
100
AcDbAlignedDimension
 13
4.174258341816466
 23
2.860614622999143
 33
0.0
 14
4.174258341816466
 24
3.550532145286048
 34
0.0
 50
90.0
100
AcDbRotatedDimension
1001
ACAD
1000
DSTYLE
1002
{
1070
   140
1040
0.28
1070
   285
1070
     4
1002
}
  0
LINE
  5
D0D4
330
1F
100
AcDbEntity
  8
0
100
AcDbLine
 10
26.75314521817523
 20
17.49256360864531
 30
0.0
 11
21.35252530690141
 21
17.49256360864531
 31
0.0
  0
MTEXT
  5
D0D5
330
1F
100
AcDbEntity
  8
0
100
AcDbMText
 10
3.554143930315708
 20
6.594812864899179
 30
0.0
 40
0.2781264622322364
 41
4.342861978849995
 71
     2
 72
     5
  1
1-7/8" BRICKMOULD
 73
     1
 44
1.0
1001
ACAD
1000
MTEXTBEGIN
1070
    73
1070
     1
1070
    44
1040
1.0
1070
    74
1070
     0
1000
MTEXTEND
  0
MTEXT
  5
D0D6
330
1F
100
AcDbEntity
  8
0
100
AcDbMText
 10
24.16085988098708
 20
16.84672301752104
 30
0.0
 40
0.2781264622322364
 41
3.099918083337013
 71
     2
 72
     5
  1
1 7/8" SUBSILL #250H
 73
     1
 44
1.0
1001
ACAD
1000
MTEXTBEGIN
1070
    73
1070
     1
1070
    44
1040
1.0
1070
    74
1070
     0
1000
MTEXTEND
  0
LINE
  5
D0D7
330
1F
100
AcDbEntity
  8
0
100
AcDbLine
 10
26.75314521817523
 20
21.16165643329273
 30
0.0
 11
26.56739647375584
 21
21.16165643329273
 31
0.0
  0
DIMENSION
  5
D0D8
330
1F
100
AcDbEntity
  8
0
100
AcDbDimension
  2
*D52
 10
26.75314521817523
 20
21.16165643329273
 30
0.0
 11
26.66027084596553
 21
21.76664449604853
 31
0.0
 70
    32
 71
     5
 42
0.185748744419385
  3
6 inch Scale
100
AcDbAlignedDimension
 13
26.56739647375584
 23
20.4166748380278
 33
0.0
 14
26.75314521817523
 24
20.4166748380278
 34
0.0
100
AcDbRotatedDimension
1001
ACAD
1000
DSTYLE
1002
{
1070
   140
1040
0.28
1070
   271
1070
     5
1070
   285
1070
     4
1002
}
  0
LINE
  5
D0D9
330
1F
100
AcDbEntity
  8
0
100
AcDbLine
 10
27.49812681344014
 20
20.16186113452163
 30
0.0
 11
27.49812681344014
 21
20.4166748380278
 31
0.0
  0
DIMENSION
  5
D0DA
330
1F
100
AcDbEntity
  8
0
100
AcDbDimension
  2
*D53
 10
27.49812681344015
 20
20.4166748380278
 30
0.0
 11
28.17632124392107
 21
20.28926798627472
 31
0.0
 70
   160
 71
     5
 42
0.2548137035061728
 53
90.0
  3
6 inch Scale
100
AcDbAlignedDimension
 13
26.75314521817523
 23
20.16186113452163
 33
0.0
 14
26.75314521817523
 24
20.4166748380278
 34
0.0
 50
90.0
100
AcDbRotatedDimension
1001
ACAD
1000
DSTYLE
1002
{
1070
   140
1040
0.28
1070
   271
1070
     5
1070
   285
1070
     4
1002
}
  0
DIMENSION
  5
D0DB
330
1F
100
AcDbEntity
  8
0
100
AcDbDimension
  2
*D54
 10
27.49812681344015
 20
18.83501340647251
 30
0.0
 11
28.17632124392107
 21
18.70760655471942
 31
0.0
 70
   160
 71
     5
 42
0.2548137035061728
 53
90.0
  3
6 inch Scale
100
AcDbAlignedDimension
 13
26.75314521817523
 23
18.58019970296634
 33
0.0
 14
26.75314521817523
 24
18.83501340647251
 34
0.0
 50
90.0
100
AcDbRotatedDimension
1001
ACAD
1000
DSTYLE
1002
{
1070
   140
1040
0.28
1070
   271
1070
     5
1070
   285
1070
     4
1002
}
  0
LINE
  5
D0DC
330
1F
100
AcDbEntity
  8
0
100
AcDbLine
 10
27.49812681344014
 20
18.58019970296634
 30
0.0
 11
27.49812681344014
 21
18.83501340647251
 31
0.0
  0
LINE
  5
D0DD
330
1F
100
AcDbEntity
  8
0
100
AcDbLine
 10
9.172091537264837
 20
18.58019970296634
 30
0.0
 11
9.172091537264837
 21
18.83501340647251
 31
0.0
  0
DIMENSION
  5
D0DE
330
1F
100
AcDbEntity
  8
0
100
AcDbDimension
  2
*D55
 10
9.172091537264838
 20
18.83501340647251
 30
0.0
 11
9.850285967745763
 21
18.70760655471942
 31
0.0
 70
   160
 71
     5
 42
0.2548137035061728
 53
90.0
  3
6 inch Scale
100
AcDbAlignedDimension
 13
8.427109941999919
 23
18.58019970296634
 33
0.0
 14
8.427109941999919
 24
18.83501340647251
 34
0.0
 50
90.0
100
AcDbRotatedDimension
1001
ACAD
1000
DSTYLE
1002
{
1070
   140
1040
0.28
1070
   271
1070
     5
1070
   285
1070
     4
1002
}
  0
MTEXT
  5
D0DF
330
1F
100
AcDbEntity
  8
0
100
AcDbMText
 10
3.615025490970928
 20
1.370651432469301
 30
0.0
 40
0.2781264622322364
 41
3.0
 71
     2
 72
     5
  1
CURVED WITH RABBET\P#33M4\P 
 73
     1
 44
1.0
1001
ACAD
1000
MTEXTBEGIN
1070
    73
1070
     1
1070
    44
1040
1.0
1070
    74
1070
     0
1000
MTEXTEND
  0
MTEXT
  5
D0E0
330
1F
100
AcDbEntity
  8
0
100
AcDbMText
 10
8.181084723650281
 20
1.370651432469301
 30
0.0
 40
0.2781264622322364
 41
4.0
 71
     2
 72
     5
  1
CURVED\PWITHOUT RABBET\P#33P2
 73
     1
 44
1.0
1001
ACAD
1000
MTEXTBEGIN
1070
    73
1070
     1
1070
    44
1040
1.0
1070
    74
1070
     0
1000
MTEXTEND
  0
MTEXT
  5
D0E1
330
1F
100
AcDbEntity
  8
0
100
AcDbMText
 10
8.003591474110823
 20
9.300118086144891
 30
0.0
 40
0.2781264622322364
 41
3.099918083337013
 71
     2
 72
     5
  1
BRICKMOULD WITHOUT RABBET\P#38L5
  7
Arial
 73
     1
 44
1.0
1001
ACAD
1000
MTEXTBEGIN
1070
    73
1070
     1
1070
    44
1040
1.0
1070
    74
1070
     0
1000
MTEXTEND
  0
MTEXT
  5
D0E2
330
1F
100
AcDbEntity
  8
0
100
AcDbMText
 10
3.428722334955002
 20
8.833222514613265
 30
0.0
 40
0.2781264622322364
 41
3.099918083337013
 71
     2
 72
     5
  1
 BRICKMOULD\PWITH  RABBET\P#38L6
 73
     1
 44
1.0
1001
ACAD
1000
MTEXTBEGIN
1070
    73
1070
     1
1070
    44
1040
1.0
1070
    74
1070
     0
1000
MTEXTEND
  0
MTEXT
  5
D0E3
330
1F
100
AcDbEntity
  8
0
100
AcDbMText
 10
16.24841363396825
 20
1.36753180039734
 30
0.0
 40
0.2781264622322364
 41
3.099918083337013
 71
     2
 72
     5
  1
WITHOUT RABBET\P#3419
 73
     1
 44
1.0
1001
ACAD
1000
MTEXTBEGIN
1070
    73
1070
     1
1070
    44
1040
1.0
1070
    74
1070
     0
1000
MTEXTEND
  0
MTEXT
  5
D0E4
330
1F
100
AcDbEntity
  8
0
100
AcDbMText
 10
11.8082067037406
 20
1.334997713988769
 30
0.0
 40
0.2781264622322364
 41
3.099918083337013
 71
     2
 72
     5
  1
WITH  RABBET\P#3443
 73
     1
 44
1.0
1001
ACAD
1000
MTEXTBEGIN
1070
    73
1070
     1
1070
    44
1040
1.0
1070
    74
1070
     0
1000
MTEXTEND
  0
MTEXT
  5
D0E5
330
1F
100
AcDbEntity
  8
0
100
AcDbMText
 10
13.66181209218224
 20
17.11448126005318
 30
0.0
 40
0.2781264622322364
 41
3.099918083337013
 71
     2
 72
     5
  1
 DOUBLE-HUNG SILL NOSE\P#3315
 73
     1
 44
1.0
1001
ACAD
1000
MTEXTBEGIN
1070
    73
1070
     1
1070
    44
1040
1.0
1070
    74
1070
     0
1000
MTEXTEND
  0
MTEXT
  5
D0E6
330
1F
100
AcDbEntity
  8
0
100
AcDbMText
 10
5.834824604811759
 20
16.97019160590962
 30
0.0
 40
0.2781264622322364
 41
3.099918083337013
 71
     2
 72
     5
  1
1 1/8" SUBSILL #3544 
 73
     1
 44
1.0
1001
ACAD
1000
MTEXTBEGIN
1070
    73
1070
     1
1070
    44
1040
1.0
1070
    74
1070
     0
1000
MTEXTEND
  0
MTEXT
  5
D0E7
330
1F
100
AcDbEntity
  8
0
100
AcDbMText
 10
11.06814385761345
 20
25.43136617859585
 30
0.0
 40
0.2781264622322364
 41
3.099918083337013
 71
     2
 72
     5
  1
 4-7/16" STOOL\P#3204
 73
     1
 44
1.0
1001
ACAD
1000
MTEXTBEGIN
1070
    73
1070
     1
1070
    44
1040
1.0
1070
    74
1070
     0
1000
MTEXTEND
  0
MTEXT
  5
D0E8
330
1F
100
AcDbEntity
  8
0
100
AcDbMText
 10
4.287706892318871
 20
25.42546137230186
 30
0.0
 40
0.2781264622322364
 41
3.099918083337013
 71
     2
 72
     5
  1
 2-7/16" STOOL\P#3146
 73
     1
 44
1.0
1001
ACAD
1000
MTEXTBEGIN
1070
    73
1070
     1
1070
    44
1040
1.0
1070
    74
1070
     0
1000
MTEXTEND
  0
MTEXT
  5
D0E9
330
1F
100
AcDbEntity
  8
0
100
AcDbMText
 10
3.107433422328833
 20
29.52286014625891
 30
0.0
 40
0.2781264622322364
 41
3.436794018159749
 71
     2
 72
     5
  1
CONTEMPORARY \P#31D5
 73
     1
 44
1.0
1001
ACAD
1000
MTEXTBEGIN
1070
    73
1070
     1
1070
    44
1040
1.0
1070
    74
1070
     0
1000
MTEXTEND
  0
MTEXT
  5
D0EA
330
1F
100
AcDbEntity
  8
0
100
AcDbMText
 10
6.285295813567726
 20
29.52286014625891
 30
0.0
 40
0.2781264622322364
 41
2.542667708672742
 71
     2
 72
     5
  1
COLONIAL\P#31D0
 73
     1
 44
1.0
1001
ACAD
1000
MTEXTBEGIN
1070
    73
1070
     1
1070
    44
1040
1.0
1070
    74
1070
     0
1000
MTEXTEND
  0
MTEXT
  5
D0EB
330
1F
100
AcDbEntity
  8
0
100
AcDbMText
 10
22.85677845793407
 20
25.53004878142598
 30
0.0
 40
0.2781264622322364
 41
3.099918083337013
 71
     2
 72
     5
  1
ROSETTE 
 73
     1
 44
1.0
1001
ACAD
1000
MTEXTBEGIN
1070
    73
1070
     1
1070
    44
1040
1.0
1070
    74
1070
     0
1000
MTEXTEND
  0
INSERT
  5
D0EC
102
{ACAD_REACTORS
330
D102
102
}
330
1F
100
AcDbEntity
  8
0
100
AcDbBlockReference
  2
ACC31D0 Colonial
 10
6.285295813567724
 20
30.26784174152382
 30
0.0
 41
0.9933087936865586
 42
0.9933087936865589
 43
0.9933087936865586
  0
INSERT
  5
D0ED
102
{ACAD_REACTORS
330
D106
330
D10A
102
}
330
1F
100
AcDbEntity
  8
0
100
AcDbBlockReference
  2
acc3146 Narrow Stool
 10
3.025993376314797
 20
26.91542456283169
 30
0.0
 41
0.9933087936865586
 42
0.9933087936865589
 43
0.9933087936865586
  0
INSERT
  5
D0EE
102
{ACAD_REACTORS
330
D10E
330
D111
102
}
330
1F
100
AcDbEntity
  8
0
100
AcDbBlockReference
  2
ACC3204 Wide Stool
 10
9.02616280780489
 20
26.92132936912569
 30
0.0
 41
0.9933087936865586
 42
0.9933087936865589
 43
0.9933087936865586
  0
INSERT
  5
D0EF
330
1F
100
AcDbEntity
  8
0
100
AcDbBlockReference
  2
3315
 10
14.17196124147343
 20
19.16417687096091
 30
0.0
 41
0.9933087936865586
 42
0.9933087936865589
 43
0.9933087936865586
  0
LINE
  5
D0F0
330
1F
100
AcDbEntity
  8
0
100
AcDbLine
 10
2.281011781049876
 20
30.26784174152382
 30
0.0
 11
2.281011781049876
 21
32.50278652731859
 31
0.0
  0
DIMENSION
  5
D0F1
330
1F
100
AcDbEntity
  8
0
100
AcDbDimension
  2
*D56
 10
2.281011781049873
 20
32.50278652731859
 30
0.0
 11
2.281011781049878
 21
31.38531413442121
 31
0.0
 70
   160
 71
     5
 42
2.234944785794766
  3
6 inch Scale
100
AcDbAlignedDimension
 13
3.025993376314799
 23
30.26784174152382
 33
0.0
 14
3.025993376314799
 24
32.50278652731859
 34
0.0
 50
90.0
100
AcDbRotatedDimension
1001
ACAD
1000
DSTYLE
1002
{
1070
   171
1070
     0
1070
   285
1070
     4
1070
   148
1040
0.0
1070
   140
1040
0.28
1002
}
  0
DIMENSION
  5
D0F2
330
1F
100
AcDbEntity
  8
0
100
AcDbDimension
  2
*D57
 10
3.711376443958522
 20
32.99944092416187
 30
0.0
 11
3.36868491013666
 21
33.60490647668574
 31
0.0
 70
    32
 71
     5
 42
0.6853830676437252
  3
6 inch Scale
100
AcDbAlignedDimension
 13
3.025993376314797
 23
32.50278652731859
 33
0.0
 14
3.711376443958522
 24
32.50278652731859
 34
0.0
100
AcDbRotatedDimension
1001
ACAD
1000
DSTYLE
1002
{
1070
   271
1070
     3
1070
   140
1040
0.28
1070
   285
1070
     4
1002
}
  0
INSERT
  5
D0F3
330
1F
100
AcDbEntity
  8
0
100
AcDbBlockReference
  2
3544
 10
4.081383969621224
 20
19.70248579936989
 30
0.0
 41
0.9933087936865586
 42
0.9933087936865589
 43
0.9933087936865586
  0
INSERT
  5
D0F4
330
1F
100
AcDbEntity
  8
0
100
AcDbBlockReference
  2
33M4
 10
3.987516288603389
 20
3.544011073055493
 30
0.0
 41
0.9933087936865586
 42
0.9933087936865589
 43
0.9933087936865586
  0
INSERT
  5
D0F5
330
1F
100
AcDbEntity
  8
0
100
AcDbBlockReference
  2
33P2
 10
8.646946547889273
 20
3.548833449694715
 30
0.0
 41
0.9933087936865586
 42
0.9933087936865589
 43
0.9933087936865586
  0
INSERT
  5
D0F6
330
1F
100
AcDbEntity
  8
0
100
AcDbBlockReference
  2
38L5
 10
8.46183068543398
 20
11.25973173026032
 30
0.0
 41
0.9933087936865586
 42
0.9933087936865589
 43
0.9933087936865586
  0
INSERT
  5
D0F7
330
1F
100
AcDbEntity
  8
0
100
AcDbBlockReference
  2
38L6
 10
3.801213132587461
 20
11.25490935362109
 30
0.0
 41
0.9933087936865586
 42
0.9933087936865589
 43
0.9933087936865586
  0
INSERT
  5
D0F8
330
1F
100
AcDbEntity
  8
0
100
AcDbBlockReference
  2
3419
 10
17.01615964387148
 20
3.478312906039676
 30
0.0
 41
0.9933087936865586
 42
0.9933087936865589
 43
0.9933087936865586
  0
INSERT
  5
D0F9
330
1F
100
AcDbEntity
  8
0
100
AcDbBlockReference
  2
3443
 10
12.12402717729545
 20
3.583845502475135
 30
0.0
 41
0.9933087936865586
 42
0.9933087936865589
 43
0.9933087936865586
  0
INSERT
  5
D0FA
330
1F
100
AcDbEntity
  8
0
100
AcDbBlockReference
  2
ACC32E6
 10
21.36681526740423
 20
26.28648038592515
 30
0.0
 41
0.9933087936865586
 42
0.9933087936865589
 43
0.9933087936865586
  0
INSERT
  5
D0FB
330
1F
100
AcDbEntity
  8
0
100
AcDbBlockReference
  2
ACC380R
 10
12.413093725246
 20
11.25441269922425
 30
0.0
 41
0.9933087936865589
 42
0.9933087936865589
 43
0.9933087936865586
 50
90.0
  0
MTEXT
  5
D0FC
330
1F
100
AcDbEntity
  8
0
100
AcDbMText
 10
12.04010627321669
 20
8.833222514613268
 30
0.0
 40
0.2781264622322364
 41
3.099918083337013
 71
     2
 72
     5
  1
3-1/2" FLAT CASING\P#380R
 73
     1
 44
1.0
1001
ACAD
1000
MTEXTBEGIN
1070
    73
1070
     1
1070
    44
1040
1.0
1070
    74
1070
     0
1000
MTEXTEND
  0
DIMENSION
  5
D0FD
330
1F
100
AcDbEntity
  8
0
100
AcDbDimension
  2
*D15
 10
7.030277408832644
 20
32.99944092416187
 30
0.0
 11
6.657786611200184
 21
33.60500197463936
 31
0.0
 70
    32
 71
     5
 42
0.7449815952649193
  3
6 inch Scale
100
AcDbAlignedDimension
 13
6.285295813567724
 23
32.50278652731859
 33
0.0
 14
7.030277408832644
 24
32.50278652731859
 34
0.0
100
AcDbRotatedDimension
1001
ACAD
1000
DSTYLE
1002
{
1070
   140
1040
0.28
1070
   271
1070
     3
1070
   285
1070
     4
1002
}
  0
DIMENSION
  5
D0FE
330
1F
100
AcDbEntity
  8
0
100
AcDbDimension
  2
*D16
 10
24.34674164846391
 20
30.01138836224975
 30
0.0
 11
22.85677845793407
 21
30.01138836224975
 31
0.0
 70
   160
 71
     5
 42
2.979926381059676
  3
6 inch Scale
100
AcDbAlignedDimension
 13
21.36681526740423
 23
29.26640676698483
 33
0.0
 14
24.34674164846391
 24
29.26640676698483
 34
0.0
100
AcDbRotatedDimension
1001
ACAD
1000
DSTYLE
1002
{
1070
   140
1040
0.28
1070
   271
1070
     3
1070
   285
1070
     4
1002
}
  0
LINE
  5
D0FF
330
1F
100
AcDbEntity
  8
0
100
AcDbLine
 10
24.34674164846391
 20
30.01138836224975
 30
0.0
 11
21.36681526740423
 21
30.01138836224975
 31
0.0
  0
DIMENSION
  5
D100
102
{ACAD_XDICTIONARY
360
D101
102
}
102
{ACAD_REACTORS
330
D102
102
}
330
1F
100
AcDbEntity
  8
0
100
AcDbDimension
  2
*D58
 10
5.540314550520955
 20
30.26784174152382
 30
0.0
 11
5.540314550520959
 21
31.38531413442121
 31
0.0
 70
   160
 71
     5
 42
2.234944785794759
  3
6 inch Scale
100
AcDbAlignedDimension
 13
6.285295813567724
 23
32.50278652731859
 33
0.0
 14
6.285295813567724
 24
30.26784174152382
 34
0.0
 50
90.0
100
AcDbRotatedDimension
1001
ACAD
1000
DSTYLE
1002
{
1070
   140
1040
0.28
1070
   285
1070
     4
1002
}
  0
LINE
  5
D103
330
1F
100
AcDbEntity
  8
0
100
AcDbLine
 10
5.540314550520959
 20
32.50278652731858
 30
0.0
 11
5.540314550520959
 21
30.26784174152384
 31
0.0
  0
DIMENSION
  5
D104
102
{ACAD_XDICTIONARY
360
D105
102
}
102
{ACAD_REACTORS
330
D106
102
}
330
1F
100
AcDbEntity
  8
0
100
AcDbDimension
  2
*D59
 10
2.281011781049869
 20
27.53624255888579
 30
0.0
 11
1.67554622852599
 21
27.22583356085874
 31
0.0
 70
    32
 71
     5
 42
0.6208179960541003
  3
6 inch Scale
100
AcDbAlignedDimension
 13
3.025993376314797
 23
26.91542456283169
 33
0.0
 14
3.025993376314797
 24
27.53624255888579
 34
0.0
 50
90.0
100
AcDbRotatedDimension
1001
ACAD
1000
DSTYLE
1002
{
1070
   140
1040
0.28
1070
   285
1070
     4
1002
}
  0
LINE
  5
D107
330
1F
100
AcDbEntity
  8
0
100
AcDbLine
 10
2.281011781049878
 20
26.91542456283168
 30
0.0
 11
2.281011781049878
 21
27.5362425588858
 31
0.0
  0
DIMENSION
  5
D108
102
{ACAD_XDICTIONARY
360
D109
102
}
102
{ACAD_REACTORS
330
D10A
102
}
330
1F
100
AcDbEntity
  8
0
100
AcDbDimension
  2
*D60
 10
5.447680215322629
 20
26.17044296756677
 30
0.0
 11
4.236836795818714
 21
26.17044296756677
 31
0.0
 70
   160
 71
     5
 42
2.421686839007831
  3
6 inch Scale
100
AcDbAlignedDimension
 13
3.025993376314797
 23
26.91542456283169
 33
0.0
 14
5.447680215322629
 24
26.91542456283169
 34
0.0
100
AcDbRotatedDimension
1001
ACAD
1000
DSTYLE
1002
{
1070
   140
1040
0.28
1070
   285
1070
     4
1002
}
  0
LINE
  5
D10B
330
1F
100
AcDbEntity
  8
0
100
AcDbLine
 10
5.447680215322629
 20
26.17044296756677
 30
0.0
 11
3.025993376314797
 21
26.17044296756677
 31
0.0
  0
DIMENSION
  5
D10C
102
{ACAD_XDICTIONARY
360
D10D
102
}
102
{ACAD_REACTORS
330
D10E
102
}
330
1F
100
AcDbEntity
  8
0
100
AcDbDimension
  2
*D61
 10
8.281181212539962
 20
26.92132936912569
 30
0.0
 11
7.675715660016084
 21
27.23173836715274
 31
0.0
 70
    32
 71
     5
 42
0.6208179960541003
  3
6 inch Scale
100
AcDbAlignedDimension
 13
9.02616280780489
 23
27.54214736517979
 33
0.0
 14
9.02616280780489
 24
26.92132936912569
 34
0.0
 50
90.0
100
AcDbRotatedDimension
1001
ACAD
1000
DSTYLE
1002
{
1070
   140
1040
0.28
1070
   285
1070
     4
1002
}
  0
DIMENSION
  5
D10F
102
{ACAD_XDICTIONARY
360
D110
102
}
102
{ACAD_REACTORS
330
D111
102
}
330
1F
100
AcDbEntity
  8
0
100
AcDbDimension
  2
*D62
 10
13.433970579789
 20
26.17634777386077
 30
0.0
 11
11.23006669379694
 21
26.17634777386077
 31
0.0
 70
   160
 71
     5
 42
4.407807771984106
  3
6 inch Scale
100
AcDbAlignedDimension
 13
9.02616280780489
 23
26.92132936912569
 33
0.0
 14
13.433970579789
 24
26.92132936912569
 34
0.0
100
AcDbRotatedDimension
1001
ACAD
1000
DSTYLE
1002
{
1070
   140
1040
0.28
1070
   285
1070
     4
1002
}
  0
LINE
  5
D112
330
1F
100
AcDbEntity
  8
0
100
AcDbLine
 10
13.433970579789
 20
26.17634777386077
 30
0.0
 11
9.02616280780489
 21
26.17634777386077
 31
0.0
  0
LINE
  5
D113
330
1F
100
AcDbEntity
  8
0
100
AcDbLine
 10
8.281181212539969
 20
26.92132936912569
 30
0.0
 11
8.281181212539971
 21
27.54214736517979
 31
0.0
  0
DIMENSION
  5
D114
330
1F
100
AcDbEntity
  8
0
100
AcDbDimension
  2
*D17
 10
2.281011781049873
 20
19.36178088313541
 30
0.0
 11
2.281011781049882
 21
17.84003181120759
 31
0.0
 70
   160
 71
     5
 42
0.7767674766628972
  3
6 inch Scale
100
AcDbAlignedDimension
 13
3.025993376314801
 23
18.58501340647251
 33
0.0
 14
3.025993376300347
 24
19.36178088313541
 34
0.0
 50
90.0
100
AcDbRotatedDimension
1001
ACAD
1000
DSTYLE
1002
{
1070
   271
1070
     5
1070
   140
1040
0.28
1070
   285
1070
     4
1002
}
  0
DIMENSION
  5
D115
330
1F
100
AcDbEntity
  8
0
100
AcDbDimension
  2
*D18
 10
1.536030185784959
 20
19.67169322676561
 30
0.0
 11
1.536030185784963
 21
19.12835331661907
 31
0.0
 70
   160
 71
     5
 42
1.086679820293099
 53
90.0
  3
6 inch Scale
100
AcDbAlignedDimension
 13
3.025993376314801
 23
18.58501340647251
 33
0.0
 14
4.099162210410627
 24
19.67169322676561
 34
0.0
 50
90.0
100
AcDbRotatedDimension
1001
ACAD
1000
DSTYLE
1002
{
1070
   140
1040
0.28
1070
   271
1070
     5
1070
   285
1070
     4
1002
}
  0
DIMENSION
  5
D116
330
1F
100
AcDbEntity
  8
0
100
AcDbDimension
  2
*D19
 10
2.281011781049874
 20
19.67169322676561
 30
0.0
 11
2.281011781049882
 21
20.32162843349881
 31
0.0
 70
   160
 71
     5
 42
0.3099123436302023
 53
90.0
  3
6 inch Scale
100
AcDbAlignedDimension
 13
3.025993376314801
 23
19.36178088313541
 33
0.0
 14
4.099162210410627
 24
19.67169322676561
 34
0.0
 50
90.0
100
AcDbRotatedDimension
1001
ACAD
1000
DSTYLE
1002
{
1070
   140
1040
0.28
1070
   271
1070
     5
1070
   285
1070
     4
1002
}
  0
LINE
  5
D117
330
1F
100
AcDbEntity
  8
0
100
AcDbLine
 10
2.28101178104988
 20
19.36178088313541
 30
0.0
 11
2.28101178104988
 21
19.67169322676561
 31
0.0
  0
LINE
  5
D118
330
1F
100
AcDbEntity
  8
0
100
AcDbLine
 10
1.536030185784962
 20
19.67169322676561
 30
0.0
 11
1.536030185784962
 21
18.58501340647252
 31
0.0
  0
DIMENSION
  5
D119
330
1F
100
AcDbEntity
  8
0
100
AcDbDimension
  2
*D20
 10
8.427109941999919
 20
17.84003181120759
 30
0.0
 11
5.72655165915736
 21
17.84003181120759
 31
0.0
 70
   160
 71
     5
 42
5.401116565685118
  3
6 inch Scale
100
AcDbAlignedDimension
 13
3.025993376314801
 23
18.58501340647251
 33
0.0
 14
8.427109941999919
 24
18.58501340647251
 34
0.0
100
AcDbRotatedDimension
1001
ACAD
1000
DSTYLE
1002
{
1070
   140
1040
0.28
1070
   271
1070
     5
1070
   285
1070
     4
1002
}
  0
DIMENSION
  5
D11A
330
1F
100
AcDbEntity
  8
0
100
AcDbDimension
  2
*D21
 10
8.427109941999919
 20
20.41667482203054
 30
0.0
 11
8.334235569790227
 21
21.02166288478633
 31
0.0
 70
    32
 71
     5
 42
0.185748744419385
  3
6 inch Scale
100
AcDbAlignedDimension
 13
8.241361197580534
 23
19.67169322676561
 33
0.0
 14
8.427109941999919
 24
19.67169322676561
 34
0.0
100
AcDbRotatedDimension
1001
ACAD
1000
DSTYLE
1002
{
1070
   140
1040
0.28
1070
   271
1070
     5
1070
   285
1070
     4
1002
}
  0
DIMENSION
  5
D11B
330
1F
100
AcDbEntity
  8
0
100
AcDbDimension
  2
*D22
 10
9.172091537264838
 20
19.67169322676561
 30
0.0
 11
9.850285967745763
 21
19.54428637501253
 31
0.0
 70
   160
 71
     5
 42
0.2548137035061728
 53
90.0
  3
6 inch Scale
100
AcDbAlignedDimension
 13
8.427109941999919
 23
19.41687952325944
 33
0.0
 14
8.427109941999919
 24
19.67169322676561
 34
0.0
 50
90.0
100
AcDbRotatedDimension
1001
ACAD
1000
DSTYLE
1002
{
1070
   140
1040
0.28
1070
   271
1070
     5
1070
   285
1070
     4
1002
}
  0
DIMENSION
  5
D11C
330
1F
100
AcDbEntity
  8
0
100
AcDbDimension
  2
*D23
 10
14.34777691382306
 20
17.84003181120759
 30
0.0
 11
13.66487713296683
 21
17.84003181120759
 31
0.0
 70
   160
 71
     5
 42
1.365799561712456
  3
6 inch Scale
100
AcDbAlignedDimension
 13
12.98197735211061
 23
18.58501340647251
 33
0.0
 14
14.34777691382306
 24
18.58501340647251
 34
0.0
100
AcDbRotatedDimension
1001
ACAD
1000
DSTYLE
1002
{
1070
   140
1040
0.28
1070
   271
1070
     5
1070
   285
1070
     4
1002
}
  0
DIMENSION
  5
D11D
330
1F
100
AcDbEntity
  8
0
100
AcDbDimension
  2
*D24
 10
14.34777691382306
 20
20.67990150173769
 30
0.0
 11
13.66537369215901
 21
20.67990150173769
 31
0.0
 70
   160
 71
     5
 42
0.1857488248207772
  3
6 inch Scale
100
AcDbAlignedDimension
 13
14.16202808900228
 23
19.93491990647276
 33
0.0
 14
14.34777691382306
 24
19.93491990647276
 34
0.0
100
AcDbRotatedDimension
1001
ACAD
1000
DSTYLE
1002
{
1070
   140
1040
0.28
1070
   271
1070
     5
1070
   285
1070
     4
1002
}
  0
DIMENSION
  5
D11E
330
1F
100
AcDbEntity
  8
0
100
AcDbDimension
  2
*D25
 10
12.23699575684568
 20
18.58501340647251
 30
0.0
 11
12.23699575684568
 21
19.11867679756746
 31
0.0
 70
   160
 71
     5
 42
1.06732678218939
  3
6 inch Scale
100
AcDbAlignedDimension
 13
12.98197735211061
 23
19.6523401886619
 33
0.0
 14
12.98197735211061
 24
18.58501340647251
 34
0.0
 50
90.0
100
AcDbRotatedDimension
1001
ACAD
1000
DSTYLE
1002
{
1070
   140
1040
0.28
1070
   271
1070
     5
1070
   285
1070
     4
1002
}
  0
DIMENSION
  5
D11F
330
1F
100
AcDbEntity
  8
0
100
AcDbDimension
  2
*D26
 10
15.09275850908798
 20
19.93491990647277
 30
0.0
 11
15.09275850908798
 21
19.25996665647264
 31
0.0
 70
   160
 71
     5
 42
1.349906500000258
  3
6 inch Scale
100
AcDbAlignedDimension
 13
14.34777691382306
 23
18.58501340647251
 33
0.0
 14
14.34777691382306
 24
19.93491990647277
 34
0.0
 50
90.0
100
AcDbRotatedDimension
1001
ACAD
1000
DSTYLE
1002
{
1070
   140
1040
0.28
1070
   271
1070
     4
1070
   285
1070
     4
1002
}
  0
DIMENSION
  5
D120
330
1F
100
AcDbEntity
  8
0
100
AcDbDimension
  2
*D27
 10
10.41752266974194
 20
2.900449052418786
 30
0.0
 11
10.41752266974194
 21
3.831676046499936
 31
0.0
 70
   160
 71
     5
 42
1.862453988162293
  3
6 inch Scale
100
AcDbAlignedDimension
 13
11.16250426500686
 23
4.762903040581079
 33
0.0
 14
11.37904558203053
 24
2.900449052418785
 34
0.0
 50
90.0
100
AcDbRotatedDimension
1001
ACAD
1000
DSTYLE
1002
{
1070
   140
1040
0.28
1070
   285
1070
     4
1002
}
  0
DIMENSION
  5
D121
330
1F
100
AcDbEntity
  8
0
100
AcDbDimension
  2
*D28
 10
12.31076923050852
 20
5.507884635846004
 30
0.0
 11
11.73663674775769
 21
5.507884635846004
 31
0.0
 70
   160
 71
     5
 42
1.14826496550166
  3
6 inch Scale
100
AcDbAlignedDimension
 13
11.16250426500686
 23
4.762903040581079
 33
0.0
 14
12.31076923050852
 24
4.762903040581079
 34
0.0
100
AcDbRotatedDimension
1001
ACAD
1000
DSTYLE
1002
{
1070
   140
1040
0.28
1070
   271
1070
     5
1070
   285
1070
     4
1002
}
  0
DIMENSION
  5
D122
330
1F
100
AcDbEntity
  8
0
100
AcDbDimension
  2
*D29
 10
12.31076923050853
 20
2.403794655575506
 30
0.0
 11
11.62737278045217
 21
2.403794655575506
 31
0.0
 70
   160
 71
     5
 42
0.1867420532130772
  3
6 inch Scale
100
AcDbAlignedDimension
 13
12.12402717729545
 23
2.900449052418785
 33
0.0
 14
12.31076923050853
 24
2.900449052418785
 34
0.0
100
AcDbRotatedDimension
1001
ACAD
1000
DSTYLE
1002
{
1070
   140
1040
0.28
1070
   285
1070
     4
1002
}
  0
DIMENSION
  5
D123
330
1F
100
AcDbEntity
  8
0
100
AcDbDimension
  2
*D30
 10
15.1229130831049
 20
4.719948898147876
 30
0.0
 11
15.1229130831049
 21
3.788721904066726
 31
0.0
 70
   160
 71
     5
 42
1.8624539881623
  3
6 inch Scale
100
AcDbAlignedDimension
 13
15.86789467836982
 23
2.857494909985575
 33
0.0
 14
15.86789467836982
 24
4.719948898147876
 34
0.0
 50
90.0
100
AcDbRotatedDimension
1001
ACAD
1000
DSTYLE
1002
{
1070
   140
1040
0.28
1070
   285
1070
     4
1002
}
  0
DIMENSION
  5
D124
330
1F
100
AcDbEntity
  8
0
100
AcDbDimension
  2
*D31
 10
2.094708625033943
 20
14.0480936814677
 30
0.0
 11
2.094708625033955
 21
12.30980329251623
 31
0.0
 70
   160
 71
     5
 42
3.476580777902952
  3
6 inch Scale
100
AcDbAlignedDimension
 13
2.839690220298876
 23
10.57151290356474
 33
0.0
 14
2.839690220298876
 24
14.0480936814677
 34
0.0
 50
90.0
100
AcDbRotatedDimension
1001
ACAD
1000
DSTYLE
1002
{
1070
   140
1040
0.28
1070
   285
1070
     4
1002
}
  0
DIMENSION
  5
D125
330
1F
100
AcDbEntity
  8
0
100
AcDbDimension
  2
*D32
 10
17.01615964387148
 20
5.464930493412794
 30
0.0
 11
16.44202716112065
 21
5.464930493412794
 31
0.0
 70
   160
 71
     5
 42
1.148264965501663
  3
6 inch Scale
100
AcDbAlignedDimension
 13
15.86789467836982
 23
4.719948898147876
 33
0.0
 14
17.01615964387148
 24
4.719948898147876
 34
0.0
100
AcDbRotatedDimension
1001
ACAD
1000
DSTYLE
1002
{
1070
   140
1040
0.28
1070
   271
1070
     5
1070
   285
1070
     4
1002
}
  0
DIMENSION
  5
D126
330
1F
100
AcDbEntity
  8
0
100
AcDbDimension
  2
*D33
 10
3.987955185800537
 20
14.79307527673262
 30
0.0
 11
3.413822703049689
 21
14.79307527673262
 31
0.0
 70
   160
 71
     5
 42
1.14826496550166
  3
6 inch Scale
100
AcDbAlignedDimension
 13
2.839690220298876
 23
14.0480936814677
 33
0.0
 14
3.987955185800537
 24
14.0480936814677
 34
0.0
100
AcDbRotatedDimension
1001
ACAD
1000
DSTYLE
1002
{
1070
   140
1040
0.28
1070
   271
1070
     5
1070
   285
1070
     4
1002
}
  0
DIMENSION
  5
D127
330
1F
100
AcDbEntity
  8
0
100
AcDbDimension
  2
*D34
 10
8.46183068543398
 20
14.79307527673262
 30
0.0
 11
7.887698202683154
 21
14.79307527673262
 31
0.0
 70
   160
 71
     5
 42
1.14826496550166
  3
6 inch Scale
100
AcDbAlignedDimension
 13
7.31356571993232
 23
14.0480936814677
 33
0.0
 14
8.46183068543398
 24
14.0480936814677
 34
0.0
100
AcDbRotatedDimension
1001
ACAD
1000
DSTYLE
1002
{
1070
   140
1040
0.28
1070
   271
1070
     5
1070
   285
1070
     4
1002
}
  0
DIMENSION
  5
D128
330
1F
100
AcDbEntity
  8
0
100
AcDbDimension
  2
*D35
 10
4.732936781065458
 20
11.26143042585165
 30
0.0
 11
4.732936781065458
 21
11.99221721072547
 31
0.0
 70
   160
 71
     5
 42
0.6899175222869048
  3
6 inch Scale
100
AcDbAlignedDimension
 13
3.987955185800537
 23
10.57151290356474
 33
0.0
 14
3.987955185800537
 24
11.26143042585165
 34
0.0
 50
90.0
100
AcDbRotatedDimension
1001
ACAD
1000
DSTYLE
1002
{
1070
   140
1040
0.28
1070
   285
1070
     4
1002
}
  0
DIMENSION
  5
D129
330
1F
100
AcDbEntity
  8
0
100
AcDbDimension
  2
*D36
 10
6.568584124667395
 20
14.0480936814677
 30
0.0
 11
6.568584124667403
 21
12.30980329251622
 31
0.0
 70
   160
 71
     5
 42
3.476580777902952
  3
6 inch Scale
100
AcDbAlignedDimension
 13
7.313565719932324
 23
10.57151290356474
 33
0.0
 14
7.313565719932324
 24
14.0480936814677
 34
0.0
 50
90.0
100
AcDbRotatedDimension
1001
ACAD
1000
DSTYLE
1002
{
1070
   140
1040
0.28
1070
   285
1070
     4
1002
}
  0
DIMENSION
  5
D12A
330
1F
100
AcDbEntity
  8
0
100
AcDbDimension
  2
*D37
 10
3.987955185800537
 20
10.07485850672147
 30
0.0
 11
3.894584159194
 21
9.414042883321656
 31
0.0
 70
   160
 71
     5
 42
0.1867420532130755
  3
6 inch Scale
100
AcDbAlignedDimension
 13
3.801213132587461
 23
10.57151290356474
 33
0.0
 14
3.987955185800537
 24
10.57151290356474
 34
0.0
100
AcDbRotatedDimension
1001
ACAD
1000
DSTYLE
1002
{
1070
   140
1040
0.28
1070
   285
1070
     4
1002
}
  0
DIMENSION
  5
D12B
330
1F
100
AcDbEntity
  8
0
100
AcDbDimension
  2
*D38
 10
13.15782699331249
 20
11.25441269922425
 30
0.0
 11
13.15782699331249
 21
11.99221721072546
 31
0.0
 70
   160
 71
     5
 42
0.6828997956595089
  3
6 inch Scale
100
AcDbAlignedDimension
 13
12.59909079686381
 23
10.57151290356474
 33
0.0
 14
12.59909079686381
 24
11.25441269922425
 34
0.0
 50
90.0
100
AcDbRotatedDimension
1001
ACAD
1000
DSTYLE
1002
{
1070
   140
1040
0.28
1070
   285
1070
     4
1002
}
  0
DIMENSION
  5
D12C
330
1F
100
AcDbEntity
  8
0
100
AcDbDimension
  2
*D39
 10
12.59909079686381
 20
10.07485850672147
 30
0.0
 11
12.50609226105491
 21
9.451418679917438
 31
0.0
 70
   160
 71
     5
 42
0.185997071617809
  3
6 inch Scale
100
AcDbAlignedDimension
 13
12.413093725246
 23
10.57151290356474
 33
0.0
 14
12.59909079686381
 24
10.57151290356474
 34
0.0
100
AcDbRotatedDimension
1001
ACAD
1000
DSTYLE
1002
{
1070
   140
1040
0.28
1070
   285
1070
     4
1002
}
  0
DIMENSION
  5
D12D
330
1F
100
AcDbEntity
  8
0
100
AcDbDimension
  2
*D40
 10
10.70584423609722
 20
14.0480936814677
 30
0.0
 11
10.70584423609722
 21
12.30980329251622
 31
0.0
 70
   160
 71
     5
 42
3.476580777902952
  3
6 inch Scale
100
AcDbAlignedDimension
 13
11.45082583136214
 23
10.57151290356474
 33
0.0
 14
11.45082583136214
 24
14.0480936814677
 34
0.0
 50
90.0
100
AcDbRotatedDimension
1001
ACAD
1000
DSTYLE
1002
{
1070
   140
1040
0.28
1070
   271
1070
     5
1070
   285
1070
     4
1002
}
  0
DIMENSION
  5
D12E
330
1F
100
AcDbEntity
  8
0
100
AcDbDimension
  2
*D41
 10
12.59909079686381
 20
14.79307527673262
 30
0.0
 11
12.02495831411298
 21
14.79307527673262
 31
0.0
 70
   160
 71
     5
 42
1.148264965501663
  3
6 inch Scale
100
AcDbAlignedDimension
 13
11.45082583136215
 23
14.0480936814677
 33
0.0
 14
12.59909079686381
 24
14.0480936814677
 34
0.0
100
AcDbRotatedDimension
1001
ACAD
1000
DSTYLE
1002
{
1070
   140
1040
0.28
1070
   271
1070
     5
1070
   285
1070
     4
1002
}
  0
DIMENSION
  5
D12F
330
1F
100
AcDbEntity
  8
0
100
AcDbDimension
  2
*D42
 10
6.753699987122681
 20
4.723068611161441
 30
0.0
 11
6.75369998712269
 21
3.791841617080294
 31
0.0
 70
   160
 71
     5
 42
1.8624539881623
  3
6 inch Scale
100
AcDbAlignedDimension
 13
7.498681582387609
 23
2.86061462299914
 33
0.0
 14
7.498681582387609
 24
4.723068611161441
 34
0.0
 50
90.0
100
AcDbRotatedDimension
1001
ACAD
1000
DSTYLE
1002
{
1070
   140
1040
0.28
1070
   271
1070
     5
1070
   285
1070
     4
1002
}
  0
DIMENSION
  5
D130
330
1F
100
AcDbEntity
  8
0
100
AcDbDimension
  2
*D43
 10
2.281011781049878
 20
4.723068611161437
 30
0.0
 11
2.281011781049878
 21
3.791841617080287
 31
0.0
 70
   160
 71
     5
 42
1.862453988162297
  3
6 inch Scale
100
AcDbAlignedDimension
 13
3.025993376314797
 23
2.86061462299914
 33
0.0
 14
3.030862019895524
 24
4.723068611161437
 34
0.0
 50
90.0
100
AcDbRotatedDimension
1001
ACAD
1000
DSTYLE
1002
{
1070
   140
1040
0.28
1070
   271
1070
     5
1070
   285
1070
     4
1002
}
  0
DIMENSION
  5
D131
330
1F
100
AcDbEntity
  8
0
100
AcDbDimension
  2
*D44
 10
4.174258341816463
 20
2.057069412391079
 30
0.0
 11
3.490861891760108
 21
2.057069412391079
 31
0.0
 70
   160
 71
     5
 42
0.1867420532130755
  3
6 inch Scale
100
AcDbAlignedDimension
 13
3.987516288603387
 23
2.860614622999143
 33
0.0
 14
4.174258341816463
 24
2.860614622999143
 34
0.0
100
AcDbRotatedDimension
1001
ACAD
1000
DSTYLE
1002
{
1070
   140
1040
0.28
1070
   285
1070
     4
1002
}
  0
LINE
  5
D132
330
1F
100
AcDbEntity
  8
0
100
AcDbLine
 10
15.1229130831049
 20
2.857494909985575
 30
0.0
 11
15.1229130831049
 21
4.719948898147876
 31
0.0
  0
LINE
  5
D133
330
1F
100
AcDbEntity
  8
0
100
AcDbLine
 10
12.31076923050853
 20
2.403794655575506
 30
0.0
 11
12.12402717729545
 21
2.403794655575506
 31
0.0
  0
LINE
  5
D134
330
1F
100
AcDbEntity
  8
0
100
AcDbLine
 10
10.41752266974194
 20
2.900449052418785
 30
0.0
 11
10.41752266974194
 21
4.762903040581079
 31
0.0
  0
LINE
  5
D135
330
1F
100
AcDbEntity
  8
0
100
AcDbLine
 10
6.753699987122681
 20
2.86061462299914
 30
0.0
 11
6.753699987122681
 21
4.723068611161441
 31
0.0
  0
DIMENSION
  5
D136
330
1F
100
AcDbEntity
  8
0
100
AcDbDimension
  2
*D45
 10
8.646946547889271
 20
5.468050206426354
 30
0.0
 11
8.072814065138441
 21
5.468050206426354
 31
0.0
 70
   160
 71
     5
 42
1.148264965501661
  3
6 inch Scale
100
AcDbAlignedDimension
 13
7.498681582387609
 23
4.723068611161437
 33
0.0
 14
8.646946547889271
 24
4.723068611161437
 34
0.0
100
AcDbRotatedDimension
1001
ACAD
1000
DSTYLE
1002
{
1070
   140
1040
0.28
1070
   271
1070
     5
1070
   285
1070
     4
1002
}
  0
DIMENSION
  5
D137
330
1F
100
AcDbEntity
  8
0
100
AcDbDimension
  2
*D46
 10
4.174258341816463
 20
5.468050206426354
 30
0.0
 11
3.600125859065631
 21
5.468050206426354
 31
0.0
 70
   160
 71
     5
 42
1.148264965501663
  3
6 inch Scale
100
AcDbAlignedDimension
 13
3.025993376314799
 23
4.723068611161437
 33
0.0
 14
4.174258341816463
 24
4.723068611161437
 34
0.0
100
AcDbRotatedDimension
1001
ACAD
1000
DSTYLE
1002
{
1070
   140
1040
0.28
1070
   271
1070
     5
1070
   285
1070
     4
1002
}
  0
LINE
  5
D138
330
1F
100
AcDbEntity
  8
0
100
AcDbLine
 10
4.174258341816461
 20
2.057069412391079
 30
0.0
 11
3.987516288603387
 21
2.057069412391079
 31
0.0
  0
LINE
  5
D139
330
1F
100
AcDbEntity
  8
0
100
AcDbLine
 10
2.281011781049878
 20
2.86061462299914
 30
0.0
 11
2.281011781049878
 21
4.723068611161437
 31
0.0
  0
LINE
  5
D13A
330
1F
100
AcDbEntity
  8
0
100
AcDbLine
 10
12.413093725246
 20
10.07485850672147
 30
0.0
 11
12.59909079686381
 21
10.07485850672147
 31
0.0
  0
LINE
  5
D13B
330
1F
100
AcDbEntity
  8
0
100
AcDbLine
 10
10.70584423609723
 20
10.57151290356474
 30
0.0
 11
10.70584423609723
 21
14.0480936814677
 31
0.0
  0
LINE
  5
D13C
330
1F
100
AcDbEntity
  8
0
100
AcDbLine
 10
2.094708625033945
 20
10.57151290356474
 30
0.0
 11
2.094708625033945
 21
14.0480936814677
 31
0.0
  0
LINE
  5
D13D
330
1F
100
AcDbEntity
  8
0
100
AcDbLine
 10
3.801213132587461
 20
10.07485850672147
 30
0.0
 11
3.987955185800537
 21
10.07485850672147
 31
0.0
  0
LINE
  5
D13E
330
1F
100
AcDbEntity
  8
0
100
AcDbLine
 10
6.568584124667399
 20
10.57151290356474
 30
0.0
 11
6.568584124667399
 21
14.0480936814677
 31
0.0
  0
LINE
  5
D13F
330
1F
100
AcDbEntity
  8
0
100
AcDbLine
 10
12.98197735211061
 20
17.84003181120759
 30
0.0
 11
14.34777691382306
 21
17.84003181120759
 31
0.0
  0
LINE
  5
D140
330
1F
100
AcDbEntity
  8
0
100
AcDbLine
 10
15.09275850908798
 20
18.58501340647251
 30
0.0
 11
15.09275850908798
 21
19.93491990647277
 31
0.0
  0
LINE
  5
D141
330
1F
100
AcDbEntity
  8
0
100
AcDbLine
 10
14.34777691382306
 20
20.67990150173769
 30
0.0
 11
14.16202808900228
 21
20.67990150173769
 31
0.0
  0
LINE
  5
D142
330
1F
100
AcDbEntity
  8
0
100
AcDbLine
 10
9.172091537264837
 20
19.41687952325944
 30
0.0
 11
9.172091537264837
 21
19.67169322676561
 31
0.0
  0
LINE
  5
D143
330
1F
100
AcDbEntity
  8
0
100
AcDbLine
 10
8.427109941999919
 20
20.41667482203053
 30
0.0
 11
8.241361197580532
 21
20.41667482203053
 31
0.0
  0
LINE
  5
D144
330
1F
100
AcDbEntity
  8
0
100
AcDbLine
 10
8.427109941999919
 20
17.84003181120759
 30
0.0
 11
3.025993376314801
 21
17.84003181120759
 31
0.0
  0
INSERT
  5
D145
330
1F
100
AcDbEntity
  8
0
100
AcDbBlockReference
  2
ACC250H
 10
22.40741924579653
 20
20.41667482203053
 30
0.0
 41
0.9933087936865586
 42
0.9933087936865589
 43
0.9933087936865586
  0
DIMENSION
  5
D146
330
1F
100
AcDbEntity
  8
0
100
AcDbDimension
  2
*D47
 10
26.75314521817523
 20
17.49256360864531
 30
0.0
 11
24.05283526253832
 21
17.49256360864531
 31
0.0
 70
   160
 71
     5
 42
5.400619911273818
  3
6 inch Scale
100
AcDbAlignedDimension
 13
21.35252530690141
 23
18.64659855168108
 33
0.0
 14
26.75314521817523
 24
18.58501340647251
 34
0.0
100
AcDbRotatedDimension
1001
ACAD
1000
DSTYLE
1002
{
1070
   140
1040
0.28
1002
}
  0
DIMENSION
  5
D147
330
1F
100
AcDbEntity
  8
0
100
AcDbDimension
  2
*D48
 10
20.64322537772838
 20
20.15344799170359
 30
0.0
 11
20.1940098252045
 21
19.36923069908805
 31
0.0
 70
    32
 71
     5
 42
1.568434585231074
  3
6 inch Scale
100
AcDbAlignedDimension
 13
21.41411045210998
 23
18.58501340647251
 33
0.0
 14
21.35252530690141
 24
20.15344799170359
 34
0.0
 50
90.0
100
AcDbRotatedDimension
1001
ACAD
1000
DSTYLE
1002
{
1070
   140
1040
0.28
1002
}
  0
DIMENSION
  5
D148
330
1F
100
AcDbEntity
  8
0
100
AcDbDimension
  2
*D49
 10
19.34850167692656
 20
20.41667482203053
 30
0.0
 11
18.89976361417076
 21
19.50084411425152
 31
0.0
 70
    32
 71
     5
 42
1.831661415558016
  3
6 inch Scale
100
AcDbAlignedDimension
 13
21.41411045210998
 23
18.58501340647251
 33
0.0
 14
22.42519734587866
 24
20.41667482203053
 34
0.0
 50
90.0
100
AcDbRotatedDimension
1001
ACAD
1000
DSTYLE
1002
{
1070
   271
1070
     4
1070
   140
1040
0.28
1002
}
  0
VIEWPORT
  5
CBD9
102
{ACAD_XDICTIONARY
360
DDA9
102
}
330
CBD2
100
AcDbEntity
 67
     1
  8
0
100
AcDbViewport
 10
5.232528926819328
 20
3.982529414920356
 30
0.0
 40
13.44942386220761
 41
8.992999745766947
 68
     1
 69
     1
 12
5.232528926819328
 22
3.982529414920356
 13
0.0
 23
0.0
 14
0.5
 24
0.5
 15
0.5
 25
0.5
 16
0.0
 26
0.0
 36
1.0
 17
0.0
 27
0.0
 37
0.0
 42
50.0
 43
0.0
 44
0.0
 45
8.992999745766947
 50
0.0
 51
0.0
 72
  5000
 90
    32800
  1

281
     0
 71
     1
 74
     0
110
0.0
120
0.0
130
0.0
111
1.0
121
0.0
131
0.0
112
0.0
122
1.0
132
0.0
 79
     0
146
0.0
  0
ENDSEC
  0
SECTION
  2
OBJECTS
  0
DICTIONARY
  5
C
330
0
100
AcDbDictionary
281
     1
  3
ACAD_COLOR
350
A6AD
  3
ACAD_GROUP
350
D
  3
ACAD_LAYOUT
350
1A
  3
ACAD_MATERIAL
350
A6AC
  3
ACAD_MLINESTYLE
350
17
  3
ACAD_PLOTSETTINGS
350
19
  3
ACAD_PLOTSTYLENAME
350
E
  3
AcadDim
350
15D
  3
ACDBHEADERROUNDTRIPXREC
350
DD96
  3
AcDbVariableDictionary
350
79D9
  3
ADE_QUERY_LIBRARY
350
1012
  3
AMAcad
350
1B9
  3
ASE_INDEX_DICTIONARY
350
100F
  3
AVAT_FILE_STORE
350
FD6
1001
ADE
1000
ADE02C004
1000
[Query]
1000
CaseSensitiveMatch=0
1000
SaveCurrQueryInSession=1
1000
MkSelSetWithQryObj=0
1000
ShowBlockAsInsPt=0
1000
CreateAssociativeHatchObjects=0
1000
ReferenceBoundaryForAreaLocation=1
1000
ShowImageAsBoundary=1
1000
DefaultJoinOperator=2
1000
ColorForAdd=red
1000
ColorForRemove=red
1000
BlockLocnForQuery=1
1000
TextLocnForQuery=1
1000
[Save Back]
1000
RedefineBlockDefinitions=1
1000
RedefineLayerDefinitions=1
1000
RedefineTextStyleDefinitions=1
1000
RemoveUnusedGroups=1
1000
EraseSavedBackObjects=1
1000
RemoveLockAfterSave=1
1000
CreateHistoryFileOfChanges=0
1000
CreateBackupFileOfSourceDwg=1
1000
DontAddObjectsToSaveSet=0
1000
MarkObjectsForEditingWithoutPrompting=0
1000
[Coordinate Transformation]
1000
RestoreLastActiveDwgsOnStartup=1
1000
ActivateDwgsOnAttach=1
1000
AdjustSizesAndScalesForChangesInUnits=1
1000
AdjustRotationsForMapDistortions=1
1000
AdjustSizesAndScalesForMapDistortions=1
1000
AdjustElevations=1
1000
AdjustZeroRotationObjects=1
1000
ReconnectDbOnWSOpen=1
1000
NoOfSQLConditionsInHistory=10
  0
DICTIONARY
  5
D03C
330
2
100
AcDbDictionary
280
     1
281
     1
  3
ACAD_LAYERFILTERS
360
D552
  3
ACAD_LAYERSTATES
360
D03D
  0
DICTIONARY
  5
D74C
330
1F
100
AcDbDictionary
280
     1
281
     1
  0
DICTIONARY
  5
CC3D
330
CC3C
100
AcDbDictionary
280
     1
281
     1
  3
ACAD_SORTENTS
360
D7B4
  0
DICTIONARY
  5
CC68
330
CC67
100
AcDbDictionary
280
     1
281
     1
  3
ACAD_SORTENTS
360
D7D6
  0
DICTIONARY
  5
CC7D
330
CC7C
100
AcDbDictionary
280
     1
281
     1
  3
ACAD_SORTENTS
360
D7F8
  0
DICTIONARY
  5
CC92
330
CC91
100
AcDbDictionary
280
     1
281
     1
  3
ACAD_SORTENTS
360
D86F
  0
DICTIONARY
  5
CCA6
330
CCA5
100
AcDbDictionary
280
     1
281
     1
  3
ACAD_SORTENTS
360
D84F
  0
DICTIONARY
  5
CCC0
330
CCBF
100
AcDbDictionary
280
     1
281
     1
  3
ACAD_SORTENTS
360
D965
  0
DICTIONARY
  5
CCD3
330
CCD2
100
AcDbDictionary
280
     1
281
     1
  3
ACAD_SORTENTS
360
D983
  0
DICTIONARY
  5
CCE6
330
CCE5
100
AcDbDictionary
280
     1
281
     1
  3
ACAD_SORTENTS
360
D923
  0
DICTIONARY
  5
CCF9
330
CCF8
100
AcDbDictionary
280
     1
281
     1
  3
ACAD_SORTENTS
360
D905
  0
DICTIONARY
  5
CD0C
330
CD0B
100
AcDbDictionary
280
     1
281
     1
  3
ACAD_SORTENTS
360
D9BF
  0
DICTIONARY
  5
CD1F
330
CD1E
100
AcDbDictionary
280
     1
281
     1
  3
ACAD_SORTENTS
360
D9A1
  0
DICTIONARY
  5
CD32
330
CD31
100
AcDbDictionary
280
     1
281
     1
  3
ACAD_SORTENTS
360
CD33
  0
DICTIONARY
  5
CD48
330
CD47
100
AcDbDictionary
280
     1
281
     1
  3
ACAD_SORTENTS
360
D947
  0
DICTIONARY
  5
CD5E
330
CD5D
100
AcDbDictionary
280
     1
281
     1
  3
ACAD_SORTENTS
360
D8E7
  0
DICTIONARY
  5
D004
330
D003
100
AcDbDictionary
280
     1
281
     1
  3
ACAD_SORTENTS
360
D765
  0
DICTIONARY
  5
D101
330
D100
100
AcDbDictionary
280
     1
281
     1
  3
ACAD_DIMASSOC
360
D102
  0
DICTIONARY
  5
D105
330
D104
100
AcDbDictionary
280
     1
281
     1
  3
ACAD_DIMASSOC
360
D106
  0
DICTIONARY
  5
D109
330
D108
100
AcDbDictionary
280
     1
281
     1
  3
ACAD_DIMASSOC
360
D10A
  0
DICTIONARY
  5
D10D
330
D10C
100
AcDbDictionary
280
     1
281
     1
  3
ACAD_DIMASSOC
360
D10E
  0
DICTIONARY
  5
D110
330
D10F
100
AcDbDictionary
280
     1
281
     1
  3
ACAD_DIMASSOC
360
D111
  0
DICTIONARY
  5
DDA9
330
CBD9
100
AcDbDictionary
280
     1
281
     1
  3
ACAD_XREC_ROUNDTRIP
360
DDAA
  0
DICTIONARY
  5
A6AD
102
{ACAD_REACTORS
330
C
102
}
330
C
100
AcDbDictionary
281
     1
  0
DICTIONARY
  5
D
102
{ACAD_REACTORS
330
C
102
}
330
C
100
AcDbDictionary
281
     1
  0
DICTIONARY
  5
1A
102
{ACAD_REACTORS
330
C
102
}
330
C
100
AcDbDictionary
281
     1
  3
Layout1
350
CBD3
  3
Model
350
22
  0
DICTIONARY
  5
A6AC
102
{ACAD_REACTORS
330
C
102
}
330
C
100
AcDbDictionary
281
     1
  0
DICTIONARY
  5
17
102
{ACAD_REACTORS
330
C
102
}
330
C
100
AcDbDictionary
281
     1
  3
Standard
350
18
  0
DICTIONARY
  5
19
102
{ACAD_REACTORS
330
C
102
}
330
C
100
AcDbDictionary
281
     1
  3
22x17 Xerox8830
350
CBD1
  3
22x34 Xerox8830
350
CBD0
  3
8.5x11(row 1)
350
B30E
  3
8.5x11(row 2)
350
BF67
  3
8.5x11(row 3)
350
BF68
  3
8.5x11(row 4)
350
BF69
  0
ACDBDICTIONARYWDFLT
  5
E
102
{ACAD_REACTORS
330
C
102
}
330
C
100
AcDbDictionary
281
     1
  3
Normal
350
F
100
AcDbDictionaryWithDefault
340
F
  0
XRECORD
  5
15D
102
{ACAD_REACTORS
330
C
102
}
330
C
100
AcDbXrecord
280
     1
 90
   990106
  3

 60
     0
 61
     0
 62
     1
 63
     3
 64
     0
 65
     0
 66
     0
 67
     3
 68
     0
 69
     0
 70
     0
 71
     0
 72
     0
 40
0.0
170
     2
340
0
  0
DICTIONARY
  5
DD96
102
{ACAD_REACTORS
330
C
102
}
330
C
100
AcDbDictionary
281
     1
  3
COLORDICT
350
DD98
  3
MATERIALDICT
350
DD97
  0
DICTIONARY
  5
79D9
102
{ACAD_REACTORS
330
C
102
}
330
C
100
AcDbDictionary
281
     1
  3
DIMASSOC
350
79DA
  3
PROJECTNAME
350
DD94
  0
DICTIONARY
  5
1012
102
{ACAD_REACTORS
330
C
102
}
330
C
100
AcDbDictionary
281
     1
  3
_CurrQry
350
1047
  0
DICTIONARY
  5
1B9
102
{ACAD_REACTORS
330
C
102
}
330
C
100
AcDbDictionary
281
     1
  3
AM_LOADER
350
1BA
  0
DICTIONARY
  5
100F
102
{ACAD_REACTORS
330
C
102
}
330
C
100
AcDbDictionary
281
     1
  3
ASEBlockHierarchyIndexRecord
350
1011
1001
DCO15
1040
1416199702.575
  0
DICTIONARY
  5
FD6
102
{ACAD_REACTORS
330
C
102
}
330
C
100
AcDbDictionary
281
     1
  0
DICTIONARY
  5
D552
102
{ACAD_REACTORS
330
D03C
102
}
330
D03C
100
AcDbDictionary
281
     1
  0
DICTIONARY
  5
D03D
102
{ACAD_REACTORS
330
D03C
102
}
330
D03C
100
AcDbDictionary
281
     1
  0
SORTENTSTABLE
  5
D7B4
102
{ACAD_REACTORS
330
CC3D
102
}
330
CC3D
100
AcDbSortentsTable
330
CC3C
  0
SORTENTSTABLE
  5
D7D6
102
{ACAD_REACTORS
330
CC68
102
}
330
CC68
100
AcDbSortentsTable
330
CC67
  0
SORTENTSTABLE
  5
D7F8
102
{ACAD_REACTORS
330
CC7D
102
}
330
CC7D
100
AcDbSortentsTable
330
CC7C
  0
SORTENTSTABLE
  5
D86F
102
{ACAD_REACTORS
330
CC92
102
}
330
CC92
100
AcDbSortentsTable
330
CC91
  0
SORTENTSTABLE
  5
D84F
102
{ACAD_REACTORS
330
CCA6
102
}
330
CCA6
100
AcDbSortentsTable
330
CCA5
  0
SORTENTSTABLE
  5
D965
102
{ACAD_REACTORS
330
CCC0
102
}
330
CCC0
100
AcDbSortentsTable
330
CCBF
  0
SORTENTSTABLE
  5
D983
102
{ACAD_REACTORS
330
CCD3
102
}
330
CCD3
100
AcDbSortentsTable
330
CCD2
  0
SORTENTSTABLE
  5
D923
102
{ACAD_REACTORS
330
CCE6
102
}
330
CCE6
100
AcDbSortentsTable
330
CCE5
  0
SORTENTSTABLE
  5
D905
102
{ACAD_REACTORS
330
CCF9
102
}
330
CCF9
100
AcDbSortentsTable
330
CCF8
  0
SORTENTSTABLE
  5
D9BF
102
{ACAD_REACTORS
330
CD0C
102
}
330
CD0C
100
AcDbSortentsTable
330
CD0B
  0
SORTENTSTABLE
  5
D9A1
102
{ACAD_REACTORS
330
CD1F
102
}
330
CD1F
100
AcDbSortentsTable
330
CD1E
  0
SORTENTSTABLE
  5
CD33
102
{ACAD_REACTORS
330
CD32
102
}
330
CD32
100
AcDbSortentsTable
330
CD31
  0
SORTENTSTABLE
  5
D947
102
{ACAD_REACTORS
330
CD48
102
}
330
CD48
100
AcDbSortentsTable
330
CD47
  0
SORTENTSTABLE
  5
D8E7
102
{ACAD_REACTORS
330
CD5E
102
}
330
CD5E
100
AcDbSortentsTable
330
CD5D
  0
SORTENTSTABLE
  5
D765
102
{ACAD_REACTORS
330
D004
102
}
330
D004
100
AcDbSortentsTable
330
D003
  0
DIMASSOC
  5
D102
102
{ACAD_REACTORS
330
D101
102
}
330
D101
100
AcDbDimAssoc
330
D100
 90
        2
 70
     0
 71
     0
  1
AcDbOsnapPointRef
 72
     7
331
D0EC
 73
     2
 91
        0
 40
0.0
 10
0.0
 20
0.0
 30
0.0
 75
     0
  0
DIMASSOC
  5
D106
102
{ACAD_REACTORS
330
D105
102
}
330
D105
100
AcDbDimAssoc
330
D104
 90
        1
 70
     0
 71
     0
  1
AcDbOsnapPointRef
 72
     7
331
D0ED
 73
     2
 91
        0
 40
0.0
 10
0.0
 20
0.0
 30
0.0
 75
     0
  0
DIMASSOC
  5
D10A
102
{ACAD_REACTORS
330
D109
102
}
330
D109
100
AcDbDimAssoc
330
D108
 90
        1
 70
     0
 71
     0
  1
AcDbOsnapPointRef
 72
     7
331
D0ED
 73
     2
 91
        0
 40
0.0
 10
0.0
 20
0.0
 30
0.0
 75
     0
  0
DIMASSOC
  5
D10E
102
{ACAD_REACTORS
330
D10D
102
}
330
D10D
100
AcDbDimAssoc
330
D10C
 90
        2
 70
     0
 71
     0
  1
AcDbOsnapPointRef
 72
     7
331
D0EE
 73
     2
 91
        0
 40
0.0
 10
0.0
 20
0.0
 30
0.0
 75
     0
  0
DIMASSOC
  5
D111
102
{ACAD_REACTORS
330
D110
102
}
330
D110
100
AcDbDimAssoc
330
D10F
 90
        1
 70
     0
 71
     0
  1
AcDbOsnapPointRef
 72
     7
331
D0EE
 73
     2
 91
        0
 40
0.0
 10
0.0
 20
0.0
 30
0.0
 75
     0
  0
XRECORD
  5
DDAA
102
{ACAD_REACTORS
330
DDA9
102
}
330
DDA9
100
AcDbXrecord
280
     1
102
SHADEPLOT
 70
     0
  0
LAYOUT
  5
CBD3
102
{ACAD_XDICTIONARY
360
DDA7
102
}
102
{ACAD_REACTORS
330
1A
102
}
330
1A
100
AcDbPlotSettings
  1

  2
I:\Pellacad\Main\As_plot\Xes 8830 for 2004.pc3
  4
ANSI_A_(8.50_x_11.00_Inches)
  6

 40
6.793749809265136
 41
6.793749809265136
 42
6.793746948242187
 43
6.79376220703125
 44
215.8999938964844
 45
279.3999938964844
 46
0.0
 47
0.0
 48
0.0
 49
0.0
140
0.0
141
0.0
142
1.0
143
1.0
 70
   688
 72
     0
 73
     1
 74
     5
  7
PellaCAD 2000.ctb
 75
     0
147
1.0
148
0.0
149
0.0
100
AcDbLayout
  1
Layout1
 70
     1
 71
     1
 10
-0.2674709530327264
 20
-0.2674704649316983
 11
10.73252880667138
 21
8.23252929477241
 12
0.0
 22
0.0
 32
0.0
 14
1.000000000000000E+20
 24
1.000000000000000E+20
 34
1.000000000000000E+20
 15
-1.000000000000000E+20
 25
-1.000000000000000E+20
 35
-1.000000000000000E+20
146
0.0
 13
0.0
 23
0.0
 33
0.0
 16
1.0
 26
0.0
 36
0.0
 17
0.0
 27
1.0
 37
0.0
 76
     0
330
CBD2
331
CBD9
  0
LAYOUT
  5
22
102
{ACAD_XDICTIONARY
360
DD99
102
}
102
{ACAD_REACTORS
330
1A
102
}
330
1A
100
AcDbPlotSettings
  1

  2

  4

  6

 40
0.0
 41
0.0
 42
0.0
 43
0.0
 44
0.0
 45
0.0
 46
0.0
 47
0.0
 48
0.0
 49
0.0
140
0.0
141
0.0
142
1.0
143
1.0
 70
  1712
 72
     0
 73
     0
 74
     0
  7

 75
     0
147
1.0
148
0.0
149
0.0
100
AcDbLayout
  1
Model
 70
     1
 71
     0
 10
0.0
 20
0.0
 11
12.0
 21
9.0
 12
0.0
 22
0.0
 32
0.0
 14
0.0
 24
0.0
 34
0.0
 15
0.0
 25
0.0
 35
0.0
146
0.0
 13
0.0
 23
0.0
 33
0.0
 16
1.0
 26
0.0
 36
0.0
 17
0.0
 27
1.0
 37
0.0
 76
     0
330
1F
  0
MLINESTYLE
  5
18
102
{ACAD_REACTORS
330
17
102
}
330
17
100
AcDbMlineStyle
  2
STANDARD
 70
     0
  3

 62
   256
 51
90.0
 52
90.0
 71
     2
 49
0.5
 62
   256
  6
BYLAYER
 49
-0.5
 62
   256
  6
BYLAYER
  0
PLOTSETTINGS
  5
CBD1
102
{ACAD_XDICTIONARY
360
DDA5
102
}
102
{ACAD_REACTORS
330
19
102
}
330
19
100
AcDbPlotSettings
  1
22x17 Xerox8830
  2
Xes 8830 for 2004.pc3
  4
ANSI_C_(22.00_x_17.00_Inches)
  6

 40
6.793749809265136
 41
6.793749809265136
 42
6.79376220703125
 43
6.79376220703125
 44
558.7999877929687
 45
431.7999877929687
 46
0.0
 47
35.81399999999999
 48
0.0
 49
0.0
140
0.0
141
0.0
142
1.0
143
1.49524349949159
 70
   692
 72
     0
 73
     0
 74
     1
  7
PellaCAD 2000.ctb
 75
     0
147
0.6687873917124656
148
-21.59157886640523
149
-6.230335335960706
  0
PLOTSETTINGS
  5
CBD0
102
{ACAD_XDICTIONARY
360
DDA3
102
}
102
{ACAD_REACTORS
330
19
102
}
330
19
100
AcDbPlotSettings
  1
22x34 Xerox8830
  2
Xes 8830 for 2004.pc3
  4
ANSI_D_(22.00_x_34.00_Inches)
  6

 40
6.793749809265136
 41
6.793749809265136
 42
6.79376220703125
 43
6.79376220703125
 44
558.7999877929687
 45
863.5999755859375
 46
13.462
 47
17.272
 48
0.0
 49
0.0
140
0.0
141
0.0
142
1.0
143
1.0
 70
   692
 72
     0
 73
     1
 74
     1
  7
PellaCAD 2000.ctb
 75
    16
147
1.0
148
-21.59157886640523
149
-6.230335335960706
  0
PLOTSETTINGS
  5
B30E
102
{ACAD_XDICTIONARY
360
DD9B
102
}
102
{ACAD_REACTORS
330
19
102
}
330
19
100
AcDbPlotSettings
  1
8.5x11(row 1)
  2
\\pelsprnt02\PECSP13
  4
Letter
  6

 40
7.143749713897705
 41
5.027085304260253
 42
7.14373779296875
 43
5.027069091796875
 44
215.8999938964844
 45
279.3999938964844
 46
2.285999999999999
 47
3.556
 48
0.0
 49
0.0
140
0.0
141
0.0
142
1.0
143
1.0
 70
   692
 72
     0
 73
     0
 74
     1
  7
PellaCAD 2000.ctb
 75
    16
147
1.0
148
-4.158432903504825
149
-3.617288020760524
  0
PLOTSETTINGS
  5
BF67
102
{ACAD_XDICTIONARY
360
DD9D
102
}
102
{ACAD_REACTORS
330
19
102
}
330
19
100
AcDbPlotSettings
  1
8.5x11(row 2)
  2
\\pelsprnt01\PEASP5
  4
User144
  6

 40
6.349999904632568
 41
4.233341693878173
 42
6.349990844726562
 43
4.23333740234375
 44
215.8999938964844
 45
279.3999938964844
 46
3.047999999999999
 47
4.318
 48
0.0
 49
0.0
140
0.0
141
0.0
142
1.0
143
1.0
 70
   692
 72
     0
 73
     0
 74
     1
  7
PellaCAD 2000.ctb
 75
    16
147
1.0
148
-4.158432903504825
149
-3.617288020760524
  0
PLOTSETTINGS
  5
BF68
102
{ACAD_XDICTIONARY
360
DD9F
102
}
102
{ACAD_REACTORS
330
19
102
}
330
19
100
AcDbPlotSettings
  1
8.5x11(row 3)
  2
\\pelsprnt01\peslp0
  4
Letter
  6

 40
5.365749835968017
 41
5.408084392547607
 42
5.4080810546875
 43
5.365753173828125
 44
215.8999938964844
 45
279.3999938964844
 46
4.064
 47
3.302
 48
0.0
 49
0.0
140
0.0
141
0.0
142
1.0
143
1.0
 70
   692
 72
     0
 73
     0
 74
     1
  7
PellaCAD 2000.ctb
 75
    16
147
1.0
148
-4.158432903504825
149
-3.617288020760524
  0
PLOTSETTINGS
  5
BF69
102
{ACAD_XDICTIONARY
360
DDA1
102
}
102
{ACAD_REACTORS
330
19
102
}
330
19
100
AcDbPlotSettings
  1
8.5x11(row 4)
  2
\\pelsprnt02\PEASP6
  4
Letter
  6

 40
7.143749713897705
 41
5.027085304260253
 42
7.14373779296875
 43
5.027069091796875
 44
215.8999938964844
 45
279.3999938964844
 46
2.285999999999999
 47
3.556
 48
0.0
 49
0.0
140
0.0
141
0.0
142
1.0
143
1.0
 70
   692
 72
     0
 73
     0
 74
     1
  7
PellaCAD 2000.ctb
 75
    16
147
1.0
148
-4.158432903504825
149
-3.617288020760524
  0
ACDBPLACEHOLDER
  5
F
102
{ACAD_REACTORS
330
E
102
}
330
E
  0
XRECORD
  5
DD98
102
{ACAD_REACTORS
330
DD96
102
}
330
DD96
100
AcDbXrecord
280
     1
340
A6AD
  0
XRECORD
  5
DD97
102
{ACAD_REACTORS
330
DD96
102
}
330
DD96
100
AcDbXrecord
280
     1
340
A6AC
  0
DICTIONARYVAR
  5
79DA
102
{ACAD_REACTORS
330
79D9
102
}
330
79D9
100
DictionaryVariables
280
     0
  1
1
  0
DICTIONARYVAR
  5
DD94
102
{ACAD_REACTORS
330
79D9
102
}
330
79D9
100
DictionaryVariables
280
     0
  1

  0
XRECORD
  5
1047
102
{ACAD_REACTORS
330
1012
102
}
330
1012
100
AcDbXrecord
280
     1
1000
ADE02C001
1070
     1
1070
     0
1002
{
1002
}
1002
{
1002
}
1002
{
1002
}
1000

  0
ACAD_PROXY_OBJECT
  5
1BA
102
{ACAD_REACTORS
330
1B9
102
}
330
1B9
100
AcDbProxyObject
 90
      499
 91
      504
 95
   655383
 70
     0
 93
       51
310
40502896026454
 94
        0
1001
ACAD
1000
AcRTDxfName
1000
AMLOADER
  0
XRECORD
  5
1011
102
{ACAD_REACTORS
330
100F
102
}
330
100F
100
AcDbXrecord
280
     1
330
0
330
0
330
0
330
0
330
0
330
0
330
0
330
0
330
0
330
0
330
0
330
0
330
0
330
0
330
0
330
0
330
0
330
0
  0
DICTIONARY
  5
DDA7
330
CBD3
100
AcDbDictionary
280
     1
281
     1
  3
ACAD_XREC_ROUNDTRIP
360
DDA8
  0
DICTIONARY
  5
DD99
330
22
100
AcDbDictionary
280
     1
281
     1
  3
ACAD_XREC_ROUNDTRIP
360
DD9A
  0
DICTIONARY
  5
DDA5
330
CBD1
100
AcDbDictionary
280
     1
281
     1
  3
ACAD_XREC_ROUNDTRIP
360
DDA6
  0
DICTIONARY
  5
DDA3
330
CBD0
100
AcDbDictionary
280
     1
281
     1
  3
ACAD_XREC_ROUNDTRIP
360
DDA4
  0
DICTIONARY
  5
DD9B
330
B30E
100
AcDbDictionary
280
     1
281
     1
  3
ACAD_XREC_ROUNDTRIP
360
DD9C
  0
DICTIONARY
  5
DD9D
330
BF67
100
AcDbDictionary
280
     1
281
     1
  3
ACAD_XREC_ROUNDTRIP
360
DD9E
  0
DICTIONARY
  5
DD9F
330
BF68
100
AcDbDictionary
280
     1
281
     1
  3
ACAD_XREC_ROUNDTRIP
360
DDA0
  0
DICTIONARY
  5
DDA1
330
BF69
100
AcDbDictionary
280
     1
281
     1
  3
ACAD_XREC_ROUNDTRIP
360
DDA2
  0
XRECORD
  5
DDA8
102
{ACAD_REACTORS
330
DDA7
102
}
330
DDA7
100
AcDbXrecord
280
     1
102
SHADEPLOT
 70
     0
102
SHADEPLOTRESLEVEL
 70
     2
102
SHADEPLOTCUSTOMDPI
 70
   300
  0
XRECORD
  5
DD9A
102
{ACAD_REACTORS
330
DD99
102
}
330
DD99
100
AcDbXrecord
280
     1
102
SHADEPLOT
 70
     0
102
SHADEPLOTRESLEVEL
 70
     2
102
SHADEPLOTCUSTOMDPI
 70
   300
  0
XRECORD
  5
DDA6
102
{ACAD_REACTORS
330
DDA5
102
}
330
DDA5
100
AcDbXrecord
280
     1
102
SHADEPLOT
 70
     1
102
SHADEPLOTRESLEVEL
 70
     2
102
SHADEPLOTCUSTOMDPI
 70
   200
  0
XRECORD
  5
DDA4
102
{ACAD_REACTORS
330
DDA3
102
}
330
DDA3
100
AcDbXrecord
280
     1
102
SHADEPLOT
 70
     1
102
SHADEPLOTRESLEVEL
 70
     2
102
SHADEPLOTCUSTOMDPI
 70
   200
  0
XRECORD
  5
DD9C
102
{ACAD_REACTORS
330
DD9B
102
}
330
DD9B
100
AcDbXrecord
280
     1
102
SHADEPLOT
 70
     1
102
SHADEPLOTRESLEVEL
 70
     2
102
SHADEPLOTCUSTOMDPI
 70
   300
  0
XRECORD
  5
DD9E
102
{ACAD_REACTORS
330
DD9D
102
}
330
DD9D
100
AcDbXrecord
280
     1
102
SHADEPLOT
 70
     1
102
SHADEPLOTRESLEVEL
 70
     2
102
SHADEPLOTCUSTOMDPI
 70
   300
  0
XRECORD
  5
DDA0
102
{ACAD_REACTORS
330
DD9F
102
}
330
DD9F
100
AcDbXrecord
280
     1
102
SHADEPLOT
 70
     1
102
SHADEPLOTRESLEVEL
 70
     2
102
SHADEPLOTCUSTOMDPI
 70
   300
  0
XRECORD
  5
DDA2
102
{ACAD_REACTORS
330
DDA1
102
}
330
DDA1
100
AcDbXrecord
280
     1
102
SHADEPLOT
 70
     1
102
SHADEPLOTRESLEVEL
 70
     2
102
SHADEPLOTCUSTOMDPI
 70
   300
  0
ENDSEC
  0
EOF
