  0
SECTION
  2
HEADER
  9
$ACADVER
  1
AC1015
  9
$ACADMAINTVER
 70
    18
  9
$DWGCODEPAGE
  3
ANSI_1252
  9
$INSBASE
 10
0.0
 20
0.0
 30
0.0
  9
$EXTMIN
 10
1.662345956850736
 20
13.18249521635298
 30
-0.0015258207003612
  9
$EXTMAX
 10
28.24727637337903
 20
32.55688484543572
 30
0.0000000349246008
  9
$LIMMIN
 10
0.0
 20
0.0
  9
$LIMMAX
 10
12.0
 20
9.0
  9
$ORTHOMODE
 70
     1
  9
$REGENMODE
 70
     1
  9
$FILLMODE
 70
     1
  9
$QTEXTMODE
 70
     0
  9
$MIRRTEXT
 70
     0
  9
$LTSCALE
 40
0.5
  9
$ATTMODE
 70
     1
  9
$TEXTSIZE
 40
1.9375
  9
$TRACEWID
 40
0.05
  9
$TEXTSTYLE
  7
ARCHQUIK
  9
$CLAYER
  8
0
  9
$CELTYPE
  6
ByLayer
  9
$CECOLOR
 62
   256
  9
$CELTSCALE
 40
1.0
  9
$DISPSILH
 70
     0
  9
$DIMSCALE
 40
1.0
  9
$DIMASZ
 40
2.0
  9
$DIMEXO
 40
0.0625
  9
$DIMDLI
 40
0.0625
  9
$DIMRND
 40
0.0
  9
$DIMDLE
 40
0.0
  9
$DIMEXE
 40
0.0625
  9
$DIMTP
 40
0.0
  9
$DIMTM
 40
0.0
  9
$DIMTXT
 40
1.919999999999999
  9
$DIMCEN
 40
0.09
  9
$DIMTSZ
 40
0.0
  9
$DIMTOL
 70
     0
  9
$DIMLIM
 70
     0
  9
$DIMTIH
 70
     0
  9
$DIMTOH
 70
     0
  9
$DIMSE1
 70
     0
  9
$DIMSE2
 70
     0
  9
$DIMTAD
 70
     1
  9
$DIMZIN
 70
     2
  9
$DIMBLK
  1

  9
$DIMASO
 70
     1
  9
$DIMSHO
 70
     1
  9
$DIMPOST
  1

  9
$DIMAPOST
  1

  9
$DIMALT
 70
     0
  9
$DIMALTD
 70
     2
  9
$DIMALTF
 40
25.4
  9
$DIMLFAC
 40
1.0
  9
$DIMTOFL
 70
     0
  9
$DIMTVP
 40
0.0
  9
$DIMTIX
 70
     0
  9
$DIMSOXD
 70
     0
  9
$DIMSAH
 70
     0
  9
$DIMBLK1
  1

  9
$DIMBLK2
  1

  9
$DIMSTYLE
  2
Standard
  9
$DIMCLRD
 70
   256
  9
$DIMCLRE
 70
   256
  9
$DIMCLRT
 70
     0
  9
$DIMTFAC
 40
0.75
  9
$DIMGAP
 40
0.0625
  9
$DIMJUST
 70
     0
  9
$DIMSD1
 70
     0
  9
$DIMSD2
 70
     0
  9
$DIMTOLJ
 70
     1
  9
$DIMTZIN
 70
     0
  9
$DIMALTZ
 70
     0
  9
$DIMALTTZ
 70
     0
  9
$DIMUPT
 70
     0
  9
$DIMDEC
 70
     6
  9
$DIMTDEC
 70
     6
  9
$DIMALTU
 70
     2
  9
$DIMALTTD
 70
     2
  9
$DIMTXSTY
  7
Standard
  9
$DIMAUNIT
 70
     0
  9
$DIMADEC
 70
     3
  9
$DIMALTRND
 40
0.0
  9
$DIMAZIN
 70
     0
  9
$DIMDSEP
 70
    46
  9
$DIMATFIT
 70
     3
  9
$DIMFRAC
 70
     1
  9
$DIMLDRBLK
  1

  9
$DIMLUNIT
 70
     2
  9
$DIMLWD
 70
    -2
  9
$DIMLWE
 70
    -2
  9
$DIMTMOVE
 70
     0
  9
$LUNITS
 70
     2
  9
$LUPREC
 70
     4
  9
$SKETCHINC
 40
0.1
  9
$FILLETRAD
 40
0.0
  9
$AUNITS
 70
     0
  9
$AUPREC
 70
     3
  9
$MENU
  1
.
  9
$ELEVATION
 40
0.0
  9
$PELEVATION
 40
0.0
  9
$THICKNESS
 40
0.0
  9
$LIMCHECK
 70
     0
  9
$CHAMFERA
 40
0.5
  9
$CHAMFERB
 40
0.5
  9
$CHAMFERC
 40
1.0
  9
$CHAMFERD
 40
0.0
  9
$SKPOLY
 70
     0
  9
$TDCREATE
 40
2453963.430150475
  9
$TDUCREATE
 40
2453963.638483808
  9
$TDUPDATE
 40
2455447.475405335
  9
$TDUUPDATE
 40
2455447.683738669
  9
$TDINDWG
 40
4.2710143519
  9
$TDUSRTIMER
 40
4.2710141667
  9
$USRTIMER
 70
     1
  9
$ANGBASE
 50
0.0
  9
$ANGDIR
 70
     0
  9
$PDMODE
 70
    33
  9
$PDSIZE
 40
0.016
  9
$PLINEWID
 40
0.0
  9
$SPLFRAME
 70
     0
  9
$SPLINETYPE
 70
     6
  9
$SPLINESEGS
 70
     8
  9
$HANDSEED
  5
2A82
  9
$SURFTAB1
 70
     6
  9
$SURFTAB2
 70
     6
  9
$SURFTYPE
 70
     6
  9
$SURFU
 70
     6
  9
$SURFV
 70
     6
  9
$UCSBASE
  2

  9
$UCSNAME
  2

  9
$UCSORG
 10
0.0
 20
0.0
 30
0.0
  9
$UCSXDIR
 10
1.0
 20
0.0
 30
0.0
  9
$UCSYDIR
 10
0.0
 20
1.0
 30
0.0
  9
$UCSORTHOREF
  2

  9
$UCSORTHOVIEW
 70
     0
  9
$UCSORGTOP
 10
0.0
 20
0.0
 30
0.0
  9
$UCSORGBOTTOM
 10
0.0
 20
0.0
 30
0.0
  9
$UCSORGLEFT
 10
0.0
 20
0.0
 30
0.0
  9
$UCSORGRIGHT
 10
0.0
 20
0.0
 30
0.0
  9
$UCSORGFRONT
 10
0.0
 20
0.0
 30
0.0
  9
$UCSORGBACK
 10
0.0
 20
0.0
 30
0.0
  9
$PUCSBASE
  2

  9
$PUCSNAME
  2

  9
$PUCSORG
 10
0.0
 20
0.0
 30
0.0
  9
$PUCSXDIR
 10
1.0
 20
0.0
 30
0.0
  9
$PUCSYDIR
 10
0.0
 20
1.0
 30
0.0
  9
$PUCSORTHOREF
  2

  9
$PUCSORTHOVIEW
 70
     0
  9
$PUCSORGTOP
 10
0.0
 20
0.0
 30
0.0
  9
$PUCSORGBOTTOM
 10
0.0
 20
0.0
 30
0.0
  9
$PUCSORGLEFT
 10
0.0
 20
0.0
 30
0.0
  9
$PUCSORGRIGHT
 10
0.0
 20
0.0
 30
0.0
  9
$PUCSORGFRONT
 10
0.0
 20
0.0
 30
0.0
  9
$PUCSORGBACK
 10
0.0
 20
0.0
 30
0.0
  9
$USERI1
 70
     0
  9
$USERI2
 70
     0
  9
$USERI3
 70
     0
  9
$USERI4
 70
     0
  9
$USERI5
 70
     0
  9
$USERR1
 40
24.0
  9
$USERR2
 40
0.0
  9
$USERR3
 40
22.0
  9
$USERR4
 40
0.0
  9
$USERR5
 40
0.0
  9
$WORLDVIEW
 70
     1
  9
$SHADEDGE
 70
     3
  9
$SHADEDIF
 70
    70
  9
$TILEMODE
 70
     1
  9
$MAXACTVP
 70
    64
  9
$PINSBASE
 10
0.0
 20
0.0
 30
0.0
  9
$PLIMCHECK
 70
     0
  9
$PEXTMIN
 10
0.0
 20
0.0
 30
0.0
  9
$PEXTMAX
 10
0.0
 20
0.0
 30
0.0
  9
$PLIMMIN
 10
0.0
 20
0.0
  9
$PLIMMAX
 10
12.0
 20
9.0
  9
$UNITMODE
 70
     0
  9
$VISRETAIN
 70
     1
  9
$PLINEGEN
 70
     0
  9
$PSLTSCALE
 70
     1
  9
$TREEDEPTH
 70
  3020
  9
$CMLSTYLE
  2
Standard
  9
$CMLJUST
 70
     0
  9
$CMLSCALE
 40
1.0
  9
$PROXYGRAPHICS
 70
     1
  9
$MEASUREMENT
 70
     0
  9
$CELWEIGHT
370
    -1
  9
$ENDCAPS
280
     0
  9
$JOINSTYLE
280
     0
  9
$LWDISPLAY
290
     0
  9
$INSUNITS
 70
     1
  9
$HYPERLINKBASE
  1

  9
$STYLESHEET
  1

  9
$XEDIT
290
     1
  9
$CEPSNTYPE
380
     0
  9
$PSTYLEMODE
290
     1
  9
$FINGERPRINTGUID
  2
{FDEAD576-A652-11D2-9A35-0060089B3A3F}
  9
$VERSIONGUID
  2
{CC0A18FB-81F8-4151-A521-77D99DC02A19}
  9
$EXTNAMES
290
     1
  9
$PSVPSCALE
 40
0.0
  9
$OLESTARTUP
290
     0
  0
ENDSEC
  0
SECTION
  2
CLASSES
  0
CLASS
  1
ACDBDICTIONARYWDFLT
  2
AcDbDictionaryWithDefault
  3
ObjectDBX Classes
 90
        0
280
     0
281
     0
  0
CLASS
  1
ACDBPLACEHOLDER
  2
AcDbPlaceHolder
  3
ObjectDBX Classes
 90
        0
280
     0
281
     0
  0
CLASS
  1
LAYOUT
  2
AcDbLayout
  3
ObjectDBX Classes
 90
        0
280
     0
281
     0
  0
CLASS
  1
PLOTSETTINGS
  2
AcDbPlotSettings
  3
ObjectDBX Classes
 90
    32768
280
     0
281
     0
  0
CLASS
  1
AMLOADER
  2
AMLoader
  3
AMAcad
 90
    32768
280
     1
281
     0
  0
CLASS
  1
DICTIONARYVAR
  2
AcDbDictionaryVar
  3
ObjectDBX Classes
 90
        0
280
     0
281
     0
  0
CLASS
  1
SORTENTSTABLE
  2
AcDbSortentsTable
  3
ObjectDBX Classes
 90
        0
280
     0
281
     0
  0
CLASS
  1
DIMASSOC
  2
AcDbDimAssoc
  3
"AcDbDimAssoc|Product Desc:     AcDim ARX App For Dimension|Company:          Autodesk, Inc.|WEB Address:      www.autodesk.com"
 90
    32768
280
     0
281
     0
  0
CLASS
  1
MATERIAL
  2
AcDbMaterial
  3
ObjectDBX Classes
 90
     1153
280
     0
281
     0
  0
CLASS
  1
VISUALSTYLE
  2
AcDbVisualStyle
  3
ObjectDBX Classes
 90
     4095
280
     0
281
     0
  0
CLASS
  1
TABLESTYLE
  2
AcDbTableStyle
  3
ObjectDBX Classes
 90
     4095
280
     0
281
     0
  0
CLASS
  1
SCALE
  2
AcDbScale
  3
ObjectDBX Classes
 90
     1153
280
     0
281
     0
  0
CLASS
  1
MLEADERSTYLE
  2
AcDbMLeaderStyle
  3
ACDB_MLEADERSTYLE_CLASS
 90
     4095
280
     0
281
     0
  0
CLASS
  1
CELLSTYLEMAP
  2
AcDbCellStyleMap
  3
ObjectDBX Classes
 90
     1152
280
     0
281
     0
  0
ENDSEC
  0
SECTION
  2
TABLES
  0
TABLE
  2
VPORT
  5
20
102
{ACAD_XDICTIONARY
360
1F56
102
}
330
0
100
AcDbSymbolTable
 70
     1
  0
VPORT
  5
1B9E
330
20
100
AcDbSymbolTableRecord
100
AcDbViewportTableRecord
  2
*Active
 70
     0
 10
0.0
 20
0.0
 11
1.0
 21
1.0
 12
14.95481116511488
 22
22.86969003089435
 13
0.0
 23
0.0
 14
0.03125
 24
0.03125
 15
0.5
 25
0.5
 16
0.0
 26
0.0
 36
1.0
 17
0.0
 27
0.0
 37
0.0
 40
19.53363118767795
 41
1.495198902606309
 42
50.0
 43
0.0
 44
0.0
 50
0.0
 51
0.0
 71
     0
 72
  8000
 73
     1
 74
     0
 75
     0
 76
     0
 77
     0
 78
     0
281
     0
 65
     1
110
0.0
120
0.0
130
0.0
111
1.0
121
0.0
131
0.0
112
0.0
122
1.0
132
0.0
 79
     0
146
0.0
  0
ENDTAB
  0
TABLE
  2
LTYPE
  5
1B
330
0
100
AcDbSymbolTable
 70
     1
  0
LTYPE
  5
1C
330
1B
100
AcDbSymbolTableRecord
100
AcDbLinetypeTableRecord
  2
ByBlock
 70
     0
  3

 72
    65
 73
     0
 40
0.0
  0
LTYPE
  5
1D
330
1B
100
AcDbSymbolTableRecord
100
AcDbLinetypeTableRecord
  2
ByLayer
 70
     0
  3

 72
    65
 73
     0
 40
0.0
  0
LTYPE
  5
A
330
1B
100
AcDbSymbolTableRecord
100
AcDbLinetypeTableRecord
  2
Continuous
 70
     0
  3
Solid line
 72
    65
 73
     0
 40
0.0
  0
ENDTAB
  0
TABLE
  2
LAYER
  5
13
102
{ACAD_XDICTIONARY
360
14
102
}
330
0
100
AcDbSymbolTable
 70
    15
  0
LAYER
  5
5
102
{ACAD_XDICTIONARY
360
1F35
102
}
330
13
100
AcDbSymbolTableRecord
100
AcDbLayerTableRecord
  2
0
 70
     0
 62
     7
  6
Continuous
370
    -3
390
6
  0
LAYER
  5
74
102
{ACAD_XDICTIONARY
360
1F3D
102
}
330
13
100
AcDbSymbolTableRecord
100
AcDbLayerTableRecord
  2
Pel_Wall
 70
     0
 62
     9
  6
Continuous
370
    -3
390
6
  0
LAYER
  5
58
102
{ACAD_XDICTIONARY
360
1F41
102
}
330
13
100
AcDbSymbolTableRecord
100
AcDbLayerTableRecord
  2
Pel_CS-IG
 70
     0
 62
     2
  6
Continuous
370
    -3
390
6
  0
LAYER
  5
B4
102
{ACAD_XDICTIONARY
360
1F43
102
}
330
13
100
AcDbSymbolTableRecord
100
AcDbLayerTableRecord
  2
Pel_CS-Hardware
 70
     0
 62
    53
  6
Continuous
370
    -3
390
6
  0
LAYER
  5
A4
102
{ACAD_XDICTIONARY
360
1F45
102
}
330
13
100
AcDbSymbolTableRecord
100
AcDbLayerTableRecord
  2
Pel_CS-Sealant
 70
     0
 62
    40
  6
Continuous
370
    -3
390
6
  0
LAYER
  5
85
102
{ACAD_XDICTIONARY
360
1F47
102
}
330
13
100
AcDbSymbolTableRecord
100
AcDbLayerTableRecord
  2
Pel_CS-Cross Section
 70
     0
 62
     7
  6
Continuous
370
    -3
390
6
  0
LAYER
  5
3A
102
{ACAD_XDICTIONARY
360
1F49
102
}
330
13
100
AcDbSymbolTableRecord
100
AcDbLayerTableRecord
  2
Pel_CS-Weatherstrip
 70
     0
 62
     8
  6
Continuous
370
    -3
390
6
  0
LAYER
  5
9E
102
{ACAD_XDICTIONARY
360
1F4B
102
}
330
13
100
AcDbSymbolTableRecord
100
AcDbLayerTableRecord
  2
Pel_CS-Reinforcement
 70
     0
 62
   150
  6
Continuous
370
    -3
390
6
  0
LAYER
  5
9D5
102
{ACAD_XDICTIONARY
360
1F4D
102
}
330
13
100
AcDbSymbolTableRecord
100
AcDbLayerTableRecord
  2
Pel_Hatch
 70
     0
 62
     7
  6
Continuous
370
    -3
390
6
  0
LAYER
  5
9D7
102
{ACAD_XDICTIONARY
360
1F4F
102
}
330
13
100
AcDbSymbolTableRecord
100
AcDbLayerTableRecord
  2
Pel_Clad
 70
     0
 62
    63
  6
Continuous
370
    -3
390
6
  0
LAYER
  5
9D8
102
{ACAD_XDICTIONARY
360
1F51
102
}
330
13
100
AcDbSymbolTableRecord
100
AcDbLayerTableRecord
  2
Pel_Points
 70
     0
 62
     7
  6
Continuous
290
     0
370
    -3
390
6
  0
LAYER
  5
29F9
330
13
100
AcDbSymbolTableRecord
100
AcDbLayerTableRecord
  2
Defpoints
 70
     0
 62
     7
  6
Continuous
290
     0
370
    -3
390
6
  0
ENDTAB
  0
TABLE
  2
STYLE
  5
17
330
0
100
AcDbSymbolTable
 70
     2
  0
STYLE
  5
18
330
17
100
AcDbSymbolTableRecord
100
AcDbTextStyleTableRecord
  2
Standard
 70
     0
 40
0.0
 41
1.0
 50
0.0
 71
     0
 42
1.9375
  3
ARIAL.TTF
  4

1001
ACAD
1000
Arial
1071
       34
  0
STYLE
  5
25
330
17
100
AcDbSymbolTableRecord
100
AcDbTextStyleTableRecord
  2
ARCHQUIK
 70
     0
 40
0.0
 41
1.0
 50
0.0
 71
     0
 42
1.9375
  3
archquik.shx
  4

  0
ENDTAB
  0
TABLE
  2
VIEW
  5
1E
330
0
100
AcDbSymbolTable
 70
     0
  0
ENDTAB
  0
TABLE
  2
UCS
  5
1F
330
0
100
AcDbSymbolTable
 70
     0
  0
ENDTAB
  0
TABLE
  2
APPID
  5
22
330
0
100
AcDbSymbolTable
 70
     7
  0
APPID
  5
19
330
22
100
AcDbSymbolTableRecord
100
AcDbRegAppTableRecord
  2
ACAD
 70
     0
  0
APPID
  5
9
330
22
100
AcDbSymbolTableRecord
100
AcDbRegAppTableRecord
  2
ADE
 70
     0
  0
APPID
  5
1BF6
330
22
100
AcDbSymbolTableRecord
100
AcDbRegAppTableRecord
  2
ACAD_MLEADERVER
 70
     0
  0
APPID
  5
1D29
330
22
100
AcDbSymbolTableRecord
100
AcDbRegAppTableRecord
  2
AcDbBlockRepETag
 70
     0
  0
APPID
  5
1D2A
330
22
100
AcDbSymbolTableRecord
100
AcDbRegAppTableRecord
  2
ACAD_DSTYLE_DIMJAG
 70
     0
  0
APPID
  5
1D2B
330
22
100
AcDbSymbolTableRecord
100
AcDbRegAppTableRecord
  2
ACAD_DSTYLE_DIMTALN
 70
     0
  0
APPID
  5
228B
330
22
100
AcDbSymbolTableRecord
100
AcDbRegAppTableRecord
  2
ACAD_EXEMPT_FROM_CAD_STANDARDS
 70
     0
  0
ENDTAB
  0
TABLE
  2
DIMSTYLE
  5
23
330
0
100
AcDbSymbolTable
 70
     2
100
AcDbDimStyleTable
 71
     2
340
2525
340
2B
  0
DIMSTYLE
105
2B
102
{ACAD_REACTORS
330
51A
330
50F
330
504
330
4F9
330
4EE
330
4E0
330
282
330
291
102
}
330
23
100
AcDbSymbolTableRecord
100
AcDbDimStyleTableRecord
  2
3 inch Scale
 70
     0
  3
"\X
 41
0.21875
 42
0.5
 43
0.2
 44
0.25
 73
     0
 74
     0
 77
     1
 78
    10
140
0.28
146
0.75
147
0.125
170
     1
171
     0
176
   256
177
   256
178
   255
179
     3
274
     0
276
     2
277
     5
279
     2
340
18
371
    -1
372
    -1
1001
ACAD_DSTYLE_DIMJAG
1070
   388
1040
1.5
1001
ACAD_DSTYLE_DIMTALN
1070
   392
1070
     0
  0
DIMSTYLE
105
2525
330
23
100
AcDbSymbolTableRecord
100
AcDbDimStyleTableRecord
  2
Standard
 70
     0
 41
0.125
 43
0.0625
 44
0.0625
 73
     0
 74
     0
 77
     1
 78
     2
140
0.09375
146
0.75
147
0.0625
176
   256
177
   256
179
     4
271
     6
272
     6
276
     1
279
     2
340
18
  0
ENDTAB
  0
TABLE
  2
BLOCK_RECORD
  5
1
330
0
100
AcDbSymbolTable
 70
    20
  0
BLOCK_RECORD
  5
2
102
{ACAD_XDICTIONARY
360
3
102
}
330
1
100
AcDbSymbolTableRecord
100
AcDbBlockTableRecord
  2
*Model_Space
340
C
  0
BLOCK_RECORD
  5
1B97
330
1
100
AcDbSymbolTableRecord
100
AcDbBlockTableRecord
  2
*Paper_Space
340
1B98
  0
BLOCK_RECORD
  5
283
330
1
100
AcDbSymbolTableRecord
100
AcDbBlockTableRecord
  2
_None
340
0
  0
BLOCK_RECORD
  5
3E3
102
{ACAD_XDICTIONARY
360
3E4
102
}
330
1
100
AcDbSymbolTableRecord
100
AcDbBlockTableRecord
  2
Rodseal
340
0
102
{BLKREFS
331
4B4
331
3E2
102
}
  0
BLOCK_RECORD
  5
3F6
330
1
100
AcDbSymbolTableRecord
100
AcDbBlockTableRecord
  2
Nail
340
0
102
{BLKREFS
331
3F5
102
}
  0
BLOCK_RECORD
  5
431
102
{ACAD_XDICTIONARY
360
432
102
}
330
1
100
AcDbSymbolTableRecord
100
AcDbBlockTableRecord
  2
Td-2xbrk-fH-Dr.1
340
0
102
{BLKREFS
331
430
102
}
  0
BLOCK_RECORD
  5
1F1
102
{ACAD_XDICTIONARY
360
1F2
102
}
330
1
100
AcDbSymbolTableRecord
100
AcDbBlockTableRecord
  2
Td-2xbrk-fS-wdDr
340
0
102
{BLKREFS
331
1F0
102
}
  0
BLOCK_RECORD
  5
35D
102
{ACAD_XDICTIONARY
360
35E
102
}
330
1
100
AcDbSymbolTableRecord
100
AcDbBlockTableRecord
  2
Td-2xbrk-fJ-Dr
340
0
102
{BLKREFS
331
35C
102
}
  0
BLOCK_RECORD
  5
18C
102
{ACAD_XDICTIONARY
360
18D
102
}
330
1
100
AcDbSymbolTableRecord
100
AcDbBlockTableRecord
  2
TSE10SDSV
340
0
102
{BLKREFS
331
18B
102
}
  0
BLOCK_RECORD
  5
624
330
1
100
AcDbSymbolTableRecord
100
AcDbBlockTableRecord
  2
*D7
340
0
  0
BLOCK_RECORD
  5
16F0
330
1
100
AcDbSymbolTableRecord
100
AcDbBlockTableRecord
  2
*D8
340
0
  0
BLOCK_RECORD
  5
1701
330
1
100
AcDbSymbolTableRecord
100
AcDbBlockTableRecord
  2
*D9
340
0
  0
BLOCK_RECORD
  5
1BFB
102
{ACAD_XDICTIONARY
360
1BFC
102
}
330
1
100
AcDbSymbolTableRecord
100
AcDbBlockTableRecord
  2
TSE 10 SD HV
340
0
102
{BLKREFS
331
1D3A
102
}
  0
BLOCK_RECORD
  5
1C4B
102
{ACAD_XDICTIONARY
360
1C4C
102
}
330
1
100
AcDbSymbolTableRecord
100
AcDbBlockTableRecord
  2
TSE 10 SD SV
340
0
102
{BLKREFS
331
1D39
102
}
  0
BLOCK_RECORD
  5
1CA0
102
{ACAD_XDICTIONARY
360
1CA1
102
}
330
1
100
AcDbSymbolTableRecord
100
AcDbBlockTableRecord
  2
TSE 10 SD JV
340
0
102
{BLKREFS
331
1D38
102
}
  0
BLOCK_RECORD
  5
1D21
102
{ACAD_XDICTIONARY
360
1D22
102
}
330
1
100
AcDbSymbolTableRecord
100
AcDbBlockTableRecord
  2
30AY
340
0
102
{BLKREFS
331
1D3B
331
1D3C
102
}
  0
BLOCK_RECORD
  5
1D3D
330
1
100
AcDbSymbolTableRecord
100
AcDbBlockTableRecord
  2
*D14
340
0
  0
BLOCK_RECORD
  5
1D47
330
1
100
AcDbSymbolTableRecord
100
AcDbBlockTableRecord
  2
*D15
340
0
  0
BLOCK_RECORD
  5
1F65
330
1
100
AcDbSymbolTableRecord
100
AcDbBlockTableRecord
  2
*D16
340
0
  0
BLOCK_RECORD
  5
1F72
330
1
100
AcDbSymbolTableRecord
100
AcDbBlockTableRecord
  2
*D17
340
0
  0
BLOCK_RECORD
  5
1F7C
330
1
100
AcDbSymbolTableRecord
100
AcDbBlockTableRecord
  2
*D18
340
0
  0
BLOCK_RECORD
  5
2526
102
{ACAD_XDICTIONARY
360
254C
102
}
330
1
100
AcDbSymbolTableRecord
100
AcDbBlockTableRecord
  2
FOAM1
340
0
102
{BLKREFS
331
2550
331
28DD
102
}
  0
ENDTAB
  0
ENDSEC
  0
SECTION
  2
BLOCKS
  0
BLOCK
  5
4
330
2
100
AcDbEntity
  8
0
100
AcDbBlockBegin
  2
*Model_Space
 70
     0
 10
0.0
 20
0.0
 30
0.0
  3
*Model_Space
  1

  0
ENDBLK
  5
B
330
2
100
AcDbEntity
  8
0
100
AcDbBlockEnd
  0
BLOCK
  5
1B99
330
1B97
100
AcDbEntity
 67
     1
  8
0
100
AcDbBlockBegin
  2
*Paper_Space
 70
     0
 10
0.0
 20
0.0
 30
0.0
  3
*Paper_Space
  1

  0
ENDBLK
  5
1B9A
330
1B97
100
AcDbEntity
 67
     1
  8
0
100
AcDbBlockEnd
  0
BLOCK
  5
284
330
283
100
AcDbEntity
  8
0
100
AcDbBlockBegin
  2
_None
 70
     0
 10
0.0
 20
0.0
 30
0.0
  3
_None
  1

  0
ENDBLK
  5
285
330
283
100
AcDbEntity
  8
0
100
AcDbBlockEnd
  0
BLOCK
  5
3E6
330
3E3
100
AcDbEntity
  8
0
100
AcDbBlockBegin
  2
Rodseal
 70
     0
 10
0.0
 20
0.0
 30
0.0
  3
Rodseal
  1

  0
ARC
  5
3E7
330
3E3
100
AcDbEntity
  8
Pel_Wall
100
AcDbCircle
 10
-0.5625
 20
0.5
 30
0.0
 40
1.0625
100
AcDbArc
 50
17.99029647599064
 51
28.07248693585238
  0
ARC
  5
3E8
330
3E3
100
AcDbEntity
  8
Pel_Wall
100
AcDbCircle
 10
-0.5625
 20
0.5
 30
0.0
 40
1.0625
100
AcDbArc
 50
331.9275130641474
 51
340.7928957547761
  0
ARC
  5
3E9
330
3E3
100
AcDbEntity
  8
Pel_Wall
100
AcDbCircle
 10
-0.9375
 20
0.5
 30
0.0
 40
1.0625
100
AcDbArc
 50
331.9275130641474
 51
28.07248693585238
  0
ARC
  5
3EA
330
3E3
100
AcDbEntity
  8
Pel_Wall
100
AcDbCircle
 10
-0.8125
 20
0.5
 30
0.0
 40
1.0625
100
AcDbArc
 50
331.9275130641474
 51
28.07248693585238
  0
ARC
  5
3EB
330
3E3
100
AcDbEntity
  8
Pel_Wall
100
AcDbCircle
 10
-0.6875
 20
0.5
 30
0.0
 40
1.0625
100
AcDbArc
 50
331.9275130641474
 51
28.07248693585238
  0
CIRCLE
  5
3EC
330
3E3
100
AcDbEntity
  8
Pel_Wall
100
AcDbCircle
 10
0.7708146583002531
 20
0.2987804878048763
 30
0.0
 40
0.0182801895249072
  0
ARC
  5
3ED
330
3E3
100
AcDbEntity
  8
Pel_Wall
100
AcDbCircle
 10
-0.4375
 20
0.5
 30
0.0
 40
1.0625
100
AcDbArc
 50
331.9275130641474
 51
335.4550269558483
  0
CIRCLE
  5
3EE
330
3E3
100
AcDbEntity
  8
Pel_Wall
100
AcDbCircle
 10
0.5880127630511823
 20
0.189024390243901
 30
0.0
 40
0.0182926829268291
  0
ARC
  5
3EF
330
3E3
100
AcDbEntity
  8
Pel_Wall
100
AcDbCircle
 10
-0.4375
 20
0.5
 30
0.0
 40
1.0625
100
AcDbArc
 50
24.7733403565269
 51
28.07248693585238
  0
CIRCLE
  5
3F0
330
3E3
100
AcDbEntity
  8
Pel_Wall
100
AcDbCircle
 10
0.8165151321125279
 20
0.4939024390243958
 30
0.0
 40
0.027420284287361
  0
CIRCLE
  5
3F1
330
3E3
100
AcDbEntity
  8
Pel_Wall
100
AcDbCircle
 10
0.560592478763823
 20
0.4969512195121979
 30
0.0
 40
0.0274390243902443
  0
CIRCLE
  5
3F2
330
3E3
100
AcDbEntity
  8
Pel_Wall
100
AcDbCircle
 10
0.6855071071840087
 20
0.7835365853658516
 30
0.0
 40
0.0243735860332097
  0
ELLIPSE
  5
3F3
330
3E3
100
AcDbEntity
  8
Pel_Wall
100
AcDbEllipse
 10
0.6875
 20
0.5
 30
0.0
 11
0.0
 21
0.5
 31
0.0
210
0.0
220
0.0
230
1.0
 40
0.625
 41
4.712388980384689
 42
10.99557428756427
  0
ENDBLK
  5
3F4
330
3E3
100
AcDbEntity
  8
0
100
AcDbBlockEnd
  0
BLOCK
  5
3F7
330
3F6
100
AcDbEntity
  8
0
100
AcDbBlockBegin
  2
Nail
 70
     0
 10
0.0
 20
0.0
 30
0.0
  3
Nail
  1

  0
LINE
  5
3F8
330
3F6
100
AcDbEntity
  8
Pel_Wall
100
AcDbLine
 10
-0.03125
 20
-0.125
 30
0.0
 11
-0.03125
 21
0.125
 31
0.0
  0
LINE
  5
3F9
330
3F6
100
AcDbEntity
  8
Pel_Wall
100
AcDbLine
 10
-0.0625
 20
0.0
 30
0.0
 11
0.375
 21
0.0
 31
0.0
  0
LINE
  5
3FA
330
3F6
100
AcDbEntity
  8
Pel_Wall
100
AcDbLine
 10
0.625
 20
0.0
 30
0.0
 11
1.0
 21
0.0
 31
0.0
  0
LINE
  5
3FB
330
3F6
100
AcDbEntity
  8
Pel_Wall
100
AcDbLine
 10
0.4375
 20
0.0
 30
0.0
 11
0.5625
 21
0.0
 31
0.0
  0
ENDBLK
  5
3FC
330
3F6
100
AcDbEntity
  8
0
100
AcDbBlockEnd
  0
BLOCK
  5
434
330
431
100
AcDbEntity
  8
0
100
AcDbBlockBegin
  2
Td-2xbrk-fH-Dr.1
 70
     0
 10
0.0
 20
0.0
 30
0.0
  3
Td-2xbrk-fH-Dr.1
  1

  0
POLYLINE
  5
435
330
431
100
AcDbEntity
  8
Pel_Wall
100
AcDb2dPolyline
 66
     1
 10
0.0
 20
0.0
 30
0.0
  0
VERTEX
  5
2874
330
435
100
AcDbEntity
  8
Pel_Wall
100
AcDbVertex
100
AcDb2dVertex
 10
0.8821669447578113
 20
4.499999999999989
 30
0.0
  0
VERTEX
  5
2875
330
435
100
AcDbEntity
  8
Pel_Wall
100
AcDbVertex
100
AcDb2dVertex
 10
0.6343351461193248
 20
3.880420503403762
 30
0.0
  0
VERTEX
  5
2876
330
435
100
AcDbEntity
  8
Pel_Wall
100
AcDbVertex
100
AcDb2dVertex
 10
0.2004665342921452
 20
1.277208832440656
 30
0.0
 42
-0.3537999906219722
  0
VERTEX
  5
2877
330
435
100
AcDbEntity
  8
Pel_Wall
100
AcDbVertex
100
AcDb2dVertex
 10
-0.2512068719063354
 20
0.8766154470462836
 30
0.0
  0
VERTEX
  5
2878
330
435
100
AcDbEntity
  8
Pel_Wall
100
AcDbVertex
100
AcDb2dVertex
 10
-2.610922363083846
 20
0.7693556519927541
 30
0.0
  0
VERTEX
  5
2879
330
435
100
AcDbEntity
  8
Pel_Wall
100
AcDbVertex
100
AcDb2dVertex
 10
-2.740266061974653
 20
0.381324555320333
 30
0.0
  0
SEQEND
  5
287A
330
435
100
AcDbEntity
  8
Pel_Wall
  0
HATCH
  5
43D
330
431
100
AcDbEntity
  8
Pel_Wall
100
AcDbHatch
 10
0.0
 20
0.0
 30
0.0
210
0.0
220
0.0
230
1.0
  2
STEEL
 70
     0
 71
     1
 91
        1
 92
        7
 72
     1
 73
     1
 93
        7
 10
1.12245760398636
 20
4.0
 42
0.4142135623730951
 10
0.8724576039863602
 20
3.75
 42
0.0
 10
0.8724576039863602
 20
1.0
 42
-0.4142135623730952
 10
0.6224576039863603
 20
0.75
 42
0.0
 10
-2.127542396013639
 20
0.75
 42
0.4142135623730951
 10
-2.377542396013639
 20
0.5
 42
0.0
 10
1.122457603986358
 20
0.4999999999999929
 42
0.0
 97
        1
330
451
 75
     0
 76
     1
 52
0.0
 41
8.0
 77
     0
 78
     2
 53
45.0
 43
-3.596292396013639
 44
-24.5
 45
-0.7071067811865475
 46
0.7071067811865476
 79
     0
 53
45.0
 43
-3.596292396013639
 44
-24.0
 45
-0.7071067811865475
 46
0.7071067811865476
 79
     0
 47
0.0121047430905808
 98
        1
 10
0.9994455701388869
 20
1.718497342572696
  0
POLYLINE
  5
43E
330
431
100
AcDbEntity
  8
Pel_Wall
100
AcDb2dPolyline
 66
     1
 10
0.0
 20
0.0
 30
0.0
  0
VERTEX
  5
287D
330
43E
100
AcDbEntity
  8
Pel_Wall
100
AcDbVertex
100
AcDb2dVertex
 10
0.9037076039863602
 20
4.499999999999989
 30
0.0
  0
VERTEX
  5
287E
330
43E
100
AcDbEntity
  8
Pel_Wall
100
AcDbVertex
100
AcDb2dVertex
 10
0.6537076039863603
 20
3.875
 30
0.0
  0
VERTEX
  5
287F
330
43E
100
AcDbEntity
  8
Pel_Wall
100
AcDbVertex
100
AcDb2dVertex
 10
0.2201944127687891
 20
1.273920852694544
 30
0.0
 42
-0.3537999906219706
  0
VERTEX
  5
2880
330
43E
100
AcDbEntity
  8
Pel_Wall
100
AcDbVertex
100
AcDb2dVertex
 10
-0.2502987186879597
 20
0.8566360762420757
 30
0.0
  0
VERTEX
  5
2881
330
43E
100
AcDbEntity
  8
Pel_Wall
100
AcDbVertex
100
AcDb2dVertex
 10
-2.596292396013639
 20
0.75
 30
0.0
  0
VERTEX
  5
2882
330
43E
100
AcDbEntity
  8
Pel_Wall
100
AcDbVertex
100
AcDb2dVertex
 10
-2.721292396013639
 20
0.375
 30
0.0
  0
SEQEND
  5
2883
330
43E
100
AcDbEntity
  8
Pel_Wall
  0
POLYLINE
  5
448
102
{ACAD_REACTORS
330
14C3
102
}
330
431
100
AcDbEntity
  8
Pel_Wall
100
AcDb2dPolyline
 66
     1
 10
0.0
 20
0.0
 30
0.0
 70
     1
  0
VERTEX
  5
2885
330
448
100
AcDbEntity
  8
Pel_Wall
100
AcDbVertex
100
AcDb2dVertex
 10
-4.096292396013639
 20
3.375
 30
0.0
 42
0.9999999999999998
  0
VERTEX
  5
2886
330
448
100
AcDbEntity
  8
Pel_Wall
100
AcDbVertex
100
AcDb2dVertex
 10
-4.096292396013639
 20
3.75
 30
0.0
  0
VERTEX
  5
2887
330
448
100
AcDbEntity
  8
Pel_Wall
100
AcDbVertex
100
AcDb2dVertex
 10
-0.4712923960136397
 20
3.75
 30
0.0
 42
-0.9999999999999998
  0
VERTEX
  5
2888
330
448
100
AcDbEntity
  8
Pel_Wall
100
AcDbVertex
100
AcDb2dVertex
 10
-0.4712923960136397
 20
3.375
 30
0.0
  0
SEQEND
  5
2889
330
448
100
AcDbEntity
  8
Pel_Wall
  0
LWPOLYLINE
  5
44F
102
{ACAD_REACTORS
330
14C2
102
}
330
431
100
AcDbEntity
  8
Pel_Wall
  6
Continuous
100
AcDbPolyline
 90
        5
 70
     0
 43
0.0
 10
-4.096292396013639
 20
0.875
 10
-0.4712923960136397
 20
0.875
 10
-0.4712923960136397
 20
3.375
 10
-4.096292396013639
 20
3.375
 10
-4.096292396013639
 20
0.875
  0
LWPOLYLINE
  5
451
102
{ACAD_REACTORS
330
43D
102
}
330
431
100
AcDbEntity
  8
Pel_Wall
  6
Continuous
100
AcDbPolyline
 90
        8
 70
     1
 43
0.0
 10
1.12245760398636
 20
4.0
 42
0.4142135623730951
 10
0.8724576039863602
 20
3.75
 10
0.8724576039863602
 20
1.0
 42
-0.4142135623730952
 10
0.6224576039863603
 20
0.75
 10
-2.127542396013639
 20
0.75
 42
0.4142135623730951
 10
-2.377542396013639
 20
0.5
 10
1.12245760398636
 20
0.5
 10
1.12245760398636
 20
4.0
  0
POLYLINE
  5
465
330
431
100
AcDbEntity
  8
Pel_Wall
  6
Continuous
100
AcDb2dPolyline
 66
     1
 10
0.0
 20
0.0
 30
0.0
  0
VERTEX
  5
288D
330
465
100
AcDbEntity
  8
Pel_Wall
  6
Continuous
100
AcDbVertex
100
AcDb2dVertex
 10
1.992457603986373
 20
4.499999999999989
 30
0.0
  0
VERTEX
  5
288E
330
465
100
AcDbEntity
  8
Pel_Wall
  6
Continuous
100
AcDbVertex
100
AcDb2dVertex
 10
1.992457603986373
 20
0.5
 30
0.0
  0
VERTEX
  5
288F
330
465
100
AcDbEntity
  8
Pel_Wall
  6
Continuous
100
AcDbVertex
100
AcDb2dVertex
 10
3.492457603986373
 20
0.5
 30
0.0
  0
VERTEX
  5
2890
330
465
100
AcDbEntity
  8
Pel_Wall
  6
Continuous
100
AcDbVertex
100
AcDb2dVertex
 10
3.492457603986373
 20
4.499999999999989
 30
0.0
  0
SEQEND
  5
2891
330
465
100
AcDbEntity
  8
Pel_Wall
  6
Continuous
  0
LINE
  5
46B
330
431
100
AcDbEntity
  8
Pel_Wall
  6
Continuous
100
AcDbLine
 10
3.492457603986373
 20
0.5
 30
0.0
 11
2.664871397089804
 21
4.499999999999989
 31
0.0
  0
LINE
  5
46C
330
431
100
AcDbEntity
  8
Pel_Wall
  6
Continuous
100
AcDbLine
 10
2.67255628718258
 20
0.8930331172533527
 30
0.0
 11
3.42255628718258
 21
0.8930331172533527
 31
0.0
  0
POLYLINE
  5
46D
330
431
100
AcDbEntity
  8
Pel_Wall
  6
Continuous
100
AcDb2dPolyline
 66
     1
 10
0.0
 20
0.0
 30
0.0
  0
VERTEX
  5
2895
330
46D
100
AcDbEntity
  8
Pel_Wall
  6
Continuous
100
AcDbVertex
100
AcDb2dVertex
 10
1.204957603986361
 20
0.5033887100555959
 30
0.0
  0
VERTEX
  5
2896
330
46D
100
AcDbEntity
  8
Pel_Wall
  6
Continuous
100
AcDbVertex
100
AcDb2dVertex
 10
1.204957603986361
 20
1.435735473935725
 30
0.0
  0
VERTEX
  5
2897
330
46D
100
AcDbEntity
  8
Pel_Wall
  6
Continuous
100
AcDbVertex
100
AcDb2dVertex
 10
1.313185522886001
 20
1.5625
 30
0.0
  0
VERTEX
  5
2898
330
46D
100
AcDbEntity
  8
Pel_Wall
  6
Continuous
100
AcDbVertex
100
AcDb2dVertex
 10
1.313185522886001
 20
4.499999999999989
 30
0.0
  0
SEQEND
  5
2899
330
46D
100
AcDbEntity
  8
Pel_Wall
  6
Continuous
  0
POLYLINE
  5
473
330
431
100
AcDbEntity
  8
Pel_Wall
  6
Continuous
100
AcDb2dPolyline
 66
     1
 10
0.0
 20
0.0
 30
0.0
  0
VERTEX
  5
289B
330
473
100
AcDbEntity
  8
Pel_Wall
  6
Continuous
100
AcDbVertex
100
AcDb2dVertex
 10
1.18495760398636
 20
0.5033887100555994
 30
0.0
  0
VERTEX
  5
289C
330
473
100
AcDbEntity
  8
Pel_Wall
  6
Continuous
100
AcDbVertex
100
AcDb2dVertex
 10
1.184957603986365
 20
1.440456833485722
 30
0.0
  0
VERTEX
  5
289D
330
473
100
AcDbEntity
  8
Pel_Wall
  6
Continuous
100
AcDbVertex
100
AcDb2dVertex
 10
1.293185522886005
 20
1.567221359549996
 30
0.0
  0
VERTEX
  5
289E
330
473
100
AcDbEntity
  8
Pel_Wall
  6
Continuous
100
AcDbVertex
100
AcDb2dVertex
 10
1.293185522886005
 20
4.499999999999989
 30
0.0
  0
SEQEND
  5
289F
330
473
100
AcDbEntity
  8
Pel_Wall
  6
Continuous
  0
POLYLINE
  5
479
102
{ACAD_REACTORS
330
1394
102
}
330
431
100
AcDbEntity
  8
Pel_Wall
  6
Continuous
100
AcDb2dPolyline
 66
     1
 10
0.0
 20
0.0
 30
0.0
 70
     1
  0
VERTEX
  5
28A1
330
479
100
AcDbEntity
  8
Pel_Wall
  6
Continuous
100
AcDbVertex
100
AcDb2dVertex
 10
1.492457603986345
 20
4.499999999999989
 30
0.0
  0
VERTEX
  5
28A2
330
479
100
AcDbEntity
  8
Pel_Wall
  6
Continuous
100
AcDbVertex
100
AcDb2dVertex
 10
1.492457603986345
 20
0.5
 30
0.0
  0
VERTEX
  5
28A3
330
479
100
AcDbEntity
  8
Pel_Wall
  6
Continuous
100
AcDbVertex
100
AcDb2dVertex
 10
1.992457603986359
 20
0.5
 30
0.0
  0
VERTEX
  5
28A4
330
479
100
AcDbEntity
  8
Pel_Wall
  6
Continuous
100
AcDbVertex
100
AcDb2dVertex
 10
1.992457603986359
 20
4.499999999999989
 30
0.0
  0
SEQEND
  5
28A5
330
479
100
AcDbEntity
  8
Pel_Wall
  6
Continuous
  0
LINE
  5
483
330
431
100
AcDbEntity
  8
Pel_Wall
  6
Continuous
100
AcDbLine
 10
1.992457603986373
 20
0.5
 30
0.0
 11
2.820043810882886
 21
4.499999999999989
 31
0.0
  0
POLYLINE
  5
488
330
431
100
AcDbEntity
  8
Pel_Wall
  6
Continuous
100
AcDb2dPolyline
 66
     1
 10
0.0
 20
0.0
 30
0.0
  0
VERTEX
  5
28A8
330
488
100
AcDbEntity
  8
Pel_Wall
  6
Continuous
100
AcDbVertex
100
AcDb2dVertex
 10
1.267457603986361
 20
0.25
 30
0.0
  0
VERTEX
  5
28A9
330
488
100
AcDbEntity
  8
Pel_Wall
  6
Continuous
100
AcDbVertex
100
AcDb2dVertex
 10
1.267457603986361
 20
1.442221359549996
 30
0.0
  0
VERTEX
  5
28AA
330
488
100
AcDbEntity
  8
Pel_Wall
  6
Continuous
100
AcDbVertex
100
AcDb2dVertex
 10
1.375685522886001
 20
1.567221359549996
 30
0.0
  0
VERTEX
  5
28AB
330
488
100
AcDbEntity
  8
Pel_Wall
  6
Continuous
100
AcDbVertex
100
AcDb2dVertex
 10
1.375685522886001
 20
3.25
 30
0.0
  0
SEQEND
  5
28AC
330
488
100
AcDbEntity
  8
Pel_Wall
  6
Continuous
  0
POLYLINE
  5
48E
330
431
100
AcDbEntity
  8
Pel_Wall
  6
Continuous
100
AcDb2dPolyline
 66
     1
 10
0.0
 20
0.0
 30
0.0
  0
VERTEX
  5
28AE
330
48E
100
AcDbEntity
  8
Pel_Wall
  6
Continuous
100
AcDbVertex
100
AcDb2dVertex
 10
1.287457603986357
 20
0.25
 30
0.0
  0
VERTEX
  5
28AF
330
48E
100
AcDbEntity
  8
Pel_Wall
  6
Continuous
100
AcDbVertex
100
AcDb2dVertex
 10
1.287457603986357
 20
1.4375
 30
0.0
  0
VERTEX
  5
28B0
330
48E
100
AcDbEntity
  8
Pel_Wall
  6
Continuous
100
AcDbVertex
100
AcDb2dVertex
 10
1.395685522885997
 20
1.5625
 30
0.0
  0
VERTEX
  5
28B1
330
48E
100
AcDbEntity
  8
Pel_Wall
  6
Continuous
100
AcDbVertex
100
AcDb2dVertex
 10
1.395685522885997
 20
3.25
 30
0.0
  0
SEQEND
  5
28B2
330
48E
100
AcDbEntity
  8
Pel_Wall
  6
Continuous
  0
LINE
  5
494
330
431
100
AcDbEntity
  8
Pel_Wall
  6
Continuous
100
AcDbLine
 10
1.29453420608219
 20
0.8930331172533527
 30
0.0
 11
2.169534206082204
 21
0.8930331172533527
 31
0.0
  0
LINE
  5
495
330
431
100
AcDbEntity
  8
Pel_Wall
  6
Continuous
100
AcDbLine
 10
1.333681477296522
 20
0.7680331172533564
 30
0.0
 11
1.333681477296522
 21
1.018033117253356
 31
0.0
  0
LINE
  5
496
330
431
100
AcDbEntity
  8
Pel_Wall
  6
Continuous
100
AcDbLine
 10
2.29755628718258
 20
0.8930331172533527
 30
0.0
 11
2.54755628718258
 21
0.8930331172533527
 31
0.0
  0
HATCH
  5
499
330
431
100
AcDbEntity
  8
Pel_Wall
100
AcDbHatch
 10
0.0
 20
0.0
 30
0.0
210
0.0
220
0.0
230
1.0
  2
GYP
 70
     0
 71
     0
 91
        1
 92
        7
 72
     0
 73
     1
 93
        6
 10
5.992457603986373
 20
4.499999999999989
 10
5.617457603986373
 20
4.499999999999989
 10
5.554957603986373
 20
4.249999999999989
 10
5.492457603986373
 20
4.499999999999989
 10
5.492457603986373
 20
0.5
 10
5.992457603986373
 20
0.5
 97
        0
 75
     0
 76
     1
 52
0.0
 41
1.0
 77
     0
 78
     3
 53
0.0
 43
0.1174576039863595
 44
-25.625
 45
0.18
 46
0.5
 79
     2
 49
0.0
 49
-0.3
 53
30.0
 43
0.1474576039863606
 44
-25.505
 45
-0.094115427318801
 46
0.5230127018922194
 79
     2
 49
0.0
 49
-0.3
 53
60.0
 43
0.1774576039863618
 44
-25.445
 45
-0.3430127018922193
 46
0.405884572681199
 79
     2
 49
0.0
 49
-0.3
 47
0.0173535917977504
 98
        1
 10
5.680264423314589
 20
3.1320951441634
  0
POLYLINE
  5
49A
330
431
100
AcDbEntity
  8
Pel_Wall
  6
Continuous
100
AcDb2dPolyline
 66
     1
 10
0.0
 20
0.0
 30
0.0
  0
VERTEX
  5
28B8
330
49A
100
AcDbEntity
  8
Pel_Wall
  6
Continuous
100
AcDbVertex
100
AcDb2dVertex
 10
3.492457603986373
 20
4.499999999999989
 30
0.0
  0
VERTEX
  5
28B9
330
49A
100
AcDbEntity
  8
Pel_Wall
  6
Continuous
100
AcDbVertex
100
AcDb2dVertex
 10
3.492457603986373
 20
0.5
 30
0.0
  0
VERTEX
  5
28BA
330
49A
100
AcDbEntity
  8
Pel_Wall
  6
Continuous
100
AcDbVertex
100
AcDb2dVertex
 10
3.992457603986373
 20
0.5
 30
0.0
  0
VERTEX
  5
28BB
330
49A
100
AcDbEntity
  8
Pel_Wall
  6
Continuous
100
AcDbVertex
100
AcDb2dVertex
 10
3.992457603986373
 20
4.499999999999989
 30
0.0
  0
SEQEND
  5
28BC
330
49A
100
AcDbEntity
  8
Pel_Wall
  6
Continuous
  0
POLYLINE
  5
4A0
330
431
100
AcDbEntity
  8
Pel_Wall
  6
Continuous
100
AcDb2dPolyline
 66
     1
 10
0.0
 20
0.0
 30
0.0
  0
VERTEX
  5
28BE
330
4A0
100
AcDbEntity
  8
Pel_Wall
  6
Continuous
100
AcDbVertex
100
AcDb2dVertex
 10
3.992457603986373
 20
4.499999999999989
 30
0.0
  0
VERTEX
  5
28BF
330
4A0
100
AcDbEntity
  8
Pel_Wall
  6
Continuous
100
AcDbVertex
100
AcDb2dVertex
 10
3.992457603986373
 20
0.5
 30
0.0
  0
VERTEX
  5
28C0
330
4A0
100
AcDbEntity
  8
Pel_Wall
  6
Continuous
100
AcDbVertex
100
AcDb2dVertex
 10
5.492457603986373
 20
0.5
 30
0.0
  0
VERTEX
  5
28C1
330
4A0
100
AcDbEntity
  8
Pel_Wall
  6
Continuous
100
AcDbVertex
100
AcDb2dVertex
 10
5.492457603986373
 20
4.499999999999989
 30
0.0
  0
SEQEND
  5
28C2
330
4A0
100
AcDbEntity
  8
Pel_Wall
  6
Continuous
  0
POLYLINE
  5
4A6
330
431
100
AcDbEntity
  8
Pel_Wall
  6
Continuous
100
AcDb2dPolyline
 66
     1
 10
0.0
 20
0.0
 30
0.0
  0
VERTEX
  5
28C4
330
4A6
100
AcDbEntity
  8
Pel_Wall
  6
Continuous
100
AcDbVertex
100
AcDb2dVertex
 10
5.492457603986373
 20
4.499999999999989
 30
0.0
  0
VERTEX
  5
28C5
330
4A6
100
AcDbEntity
  8
Pel_Wall
  6
Continuous
100
AcDbVertex
100
AcDb2dVertex
 10
5.492457603986373
 20
0.5
 30
0.0
  0
VERTEX
  5
28C6
330
4A6
100
AcDbEntity
  8
Pel_Wall
  6
Continuous
100
AcDbVertex
100
AcDb2dVertex
 10
5.992457603986373
 20
0.5
 30
0.0
  0
VERTEX
  5
28C7
330
4A6
100
AcDbEntity
  8
Pel_Wall
  6
Continuous
100
AcDbVertex
100
AcDb2dVertex
 10
5.992457603986373
 20
4.499999999999989
 30
0.0
  0
SEQEND
  5
28C8
330
4A6
100
AcDbEntity
  8
Pel_Wall
  6
Continuous
  0
LINE
  5
4AC
330
431
100
AcDbEntity
  8
Pel_Wall
  6
Continuous
100
AcDbLine
 10
5.492457603986373
 20
0.5
 30
0.0
 11
4.690733466055327
 21
4.499999999999989
 31
0.0
  0
LINE
  5
4AD
330
431
100
AcDbEntity
  8
Pel_Wall
  6
Continuous
100
AcDbLine
 10
3.992457603986373
 20
0.5
 30
0.0
 11
4.820043810882886
 21
4.499999999999989
 31
0.0
  0
LINE
  5
4AE
330
431
100
AcDbEntity
  8
Pel_Wall
  6
Continuous
100
AcDbLine
 10
3.617457603986373
 20
0.5
 30
0.0
 11
3.617457603986373
 21
4.499999999999989
 31
0.0
  0
LINE
  5
4AF
330
431
100
AcDbEntity
  8
Pel_Wall
  6
Continuous
100
AcDbLine
 10
3.742457603986373
 20
0.5
 30
0.0
 11
3.742457603986373
 21
4.499999999999989
 31
0.0
  0
LINE
  5
4B0
330
431
100
AcDbEntity
  8
Pel_Wall
  6
Continuous
100
AcDbLine
 10
3.867457603986373
 20
0.5
 30
0.0
 11
3.867457603986373
 21
4.499999999999989
 31
0.0
  0
LINE
  5
4B1
330
431
100
AcDbEntity
  8
Pel_Wall
  6
Continuous
100
AcDbLine
 10
3.992457603986373
 20
3.526911934581193
 30
0.0
 11
3.492457603986373
 21
4.026911934581193
 31
0.0
  0
LINE
  5
4B2
330
431
100
AcDbEntity
  8
Pel_Wall
  6
Continuous
100
AcDbLine
 10
3.992457603986373
 20
2.237698372208093
 30
0.0
 11
3.492457603986373
 21
2.737698372208093
 31
0.0
  0
LINE
  5
4B3
330
431
100
AcDbEntity
  8
Pel_Wall
  6
Continuous
100
AcDbLine
 10
3.992457603986373
 20
2.819805153394639
 30
0.0
 11
3.492457603986373
 21
3.319805153394639
 31
0.0
  0
INSERT
  5
4B4
330
431
100
AcDbEntity
  8
0
100
AcDbBlockReference
  2
Rodseal
 10
0.1042720811003743
 20
0.0
 30
0.0
 42
0.5
  0
POINT
  5
7F1
330
431
100
AcDbEntity
  8
Pel_Points
100
AcDbPoint
 10
0.0
 20
0.0000000000000036
 30
0.0
  0
HATCH
  5
1394
330
431
100
AcDbEntity
  8
Pel_Wall
  6
Continuous
100
AcDbHatch
 10
0.0
 20
0.0
 30
0.0
210
0.0
220
0.0
230
1.0
  2
PLY
 70
     0
 71
     1
 91
        1
 92
        1
 93
        4
 72
     1
 10
1.492457603986345
 20
4.499999999999989
 11
1.492457603986345
 21
0.4999999999999965
 72
     1
 10
1.492457603986345
 20
0.5
 11
1.992457603986359
 21
0.5
 72
     1
 10
1.992457603986359
 20
0.5
 11
1.992457603986359
 21
4.499999999999992
 72
     1
 10
1.992457603986359
 20
4.499999999999989
 11
1.492457603986345
 21
4.499999999999989
 97
        1
330
479
 75
     0
 76
     1
 52
90.0
 41
1.0
 77
     0
 78
     2
 53
90.0
 43
-7.947742274407055
 44
-27.84602719836288
 45
-0.125
 46
0.0
 79
     0
 53
135.0
 43
-7.822742274407055
 44
-27.84602719836288
 45
-0.3535533905932738
 46
-0.3535533905932737
 79
     0
 98
        1
 10
-7.822742274407055
 20
-27.84602719836288
  0
POLYLINE
  5
14BB
102
{ACAD_REACTORS
330
14C1
102
}
330
431
100
AcDbEntity
  8
Pel_Wall
100
AcDb2dPolyline
 66
     1
 10
0.0
 20
0.0
 30
0.0
 70
     1
  0
VERTEX
  5
28D5
330
14BB
100
AcDbEntity
  8
Pel_Wall
100
AcDbVertex
100
AcDb2dVertex
 10
-0.4712923960136397
 20
4.499999999999989
 30
0.0
  0
VERTEX
  5
28D6
330
14BB
100
AcDbEntity
  8
Pel_Wall
100
AcDbVertex
100
AcDb2dVertex
 10
-4.096292396013639
 20
4.499999999999975
 30
0.0
  0
VERTEX
  5
28D7
330
14BB
100
AcDbEntity
  8
Pel_Wall
100
AcDbVertex
100
AcDb2dVertex
 10
-4.096292396013639
 20
3.749999999999996
 30
0.0
  0
VERTEX
  5
28D8
330
14BB
100
AcDbEntity
  8
Pel_Wall
100
AcDbVertex
100
AcDb2dVertex
 10
-0.4712923960136397
 20
3.749999999999996
 30
0.0
  0
SEQEND
  5
28D9
330
14BB
100
AcDbEntity
  8
Pel_Wall
  0
HATCH
  5
14C1
330
431
100
AcDbEntity
  8
Pel_Wall
  6
Continuous
100
AcDbHatch
 10
0.0
 20
0.0
 30
0.0
210
0.0
220
0.0
230
1.0
  2
ANSI31
 70
     0
 71
     1
 91
        1
 92
        1
 93
        4
 72
     1
 10
-0.4712923960136397
 20
4.499999999999989
 11
-4.096292396013639
 21
4.499999999999982
 72
     1
 10
-4.096292396013639
 20
4.499999999999975
 11
-4.096292396013639
 21
3.749999999999992
 72
     1
 10
-4.096292396013639
 20
3.749999999999996
 11
-0.4712923960136393
 21
3.749999999999996
 72
     1
 10
-0.4712923960136397
 20
3.749999999999996
 11
-0.4712923960136397
 21
4.499999999999985
 97
        1
330
14BB
 75
     0
 76
     1
 52
0.0
 41
8.0
 77
     0
 78
     1
 53
45.0
 43
-7.78878773241221
 44
-27.84602719836288
 45
-0.7071067811865475
 46
0.7071067811865476
 79
     0
 98
        1
 10
-7.78878773241221
 20
-27.84602719836288
  0
HATCH
  5
14C2
330
431
100
AcDbEntity
  8
Pel_Wall
  6
Continuous
100
AcDbHatch
 10
0.0
 20
0.0
 30
0.0
210
0.0
220
0.0
230
1.0
  2
ANSI31
 70
     0
 71
     1
 91
        1
 92
        1
 93
        4
 72
     1
 10
-4.096292396013639
 20
0.875
 11
-0.4712923960136397
 21
0.875
 72
     1
 10
-0.4712923960136397
 20
0.875
 11
-0.4712923960136397
 21
3.375
 72
     1
 10
-0.4712923960136397
 20
3.375
 11
-4.096292396013639
 21
3.375
 72
     1
 10
-4.096292396013639
 20
3.375
 11
-4.096292396013639
 21
0.875
 97
        1
330
44F
 75
     0
 76
     1
 52
0.0
 41
8.0
 77
     0
 78
     1
 53
45.0
 43
-7.78878773241221
 44
-27.84602719836288
 45
-0.7071067811865475
 46
0.7071067811865476
 79
     0
 98
        1
 10
-7.78878773241221
 20
-27.84602719836288
  0
HATCH
  5
14C3
330
431
100
AcDbEntity
  8
Pel_Wall
100
AcDbHatch
 10
0.0
 20
0.0
 30
0.0
210
0.0
220
0.0
230
1.0
  2
AR-SAND
 70
     0
 71
     1
 91
        1
 92
        1
 93
        4
 72
     2
 10
-4.096292396013639
 20
3.5625
 40
0.1875
 50
270.0
 51
450.0
 73
     1
 72
     1
 10
-4.096292396013639
 20
3.75
 11
-0.4712923960136397
 21
3.75
 72
     2
 10
-0.4712923960136397
 20
3.5625
 40
0.1875
 50
270.0
 51
450.0
 73
     0
 72
     1
 10
-0.4712923960136397
 20
3.375
 11
-4.096292396013639
 21
3.375
 97
        1
330
448
 75
     0
 76
     1
 52
0.0
 41
0.125
 77
     0
 78
     4
 53
37.5
 43
-7.78878773241221
 44
-27.84602719836288
 45
-0.007874169763701
 46
0.2408529711266448
 79
     6
 49
0.0
 49
-0.19
 49
0.0
 49
-0.2125
 49
0.0
 49
-0.203125
 53
7.499999999999999
 43
-7.78878773241221
 44
-27.84602719836288
 45
0.2212220881584659
 46
0.3527682581537175
 79
     6
 49
0.0
 49
-0.1025
 49
0.0
 49
-0.17125
 49
0.0
 49
-0.065625
 53
327.5
 43
-7.942537732412209
 44
-27.84602719836288
 45
0.3892677327189369
 46
0.0007073816921206
 79
     6
 49
0.0
 49
-0.0625
 49
0.0
 49
-0.225
 49
0.0
 49
-0.29375
 53
317.5
 43
-7.942537732412209
 44
-27.84602719836288
 45
0.3757658255715366
 46
0.1097094456167811
 79
     6
 49
0.0
 49
-0.03125
 49
0.0
 49
-0.1475
 49
0.0
 49
-0.16875
 98
        1
 10
-7.78878773241221
 20
-27.84602719836288
  0
INSERT
  5
28DD
330
431
100
AcDbEntity
  8
0
100
AcDbBlockReference
  2
FOAM1
 10
4.435
 20
-0.0000000000000071
 30
0.0
 42
1.5625
 50
180.0
  0
ENDBLK
  5
4DF
330
431
100
AcDbEntity
  8
0
100
AcDbBlockEnd
  0
BLOCK
  5
1F4
330
1F1
100
AcDbEntity
  8
0
100
AcDbBlockBegin
  2
Td-2xbrk-fS-wdDr
 70
     0
 10
0.0
 20
0.0
 30
0.0
  3
Td-2xbrk-fS-wdDr
  1

  0
HATCH
  5
1F5
330
1F1
100
AcDbEntity
  8
Pel_Wall
100
AcDbHatch
 10
0.0
 20
0.0
 30
0.0
210
0.0
220
0.0
230
1.0
  2
PLY
 70
     0
 71
     0
 91
        1
 92
        7
 72
     0
 73
     1
 93
        4
 10
1.992457603986359
 20
-0.1252020798704763
 10
1.992457603986359
 20
-0.8752020798704762
 10
7.242457603986359
 20
-0.8752020798704762
 10
7.242457603986359
 20
-0.1252020798704763
 97
        0
 75
     0
 76
     1
 52
0.0
 41
1.0
 77
     0
 78
     2
 53
0.0
 43
-5.108328710863098
 44
-2.4375
 45
0.0
 46
0.125
 79
     0
 53
45.0
 43
-5.108328710863098
 44
-2.5625
 45
-0.3535533905932737
 46
0.3535533905932738
 79
     0
 47
0.0200949616831401
 98
        1
 10
3.365800818446295
 20
-0.3404294637855045
  0
POLYLINE
  5
1F6
330
1F1
100
AcDbEntity
  8
Pel_Wall
  6
Continuous
100
AcDb2dPolyline
 66
     1
 10
0.0
 20
0.0
 30
0.0
  0
VERTEX
  5
108A
330
1F6
100
AcDbEntity
  8
Pel_Wall
  6
Continuous
100
AcDbVertex
100
AcDb2dVertex
 10
7.242457603986359
 20
-0.1252020798704763
 30
0.0
  0
VERTEX
  5
108B
330
1F6
100
AcDbEntity
  8
Pel_Wall
  6
Continuous
100
AcDbVertex
100
AcDb2dVertex
 10
1.992457603986359
 20
-0.1252020798704763
 30
0.0
  0
VERTEX
  5
108C
330
1F6
100
AcDbEntity
  8
Pel_Wall
  6
Continuous
100
AcDbVertex
100
AcDb2dVertex
 10
1.992457603986359
 20
-0.8752020798704762
 30
0.0
  0
VERTEX
  5
108D
330
1F6
100
AcDbEntity
  8
Pel_Wall
  6
Continuous
100
AcDbVertex
100
AcDb2dVertex
 10
7.242457603986359
 20
-0.8752020798704762
 30
0.0
  0
SEQEND
  5
108E
330
1F6
100
AcDbEntity
  8
Pel_Wall
  6
Continuous
  0
LINE
  5
1FC
330
1F1
100
AcDbEntity
  8
Pel_Wall
  6
Continuous
100
AcDbLine
 10
4.435
 20
0.0
 30
0.0
 11
7.242457603986359
 21
0.0
 31
0.0
  0
LINE
  5
1FD
330
1F1
100
AcDbEntity
  8
Pel_Wall
  6
Continuous
100
AcDbLine
 10
7.242457603986359
 20
0.0625
 30
0.0
 11
4.435000000000004
 21
0.0625
 31
0.0
  0
LINE
  5
206
330
1F1
100
AcDbEntity
  8
Pel_Wall
  6
Continuous
100
AcDbLine
 10
6.243393822432459
 20
0.0625
 30
0.0
 11
6.243393822432459
 21
0.375
 31
0.0
  0
LINE
  5
207
330
1F1
100
AcDbEntity
  8
Pel_Wall
  6
Continuous
100
AcDbLine
 10
6.243393822432459
 20
0.0625
 30
0.0
 11
6.243393822432459
 21
0.375
 31
0.0
  0
LINE
  5
208
330
1F1
100
AcDbEntity
  8
Pel_Wall
  6
Continuous
100
AcDbLine
 10
5.805893822432459
 20
0.0625
 30
0.0
 11
5.805893822432459
 21
0.375
 31
0.0
  0
LINE
  5
209
330
1F1
100
AcDbEntity
  8
Pel_Wall
  6
Continuous
100
AcDbLine
 10
5.805893822432459
 20
0.0625
 30
0.0
 11
5.805893822432459
 21
0.375
 31
0.0
  0
LINE
  5
20A
330
1F1
100
AcDbEntity
  8
Pel_Wall
  6
Continuous
100
AcDbLine
 10
5.930893822432459
 20
0.0625
 30
0.0
 11
5.930893822432459
 21
0.375
 31
0.0
  0
LINE
  5
20B
330
1F1
100
AcDbEntity
  8
Pel_Wall
  6
Continuous
100
AcDbLine
 10
5.930893822432459
 20
0.0625
 30
0.0
 11
5.930893822432459
 21
0.375
 31
0.0
  0
LINE
  5
20C
330
1F1
100
AcDbEntity
  8
Pel_Wall
  6
Continuous
100
AcDbLine
 10
5.868393822432459
 20
0.0625
 30
0.0
 11
5.868393822432459
 21
0.375
 31
0.0
  0
LINE
  5
20D
330
1F1
100
AcDbEntity
  8
Pel_Wall
  6
Continuous
100
AcDbLine
 10
5.868393822432459
 20
0.0625
 30
0.0
 11
5.868393822432459
 21
0.375
 31
0.0
  0
LINE
  5
20E
330
1F1
100
AcDbEntity
  8
Pel_Wall
  6
Continuous
100
AcDbLine
 10
6.493393822432459
 20
0.0625
 30
0.0
 11
6.493393822432459
 21
0.375
 31
0.0
  0
LINE
  5
20F
330
1F1
100
AcDbEntity
  8
Pel_Wall
  6
Continuous
100
AcDbLine
 10
6.493393822432459
 20
0.0625
 30
0.0
 11
6.493393822432459
 21
0.375
 31
0.0
  0
LINE
  5
210
330
1F1
100
AcDbEntity
  8
Pel_Wall
  6
Continuous
100
AcDbLine
 10
6.430893822432459
 20
0.0625
 30
0.0
 11
6.430893822432459
 21
0.375
 31
0.0
  0
LINE
  5
211
330
1F1
100
AcDbEntity
  8
Pel_Wall
  6
Continuous
100
AcDbLine
 10
6.430893822432459
 20
0.0625
 30
0.0
 11
6.430893822432459
 21
0.375
 31
0.0
  0
LINE
  5
212
330
1F1
100
AcDbEntity
  8
Pel_Wall
  6
Continuous
100
AcDbLine
 10
6.368393822432459
 20
0.0625
 30
0.0
 11
6.368393822432459
 21
0.375
 31
0.0
  0
LINE
  5
213
330
1F1
100
AcDbEntity
  8
Pel_Wall
  6
Continuous
100
AcDbLine
 10
6.368393822432459
 20
0.0625
 30
0.0
 11
6.368393822432459
 21
0.375
 31
0.0
  0
LINE
  5
214
330
1F1
100
AcDbEntity
  8
Pel_Wall
  6
Continuous
100
AcDbLine
 10
6.305893822432459
 20
0.0625
 30
0.0
 11
6.305893822432459
 21
0.375
 31
0.0
  0
LINE
  5
215
330
1F1
100
AcDbEntity
  8
Pel_Wall
  6
Continuous
100
AcDbLine
 10
6.305893822432459
 20
0.0625
 30
0.0
 11
6.305893822432459
 21
0.375
 31
0.0
  0
LINE
  5
216
330
1F1
100
AcDbEntity
  8
Pel_Wall
  6
Continuous
100
AcDbLine
 10
6.618393822432459
 20
0.0625
 30
0.0
 11
6.618393822432459
 21
0.375
 31
0.0
  0
LINE
  5
217
330
1F1
100
AcDbEntity
  8
Pel_Wall
  6
Continuous
100
AcDbLine
 10
6.618393822432459
 20
0.0625
 30
0.0
 11
6.618393822432459
 21
0.375
 31
0.0
  0
LINE
  5
218
330
1F1
100
AcDbEntity
  8
Pel_Wall
  6
Continuous
100
AcDbLine
 10
6.555893822432459
 20
0.0625
 30
0.0
 11
6.555893822432459
 21
0.375
 31
0.0
  0
LINE
  5
219
330
1F1
100
AcDbEntity
  8
Pel_Wall
  6
Continuous
100
AcDbLine
 10
6.555893822432459
 20
0.0625
 30
0.0
 11
6.555893822432459
 21
0.375
 31
0.0
  0
LINE
  5
21A
330
1F1
100
AcDbEntity
  8
Pel_Wall
  6
Continuous
100
AcDbLine
 10
6.680893822432459
 20
0.0625
 30
0.0
 11
6.680893822432459
 21
0.375
 31
0.0
  0
LINE
  5
21B
330
1F1
100
AcDbEntity
  8
Pel_Wall
  6
Continuous
100
AcDbLine
 10
6.680893822432459
 20
0.0625
 30
0.0
 11
6.680893822432459
 21
0.375
 31
0.0
  0
LINE
  5
21C
330
1F1
100
AcDbEntity
  8
Pel_Wall
  6
Continuous
100
AcDbLine
 10
6.743393822432459
 20
0.0625
 30
0.0
 11
6.743393822432459
 21
0.375
 31
0.0
  0
LINE
  5
21D
330
1F1
100
AcDbEntity
  8
Pel_Wall
  6
Continuous
100
AcDbLine
 10
6.743393822432459
 20
0.0625
 30
0.0
 11
6.743393822432459
 21
0.375
 31
0.0
  0
LINE
  5
21E
330
1F1
100
AcDbEntity
  8
Pel_Wall
  6
Continuous
100
AcDbLine
 10
6.993393822432459
 20
0.0625
 30
0.0
 11
6.993393822432459
 21
0.375
 31
0.0
  0
LINE
  5
21F
330
1F1
100
AcDbEntity
  8
Pel_Wall
  6
Continuous
100
AcDbLine
 10
6.993393822432459
 20
0.0625
 30
0.0
 11
6.993393822432459
 21
0.375
 31
0.0
  0
LINE
  5
220
330
1F1
100
AcDbEntity
  8
Pel_Wall
  6
Continuous
100
AcDbLine
 10
6.930893822432459
 20
0.0625
 30
0.0
 11
6.930893822432459
 21
0.375
 31
0.0
  0
LINE
  5
221
330
1F1
100
AcDbEntity
  8
Pel_Wall
  6
Continuous
100
AcDbLine
 10
6.930893822432459
 20
0.0625
 30
0.0
 11
6.930893822432459
 21
0.375
 31
0.0
  0
LINE
  5
222
330
1F1
100
AcDbEntity
  8
Pel_Wall
  6
Continuous
100
AcDbLine
 10
6.868393822432459
 20
0.0625
 30
0.0
 11
6.868393822432459
 21
0.375
 31
0.0
  0
LINE
  5
223
330
1F1
100
AcDbEntity
  8
Pel_Wall
  6
Continuous
100
AcDbLine
 10
6.868393822432459
 20
0.0625
 30
0.0
 11
6.868393822432459
 21
0.375
 31
0.0
  0
LINE
  5
224
330
1F1
100
AcDbEntity
  8
Pel_Wall
  6
Continuous
100
AcDbLine
 10
6.805893822432459
 20
0.0625
 30
0.0
 11
6.805893822432459
 21
0.375
 31
0.0
  0
LINE
  5
225
330
1F1
100
AcDbEntity
  8
Pel_Wall
  6
Continuous
100
AcDbLine
 10
6.805893822432459
 20
0.0625
 30
0.0
 11
6.805893822432459
 21
0.375
 31
0.0
  0
LINE
  5
226
330
1F1
100
AcDbEntity
  8
Pel_Wall
  6
Continuous
100
AcDbLine
 10
7.180893822432459
 20
0.0625
 30
0.0
 11
7.180893822432459
 21
0.375
 31
0.0
  0
LINE
  5
227
330
1F1
100
AcDbEntity
  8
Pel_Wall
  6
Continuous
100
AcDbLine
 10
7.180893822432459
 20
0.0625
 30
0.0
 11
7.180893822432459
 21
0.375
 31
0.0
  0
LINE
  5
228
330
1F1
100
AcDbEntity
  8
Pel_Wall
  6
Continuous
100
AcDbLine
 10
7.118393822432459
 20
0.0625
 30
0.0
 11
7.118393822432459
 21
0.375
 31
0.0
  0
LINE
  5
229
330
1F1
100
AcDbEntity
  8
Pel_Wall
  6
Continuous
100
AcDbLine
 10
7.118393822432459
 20
0.0625
 30
0.0
 11
7.118393822432459
 21
0.375
 31
0.0
  0
LINE
  5
22A
330
1F1
100
AcDbEntity
  8
Pel_Wall
  6
Continuous
100
AcDbLine
 10
7.055893822432459
 20
0.0625
 30
0.0
 11
7.055893822432459
 21
0.375
 31
0.0
  0
LINE
  5
22B
330
1F1
100
AcDbEntity
  8
Pel_Wall
  6
Continuous
100
AcDbLine
 10
7.055893822432459
 20
0.0625
 30
0.0
 11
7.055893822432459
 21
0.375
 31
0.0
  0
LINE
  5
22C
330
1F1
100
AcDbEntity
  8
Pel_Wall
  6
Continuous
100
AcDbLine
 10
5.743393822432459
 20
0.0625
 30
0.0
 11
5.743393822432459
 21
0.375
 31
0.0
  0
LINE
  5
22D
330
1F1
100
AcDbEntity
  8
Pel_Wall
  6
Continuous
100
AcDbLine
 10
5.743393822432459
 20
0.0625
 30
0.0
 11
5.743393822432459
 21
0.375
 31
0.0
  0
POLYLINE
  5
22E
330
1F1
100
AcDbEntity
  8
Pel_Wall
100
AcDb2dPolyline
 66
     1
 10
0.0
 20
0.0
 30
0.0
  0
VERTEX
  5
10BA
330
22E
100
AcDbEntity
  8
Pel_Wall
100
AcDbVertex
100
AcDb2dVertex
 10
1.492457603986359
 20
-2.5
 30
0.0
  0
VERTEX
  5
10BB
330
22E
100
AcDbEntity
  8
Pel_Wall
100
AcDbVertex
100
AcDb2dVertex
 10
1.492457603986359
 20
-0.042500000000004
 30
0.0
  0
VERTEX
  5
10BC
330
22E
100
AcDbEntity
  8
Pel_Wall
100
AcDbVertex
100
AcDb2dVertex
 10
4.307529825108098
 20
-0.042500000000004
 30
0.0
  0
SEQEND
  5
10BD
330
22E
100
AcDbEntity
  8
Pel_Wall
  0
POLYLINE
  5
233
330
1F1
100
AcDbEntity
  8
Pel_Wall
100
AcDb2dPolyline
 66
     1
 10
0.0
 20
0.0
 30
0.0
  0
VERTEX
  5
10BF
330
233
100
AcDbEntity
  8
Pel_Wall
100
AcDbVertex
100
AcDb2dVertex
 10
1.512457603986355
 20
-2.5
 30
0.0
  0
VERTEX
  5
10C0
330
233
100
AcDbEntity
  8
Pel_Wall
100
AcDbVertex
100
AcDb2dVertex
 10
1.512457603986355
 20
-0.0625
 30
0.0
  0
VERTEX
  5
10C1
330
233
100
AcDbEntity
  8
Pel_Wall
100
AcDbVertex
100
AcDb2dVertex
 10
4.307529825108098
 20
-0.0625
 30
0.0
  0
SEQEND
  5
10C2
330
233
100
AcDbEntity
  8
Pel_Wall
  0
HATCH
  5
238
330
1F1
100
AcDbEntity
  8
Pel_Wall
100
AcDbHatch
 10
0.0
 20
0.0
 30
0.0
210
0.0
220
0.0
230
1.0
  2
PLY
 70
     0
 71
     0
 91
        1
 92
        7
 72
     0
 73
     1
 93
        4
 10
1.992457603986359
 20
-0.1252020798704763
 10
1.492457603986359
 20
-0.1252020798704763
 10
1.492457603986359
 20
-2.5
 10
1.992457603986359
 20
-2.5
 97
        0
 75
     0
 76
     1
 52
90.0
 41
1.0
 77
     0
 78
     2
 53
90.0
 43
1.242457603986345
 44
-2.5
 45
-0.125
 46
0.0
 79
     0
 53
135.0
 43
1.367457603986345
 44
-2.5
 45
-0.3535533905932738
 46
-0.3535533905932737
 79
     0
 47
0.0087769680369151
 98
        1
 10
1.745750664701283
 20
-1.10605560947723
  0
POLYLINE
  5
239
330
1F1
100
AcDbEntity
  8
Pel_Wall
  6
Continuous
100
AcDb2dPolyline
 66
     1
 10
0.0
 20
0.0
 30
0.0
  0
VERTEX
  5
10C5
330
239
100
AcDbEntity
  8
Pel_Wall
  6
Continuous
100
AcDbVertex
100
AcDb2dVertex
 10
1.992457603986359
 20
-2.5
 30
0.0
  0
VERTEX
  5
10C6
330
239
100
AcDbEntity
  8
Pel_Wall
  6
Continuous
100
AcDbVertex
100
AcDb2dVertex
 10
1.992457603986359
 20
-0.1252020798704763
 30
0.0
  0
VERTEX
  5
10C7
330
239
100
AcDbEntity
  8
Pel_Wall
  6
Continuous
100
AcDbVertex
100
AcDb2dVertex
 10
1.554957603986359
 20
-0.125202079870478
 30
0.0
  0
VERTEX
  5
10C8
330
239
100
AcDbEntity
  8
Pel_Wall
  6
Continuous
100
AcDbVertex
100
AcDb2dVertex
 10
1.554957603986359
 20
-2.499999999999998
 30
0.0
  0
SEQEND
  5
10C9
330
239
100
AcDbEntity
  8
Pel_Wall
  6
Continuous
  0
POLYLINE
  5
23F
330
1F1
100
AcDbEntity
  8
Pel_Wall
  6
Continuous
100
AcDb2dPolyline
 66
     1
 10
0.0
 20
0.0
 30
0.0
  0
VERTEX
  5
10CB
330
23F
100
AcDbEntity
  8
Pel_Wall
  6
Continuous
100
AcDbVertex
100
AcDb2dVertex
 10
3.492457603986359
 20
-2.5
 30
0.0
  0
VERTEX
  5
10CC
330
23F
100
AcDbEntity
  8
Pel_Wall
  6
Continuous
100
AcDbVertex
100
AcDb2dVertex
 10
3.492457603986359
 20
-0.8752020798704762
 30
0.0
  0
VERTEX
  5
10CD
330
23F
100
AcDbEntity
  8
Pel_Wall
  6
Continuous
100
AcDbVertex
100
AcDb2dVertex
 10
1.992457603986359
 20
-0.8752020798704762
 30
0.0
  0
VERTEX
  5
10CE
330
23F
100
AcDbEntity
  8
Pel_Wall
  6
Continuous
100
AcDbVertex
100
AcDb2dVertex
 10
1.992457603986359
 20
-2.5
 30
0.0
  0
SEQEND
  5
10CF
330
23F
100
AcDbEntity
  8
Pel_Wall
  6
Continuous
  0
LINE
  5
245
330
1F1
100
AcDbEntity
  8
Pel_Wall
  6
Continuous
100
AcDbLine
 10
2.492395425564659
 20
-2.5
 30
0.0
 11
1.992457603986359
 21
-0.8752020798704762
 31
0.0
  0
LINE
  5
246
330
1F1
100
AcDbEntity
  8
Pel_Wall
  6
Continuous
100
AcDbLine
 10
2.992519782408031
 20
-2.5
 30
0.0
 11
3.492457603986359
 21
-0.8752020798704762
 31
0.0
  0
POLYLINE
  5
247
330
1F1
100
AcDbEntity
  8
Pel_Wall
100
AcDb2dPolyline
 66
     1
 10
0.0
 20
0.0
 30
0.0
  0
VERTEX
  5
10D3
330
247
100
AcDbEntity
  8
Pel_Wall
100
AcDbVertex
100
AcDb2dVertex
 10
1.269957603986355
 20
-2.5
 30
0.0
  0
VERTEX
  5
10D4
330
247
100
AcDbEntity
  8
Pel_Wall
100
AcDbVertex
100
AcDb2dVertex
 10
1.269957603986355
 20
-0.0000000000000071
 30
0.0
  0
VERTEX
  5
10D5
330
247
100
AcDbEntity
  8
Pel_Wall
100
AcDbVertex
100
AcDb2dVertex
 10
-0.8215401610789427
 20
0.0
 30
0.0
  0
VERTEX
  5
10D6
330
247
100
AcDbEntity
  8
Pel_Wall
100
AcDbVertex
100
AcDb2dVertex
 10
-2.821540161078942
 20
-0.25
 30
0.0
  0
VERTEX
  5
10D7
330
247
100
AcDbEntity
  8
Pel_Wall
100
AcDbVertex
100
AcDb2dVertex
 10
-2.821540161078942
 20
-2.5
 30
0.0
  0
SEQEND
  5
10D8
330
247
100
AcDbEntity
  8
Pel_Wall
  0
LINE
  5
24E
330
1F1
100
AcDbEntity
  8
Pel_Wall
  6
Continuous
100
AcDbLine
 10
6.055893822432459
 20
0.0625
 30
0.0
 11
6.055893822432459
 21
0.375
 31
0.0
  0
LINE
  5
24F
330
1F1
100
AcDbEntity
  8
Pel_Wall
  6
Continuous
100
AcDbLine
 10
6.055893822432459
 20
0.0625
 30
0.0
 11
6.055893822432459
 21
0.375
 31
0.0
  0
LINE
  5
250
330
1F1
100
AcDbEntity
  8
Pel_Wall
  6
Continuous
100
AcDbLine
 10
6.180893822432459
 20
0.0625
 30
0.0
 11
6.180893822432459
 21
0.375
 31
0.0
  0
LINE
  5
251
330
1F1
100
AcDbEntity
  8
Pel_Wall
  6
Continuous
100
AcDbLine
 10
6.180893822432459
 20
0.0625
 30
0.0
 11
6.180893822432459
 21
0.375
 31
0.0
  0
LINE
  5
252
330
1F1
100
AcDbEntity
  8
Pel_Wall
  6
Continuous
100
AcDbLine
 10
6.118393822432459
 20
0.0625
 30
0.0
 11
6.118393822432459
 21
0.375
 31
0.0
  0
LINE
  5
253
330
1F1
100
AcDbEntity
  8
Pel_Wall
  6
Continuous
100
AcDbLine
 10
6.118393822432459
 20
0.0625
 30
0.0
 11
6.118393822432459
 21
0.375
 31
0.0
  0
LINE
  5
254
330
1F1
100
AcDbEntity
  8
Pel_Wall
  6
Continuous
100
AcDbLine
 10
5.993393822432459
 20
0.0625
 30
0.0
 11
5.993393822432459
 21
0.375
 31
0.0
  0
LINE
  5
255
330
1F1
100
AcDbEntity
  8
Pel_Wall
  6
Continuous
100
AcDbLine
 10
5.993393822432459
 20
0.0625
 30
0.0
 11
5.993393822432459
 21
0.375
 31
0.0
  0
HATCH
  5
256
330
1F1
100
AcDbEntity
  8
Pel_Wall
100
AcDbHatch
 10
0.0
 20
0.0
 30
0.0
210
0.0
220
0.0
230
1.0
  2
AR-CONC
 70
     0
 71
     0
 91
        1
 92
        7
 72
     0
 73
     1
 93
        9
 10
1.303459838921057
 20
0.0
 10
-0.8215401610789427
 20
0.0
 10
-2.821540161078942
 20
-0.25
 10
-2.821540161078942
 20
-2.5
 10
-0.2323760664905308
 20
-2.5
 10
-0.1323760664905222
 20
-2.25
 10
-0.0323760664905137
 20
-2.75
 10
0.0676239335094806
 20
-2.5
 10
1.303459838921057
 20
-2.5
 97
        0
 75
     0
 76
     1
 52
0.0
 41
0.275
 77
     0
 78
    13
 53
50.0
 43
-8.009040161078928
 44
-3.8125
 45
1.972465502152072
 46
-0.1725683712021365
 79
     2
 49
0.20625
 49
-2.26875
 53
355.0
 43
-8.009040161078928
 44
-3.8125
 45
-0.38156616743575
 46
2.068528367675032
 79
     2
 49
0.165
 49
-1.814999999999999
 53
100.4514
 43
-7.844668041078932
 44
-3.826880684999999
 45
1.590900799713559
 46
1.895958740667622
 79
     2
 49
0.1752855224999998
 49
-1.928140807999997
 53
46.1842
 43
-8.009040161078928
 44
-3.262500000000002
 45
2.934912883720522
 46
-0.4551772894047998
 79
     2
 49
0.309375
 49
-3.403125
 53
96.63559999999998
 43
-7.764464112328923
 44
-3.300431594249999
 45
2.570322440258934
 46
2.678824144976215
 79
     2
 49
0.2629282919999994
 49
-2.892210749999995
 53
351.1842000000001
 43
-8.009040161078928
 44
-3.262500000000002
 45
2.570320349117475
 46
2.678826152544643
 79
     2
 49
0.2475
 49
-2.7225
 53
21.0
 43
-7.734040161078922
 44
-3.399999999999998
 45
1.641494393325769
 46
-1.107201949329681
 79
     2
 49
0.20625
 49
-2.26875
 53
326.0
 43
-7.734040161078922
 44
-3.399999999999998
 45
0.6691171627843497
 46
1.994162623878845
 79
     2
 49
0.165
 49
-1.814999999999999
 53
71.45140000000001
 43
-7.597249020328931
 44
-3.4922669165
 45
2.310612228599097
 46
0.8869588659523691
 79
     2
 49
0.1752855225
 49
-1.928140807999999
 53
37.5
 43
-8.009040161078928
 44
-3.8125
 45
0.0334396021225494
 46
0.9154580980361066
 79
     6
 49
0.0
 49
-1.792999999999999
 49
0.0
 49
-1.8425
 49
0.0
 49
-1.821875
 53
7.499999999999999
 43
-8.009040161078928
 44
-3.8125
 45
0.7234412279659087
 46
1.08463220767649
 79
     6
 49
0.0
 49
-1.050499999999999
 49
0.0
 49
-1.75175
 49
0.0
 49
-0.6943750000000001
 53
327.5
 43
-8.622290161078922
 44
-3.8125
 45
1.468011699474125
 46
-0.0620258972695445
 79
     6
 49
0.0
 49
-0.6875
 49
0.0
 49
-2.145
 49
0.0
 49
-2.846249999999999
 53
317.5
 43
-8.897290161078927
 44
-3.8125
 45
1.603761965691562
 46
0.2752887014138735
 79
     6
 49
0.0
 49
-0.89375
 49
0.0
 49
-1.4245
 49
0.0
 49
-2.02125
 47
0.0095598111298347
 98
        1
 10
-0.6253514868717503
 20
-1.267303772969171
  0
LINE
  5
257
330
1F1
100
AcDbEntity
  8
Pel_Wall
  6
Continuous
100
AcDbLine
 10
5.180893822432459
 20
0.0625
 30
0.0
 11
5.180893822432459
 21
0.375
 31
0.0
  0
LINE
  5
258
330
1F1
100
AcDbEntity
  8
Pel_Wall
  6
Continuous
100
AcDbLine
 10
5.180893822432459
 20
0.0625
 30
0.0
 11
5.180893822432459
 21
0.375
 31
0.0
  0
LINE
  5
259
330
1F1
100
AcDbEntity
  8
Pel_Wall
  6
Continuous
100
AcDbLine
 10
4.743393822432459
 20
0.0625
 30
0.0
 11
4.743393822432459
 21
0.375
 31
0.0
  0
LINE
  5
25A
330
1F1
100
AcDbEntity
  8
Pel_Wall
  6
Continuous
100
AcDbLine
 10
4.743393822432459
 20
0.0625
 30
0.0
 11
4.743393822432459
 21
0.375
 31
0.0
  0
LINE
  5
25B
330
1F1
100
AcDbEntity
  8
Pel_Wall
  6
Continuous
100
AcDbLine
 10
4.868393822432459
 20
0.0625
 30
0.0
 11
4.868393822432459
 21
0.375
 31
0.0
  0
LINE
  5
25C
330
1F1
100
AcDbEntity
  8
Pel_Wall
  6
Continuous
100
AcDbLine
 10
4.868393822432459
 20
0.0625
 30
0.0
 11
4.868393822432459
 21
0.375
 31
0.0
  0
LINE
  5
25D
330
1F1
100
AcDbEntity
  8
Pel_Wall
  6
Continuous
100
AcDbLine
 10
4.805893822432459
 20
0.0625
 30
0.0
 11
4.805893822432459
 21
0.375
 31
0.0
  0
LINE
  5
25E
330
1F1
100
AcDbEntity
  8
Pel_Wall
  6
Continuous
100
AcDbLine
 10
4.805893822432459
 20
0.0625
 30
0.0
 11
4.805893822432459
 21
0.375
 31
0.0
  0
LINE
  5
25F
330
1F1
100
AcDbEntity
  8
Pel_Wall
  6
Continuous
100
AcDbLine
 10
5.430893822432459
 20
0.0625
 30
0.0
 11
5.430893822432459
 21
0.375
 31
0.0
  0
LINE
  5
260
330
1F1
100
AcDbEntity
  8
Pel_Wall
  6
Continuous
100
AcDbLine
 10
5.430893822432459
 20
0.0625
 30
0.0
 11
5.430893822432459
 21
0.375
 31
0.0
  0
LINE
  5
261
330
1F1
100
AcDbEntity
  8
Pel_Wall
  6
Continuous
100
AcDbLine
 10
5.368393822432459
 20
0.0625
 30
0.0
 11
5.368393822432459
 21
0.375
 31
0.0
  0
LINE
  5
262
330
1F1
100
AcDbEntity
  8
Pel_Wall
  6
Continuous
100
AcDbLine
 10
5.368393822432459
 20
0.0625
 30
0.0
 11
5.368393822432459
 21
0.375
 31
0.0
  0
LINE
  5
263
330
1F1
100
AcDbEntity
  8
Pel_Wall
  6
Continuous
100
AcDbLine
 10
5.305893822432459
 20
0.0625
 30
0.0
 11
5.305893822432459
 21
0.375
 31
0.0
  0
LINE
  5
264
330
1F1
100
AcDbEntity
  8
Pel_Wall
  6
Continuous
100
AcDbLine
 10
5.305893822432459
 20
0.0625
 30
0.0
 11
5.305893822432459
 21
0.375
 31
0.0
  0
LINE
  5
265
330
1F1
100
AcDbEntity
  8
Pel_Wall
  6
Continuous
100
AcDbLine
 10
5.243393822432459
 20
0.0625
 30
0.0
 11
5.243393822432459
 21
0.375
 31
0.0
  0
LINE
  5
266
330
1F1
100
AcDbEntity
  8
Pel_Wall
  6
Continuous
100
AcDbLine
 10
5.243393822432459
 20
0.0625
 30
0.0
 11
5.243393822432459
 21
0.375
 31
0.0
  0
LINE
  5
267
330
1F1
100
AcDbEntity
  8
Pel_Wall
  6
Continuous
100
AcDbLine
 10
5.555893822432459
 20
0.0625
 30
0.0
 11
5.555893822432459
 21
0.375
 31
0.0
  0
LINE
  5
268
330
1F1
100
AcDbEntity
  8
Pel_Wall
  6
Continuous
100
AcDbLine
 10
5.555893822432459
 20
0.0625
 30
0.0
 11
5.555893822432459
 21
0.375
 31
0.0
  0
LINE
  5
269
330
1F1
100
AcDbEntity
  8
Pel_Wall
  6
Continuous
100
AcDbLine
 10
5.493393822432459
 20
0.0625
 30
0.0
 11
5.493393822432459
 21
0.375
 31
0.0
  0
LINE
  5
26A
330
1F1
100
AcDbEntity
  8
Pel_Wall
  6
Continuous
100
AcDbLine
 10
5.493393822432459
 20
0.0625
 30
0.0
 11
5.493393822432459
 21
0.375
 31
0.0
  0
LINE
  5
26B
330
1F1
100
AcDbEntity
  8
Pel_Wall
  6
Continuous
100
AcDbLine
 10
5.618393822432459
 20
0.0625
 30
0.0
 11
5.618393822432459
 21
0.375
 31
0.0
  0
LINE
  5
26C
330
1F1
100
AcDbEntity
  8
Pel_Wall
  6
Continuous
100
AcDbLine
 10
5.618393822432459
 20
0.0625
 30
0.0
 11
5.618393822432459
 21
0.375
 31
0.0
  0
LINE
  5
26D
330
1F1
100
AcDbEntity
  8
Pel_Wall
  6
Continuous
100
AcDbLine
 10
5.680893822432459
 20
0.0625
 30
0.0
 11
5.680893822432459
 21
0.375
 31
0.0
  0
LINE
  5
26E
330
1F1
100
AcDbEntity
  8
Pel_Wall
  6
Continuous
100
AcDbLine
 10
5.680893822432459
 20
0.0625
 30
0.0
 11
5.680893822432459
 21
0.375
 31
0.0
  0
LINE
  5
26F
330
1F1
100
AcDbEntity
  8
Pel_Wall
  6
Continuous
100
AcDbLine
 10
4.680893822432459
 20
0.0625
 30
0.0
 11
4.680893822432459
 21
0.375
 31
0.0
  0
LINE
  5
270
330
1F1
100
AcDbEntity
  8
Pel_Wall
  6
Continuous
100
AcDbLine
 10
4.680893822432459
 20
0.0625
 30
0.0
 11
4.680893822432459
 21
0.375
 31
0.0
  0
LINE
  5
271
330
1F1
100
AcDbEntity
  8
Pel_Wall
  6
Continuous
100
AcDbLine
 10
4.993393822432459
 20
0.0625
 30
0.0
 11
4.993393822432459
 21
0.375
 31
0.0
  0
LINE
  5
272
330
1F1
100
AcDbEntity
  8
Pel_Wall
  6
Continuous
100
AcDbLine
 10
4.993393822432459
 20
0.0625
 30
0.0
 11
4.993393822432459
 21
0.375
 31
0.0
  0
LINE
  5
273
330
1F1
100
AcDbEntity
  8
Pel_Wall
  6
Continuous
100
AcDbLine
 10
5.118393822432459
 20
0.0625
 30
0.0
 11
5.118393822432459
 21
0.375
 31
0.0
  0
LINE
  5
274
330
1F1
100
AcDbEntity
  8
Pel_Wall
  6
Continuous
100
AcDbLine
 10
5.118393822432459
 20
0.0625
 30
0.0
 11
5.118393822432459
 21
0.375
 31
0.0
  0
LINE
  5
275
330
1F1
100
AcDbEntity
  8
Pel_Wall
  6
Continuous
100
AcDbLine
 10
5.055893822432459
 20
0.0625
 30
0.0
 11
5.055893822432459
 21
0.375
 31
0.0
  0
LINE
  5
276
330
1F1
100
AcDbEntity
  8
Pel_Wall
  6
Continuous
100
AcDbLine
 10
5.055893822432459
 20
0.0625
 30
0.0
 11
5.055893822432459
 21
0.375
 31
0.0
  0
LINE
  5
277
330
1F1
100
AcDbEntity
  8
Pel_Wall
  6
Continuous
100
AcDbLine
 10
4.930893822432459
 20
0.0625
 30
0.0
 11
4.930893822432459
 21
0.375
 31
0.0
  0
LINE
  5
278
330
1F1
100
AcDbEntity
  8
Pel_Wall
  6
Continuous
100
AcDbLine
 10
4.930893822432459
 20
0.0625
 30
0.0
 11
4.930893822432459
 21
0.375
 31
0.0
  0
LINE
  5
27B
330
1F1
100
AcDbEntity
  8
Pel_Wall
  6
Continuous
100
AcDbLine
 10
4.618393822432459
 20
0.0625
 30
0.0
 11
4.618393822432459
 21
0.375
 31
0.0
  0
LINE
  5
27C
330
1F1
100
AcDbEntity
  8
Pel_Wall
  6
Continuous
100
AcDbLine
 10
4.618393822432459
 20
0.0625
 30
0.0
 11
4.618393822432459
 21
0.375
 31
0.0
  0
LINE
  5
27D
330
1F1
100
AcDbEntity
  8
Pel_Wall
  6
Continuous
100
AcDbLine
 10
4.555893822432459
 20
0.0625
 30
0.0
 11
4.555893822432459
 21
0.375
 31
0.0
  0
LINE
  5
27E
330
1F1
100
AcDbEntity
  8
Pel_Wall
  6
Continuous
100
AcDbLine
 10
4.555893822432459
 20
0.0625
 30
0.0
 11
4.555893822432459
 21
0.375
 31
0.0
  0
ENDBLK
  5
281
330
1F1
100
AcDbEntity
  8
0
100
AcDbBlockEnd
  0
BLOCK
  5
360
330
35D
100
AcDbEntity
  8
0
100
AcDbBlockBegin
  2
Td-2xbrk-fJ-Dr
 70
     0
 10
0.0
 20
0.0
 30
0.0
  3
Td-2xbrk-fJ-Dr
  1

  0
POLYLINE
  5
361
330
35D
100
AcDbEntity
  8
Pel_Wall
100
AcDb2dPolyline
 66
     1
 10
0.0
 20
0.0
 30
0.0
  0
VERTEX
  5
295B
330
361
100
AcDbEntity
  8
Pel_Wall
100
AcDbVertex
100
AcDb2dVertex
 10
5.432434574522447
 20
5.250000045004047
 30
0.0
 42
-0.6952997796767883
  0
VERTEX
  5
295C
330
361
100
AcDbEntity
  8
Pel_Wall
100
AcDbVertex
100
AcDb2dVertex
 10
4.052759928823875
 20
4.362500045004058
 30
0.0
  0
VERTEX
  5
295D
330
361
100
AcDbEntity
  8
Pel_Wall
100
AcDbVertex
100
AcDb2dVertex
 10
3.352759928823872
 20
4.887500045004036
 30
0.0
 42
1.814628606409403
  0
VERTEX
  5
295E
330
361
100
AcDbEntity
  8
Pel_Wall
100
AcDbVertex
100
AcDb2dVertex
 10
3.352759928823883
 20
3.487500045004058
 30
0.0
  0
VERTEX
  5
295F
330
361
100
AcDbEntity
  8
Pel_Wall
100
AcDbVertex
100
AcDb2dVertex
 10
4.052759928823875
 20
4.012500045004064
 30
0.0
 42
-0.6180339887498941
  0
VERTEX
  5
2960
330
361
100
AcDbEntity
  8
Pel_Wall
100
AcDbVertex
100
AcDb2dVertex
 10
5.452759928823877
 20
3.312500045004048
 30
0.0
  0
SEQEND
  5
2961
330
361
100
AcDbEntity
  8
Pel_Wall
  0
POLYLINE
  5
369
330
35D
100
AcDbEntity
  8
Pel_Wall
  6
Continuous
100
AcDb2dPolyline
 66
     1
 10
0.0
 20
0.0
 30
0.0
  0
VERTEX
  5
2963
330
369
100
AcDbEntity
  8
Pel_Wall
  6
Continuous
100
AcDbVertex
100
AcDb2dVertex
 10
1.495259928823881
 20
5.25
 30
0.0
  0
VERTEX
  5
2964
330
369
100
AcDbEntity
  8
Pel_Wall
  6
Continuous
100
AcDbVertex
100
AcDb2dVertex
 10
1.495259928823882
 20
0.2500000000000006
 30
0.0
  0
VERTEX
  5
2965
330
369
100
AcDbEntity
  8
Pel_Wall
  6
Continuous
100
AcDbVertex
100
AcDb2dVertex
 10
5.269967678648965
 20
0.2500000000000048
 30
0.0
  0
SEQEND
  5
2966
330
369
100
AcDbEntity
  8
Pel_Wall
  6
Continuous
  0
POLYLINE
  5
36E
330
35D
100
AcDbEntity
  8
Pel_Wall
  6
Continuous
100
AcDb2dPolyline
 66
     1
 10
0.0
 20
0.0
 30
0.0
  0
VERTEX
  5
2968
330
36E
100
AcDbEntity
  8
Pel_Wall
  6
Continuous
100
AcDbVertex
100
AcDb2dVertex
 10
1.515259928823877
 20
5.25
 30
0.0
  0
VERTEX
  5
2969
330
36E
100
AcDbEntity
  8
Pel_Wall
  6
Continuous
100
AcDbVertex
100
AcDb2dVertex
 10
1.515259928823878
 20
0.2700000000000108
 30
0.0
  0
VERTEX
  5
296A
330
36E
100
AcDbEntity
  8
Pel_Wall
  6
Continuous
100
AcDbVertex
100
AcDb2dVertex
 10
5.269967678648965
 20
0.2700000000000151
 30
0.0
  0
SEQEND
  5
296B
330
36E
100
AcDbEntity
  8
Pel_Wall
  6
Continuous
  0
POLYLINE
  5
373
330
35D
100
AcDbEntity
  8
Pel_Wall
  6
Continuous
100
AcDb2dPolyline
 66
     1
 10
0.0
 20
0.0
 30
0.0
  0
VERTEX
  5
296D
330
373
100
AcDbEntity
  8
Pel_Wall
  6
Continuous
100
AcDbVertex
100
AcDb2dVertex
 10
2.077759928823878
 20
1.812500045004043
 30
0.0
  0
VERTEX
  5
296E
330
373
100
AcDbEntity
  8
Pel_Wall
  6
Continuous
100
AcDbVertex
100
AcDb2dVertex
 10
5.452759928823877
 20
1.812500045004048
 30
0.0
  0
VERTEX
  5
296F
330
373
100
AcDbEntity
  8
Pel_Wall
  6
Continuous
100
AcDbVertex
100
AcDb2dVertex
 10
5.452759928823877
 20
3.312500045004048
 30
0.0
  0
VERTEX
  5
2970
330
373
100
AcDbEntity
  8
Pel_Wall
  6
Continuous
100
AcDbVertex
100
AcDb2dVertex
 10
2.077759928823877
 20
3.312500045004044
 30
0.0
  0
VERTEX
  5
2971
330
373
100
AcDbEntity
  8
Pel_Wall
  6
Continuous
100
AcDbVertex
100
AcDb2dVertex
 10
2.077759928823878
 20
1.812500045004043
 30
0.0
  0
SEQEND
  5
2972
330
373
100
AcDbEntity
  8
Pel_Wall
  6
Continuous
  0
LINE
  5
37A
330
35D
100
AcDbEntity
  8
Pel_Wall
  6
Continuous
100
AcDbLine
 10
2.077759928823878
 20
1.812500045004043
 30
0.0
 11
5.452759928823877
 21
3.312500045004048
 31
0.0
  0
LINE
  5
37B
330
35D
100
AcDbEntity
  8
Pel_Wall
  6
Continuous
100
AcDbLine
 10
2.077759928823877
 20
3.312500045004044
 30
0.0
 11
5.452759928823877
 21
1.812500045004048
 31
0.0
  0
LINE
  5
37C
330
35D
100
AcDbEntity
  8
Pel_Wall
  6
Continuous
100
AcDbLine
 10
2.077759928823878
 20
1.812500045004043
 30
0.0
 11
5.452759928823892
 21
0.312500045004048
 31
0.0
  0
LINE
  5
37D
330
35D
100
AcDbEntity
  8
Pel_Wall
  6
Continuous
100
AcDbLine
 10
2.077759928823892
 20
0.3125000450040439
 30
0.0
 11
5.452759928823877
 21
1.812500045004048
 31
0.0
  0
POLYLINE
  5
37E
330
35D
100
AcDbEntity
  8
Pel_Wall
  6
Continuous
100
AcDb2dPolyline
 66
     1
 10
0.0
 20
0.0
 30
0.0
  0
VERTEX
  5
2978
330
37E
100
AcDbEntity
  8
Pel_Wall
  6
Continuous
100
AcDbVertex
100
AcDb2dVertex
 10
2.077759928823892
 20
0.3125000450040439
 30
0.0
  0
VERTEX
  5
2979
330
37E
100
AcDbEntity
  8
Pel_Wall
  6
Continuous
100
AcDbVertex
100
AcDb2dVertex
 10
5.452759928823892
 20
0.312500045004048
 30
0.0
  0
VERTEX
  5
297A
330
37E
100
AcDbEntity
  8
Pel_Wall
  6
Continuous
100
AcDbVertex
100
AcDb2dVertex
 10
5.452759928823877
 20
1.812500045004048
 30
0.0
  0
VERTEX
  5
297B
330
37E
100
AcDbEntity
  8
Pel_Wall
  6
Continuous
100
AcDbVertex
100
AcDb2dVertex
 10
2.077759928823878
 20
1.812500045004043
 30
0.0
  0
VERTEX
  5
297C
330
37E
100
AcDbEntity
  8
Pel_Wall
  6
Continuous
100
AcDbVertex
100
AcDb2dVertex
 10
2.077759928823892
 20
0.3125000450040439
 30
0.0
  0
SEQEND
  5
297D
330
37E
100
AcDbEntity
  8
Pel_Wall
  6
Continuous
  0
POLYLINE
  5
387
102
{ACAD_REACTORS
330
19BD
102
}
330
35D
100
AcDbEntity
  8
Pel_Wall
100
AcDb2dPolyline
 66
     1
 10
0.0
 20
0.0
 30
0.0
 70
     1
  0
VERTEX
  5
297F
330
387
100
AcDbEntity
  8
Pel_Wall
100
AcDbVertex
100
AcDb2dVertex
 10
-4.145963488162016
 20
3.874999999999999
 30
0.0
 42
0.9999999999999998
  0
VERTEX
  5
2980
330
387
100
AcDbEntity
  8
Pel_Wall
100
AcDbVertex
100
AcDb2dVertex
 10
-4.145963488162002
 20
4.25
 30
0.0
  0
VERTEX
  5
2981
330
387
100
AcDbEntity
  8
Pel_Wall
100
AcDbVertex
100
AcDb2dVertex
 10
-0.5209634881620239
 20
4.25
 30
0.0
 42
-0.9999999999999998
  0
VERTEX
  5
2982
330
387
100
AcDbEntity
  8
Pel_Wall
100
AcDbVertex
100
AcDb2dVertex
 10
-0.5209634881620239
 20
3.875
 30
0.0
  0
SEQEND
  5
2983
330
387
100
AcDbEntity
  8
Pel_Wall
  0
LWPOLYLINE
  5
38F
102
{ACAD_REACTORS
330
19BE
102
}
330
35D
100
AcDbEntity
  8
Pel_Wall
  6
Continuous
100
AcDbPolyline
 90
        5
 70
     0
 43
0.0
 10
-4.145963488162016
 20
3.874999999999999
 10
-4.145963488162005
 20
0.2499999999999996
 10
1.015259928823878
 20
0.2500000000000005
 10
1.015259928823877
 20
3.875
 10
-4.145963488162016
 20
3.874999999999999
  0
POLYLINE
  5
39B
330
35D
100
AcDbEntity
  8
Pel_Wall
  6
Continuous
100
AcDb2dPolyline
 66
     1
 10
0.0
 20
0.0
 30
0.0
  0
VERTEX
  5
2986
330
39B
100
AcDbEntity
  8
Pel_Wall
  6
Continuous
100
AcDbVertex
100
AcDb2dVertex
 10
1.271536511837995
 20
0.0000000000000006
 30
0.0
  0
VERTEX
  5
2987
330
39B
100
AcDbEntity
  8
Pel_Wall
  6
Continuous
100
AcDbVertex
100
AcDb2dVertex
 10
1.271536511837991
 20
1.19222135954999
 30
0.0
  0
VERTEX
  5
2988
330
39B
100
AcDbEntity
  8
Pel_Wall
  6
Continuous
100
AcDbVertex
100
AcDb2dVertex
 10
1.334036511837991
 20
1.31722135954999
 30
0.0
  0
VERTEX
  5
2989
330
39B
100
AcDbEntity
  8
Pel_Wall
  6
Continuous
100
AcDbVertex
100
AcDb2dVertex
 10
1.334036511837994
 20
3.0
 30
0.0
  0
SEQEND
  5
298A
330
39B
100
AcDbEntity
  8
Pel_Wall
  6
Continuous
  0
POLYLINE
  5
3A1
330
35D
100
AcDbEntity
  8
Pel_Wall
  6
Continuous
100
AcDb2dPolyline
 66
     1
 10
0.0
 20
0.0
 30
0.0
  0
VERTEX
  5
298C
330
3A1
100
AcDbEntity
  8
Pel_Wall
  6
Continuous
100
AcDbVertex
100
AcDb2dVertex
 10
1.291536511837991
 20
0.0000000000000006
 30
0.0
  0
VERTEX
  5
298D
330
3A1
100
AcDbEntity
  8
Pel_Wall
  6
Continuous
100
AcDbVertex
100
AcDb2dVertex
 10
1.291536511837987
 20
1.1875
 30
0.0
  0
VERTEX
  5
298E
330
3A1
100
AcDbEntity
  8
Pel_Wall
  6
Continuous
100
AcDbVertex
100
AcDb2dVertex
 10
1.354036511837987
 20
1.3125
 30
0.0
  0
VERTEX
  5
298F
330
3A1
100
AcDbEntity
  8
Pel_Wall
  6
Continuous
100
AcDbVertex
100
AcDb2dVertex
 10
1.35403651183799
 20
3.0
 30
0.0
  0
SEQEND
  5
2990
330
3A1
100
AcDbEntity
  8
Pel_Wall
  6
Continuous
  0
POLYLINE
  5
3A8
330
35D
100
AcDbEntity
  8
Pel_Wall
  6
Continuous
100
AcDb2dPolyline
 66
     1
 10
0.0
 20
0.0
 30
0.0
  0
VERTEX
  5
2992
330
3A8
100
AcDbEntity
  8
Pel_Wall
  6
Continuous
100
AcDbVertex
100
AcDb2dVertex
 10
1.577759928823852
 20
5.250000045004044
 30
0.0
  0
VERTEX
  5
2993
330
3A8
100
AcDbEntity
  8
Pel_Wall
  6
Continuous
100
AcDbVertex
100
AcDb2dVertex
 10
1.577759928823878
 20
0.3125000450040438
 30
0.0
  0
VERTEX
  5
2994
330
3A8
100
AcDbEntity
  8
Pel_Wall
  6
Continuous
100
AcDbVertex
100
AcDb2dVertex
 10
2.077759928823892
 20
0.3125000450040439
 30
0.0
  0
VERTEX
  5
2995
330
3A8
100
AcDbEntity
  8
Pel_Wall
  6
Continuous
100
AcDbVertex
100
AcDb2dVertex
 10
2.077759928823852
 20
5.250000045004044
 30
0.0
  0
SEQEND
  5
2996
330
3A8
100
AcDbEntity
  8
Pel_Wall
  6
Continuous
  0
POLYLINE
  5
3BB
102
{ACAD_REACTORS
330
3C6
102
}
330
35D
100
AcDbEntity
  8
Pel_Wall
  6
Continuous
100
AcDb2dPolyline
 66
     1
 10
0.0
 20
0.0
 30
0.0
  0
VERTEX
  5
2998
330
3BB
100
AcDbEntity
  8
Pel_Wall
  6
Continuous
100
AcDbVertex
100
AcDb2dVertex
 10
5.452759928823867
 20
5.250000045004047
 30
0.0
  0
VERTEX
  5
2999
330
3BB
100
AcDbEntity
  8
Pel_Wall
  6
Continuous
100
AcDbVertex
100
AcDb2dVertex
 10
5.452759928823892
 20
0.312500045004048
 30
0.0
  0
VERTEX
  5
299A
330
3BB
100
AcDbEntity
  8
Pel_Wall
  6
Continuous
100
AcDbVertex
100
AcDb2dVertex
 10
5.952759928823892
 20
0.3125000450040481
 30
0.0
  0
VERTEX
  5
299B
330
3BB
100
AcDbEntity
  8
Pel_Wall
  6
Continuous
100
AcDbVertex
100
AcDb2dVertex
 10
5.952759928823867
 20
5.250000045004048
 30
0.0
  0
SEQEND
  5
299C
330
3BB
100
AcDbEntity
  8
Pel_Wall
  6
Continuous
  0
POLYLINE
  5
3C1
330
35D
100
AcDbEntity
  8
Pel_Wall
100
AcDb2dPolyline
 66
     1
 10
0.0
 20
0.0
 30
0.0
  0
VERTEX
  5
299E
330
3C1
100
AcDbEntity
  8
Pel_Wall
100
AcDbVertex
100
AcDb2dVertex
 10
2.349571961015712
 20
5.250000045004044
 30
0.0
 42
0.3398587226426062
  0
VERTEX
  5
299F
330
3C1
100
AcDbEntity
  8
Pel_Wall
100
AcDbVertex
100
AcDb2dVertex
 10
3.415837838380995
 20
5.237500045004058
 30
0.0
  0
VERTEX
  5
29A0
330
3C1
100
AcDbEntity
  8
Pel_Wall
100
AcDbVertex
100
AcDb2dVertex
 10
3.43250450504766
 20
5.250000045004047
 30
0.0
 42
-1.999999999999995
  0
SEQEND
  5
29A1
330
3C1
100
AcDbEntity
  8
Pel_Wall
  0
HATCH
  5
3C6
330
35D
100
AcDbEntity
  8
Pel_Wall
100
AcDbHatch
 10
0.0
 20
0.0
 30
0.0
210
0.0
220
0.0
230
1.0
  2
AR-SAND
 70
     0
 71
     1
 91
        1
 92
       33
 93
        3
 72
     1
 10
5.452759928823867
 20
5.250000045004047
 11
5.452759928823892
 21
0.3125000450040476
 72
     1
 10
5.452759928823892
 20
0.312500045004048
 11
5.952759928823892
 21
0.3125000450040481
 72
     1
 10
5.952759928823892
 20
0.3125000450040481
 11
5.952759928823867
 21
5.250000045004048
 97
        1
330
3BB
 75
     0
 76
     1
 52
0.0
 41
0.2
 77
     0
 78
     4
 53
37.49999999999999
 43
-21.54608425206185
 44
-17.86299995499715
 45
-0.0125986716219216
 46
0.3853647538026317
 79
     6
 49
0.0
 49
-0.304
 49
0.0
 49
-0.34
 49
0.0
 49
-0.325
 53
7.499999999999921
 43
-21.54608425206185
 44
-17.86299995499715
 45
0.3539553410535454
 46
0.5644292130459481
 79
     6
 49
0.0
 49
-0.1639999999999999
 49
0.0
 49
-0.2739999999999999
 49
0.0
 49
-0.105
 53
327.5
 43
-21.79208425206184
 44
-17.86299995499715
 45
0.6228283723502991
 46
0.0011318107073929
 79
     6
 49
0.0
 49
-0.0999999999999999
 49
0.0
 49
-0.3599999999999995
 49
0.0
 49
-0.4699999999999996
 53
317.5
 43
-21.79208425206184
 44
-17.86299995499715
 45
0.6012253209144588
 46
0.1755351129868498
 79
     6
 49
0.0
 49
-0.05
 49
0.0
 49
-0.236
 49
0.0
 49
-0.27
 98
        1
 10
-21.54608425206185
 20
-17.86299995499715
  0
LINE
  5
3C7
330
35D
100
AcDbEntity
  8
0
 62
     9
100
AcDbLine
 10
1.997715837943258
 20
0.3125000450040438
 30
0.0
 11
1.577759928823878
 21
0.7324559541234244
 31
0.0
  0
LINE
  5
3C8
330
35D
100
AcDbEntity
  8
0
 62
     9
100
AcDbLine
 10
2.077759928823878
 20
0.9395627353099776
 30
0.0
 11
1.577759928823878
 21
1.439562735309977
 31
0.0
  0
LINE
  5
3C9
330
35D
100
AcDbEntity
  8
0
 62
     9
100
AcDbLine
 10
2.077759928823878
 20
1.64666951649653
 30
0.0
 11
1.577759928823877
 21
2.14666951649653
 31
0.0
  0
LINE
  5
3CA
330
35D
100
AcDbEntity
  8
0
 62
     9
100
AcDbLine
 10
2.077759928823892
 20
2.353776297683084
 30
0.0
 11
1.577759928823877
 21
2.853776297683083
 31
0.0
  0
LINE
  5
3CB
330
35D
100
AcDbEntity
  8
0
 62
     9
100
AcDbLine
 10
2.077759928823877
 20
3.060883078869609
 30
0.0
 11
1.577759928823877
 21
3.560883078869608
 31
0.0
  0
LINE
  5
3CC
330
35D
100
AcDbEntity
  8
0
 62
     9
100
AcDbLine
 10
2.077759928823877
 20
3.767989860056162
 30
0.0
 11
1.577759928823866
 21
4.267989860056162
 31
0.0
  0
LINE
  5
3CD
330
35D
100
AcDbEntity
  8
0
 62
     9
100
AcDbLine
 10
2.077759928823881
 20
4.475096641242715
 30
0.0
 11
1.577759928823866
 21
4.975096641242715
 31
0.0
  0
POLYLINE
  5
3CE
330
35D
100
AcDbEntity
  8
0
 62
     9
100
AcDb2dPolyline
 66
     1
 10
0.0
 20
0.0
 30
0.0
  0
VERTEX
  5
29AB
330
3CE
100
AcDbEntity
  8
0
 62
     9
100
AcDbVertex
100
AcDb2dVertex
 10
1.640837838381015
 20
0.3125000450040438
 30
0.0
  0
VERTEX
  5
29AC
330
3CE
100
AcDbEntity
  8
0
 62
     9
100
AcDbVertex
100
AcDb2dVertex
 10
1.640837838380989
 20
5.250000045004044
 30
0.0
  0
SEQEND
  5
29AD
330
3CE
100
AcDbEntity
  8
0
 62
     9
  0
POLYLINE
  5
3D2
330
35D
100
AcDbEntity
  8
0
 62
     9
100
AcDb2dPolyline
 66
     1
 10
0.0
 20
0.0
 30
0.0
  0
VERTEX
  5
29AF
330
3D2
100
AcDbEntity
  8
0
 62
     9
100
AcDbVertex
100
AcDb2dVertex
 10
1.734587838381015
 20
0.3125000450040438
 30
0.0
  0
VERTEX
  5
29B0
330
3D2
100
AcDbEntity
  8
0
 62
     9
100
AcDbVertex
100
AcDb2dVertex
 10
1.734587838380989
 20
5.250000045004044
 30
0.0
  0
SEQEND
  5
29B1
330
3D2
100
AcDbEntity
  8
0
 62
     9
  0
POLYLINE
  5
3D6
330
35D
100
AcDbEntity
  8
0
 62
     9
100
AcDb2dPolyline
 66
     1
 10
0.0
 20
0.0
 30
0.0
  0
VERTEX
  5
29B3
330
3D6
100
AcDbEntity
  8
0
 62
     9
100
AcDbVertex
100
AcDb2dVertex
 10
1.828337838381015
 20
0.3125000450040438
 30
0.0
  0
VERTEX
  5
29B4
330
3D6
100
AcDbEntity
  8
0
 62
     9
100
AcDbVertex
100
AcDb2dVertex
 10
1.828337838380989
 20
5.250000045004044
 30
0.0
  0
SEQEND
  5
29B5
330
3D6
100
AcDbEntity
  8
0
 62
     9
  0
POLYLINE
  5
3DA
330
35D
100
AcDbEntity
  8
0
 62
     9
100
AcDb2dPolyline
 66
     1
 10
0.0
 20
0.0
 30
0.0
  0
VERTEX
  5
29B7
330
3DA
100
AcDbEntity
  8
0
 62
     9
100
AcDbVertex
100
AcDb2dVertex
 10
1.922087838381015
 20
0.3125000450040438
 30
0.0
  0
VERTEX
  5
29B8
330
3DA
100
AcDbEntity
  8
0
 62
     9
100
AcDbVertex
100
AcDb2dVertex
 10
1.922087838380989
 20
5.250000045004044
 30
0.0
  0
SEQEND
  5
29B9
330
3DA
100
AcDbEntity
  8
0
 62
     9
  0
POLYLINE
  5
3DE
330
35D
100
AcDbEntity
  8
0
 62
     9
100
AcDb2dPolyline
 66
     1
 10
0.0
 20
0.0
 30
0.0
  0
VERTEX
  5
29BB
330
3DE
100
AcDbEntity
  8
0
 62
     9
100
AcDbVertex
100
AcDb2dVertex
 10
2.015837838381029
 20
0.3125000450040439
 30
0.0
  0
VERTEX
  5
29BC
330
3DE
100
AcDbEntity
  8
0
 62
     9
100
AcDbVertex
100
AcDb2dVertex
 10
2.015837838380989
 20
5.250000045004044
 30
0.0
  0
SEQEND
  5
29BD
330
3DE
100
AcDbEntity
  8
0
 62
     9
  0
INSERT
  5
3E2
330
35D
100
AcDbEntity
  8
0
100
AcDbBlockReference
  2
Rodseal
 10
0.0649999999999994
 20
0.0000000000000004
 30
0.0
 41
0.5
 42
0.25
  0
INSERT
  5
3F5
330
35D
100
AcDbEntity
  8
0
100
AcDbBlockReference
  2
Nail
 10
1.362565438024885
 20
0.7550510042420063
 30
0.0
 41
1.5
  0
POINT
  5
3FD
330
35D
100
AcDbEntity
  8
Pel_Wall
100
AcDbPoint
 10
0.0000000000000017
 20
0.0000000000000003
 30
0.0
 50
270.0
  0
POLYLINE
  5
427
330
35D
100
AcDbEntity
  8
Pel_Wall
100
AcDb2dPolyline
 66
     1
 10
0.0
 20
0.0
 30
0.0
  0
VERTEX
  5
29C2
330
427
100
AcDbEntity
  8
Pel_Wall
100
AcDbVertex
100
AcDb2dVertex
 10
2.425076455539839
 20
0.2129290213071337
 30
0.0
  0
VERTEX
  5
29C3
330
427
100
AcDbEntity
  8
Pel_Wall
100
AcDbVertex
100
AcDb2dVertex
 10
2.425076455539853
 20
0.0254290213071337
 30
0.0
  0
VERTEX
  5
29C4
330
427
100
AcDbEntity
  8
Pel_Wall
100
AcDbVertex
100
AcDb2dVertex
 10
4.072786511837994
 20
0.0254290213071375
 30
0.0
  0
VERTEX
  5
29C5
330
427
100
AcDbEntity
  8
Pel_Wall
100
AcDbVertex
100
AcDb2dVertex
 10
4.072786511837994
 20
0.2129290213071375
 30
0.0
  0
VERTEX
  5
29C6
330
427
100
AcDbEntity
  8
Pel_Wall
100
AcDbVertex
100
AcDb2dVertex
 10
2.425076455539839
 20
0.2129290213071337
 30
0.0
  0
VERTEX
  5
29C7
330
427
100
AcDbEntity
  8
Pel_Wall
100
AcDbVertex
100
AcDb2dVertex
 10
4.072786511837994
 20
0.0254290213071375
 30
0.0
  0
SEQEND
  5
29C8
330
427
100
AcDbEntity
  8
Pel_Wall
  0
POLYLINE
  5
19B6
102
{ACAD_REACTORS
330
19BC
102
}
330
35D
100
AcDbEntity
  8
Pel_Wall
100
AcDb2dPolyline
 66
     1
 10
0.0
 20
0.0
 30
0.0
 70
     1
  0
VERTEX
  5
29CA
330
19B6
100
AcDbEntity
  8
Pel_Wall
100
AcDbVertex
100
AcDb2dVertex
 10
-0.5209634881620239
 20
4.250000000000003
 30
0.0
  0
VERTEX
  5
29CB
330
19B6
100
AcDbEntity
  8
Pel_Wall
100
AcDbVertex
100
AcDb2dVertex
 10
-0.5209634881620384
 20
5.25
 30
0.0
  0
VERTEX
  5
29CC
330
19B6
100
AcDbEntity
  8
Pel_Wall
100
AcDbVertex
100
AcDb2dVertex
 10
-4.145963488162002
 20
5.25
 30
0.0
  0
VERTEX
  5
29CD
330
19B6
100
AcDbEntity
  8
Pel_Wall
100
AcDbVertex
100
AcDb2dVertex
 10
-4.145963488162002
 20
4.25
 30
0.0
  0
SEQEND
  5
29CE
330
19B6
100
AcDbEntity
  8
Pel_Wall
  0
HATCH
  5
19BC
330
35D
100
AcDbEntity
  8
Pel_Wall
100
AcDbHatch
 10
0.0
 20
0.0
 30
0.0
210
0.0
220
0.0
230
1.0
  2
ANSI31
 70
     0
 71
     1
 91
        1
 92
        1
 93
        4
 72
     1
 10
-0.5209634881620239
 20
4.250000000000003
 11
-0.5209634881620384
 21
5.25
 72
     1
 10
-0.5209634881620384
 20
5.25
 11
-4.145963488162016
 21
5.249999999999999
 72
     1
 10
-4.145963488162002
 20
5.25
 11
-4.145963488162002
 21
4.25
 72
     1
 10
-4.145963488162002
 20
4.25
 11
-0.5209634881620096
 21
4.250000000000004
 97
        1
330
19B6
 75
     0
 76
     1
 52
-89.99999999999998
 41
8.0
 77
     0
 78
     1
 53
315.0
 43
-21.34538490805339
 44
22.61917902130713
 45
0.7071067811865475
 46
0.7071067811865476
 79
     0
 98
        1
 10
-21.34538490805339
 20
22.61917902130713
  0
HATCH
  5
19BD
330
35D
100
AcDbEntity
  8
Pel_Wall
100
AcDbHatch
 10
0.0
 20
0.0
 30
0.0
210
0.0
220
0.0
230
1.0
  2
AR-SAND
 70
     0
 71
     1
 91
        1
 92
        1
 93
        4
 72
     2
 10
-4.145963488162002
 20
4.0625
 40
0.1875
 50
-89.99999999999998
 51
90.00000000000001
 73
     1
 72
     1
 10
-4.145963488162002
 20
4.25
 11
-0.5209634881620096
 21
4.25
 72
     2
 10
-0.5209634881620239
 20
4.0625
 40
0.1875
 50
270.0
 51
450.0
 73
     0
 72
     1
 10
-0.5209634881620239
 20
3.875
 11
-4.145963488162016
 21
3.874999999999999
 97
        1
330
387
 75
     0
 76
     1
 52
-89.99999999999998
 41
0.125
 77
     0
 78
     4
 53
307.5
 43
-21.34538490805339
 44
22.61917902130713
 45
0.2408529711266448
 46
0.0078741697637011
 79
     6
 49
0.0
 49
-0.1899999999999999
 49
0.0
 49
-0.2124999999999999
 49
0.0
 49
-0.2031249999999999
 53
277.5
 43
-21.34538490805339
 44
22.61917902130713
 45
0.3527682581537176
 46
-0.2212220881584658
 79
     6
 49
0.0
 49
-0.1025
 49
0.0
 49
-0.17125
 49
0.0
 49
-0.065625
 53
237.5
 43
-21.34538490805339
 44
22.77292902130713
 45
0.0007073816921206
 46
-0.3892677327189369
 79
     6
 49
0.0
 49
-0.0625
 49
0.0
 49
-0.225
 49
0.0
 49
-0.29375
 53
227.5
 43
-21.34538490805339
 44
22.77292902130713
 45
0.1097094456167812
 46
-0.3757658255715366
 79
     6
 49
0.0
 49
-0.03125
 49
0.0
 49
-0.1474999999999998
 49
0.0
 49
-0.1687499999999999
 98
        1
 10
-21.34538490805339
 20
22.61917902130713
  0
HATCH
  5
19BE
330
35D
100
AcDbEntity
  8
Pel_Wall
100
AcDbHatch
 10
0.0
 20
0.0
 30
0.0
210
0.0
220
0.0
230
1.0
  2
ANSI31
 70
     0
 71
     1
 91
        1
 92
        1
 93
        4
 72
     1
 10
-4.145963488162016
 20
3.874999999999999
 11
-4.145963488162019
 21
0.2499999999999996
 72
     1
 10
-4.145963488162005
 20
0.2499999999999996
 11
1.015259928823892
 21
0.2500000000000005
 72
     1
 10
1.015259928823878
 20
0.2500000000000005
 11
1.015259928823877
 21
3.875
 72
     1
 10
1.015259928823877
 20
3.875
 11
-4.145963488162016
 21
3.874999999999999
 97
        1
330
38F
 75
     0
 76
     1
 52
-89.99999999999998
 41
8.0
 77
     0
 78
     1
 53
315.0
 43
-21.34538490805339
 44
22.61917902130713
 45
0.7071067811865475
 46
0.7071067811865476
 79
     0
 98
        1
 10
-21.34538490805339
 20
22.61917902130713
  0
INSERT
  5
2550
330
35D
100
AcDbEntity
  8
0
100
AcDbBlockReference
  2
FOAM1
 10
4.434999999999996
 20
0.0000000000000011
 30
0.0
 50
180.0
  0
ENDBLK
  5
42F
330
35D
100
AcDbEntity
  8
0
100
AcDbBlockEnd
  0
BLOCK
  5
18F
330
18C
100
AcDbEntity
  8
0
100
AcDbBlockBegin
  2
TSE10SDSV
 70
     0
 10
0.0
 20
0.0
 30
0.0
  3
TSE10SDSV
  1

  0
POINT
  5
190
330
18C
100
AcDbEntity
  8
Pel_Points
100
AcDbPoint
 10
0.0
 20
0.0000000000000036
 30
0.0
  0
LWPOLYLINE
  5
192
330
18C
100
AcDbEntity
  8
Pel_CS-Cross Section
 62
     4
100
AcDbPolyline
 90
      129
 70
     1
 43
0.0
 10
1.429957603986359
 20
-1.125
 10
1.349957603986357
 20
-1.125
 10
1.349957603986357
 20
0.0
 10
0.0650000000000013
 20
0.0
 10
0.0649999999999977
 20
0.0799999999999983
 10
0.1169615242270687
 20
0.1099999999999994
 10
0.1419615242270709
 20
0.1099999999999994
 10
0.1419615242270638
 20
0.0799999999999983
 10
0.2800000000000011
 20
0.0799999999999983
 10
0.2799999999999976
 20
0.2349999999999994
 10
0.0
 20
0.2349999999999994
 10
0.0
 20
0.9380000000000023
 10
0.1999999999999993
 20
0.9380000000000023
 10
0.1999999999999993
 20
0.4380000000000024
 10
0.8350000000000008
 20
0.4380000000000024
 10
0.8350000000000008
 20
0.6280000000000002
 10
0.8000000000000007
 20
0.6280000000000002
 10
0.8000000000000007
 20
0.9380000000000023
 10
0.8900000000000005
 20
0.9380000000000023
 42
-1.0
 10
0.8900000000000005
 20
0.8780000000000001
 10
0.8599999999999994
 20
0.8779999999999965
 10
0.8599999999999994
 20
0.6879999999999989
 10
1.054999999999999
 20
0.6879999999999989
 10
1.054999999999999
 20
0.8379999999999974
 10
1.112735026918961
 20
0.9379999999999988
 10
2.15
 20
0.9379999999999952
 10
2.15
 20
1.103000000000001
 10
2.114999999999998
 20
1.103000000000001
 10
2.074999999999993
 20
1.063000000000002
 10
2.05
 20
1.063000000000002
 10
2.049999999999998
 20
1.563000000000002
 10
2.599999999999997
 20
1.563000000000002
 42
-0.4142135623731037
 10
2.629999999999999
 20
1.533000000000001
 10
2.629999999999997
 20
0.6822820323027515
 10
2.669999999999998
 20
0.6130000000000031
 10
2.669999999999996
 20
0.588000000000001
 10
2.629999999999999
 20
0.588000000000001
 10
2.629999999999999
 20
0.463000000000001
 10
4.269999999999999
 20
0.463000000000001
 10
4.269999999999997
 20
0.588000000000001
 10
4.230000000000002
 20
0.588000000000001
 10
4.230000000000002
 20
0.6130000000000031
 10
4.269999999999999
 20
0.6822820323027515
 10
4.269999999999997
 20
1.413
 10
4.230000000000002
 20
1.413
 10
4.23
 20
1.533000000000001
 42
-0.4142135623730863
 10
4.259999999999998
 20
1.562999999999998
 10
4.499999999999994
 20
1.563000000000002
 10
4.499999999999998
 20
0.2349999999999994
 10
4.220000000000004
 20
0.2349999999999994
 10
4.22
 20
0.0901420310525723
 10
4.144999999999997
 20
0.0901420310525723
 10
4.145000000000003
 20
0.2349999999999994
 42
-0.4142135623731037
 10
4.220000000000004
 20
0.3100000000000023
 10
4.419999999999998
 20
0.3100000000000023
 10
4.419999999999996
 20
0.3829999999999991
 10
4.404899421459155
 20
0.3829999999999991
 10
4.404899421459155
 20
0.4429999999999979
 10
4.419999999999999
 20
0.4429999999999979
 10
4.419999999999996
 20
1.483
 10
4.33
 20
1.483
 10
4.33
 20
0.4429999999999979
 10
4.404899421459155
 20
0.4429999999999979
 10
4.404899421459155
 20
0.3829999999999991
 10
3.509
 20
0.3829999999999991
 10
3.509000000000005
 20
0.0901420310525723
 10
3.448999999999999
 20
0.0901420310525723
 10
3.449000000000003
 20
0.3829999999999991
 10
2.610000000000001
 20
0.3829999999999991
 10
2.609999999999997
 20
0.0901420310525723
 10
2.549999999999997
 20
0.0901420310525723
 10
2.55
 20
1.483
 10
2.130000000000002
 20
1.483
 10
2.129999999999997
 20
1.178
 10
2.150000000000002
 20
1.178000000000004
 42
-0.4142135623730822
 10
2.224999999999997
 20
1.103000000000005
 10
2.224999999999997
 20
0.9329999999999998
 42
-0.414213562373109
 10
2.149999999999998
 20
0.8579999999999969
 10
2.019999999999997
 20
0.8579999999999969
 10
2.020000000000003
 20
0.0901420310525723
 10
1.96
 20
0.0901420310525723
 10
1.96
 20
0.8579999999999969
 10
1.153149545762236
 20
0.8579999999999969
 10
1.129999999999995
 20
0.8179038105676639
 10
1.130000000000002
 20
0.0901420310525723
 10
1.07
 20
0.0901420310525723
 10
1.069999999999996
 20
0.6129999999999996
 10
0.9100000000000036
 20
0.6129999999999996
 10
0.9100000000000001
 20
0.4380000000000024
 42
-0.4142135623730951
 10
0.8350000000000008
 20
0.3629999999999995
 10
0.3550000000000004
 20
0.3629999999999995
 10
0.3550000000000004
 20
0.3530621331517025
 10
0.2950000000000017
 20
0.3530621331517025
 10
0.2950000000000017
 20
0.3629999999999995
 10
0.2149999999999999
 20
0.3629999999999995
 42
-0.4142135623730966
 10
0.1400000000000006
 20
0.4380000000000024
 10
0.139999999999997
 20
0.8580000000000005
 10
0.0800000000000019
 20
0.8580000000000005
 10
0.0799999999999983
 20
0.3099999999999987
 10
0.2950000000000017
 20
0.3099999999999987
 10
0.2950000000000017
 20
0.3530621331517025
 10
0.3550000000000004
 20
0.3530621331517025
 10
0.3550000000000004
 20
0.0800000000000019
 10
1.07
 20
0.0800000000000019
 10
1.07
 20
0.0901420310525723
 10
1.130000000000006
 20
0.0901420310525723
 10
1.129999999999999
 20
0.0800000000000019
 10
1.96
 20
0.0799999999999983
 10
1.96
 20
0.0901420310525723
 10
2.019999999999999
 20
0.0901420310525723
 10
2.020000000000001
 20
0.0799999999999983
 10
2.550000000000002
 20
0.0799999999999983
 10
2.550000000000004
 20
0.0901420310525723
 10
2.610000000000001
 20
0.0901420310525723
 10
2.609999999999997
 20
0.0799999999999983
 10
3.448999999999999
 20
0.0799999999999983
 10
3.449000000000001
 20
0.0901420310525723
 10
3.509000000000003
 20
0.0901420310525723
 10
3.509000000000003
 20
0.0799999999999983
 10
4.144999999999999
 20
0.0799999999999983
 10
4.144999999999997
 20
0.0901420310525723
 10
4.220000000000004
 20
0.0901420310525723
 10
4.22
 20
0.0800000000000019
 10
4.358038475772936
 20
0.0800000000000019
 10
4.358038475772936
 20
0.1099999999999994
 10
4.383038475772931
 20
0.1099999999999994
 10
4.435000000000004
 20
0.0800000000000019
 10
4.435
 20
0.0
 10
1.429957603986363
 20
0.0
  0
LWPOLYLINE
  5
194
330
18C
100
AcDbEntity
  8
Pel_CS-Cross Section
 62
     4
100
AcDbPolyline
 90
       15
 70
     1
 43
0.0
 10
2.866857076183615
 20
2.812999999999906
 10
2.86685707618362
 20
2.724249999999901
 10
2.967719145149128
 20
2.618344827586113
 42
-1.0
 10
2.945995007218094
 20
2.597655172413702
 10
2.821857076183615
 20
2.727999999999905
 10
2.836857076183616
 20
2.742999999999906
 10
2.836857076183616
 20
2.812999999999906
 10
2.773443401098834
 20
2.812999999999906
 42
-0.5343310138307086
 10
2.759581993294665
 20
2.833732484076335
 42
-0.2404623521578165
 10
3.132215680118379
 20
3.419880385509607
 42
-0.9781803082727828
 10
3.147473102968026
 20
3.394017467921699
 10
3.146200661725021
 20
3.393311425494175
 42
0.0133516086578351
 10
3.146910150142359
 20
3.393685140719075
 42
0.2361122684030795
 10
2.791337111878876
 20
2.842999999999904
 10
2.836857076183616
 20
2.842999999999904
 42
-0.414213562373108
  0
LWPOLYLINE
  5
196
330
18C
100
AcDbEntity
  8
Pel_CS-Cross Section
 62
     4
100
AcDbPolyline
 90
       73
 70
     1
 43
0.0
 10
2.991857076183617
 20
1.188000000000002
 10
2.796857076183616
 20
1.188000000000002
 42
-0.4142135623730951
 10
2.716857076183618
 20
1.268000000000004
 10
2.716857076183618
 20
1.310500000000004
 10
2.766857076183615
 20
1.310500000000004
 10
2.766857076183615
 20
1.268000000000004
 10
2.816857076183612
 20
1.268000000000004
 10
2.816857076183612
 20
1.478000000000005
 10
2.766857076183615
 20
1.478000000000005
 10
2.766857076183615
 20
1.435500000000004
 10
2.716857076183618
 20
1.435500000000004
 10
2.716857076183618
 20
1.478000000000005
 10
2.71685707618362
 20
2.813000000000002
 10
2.806857076183614
 20
2.813000000000002
 42
-1.0
 10
2.806857076183614
 20
2.753000000000003
 10
2.796857076183616
 20
2.753000000000003
 10
2.796857076183616
 20
2.563000000000002
 10
2.820574096771752
 20
2.563000000000002
 10
2.820574096771752
 20
2.483
 10
2.796857076183616
 20
2.483
 10
2.796857076183616
 20
1.842000000000002
 10
2.820574096771748
 20
1.842000000000002
 10
2.820574096771748
 20
1.792000000000005
 10
2.796857076183618
 20
1.792000000000005
 10
2.796857076183616
 20
1.558000000000003
 10
2.816857076183612
 20
1.558000000000003
 42
-0.4142135623731081
 10
2.896857076183618
 20
1.478000000000001
 10
2.89685707618362
 20
1.268000000000004
 10
2.991857076183617
 20
1.268000000000004
 10
2.991857076183618
 20
1.792000000000005
 10
2.82057409677175
 20
1.792000000000005
 10
2.820574096771752
 20
1.842000000000002
 10
4.120665511853701
 20
1.842000000000002
 10
4.120665511853701
 20
1.792000000000001
 10
3.941857076183614
 20
1.792000000000001
 10
3.941857076183612
 20
1.268000000000004
 10
4.136857076183613
 20
1.268000000000004
 10
4.136857076183613
 20
1.792000000000001
 10
4.120665511853701
 20
1.792000000000001
 10
4.120665511853701
 20
1.842000000000002
 10
4.136857076183613
 20
1.842000000000002
 10
4.136857076183611
 20
2.733
 10
4.120665511853701
 20
2.733
 10
4.120665511853701
 20
2.783000000000001
 10
4.136857076183613
 20
2.783000000000001
 10
4.136857076183613
 20
3.378000000000003
 10
4.026857076183613
 20
3.378000000000003
 10
4.026857076183613
 20
2.783000000000001
 10
4.120665511853701
 20
2.783000000000001
 10
4.120665511853701
 20
2.733
 10
3.91185707618362
 20
2.733
 10
3.911857076183618
 20
2.563000000000002
 10
3.831857076183613
 20
2.563000000000002
 10
3.831857076183613
 20
2.733
 10
3.051857076183612
 20
2.733
 10
3.051857076183612
 20
2.562999999999998
 10
3.101857076183616
 20
2.562999999999998
 10
3.101857076183616
 20
2.483
 10
2.82057409677175
 20
2.483
 10
2.82057409677175
 20
2.563000000000002
 10
2.971857076183615
 20
2.563000000000002
 10
2.971857076183614
 20
2.733
 42
-0.4142135623730951
 10
3.051857076183612
 20
2.813000000000002
 10
3.966857076183616
 20
2.813000000000002
 10
3.966857076183616
 20
3.438000000000002
 10
4.216857076183618
 20
3.438000000000002
 10
4.216857076183618
 20
1.268000000000004
 42
-0.4142135623730951
 10
4.136857076183613
 20
1.188000000000002
 10
3.941857076183612
 20
1.188000000000002
 42
-0.4142135623730951
 10
3.861857076183614
 20
1.268000000000004
 10
3.861857076183614
 20
1.762000000000004
 10
3.071857076183613
 20
1.762000000000004
 10
3.071857076183615
 20
1.268000000000004
 42
-0.4142135623730951
  0
POLYLINE
  5
197
330
18C
100
AcDbEntity
  8
Pel_CS-Weatherstrip
100
AcDb2dPolyline
 66
     1
 10
0.0
 20
0.0
 30
0.0
  0
VERTEX
  5
21D0
330
197
100
AcDbEntity
  8
Pel_CS-Weatherstrip
100
AcDbVertex
100
AcDb2dVertex
 10
2.775769530261637
 20
1.465141855391419
 30
0.0
  0
VERTEX
  5
21D1
330
197
100
AcDbEntity
  8
Pel_CS-Weatherstrip
100
AcDbVertex
100
AcDb2dVertex
 10
2.775769530261637
 20
1.418897265753042
 30
0.0
  0
VERTEX
  5
21D2
330
197
100
AcDbEntity
  8
Pel_CS-Weatherstrip
100
AcDbVertex
100
AcDb2dVertex
 10
2.629999999999999
 20
1.457630846916217
 30
0.0
  0
VERTEX
  5
21D3
330
197
100
AcDbEntity
  8
Pel_CS-Weatherstrip
100
AcDbVertex
100
AcDb2dVertex
 10
2.629999999999999
 20
1.429455610262337
 30
0.0
  0
VERTEX
  5
21D4
330
197
100
AcDbEntity
  8
Pel_CS-Weatherstrip
100
AcDbVertex
100
AcDb2dVertex
 10
2.775769530261637
 20
1.418897265753042
 30
0.0
  0
VERTEX
  5
21D5
330
197
100
AcDbEntity
  8
Pel_CS-Weatherstrip
100
AcDbVertex
100
AcDb2dVertex
 10
2.629999999999999
 20
1.408054524604224
 30
0.0
  0
VERTEX
  5
21D6
330
197
100
AcDbEntity
  8
Pel_CS-Weatherstrip
100
AcDbVertex
100
AcDb2dVertex
 10
2.629999999999999
 20
1.377668283501311
 30
0.0
  0
VERTEX
  5
21D7
330
197
100
AcDbEntity
  8
Pel_CS-Weatherstrip
100
AcDbVertex
100
AcDb2dVertex
 10
2.775769530261637
 20
1.418897265753042
 30
0.0
  0
VERTEX
  5
21D8
330
197
100
AcDbEntity
  8
Pel_CS-Weatherstrip
100
AcDbVertex
100
AcDb2dVertex
 10
2.775769530261637
 20
1.33643930124958
 30
0.0
  0
VERTEX
  5
21D9
330
197
100
AcDbEntity
  8
Pel_CS-Weatherstrip
100
AcDbVertex
100
AcDb2dVertex
 10
2.629999999999999
 20
1.377668283501311
 30
0.0
  0
VERTEX
  5
21DA
330
197
100
AcDbEntity
  8
Pel_CS-Weatherstrip
100
AcDbVertex
100
AcDb2dVertex
 10
2.629999999999999
 20
1.34728204239839
 30
0.0
  0
VERTEX
  5
21DB
330
197
100
AcDbEntity
  8
Pel_CS-Weatherstrip
100
AcDbVertex
100
AcDb2dVertex
 10
2.775769530261637
 20
1.33643930124958
 30
0.0
  0
VERTEX
  5
21DC
330
197
100
AcDbEntity
  8
Pel_CS-Weatherstrip
100
AcDbVertex
100
AcDb2dVertex
 10
2.629999999999999
 20
1.318301524948033
 30
0.0
  0
VERTEX
  5
21DD
330
197
100
AcDbEntity
  8
Pel_CS-Weatherstrip
100
AcDbVertex
100
AcDb2dVertex
 10
2.629999999999999
 20
1.276839754777398
 30
0.0
  0
VERTEX
  5
21DE
330
197
100
AcDbEntity
  8
Pel_CS-Weatherstrip
100
AcDbVertex
100
AcDb2dVertex
 10
2.775769530261637
 20
1.33643930124958
 30
0.0
  0
VERTEX
  5
21DF
330
197
100
AcDbEntity
  8
Pel_CS-Weatherstrip
100
AcDbVertex
100
AcDb2dVertex
 10
2.775769530261637
 20
1.278364131705249
 30
0.0
  0
VERTEX
  5
21E0
330
197
100
AcDbEntity
  8
Pel_CS-Weatherstrip
100
AcDbVertex
100
AcDb2dVertex
 10
2.810769516261633
 20
1.278364131705249
 30
0.0
  0
VERTEX
  5
21E1
330
197
100
AcDbEntity
  8
Pel_CS-Weatherstrip
100
AcDbVertex
100
AcDb2dVertex
 10
2.810769516261633
 20
1.465141855391419
 30
0.0
  0
VERTEX
  5
21E2
330
197
100
AcDbEntity
  8
0
100
AcDbVertex
100
AcDb2dVertex
 10
2.775769530261637
 20
1.465141855391419
 30
0.0
  0
SEQEND
  5
21E3
330
197
100
AcDbEntity
  8
Pel_CS-Weatherstrip
  0
LINE
  5
1AC
330
18C
100
AcDbEntity
  8
0
100
AcDbLine
 10
2.637999441323476
 20
1.408054524604224
 30
0.0
 11
2.637999441323476
 21
1.408054524604224
 31
0.0
  0
LINE
  5
1AD
330
18C
100
AcDbEntity
  8
0
100
AcDbLine
 10
2.637999441323476
 20
1.408054524604224
 30
0.0
 11
2.637999441323476
 21
1.408054524604224
 31
0.0
  0
HATCH
  5
1AE
330
18C
100
AcDbEntity
  8
Pel_CS-Sealant
100
AcDbHatch
 10
0.0
 20
0.0
 30
0.0
210
0.0
220
0.0
230
1.0
  2
DASH
 70
     0
 71
     0
 91
        1
 92
        1
 93
        4
 72
     1
 10
3.310855922766062
 20
3.121191049788855
 11
3.747605922766066
 21
3.121191049788855
 72
     1
 10
3.747605922766066
 20
3.121191049788855
 11
3.747605922766066
 21
3.071500000000014
 72
     1
 10
3.747605922766066
 20
3.071500000000014
 11
3.310855922766062
 21
3.071500000000025
 72
     1
 10
3.310855922766062
 20
3.071500000000025
 11
3.310855922766062
 21
3.121191049788855
 97
        0
 75
     0
 76
     1
 52
30.0
 41
0.15
 77
     0
 78
     1
 53
330.0000000000001
 43
-8.0
 44
0.0
 45
0.0068629763209582
 46
-0.0256129763209582
 79
     2
 49
0.01875
 49
-0.01875
 98
        1
 10
-8.0
 20
0.0
1001
ACAD
1010
0.0
1020
0.0
1030
0.0
  0
LWPOLYLINE
  5
1AF
330
18C
100
AcDbEntity
  8
Pel_CS-Sealant
100
AcDbPolyline
 90
        4
 70
     1
 43
0.0
 10
3.310855922766062
 20
3.121191049788855
 10
3.747605922766066
 20
3.121191049788855
 10
3.747605922766066
 20
3.071500000000014
 10
3.310855922766062
 20
3.071500000000025
  0
LWPOLYLINE
  5
1B0
330
18C
100
AcDbEntity
  8
Pel_CS-IG
100
AcDbPolyline
 90
        4
 70
     0
 43
0.0
 10
3.154105922766069
 20
5.000000000000007
 10
3.15410592276606
 20
2.938000000000013
 10
3.283105922766072
 20
2.938000000000013
 10
3.283105922766081
 20
5.000000000000007
  0
LWPOLYLINE
  5
1B1
330
18C
100
AcDbEntity
  8
Pel_CS-IG
100
AcDbPolyline
 90
        4
 70
     0
 43
0.0
 10
3.775355922766076
 20
5.000000000000007
 10
3.775355922766067
 20
2.938000000000009
 10
3.904355922766065
 20
2.938000000000009
 10
3.904355922766074
 20
5.000000000000007
  0
LWPOLYLINE
  5
1B2
330
18C
100
AcDbEntity
  8
Pel_CS-IG
100
AcDbPolyline
 90
       16
 70
     1
 43
0.0
 10
3.754605922766064
 20
3.062500000000017
 10
3.303855922766064
 20
3.062500000000017
 42
-0.4142135623730951
 10
3.294855922766064
 20
3.071500000000018
 10
3.294855922766064
 20
3.353500000000018
 42
-0.4142135623730913
 10
3.303855922766064
 20
3.362500000000018
 10
3.372980922766064
 20
3.362500000000018
 10
3.372980922766066
 20
3.353500000000018
 10
3.303855922766064
 20
3.353500000000018
 10
3.303855922766064
 20
3.071500000000018
 10
3.754605922766064
 20
3.071500000000018
 10
3.754605922766064
 20
3.353500000000018
 10
3.685480922766073
 20
3.353500000000018
 10
3.685480922766062
 20
3.362500000000018
 10
3.754605922766064
 20
3.362500000000018
 42
-0.4142135623730918
 10
3.763605922766064
 20
3.353500000000018
 10
3.763605922766064
 20
3.071500000000018
 42
-0.4142135623730951
  0
LINE
  5
1B3
330
18C
100
AcDbEntity
  8
Pel_CS-Weatherstrip
  6
Continuous
100
AcDbLine
 10
3.760643836999564
 20
3.064825901431003
 30
0.0
 11
3.775355922766067
 21
3.064825901431003
 31
0.0
  0
LINE
  5
1B4
330
18C
100
AcDbEntity
  8
Pel_CS-Weatherstrip
  6
Continuous
100
AcDbLine
 10
3.760643836999564
 20
3.360174098569029
 30
0.0
 11
3.775355922766067
 21
3.360174098569029
 31
0.0
  0
LINE
  5
1B5
330
18C
100
AcDbEntity
  8
Pel_CS-Weatherstrip
  6
Continuous
100
AcDbLine
 10
3.297818008532564
 20
3.064825901431003
 30
0.0
 11
3.283105922766061
 21
3.064825901431003
 31
0.0
  0
LINE
  5
1B6
330
18C
100
AcDbEntity
  8
Pel_CS-Weatherstrip
  6
Continuous
100
AcDbLine
 10
3.297818008532564
 20
3.360174098569029
 30
0.0
 11
3.283105922766061
 21
3.360174098569029
 31
0.0
  0
ARC
  5
1B7
330
18C
100
AcDbEntity
  8
Pel_CS-Sealant
100
AcDbCircle
 10
3.529230922766018
 20
1.241563280373433
 30
0.0
 40
1.774198080538652
100
AcDbArc
 50
82.02594628846746
 51
97.97405371153047
  0
ARC
  5
1B8
330
18C
100
AcDbEntity
  8
Pel_CS-Sealant
100
AcDbCircle
 10
3.529230922766018
 20
1.241563280373433
 30
0.0
 40
1.714198080538652
100
AcDbArc
 50
81.74492637851065
 51
98.25507362148732
  0
ARC
  5
1B9
330
18C
100
AcDbEntity
  8
Pel_CS-Sealant
100
AcDbCircle
 10
3.529230922766018
 20
1.241563280373433
 30
0.0
 40
1.734198080538652
100
AcDbArc
 50
81.84078242004558
 51
98.15921757995214
  0
ARC
  5
1BA
330
18C
100
AcDbEntity
  8
Pel_CS-Sealant
100
AcDbCircle
 10
3.529230922766018
 20
1.241563280373433
 30
0.0
 40
1.754198080538652
100
AcDbArc
 50
81.93443050062034
 51
98.0655694993776
  0
LWPOLYLINE
  5
1BB
330
18C
100
AcDbEntity
  8
Pel_CS-Weatherstrip
100
AcDbPolyline
 90
        4
 70
     1
 43
0.0
 10
3.904355922766065
 20
3.063000000000002
 10
3.966857076183616
 20
3.063000000000002
 10
3.966857076183616
 20
3.438000000000002
 10
3.904355922766065
 20
3.438000000000002
  0
LWPOLYLINE
  5
1BC
330
18C
100
AcDbEntity
  8
Pel_CS-Weatherstrip
100
AcDbPolyline
 90
        8
 70
     1
 43
0.0
 10
3.377119290024834
 20
1.210556247844277
 42
-1.0
 10
3.589119290024836
 20
1.210556247844316
 10
3.568119290024835
 20
1.074556247844316
 10
3.585908465696665
 20
1.071809389836165
 10
3.607110982726172
 20
1.209120928693959
 42
1.011642928794339
 10
3.359127597323524
 20
1.20912092869381
 10
3.380330114353011
 20
1.071809389836165
 10
3.398119290024833
 20
1.074556247844316
  0
LWPOLYLINE
  5
1BE
330
18C
100
AcDbEntity
  8
Pel_CS-Cross Section
 62
     4
100
AcDbPolyline
 90
       22
 70
     1
 43
0.0
 10
3.452119290024832
 20
1.121815051097822
 10
3.452119290024834
 20
0.9420617067050791
 10
2.725527450572624
 20
0.8891310290833018
 42
0.3930714131828159
 10
2.669886771830102
 20
0.8292896026449732
 10
2.6698867718301
 20
0.57132678386699
 10
2.638450042615247
 20
0.57132678386699
 10
2.701958572226104
 20
0.4613267838669906
 10
2.731886771830101
 20
0.4613267838669906
 10
2.731886771830101
 20
0.8274299986196602
 10
3.452119290024834
 20
0.879897413147777
 10
3.452119290024834
 20
0.463000000000001
 10
3.514119290024835
 20
0.463000000000001
 10
3.514119290024837
 20
0.8844139819204528
 10
4.171119290024831
 20
0.9322750413341154
 10
4.171119290024833
 20
0.463000000000001
 10
4.201047489628829
 20
0.463000000000001
 10
4.264556019239686
 20
0.5730000000000004
 10
4.233119290024831
 20
0.5730000000000004
 10
4.233119290024831
 20
0.9344260368931465
 42
0.4356765784393732
 10
4.168759968767353
 20
0.9942674633314787
 10
3.514119290024835
 20
0.9465782754777514
 10
3.514119290024819
 20
1.121815051097819
 42
5.894877314404304
  0
LWPOLYLINE
  5
1BF
330
18C
100
AcDbEntity
  8
Pel_CS-Sealant
100
AcDbPolyline
 90
        5
 70
     1
 43
0.0
 10
3.958934942850486
 20
2.921547325802997
 10
2.896934942892968
 20
2.921547325802997
 10
2.896934942892965
 20
2.871547325805
 10
2.951934942890769
 20
2.816547325807199
 10
3.958934942850486
 20
2.816547325807199
  0
LWPOLYLINE
  5
1C1
330
18C
100
AcDbEntity
  8
Pel_CS-Cross Section
 62
     4
100
AcDbPolyline
 90
       16
 70
     1
 43
0.0
 10
0.8002349772858536
 20
0.7841958558996467
 42
0.4142135623730951
 10
0.7682349772858537
 20
0.8161958558996467
 10
0.5342349772858555
 20
0.8161958558996467
 10
0.5342349772858466
 20
0.8988665754009872
 42
3.910976016622828
 10
0.4742349772858621
 20
0.8988665754009907
 10
0.4742349772858532
 20
0.8161958558996467
 10
0.240234977285855
 20
0.8161958558996467
 42
0.4142135623730951
 10
0.2082349772858549
 20
0.7841958558996467
 10
0.2082349772858549
 20
0.4411958558996468
 10
0.2682349772858554
 20
0.4411958558996468
 10
0.2682349772858554
 20
0.7561958558996445
 10
0.740234977285855
 20
0.756195855899648
 10
0.7402349772858568
 20
0.4411958558996468
 10
0.8002349772858554
 20
0.4411958558996468
 10
0.8002349772858536
 20
0.5521958558996474
 42
1.0
 10
0.8002349772858536
 20
0.6161958558996546
  0
LWPOLYLINE
  5
1C2
330
18C
100
AcDbEntity
  8
Pel_CS-Hardware
100
AcDbPolyline
 90
       17
 70
     0
 43
0.0
 10
3.616224409242621
 20
1.708405281507257
 10
3.616224409242621
 20
1.280916354648923
 10
3.585224409242547
 20
1.280916354648923
 10
3.585224409242547
 20
1.708405281507257
 10
3.616224409242621
 20
1.708405281507257
 10
3.350014170807074
 20
1.708405281507257
 10
3.381014170807148
 20
1.708405281507257
 10
3.381014170807148
 20
1.280916354648923
 10
3.350014170807074
 20
1.280916354648923
 10
3.350014170807074
 20
1.708405281507257
 10
3.106763073355367
 20
1.708405281507257
 10
3.10676307335537
 20
2.677405281507255
 42
-0.4142135623730951
 10
3.156763073355371
 20
2.727405281507255
 10
3.776763073355365
 20
2.727405281507255
 42
-0.4142135623730951
 10
3.826763073355365
 20
2.677405281507255
 10
3.826763073355365
 20
1.708405281507257
 10
3.616224409242621
 20
1.708405281507257
  0
LWPOLYLINE
  5
1C3
330
18C
100
AcDbEntity
  8
Pel_CS-Hardware
100
AcDbPolyline
 90
        4
 70
     0
 43
0.0
 10
3.464448770306583
 20
2.608383855676585
 42
0.4088008425369511
 10
3.341763073355366
 20
2.483405281507256
 42
1.0
 10
3.591763073355366
 20
2.483405281507256
 42
0.4196466793747206
 10
3.464448939869404
 20
2.608383858816363
 42
0.4196466793747206
  0
LWPOLYLINE
  5
1C4
330
18C
100
AcDbEntity
  8
Pel_CS-Hardware
100
AcDbPolyline
 90
        4
 70
     0
 43
0.0
 10
3.464448770306583
 20
2.108383855676585
 42
0.4088008425369511
 10
3.341763073355366
 20
1.983405281507256
 42
1.0
 10
3.591763073355366
 20
1.983405281507256
 42
0.4196466793747206
 10
3.464448939869404
 20
2.108383858816367
 42
0.4196466793747206
  0
LWPOLYLINE
  5
1C5
330
18C
100
AcDbEntity
  8
Pel_CS-Hardware
100
AcDbPolyline
 90
       19
 70
     0
 43
0.0
 10
0.4102349772858549
 20
0.9744686354032161
 10
0.4102349772858549
 20
0.8494686354032161
 10
0.3602349772858542
 20
0.8494686354032161
 10
0.3602349772858542
 20
1.849468635403216
 10
0.4102349772858549
 20
1.849468635403216
 10
0.4102349772858549
 20
0.9744686354032161
 10
0.4102349772858549
 20
1.724468635403216
 10
0.5042349772858561
 20
1.674468635403215
 10
0.5042349772858561
 20
1.024468635403213
 10
0.5042349772858561
 20
1.674468635403215
 10
0.5982349772858538
 20
1.724468635403216
 10
0.5982349772858538
 20
0.9744686354032161
 10
0.5982349772858538
 20
1.849468635403216
 10
0.6482349772858545
 20
1.849468635403216
 10
0.6482349772858545
 20
0.8494686354032161
 10
0.5982349772858538
 20
0.8494686354032161
 10
0.5982349772858538
 20
0.9744686354032161
 10
0.5042349772858561
 20
1.024468635403213
 10
0.4102349772858549
 20
0.9744686354032161
  0
LWPOLYLINE
  5
1C7
330
18C
100
AcDbEntity
  8
Pel_Clad
100
AcDbPolyline
 90
       25
 70
     1
 43
0.0
 10
0.3602349772858542
 20
1.350656842032183
 10
0.3120618297906983
 20
1.350656842032183
 42
0.3868658026623525
 10
0.2732349772858562
 20
1.315327744450836
 10
0.2732349772858562
 20
1.044656842032186
 10
0.2732349772858562
 20
1.315327744450833
 10
0.2732349772858562
 20
2.365656842032187
 42
-0.4142135623730822
 10
0.2932349772858558
 20
2.385656842032187
 10
0.6032349772858563
 20
2.385656842032187
 42
0.4142135623730948
 10
0.6432349772858573
 20
2.425656842032186
 10
0.6432349772858555
 20
2.546656842032192
 42
0.4142135623730854
 10
0.6032349772858563
 20
2.586656842032187
 10
0.3697349772858569
 20
2.586656842032187
 10
0.3697349772858569
 20
2.567656842032192
 10
0.6042349772858558
 20
2.567656842032189
 42
-0.4142135623730847
 10
0.6242349772858553
 20
2.547656842032189
 10
0.6242349772858571
 20
2.424656842032188
 42
-0.4142135623731412
 10
0.6042349772858575
 20
2.404656842032185
 10
0.2942349772858552
 20
2.404656842032185
 42
0.4142135623730891
 10
0.2542349772858561
 20
2.364656842032186
 10
0.2542349772858561
 20
1.04415684203219
 42
0.417485751266966
 10
0.2729414147405755
 20
1.025657993863255
 42
0.4174423589703049
 10
0.2921506233779585
 20
1.044656842032186
 10
0.2921506233779585
 20
1.309774327971343
 42
-0.4421005955735554
 10
0.3120618297906983
 20
1.331656842032188
 10
0.3602349772858542
 20
1.331656842032188
  0
CIRCLE
  5
1C8
330
18C
100
AcDbEntity
  8
Pel_CS-Sealant
100
AcDbCircle
 10
0.4992349772858571
 20
2.476656842032188
 30
0.0
 40
0.0575
  0
CIRCLE
  5
1C9
330
18C
100
AcDbEntity
  8
Pel_CS-Weatherstrip
100
AcDbCircle
 10
0.3232349772858587
 20
2.702156842032188
 30
0.0
 40
0.018
  0
CIRCLE
  5
1CA
102
{ACAD_REACTORS
330
1CD
102
}
330
18C
100
AcDbEntity
  8
Pel_CS-Weatherstrip
100
AcDbCircle
 10
0.3232349772858587
 20
2.577156842032188
 30
0.0
 40
0.018
  0
CIRCLE
  5
1CB
330
18C
100
AcDbEntity
  8
Pel_CS-Weatherstrip
100
AcDbCircle
 10
0.3232349772858587
 20
2.952156842032188
 30
0.0
 40
0.018
  0
CIRCLE
  5
1CC
330
18C
100
AcDbEntity
  8
Pel_CS-Weatherstrip
100
AcDbCircle
 10
0.3232349772858587
 20
2.827156842032188
 30
0.0
 40
0.018
  0
HATCH
  5
1CD
330
18C
100
AcDbEntity
  8
Pel_CS-Weatherstrip
100
AcDbHatch
 10
0.0
 20
0.0
 30
0.0
210
0.0
220
0.0
230
1.0
  2
SOLID
 70
     1
 71
     1
 91
        1
 92
        1
 93
        1
 72
     2
 10
0.3232349772858587
 20
2.577156842032188
 40
0.018
 50
0.0
 51
360.0
 73
     1
 97
        1
330
1CA
 75
     0
 76
     1
 98
        1
 10
-0.3587650227141417
 20
1.092156842032171
  0
HATCH
  5
1CE
330
18C
100
AcDbEntity
  8
Pel_CS-Weatherstrip
100
AcDbHatch
 10
0.0
 20
0.0
 30
0.0
210
0.0
220
0.0
230
1.0
  2
SOLID
 70
     1
 71
     0
 91
        1
 92
        1
 93
        1
 72
     2
 10
0.3232349772858587
 20
2.702156842032188
 40
0.018
 50
0.0
 51
360.0
 73
     0
 97
        0
 75
     0
 76
     1
 98
        1
 10
-0.3587650227141417
 20
1.217156842032171
  0
HATCH
  5
1CF
330
18C
100
AcDbEntity
  8
Pel_CS-Weatherstrip
100
AcDbHatch
 10
0.0
 20
0.0
 30
0.0
210
0.0
220
0.0
230
1.0
  2
SOLID
 70
     1
 71
     0
 91
        1
 92
        1
 93
        1
 72
     2
 10
0.3232349772858587
 20
2.827156842032188
 40
0.018
 50
0.0
 51
360.0
 73
     0
 97
        0
 75
     0
 76
     1
 98
        1
 10
-0.3587650227141417
 20
1.342156842032171
  0
HATCH
  5
1D0
330
18C
100
AcDbEntity
  8
Pel_CS-Weatherstrip
100
AcDbHatch
 10
0.0
 20
0.0
 30
0.0
210
0.0
220
0.0
230
1.0
  2
SOLID
 70
     1
 71
     0
 91
        1
 92
        1
 93
        1
 72
     2
 10
0.3232349772858587
 20
2.952156842032188
 40
0.018
 50
0.0
 51
360.0
 73
     0
 97
        0
 75
     0
 76
     1
 98
        1
 10
-0.3587650227141417
 20
1.467156842032171
  0
CIRCLE
  5
1D1
330
18C
100
AcDbEntity
  8
Pel_CS-Weatherstrip
100
AcDbCircle
 10
0.3232349772858587
 20
3.202156842032188
 30
0.0
 40
0.018
  0
CIRCLE
  5
1D2
330
18C
100
AcDbEntity
  8
Pel_CS-Weatherstrip
100
AcDbCircle
 10
0.3232349772858587
 20
3.077156842032188
 30
0.0
 40
0.018
  0
HATCH
  5
1D3
330
18C
100
AcDbEntity
  8
Pel_CS-Weatherstrip
100
AcDbHatch
 10
0.0
 20
0.0
 30
0.0
210
0.0
220
0.0
230
1.0
  2
SOLID
 70
     1
 71
     0
 91
        1
 92
        1
 93
        1
 72
     2
 10
0.3232349772858587
 20
3.077156842032188
 40
0.018
 50
0.0
 51
360.0
 73
     0
 97
        0
 75
     0
 76
     1
 98
        1
 10
-0.3587650227141417
 20
1.592156842032171
  0
HATCH
  5
1D4
330
18C
100
AcDbEntity
  8
Pel_CS-Weatherstrip
100
AcDbHatch
 10
0.0
 20
0.0
 30
0.0
210
0.0
220
0.0
230
1.0
  2
SOLID
 70
     1
 71
     0
 91
        1
 92
        1
 93
        1
 72
     2
 10
0.3232349772858587
 20
3.202156842032188
 40
0.018
 50
0.0
 51
360.0
 73
     0
 97
        0
 75
     0
 76
     1
 98
        1
 10
-0.3587650227141417
 20
1.717156842032171
  0
CIRCLE
  5
1D5
330
18C
100
AcDbEntity
  8
Pel_CS-Weatherstrip
100
AcDbCircle
 10
0.3232349772858587
 20
3.452156842032188
 30
0.0
 40
0.018
  0
CIRCLE
  5
1D6
330
18C
100
AcDbEntity
  8
Pel_CS-Weatherstrip
100
AcDbCircle
 10
0.3232349772858587
 20
3.327156842032188
 30
0.0
 40
0.018
  0
HATCH
  5
1D7
330
18C
100
AcDbEntity
  8
Pel_CS-Weatherstrip
100
AcDbHatch
 10
0.0
 20
0.0
 30
0.0
210
0.0
220
0.0
230
1.0
  2
SOLID
 70
     1
 71
     0
 91
        1
 92
        1
 93
        1
 72
     2
 10
0.3232349772858587
 20
3.327156842032188
 40
0.018
 50
0.0
 51
360.0
 73
     0
 97
        0
 75
     0
 76
     1
 98
        1
 10
-0.3587650227141417
 20
1.842156842032171
  0
HATCH
  5
1D8
330
18C
100
AcDbEntity
  8
Pel_CS-Weatherstrip
100
AcDbHatch
 10
0.0
 20
0.0
 30
0.0
210
0.0
220
0.0
230
1.0
  2
SOLID
 70
     1
 71
     0
 91
        1
 92
        1
 93
        1
 72
     2
 10
0.3232349772858587
 20
3.452156842032188
 40
0.018
 50
0.0
 51
360.0
 73
     0
 97
        0
 75
     0
 76
     1
 98
        1
 10
-0.3587650227141417
 20
1.967156842032171
  0
CIRCLE
  5
1D9
330
18C
100
AcDbEntity
  8
Pel_CS-Weatherstrip
100
AcDbCircle
 10
0.3232349772858587
 20
3.702156842032188
 30
0.0
 40
0.018
  0
CIRCLE
  5
1DA
330
18C
100
AcDbEntity
  8
Pel_CS-Weatherstrip
100
AcDbCircle
 10
0.3232349772858587
 20
3.577156842032188
 30
0.0
 40
0.018
  0
HATCH
  5
1DB
330
18C
100
AcDbEntity
  8
Pel_CS-Weatherstrip
100
AcDbHatch
 10
0.0
 20
0.0
 30
0.0
210
0.0
220
0.0
230
1.0
  2
SOLID
 70
     1
 71
     0
 91
        1
 92
        1
 93
        1
 72
     2
 10
0.3232349772858587
 20
3.577156842032188
 40
0.018
 50
0.0
 51
360.0
 73
     0
 97
        0
 75
     0
 76
     1
 98
        1
 10
-0.3587650227141417
 20
2.092156842032171
  0
HATCH
  5
1DC
330
18C
100
AcDbEntity
  8
Pel_CS-Weatherstrip
100
AcDbHatch
 10
0.0
 20
0.0
 30
0.0
210
0.0
220
0.0
230
1.0
  2
SOLID
 70
     1
 71
     0
 91
        1
 92
        1
 93
        1
 72
     2
 10
0.3232349772858587
 20
3.702156842032188
 40
0.018
 50
0.0
 51
360.0
 73
     0
 97
        0
 75
     0
 76
     1
 98
        1
 10
-0.3587650227141417
 20
2.217156842032171
  0
CIRCLE
  5
1DD
330
18C
100
AcDbEntity
  8
Pel_CS-Weatherstrip
100
AcDbCircle
 10
0.3232349772858587
 20
3.952156842032188
 30
0.0
 40
0.018
  0
CIRCLE
  5
1DE
330
18C
100
AcDbEntity
  8
Pel_CS-Weatherstrip
100
AcDbCircle
 10
0.3232349772858587
 20
3.827156842032188
 30
0.0
 40
0.018
  0
HATCH
  5
1DF
330
18C
100
AcDbEntity
  8
Pel_CS-Weatherstrip
100
AcDbHatch
 10
0.0
 20
0.0
 30
0.0
210
0.0
220
0.0
230
1.0
  2
SOLID
 70
     1
 71
     0
 91
        1
 92
        1
 93
        1
 72
     2
 10
0.3232349772858587
 20
3.827156842032188
 40
0.018
 50
0.0
 51
360.0
 73
     0
 97
        0
 75
     0
 76
     1
 98
        1
 10
-0.3587650227141417
 20
2.342156842032171
  0
HATCH
  5
1E0
330
18C
100
AcDbEntity
  8
Pel_CS-Weatherstrip
100
AcDbHatch
 10
0.0
 20
0.0
 30
0.0
210
0.0
220
0.0
230
1.0
  2
SOLID
 70
     1
 71
     0
 91
        1
 92
        1
 93
        1
 72
     2
 10
0.3232349772858587
 20
3.952156842032188
 40
0.018
 50
0.0
 51
360.0
 73
     0
 97
        0
 75
     0
 76
     1
 98
        1
 10
-0.3587650227141417
 20
2.467156842032171
  0
LWPOLYLINE
  5
1E1
330
18C
100
AcDbEntity
  8
Pel_Clad
100
AcDbPolyline
 90
       29
 70
     1
 43
0.0
 10
0.6482349772858545
 20
1.331656842032185
 10
0.6964081247810139
 20
1.331656842032181
 42
-0.4421005955734904
 10
0.7163193311937537
 20
1.309774327971343
 10
0.7163193311937537
 20
1.044656842032178
 42
0.4174423589703208
 10
0.7355285398311385
 20
1.025657993863248
 42
0.4174857512669492
 10
0.7542349772858561
 20
1.044156842032183
 10
0.7542349772858561
 20
2.364656842032186
 42
0.4142135623730885
 10
0.714234977285857
 20
2.404656842032185
 10
0.682234977285857
 20
2.404656842032185
 42
-0.4142135623731344
 10
0.6622349772858574
 20
2.424656842032188
 10
0.6622349772858574
 20
2.565656842032186
 42
0.4142135623730889
 10
0.6222349772858582
 20
2.605656842032185
 10
0.3697349772858569
 20
2.605656842032185
 42
1.0
 10
0.3697349772858569
 20
2.548656842032187
 10
0.4992349772858571
 20
2.548656842032187
 10
0.4992349772858571
 20
2.567656842032189
 10
0.3697349772858569
 20
2.567656842032189
 42
-1.0
 10
0.3697349772858569
 20
2.586656842032187
 10
0.6232349772858559
 20
2.586656842032187
 42
-0.4142135623730864
 10
0.6432349772858555
 20
2.566656842032188
 10
0.6432349772858573
 20
2.425656842032186
 42
0.4142135623730826
 10
0.6832349772858564
 20
2.385656842032187
 10
0.7152349772858564
 20
2.385656842032187
 42
-0.4142135623730822
 10
0.735234977285856
 20
2.365656842032187
 10
0.735234977285856
 20
1.315327744450833
 10
0.735234977285856
 20
1.044656842032182
 10
0.735234977285856
 20
1.315327744450833
 42
0.3868658026623807
 10
0.6964081247810139
 20
1.350656842032183
 10
0.6482349772858545
 20
1.350656842032183
  0
CIRCLE
  5
FD7
330
18C
100
AcDbEntity
  8
Pel_CS-Weatherstrip
100
AcDbCircle
 10
0.3232349772858587
 20
4.077156842032188
 30
0.0
 40
0.018
  0
CIRCLE
  5
FD8
330
18C
100
AcDbEntity
  8
Pel_CS-Weatherstrip
100
AcDbCircle
 10
0.3232349772858587
 20
4.327156842032188
 30
0.0
 40
0.018
  0
CIRCLE
  5
FD9
330
18C
100
AcDbEntity
  8
Pel_CS-Weatherstrip
100
AcDbCircle
 10
0.3232349772858587
 20
4.202156842032188
 30
0.0
 40
0.018
  0
HATCH
  5
FDA
330
18C
100
AcDbEntity
  8
Pel_CS-Weatherstrip
100
AcDbHatch
 10
0.0
 20
0.0
 30
0.0
210
0.0
220
0.0
230
1.0
  2
SOLID
 70
     1
 71
     0
 91
        1
 92
        1
 93
        1
 72
     2
 10
0.3232349772858587
 20
4.077156842032188
 40
0.018
 50
0.0
 51
360.0
 73
     0
 97
        0
 75
     0
 76
     1
 98
        1
 10
-0.3587650227141417
 20
2.592156842032171
  0
HATCH
  5
FDB
330
18C
100
AcDbEntity
  8
Pel_CS-Weatherstrip
100
AcDbHatch
 10
0.0
 20
0.0
 30
0.0
210
0.0
220
0.0
230
1.0
  2
SOLID
 70
     1
 71
     0
 91
        1
 92
        1
 93
        1
 72
     2
 10
0.3232349772858587
 20
4.202156842032188
 40
0.018
 50
0.0
 51
360.0
 73
     0
 97
        0
 75
     0
 76
     1
 98
        1
 10
-0.3587650227141417
 20
2.717156842032171
  0
HATCH
  5
FDC
330
18C
100
AcDbEntity
  8
Pel_CS-Weatherstrip
100
AcDbHatch
 10
0.0
 20
0.0
 30
0.0
210
0.0
220
0.0
230
1.0
  2
SOLID
 70
     1
 71
     0
 91
        1
 92
        1
 93
        1
 72
     2
 10
0.3232349772858587
 20
4.327156842032188
 40
0.018
 50
0.0
 51
360.0
 73
     0
 97
        0
 75
     0
 76
     1
 98
        1
 10
-0.3587650227141417
 20
2.842156842032171
  0
CIRCLE
  5
FDD
330
18C
100
AcDbEntity
  8
Pel_CS-Weatherstrip
100
AcDbCircle
 10
0.3232349772858587
 20
4.577156842032188
 30
0.0
 40
0.018
  0
CIRCLE
  5
FDE
330
18C
100
AcDbEntity
  8
Pel_CS-Weatherstrip
100
AcDbCircle
 10
0.3232349772858587
 20
4.452156842032188
 30
0.0
 40
0.018
  0
HATCH
  5
FDF
330
18C
100
AcDbEntity
  8
Pel_CS-Weatherstrip
100
AcDbHatch
 10
0.0
 20
0.0
 30
0.0
210
0.0
220
0.0
230
1.0
  2
SOLID
 70
     1
 71
     0
 91
        1
 92
        1
 93
        1
 72
     2
 10
0.3232349772858587
 20
4.452156842032188
 40
0.018
 50
0.0
 51
360.0
 73
     0
 97
        0
 75
     0
 76
     1
 98
        1
 10
-0.3587650227141417
 20
2.967156842032171
  0
HATCH
  5
FE0
330
18C
100
AcDbEntity
  8
Pel_CS-Weatherstrip
100
AcDbHatch
 10
0.0
 20
0.0
 30
0.0
210
0.0
220
0.0
230
1.0
  2
SOLID
 70
     1
 71
     0
 91
        1
 92
        1
 93
        1
 72
     2
 10
0.3232349772858587
 20
4.577156842032188
 40
0.018
 50
0.0
 51
360.0
 73
     0
 97
        0
 75
     0
 76
     1
 98
        1
 10
-0.3587650227141417
 20
3.092156842032171
  0
CIRCLE
  5
FE1
330
18C
100
AcDbEntity
  8
Pel_CS-Weatherstrip
100
AcDbCircle
 10
0.3232349772858587
 20
4.827156842032188
 30
0.0
 40
0.018
  0
CIRCLE
  5
FE2
330
18C
100
AcDbEntity
  8
Pel_CS-Weatherstrip
100
AcDbCircle
 10
0.3232349772858587
 20
4.702156842032188
 30
0.0
 40
0.018
  0
HATCH
  5
FE3
330
18C
100
AcDbEntity
  8
Pel_CS-Weatherstrip
100
AcDbHatch
 10
0.0
 20
0.0
 30
0.0
210
0.0
220
0.0
230
1.0
  2
SOLID
 70
     1
 71
     0
 91
        1
 92
        1
 93
        1
 72
     2
 10
0.3232349772858587
 20
4.702156842032188
 40
0.018
 50
0.0
 51
360.0
 73
     0
 97
        0
 75
     0
 76
     1
 98
        1
 10
-0.3587650227141417
 20
3.217156842032171
  0
HATCH
  5
FE4
330
18C
100
AcDbEntity
  8
Pel_CS-Weatherstrip
100
AcDbHatch
 10
0.0
 20
0.0
 30
0.0
210
0.0
220
0.0
230
1.0
  2
SOLID
 70
     1
 71
     0
 91
        1
 92
        1
 93
        1
 72
     2
 10
0.3232349772858587
 20
4.827156842032188
 40
0.018
 50
0.0
 51
360.0
 73
     0
 97
        0
 75
     0
 76
     1
 98
        1
 10
-0.3587650227141417
 20
3.342156842032171
  0
CIRCLE
  5
FE6
330
18C
100
AcDbEntity
  8
Pel_CS-Weatherstrip
100
AcDbCircle
 10
0.3232349772858587
 20
4.952156842032188
 30
0.0
 40
0.018
  0
HATCH
  5
FE7
330
18C
100
AcDbEntity
  8
Pel_CS-Weatherstrip
100
AcDbHatch
 10
0.0
 20
0.0
 30
0.0
210
0.0
220
0.0
230
1.0
  2
SOLID
 70
     1
 71
     0
 91
        1
 92
        1
 93
        1
 72
     2
 10
0.3232349772858587
 20
4.952156842032188
 40
0.018
 50
0.0
 51
360.0
 73
     0
 97
        0
 75
     0
 76
     1
 98
        1
 10
-0.3587650227141417
 20
3.467156842032171
  0
ENDBLK
  5
1E2
330
18C
100
AcDbEntity
  8
0
100
AcDbBlockEnd
  0
BLOCK
  5
62C
330
624
100
AcDbEntity
  8
0
100
AcDbBlockBegin
  2
*D7
 70
     1
 10
0.0
 20
0.0
 30
0.0
  3
*D7
  1

  0
LINE
  5
2A3F
330
624
100
AcDbEntity
  8
0
100
AcDbLine
 10
23.36917902130716
 20
17.30442141989132
 30
0.0
 11
23.36917902130716
 21
14.05442141989132
 31
0.0
  0
LINE
  5
2A40
330
624
100
AcDbEntity
  8
0
100
AcDbLine
 10
27.99511873324925
 20
14.30442141989132
 30
0.0
 11
23.58792902130716
 21
14.30442141989132
 31
0.0
  0
MTEXT
  5
2A41
330
624
100
AcDbEntity
  8
0
 62
   255
100
AcDbMText
 10
26.16302534188112
 20
14.03455102425694
 30
0.0
 40
0.28
 41
0.0
 71
     5
 72
     1
  1
\A1;ROUGH OPENING
 73
     1
 44
1.0
1001
ACAD
1000
MTEXTBEGIN
1070
    73
1070
     1
1070
    44
1040
1.0
1070
    74
1070
     0
1000
MTEXTEND
  0
SOLID
  5
2A42
330
624
100
AcDbEntity
  8
0
100
AcDbTrace
 10
23.58792902130716
 20
14.34087975322466
 30
0.0
 11
23.58792902130716
 21
14.26796308655799
 31
0.0
 12
23.36917902130716
 22
14.30442141989132
 32
0.0
 13
23.36917902130716
 23
14.30442141989132
 33
0.0
  0
POINT
  5
2A43
330
624
100
AcDbEntity
  8
Defpoints
 62
     0
100
AcDbPoint
 10
27.99511873324925
 20
20.47629641989133
 30
0.0
  0
POINT
  5
2A44
330
624
100
AcDbEntity
  8
Defpoints
 62
     0
100
AcDbPoint
 10
23.36917902130716
 20
17.80442141989132
 30
0.0
  0
POINT
  5
2A45
330
624
100
AcDbEntity
  8
Defpoints
 62
     0
100
AcDbPoint
 10
23.36917902130716
 20
14.30442141989132
 30
0.0
  0
ENDBLK
  5
62D
330
624
100
AcDbEntity
  8
0
100
AcDbBlockEnd
  0
BLOCK
  5
16F8
330
16F0
100
AcDbEntity
  8
0
100
AcDbBlockBegin
  2
*D8
 70
     1
 10
0.0
 20
0.0
 30
0.0
  3
*D8
  1

  0
LINE
  5
2A31
330
16F0
100
AcDbEntity
  8
0
100
AcDbLine
 10
23.61917902130713
 20
21.45038490805335
 30
0.0
 11
23.61917902130713
 21
15.05442141989132
 31
0.0
  0
LINE
  5
2A32
330
16F0
100
AcDbEntity
  8
0
100
AcDbLine
 10
27.99511873324925
 20
15.30442141989132
 30
0.0
 11
23.83792902130713
 21
15.30442141989132
 31
0.0
  0
MTEXT
  5
2A33
330
16F0
100
AcDbEntity
  8
0
 62
   255
100
AcDbMText
 10
27.126551823567
 20
15.03942141989133
 30
0.0
 40
0.28
 41
0.0
 71
     5
 72
     1
  1
\A1;FRAME
 73
     1
 44
1.0
1001
ACAD
1000
MTEXTBEGIN
1070
    73
1070
     1
1070
    44
1040
1.0
1070
    74
1070
     0
1000
MTEXTEND
  0
SOLID
  5
2A34
330
16F0
100
AcDbEntity
  8
0
100
AcDbTrace
 10
23.83792902130713
 20
15.34087975322466
 30
0.0
 11
23.83792902130713
 21
15.26796308655799
 31
0.0
 12
23.61917902130713
 22
15.30442141989132
 32
0.0
 13
23.61917902130713
 23
15.30442141989132
 33
0.0
  0
POINT
  5
2A35
330
16F0
100
AcDbEntity
  8
Defpoints
 62
     0
100
AcDbPoint
 10
27.99511873324925
 20
20.47629641989133
 30
0.0
  0
POINT
  5
2A36
330
16F0
100
AcDbEntity
  8
Defpoints
 62
     0
100
AcDbPoint
 10
23.61917902130713
 20
21.95038490805334
 30
0.0
  0
POINT
  5
2A37
330
16F0
100
AcDbEntity
  8
Defpoints
 62
     0
100
AcDbPoint
 10
23.61917902130713
 20
15.30442141989132
 30
0.0
  0
ENDBLK
  5
16F9
330
16F0
100
AcDbEntity
  8
0
100
AcDbBlockEnd
  0
BLOCK
  5
170C
330
1701
100
AcDbEntity
  8
0
100
AcDbBlockBegin
  2
*D9
 70
     1
 10
0.0
 20
0.0
 30
0.0
  3
*D9
  1

  0
LINE
  5
2A50
330
1701
100
AcDbEntity
  8
0
100
AcDbLine
 10
23.61917902130713
 20
21.45038490805335
 30
0.0
 11
23.61917902130713
 21
15.05442141989132
 31
0.0
  0
LINE
  5
2A51
330
1701
100
AcDbEntity
  8
0
100
AcDbLine
 10
23.36917902130716
 20
17.30442141989132
 30
0.0
 11
23.36917902130716
 21
15.05442141989132
 31
0.0
  0
LINE
  5
2A52
330
1701
100
AcDbEntity
  8
0
100
AcDbLine
 10
23.83792902130713
 20
15.30442141989132
 30
0.0
 11
24.05667902130713
 21
15.30442141989132
 31
0.0
  0
LINE
  5
2A53
330
1701
100
AcDbEntity
  8
0
100
AcDbLine
 10
23.15042902130716
 20
15.30442141989132
 30
0.0
 11
22.93167902130716
 21
15.30442141989132
 31
0.0
  0
MTEXT
  5
2A54
330
1701
100
AcDbEntity
  8
0
 62
   255
100
AcDbMText
 10
21.86908311683865
 20
15.30442141989133
 30
0.0
 40
0.28
 41
0.0
 71
     5
 72
     1
  1
\A1;1/4"\P [6]
 73
     1
 44
1.0
1001
ACAD
1000
MTEXTBEGIN
1070
    73
1070
     1
1070
    44
1040
1.0
1070
    74
1070
     0
1000
MTEXTEND
  0
SOLID
  5
2A55
330
1701
100
AcDbEntity
  8
0
100
AcDbTrace
 10
23.83792902130713
 20
15.34087975322466
 30
0.0
 11
23.83792902130713
 21
15.26796308655799
 31
0.0
 12
23.61917902130713
 22
15.30442141989132
 32
0.0
 13
23.61917902130713
 23
15.30442141989132
 33
0.0
  0
SOLID
  5
2A56
330
1701
100
AcDbEntity
  8
0
100
AcDbTrace
 10
23.15042902130716
 20
15.34087975322466
 30
0.0
 11
23.15042902130716
 21
15.26796308655799
 31
0.0
 12
23.36917902130716
 22
15.30442141989132
 32
0.0
 13
23.36917902130716
 23
15.30442141989132
 33
0.0
  0
POINT
  5
2A57
330
1701
100
AcDbEntity
  8
Defpoints
 62
     0
100
AcDbPoint
 10
23.61917902130713
 20
21.95038490805334
 30
0.0
  0
POINT
  5
2A58
330
1701
100
AcDbEntity
  8
Defpoints
 62
     0
100
AcDbPoint
 10
23.36917902130716
 20
17.80442141989132
 30
0.0
  0
POINT
  5
2A59
330
1701
100
AcDbEntity
  8
Defpoints
 62
     0
100
AcDbPoint
 10
23.36917902130716
 20
15.30442141989132
 30
0.0
  0
ENDBLK
  5
170D
330
1701
100
AcDbEntity
  8
0
100
AcDbBlockEnd
  0
BLOCK
  5
1BFE
330
1BFB
100
AcDbEntity
  8
0
100
AcDbBlockBegin
  2
TSE 10 SD HV
 70
     0
 10
0.0
 20
0.0
 30
0.0
  3
TSE 10 SD HV
  1

  0
POINT
  5
1BFF
330
1BFB
100
AcDbEntity
  8
Pel_Points
100
AcDbPoint
 10
0.0
 20
-0.0000000000000036
 30
0.0
  0
LWPOLYLINE
  5
1C00
330
1BFB
100
AcDbEntity
  8
Pel_CS-Cross Section
 62
     4
100
AcDbPolyline
 90
      129
 70
     1
 43
0.0
 10
1.429957603986359
 20
1.124999999999996
 10
1.349957603986357
 20
1.124999999999996
 10
1.349957603986357
 20
-0.0000000000000036
 10
0.0650000000000013
 20
-0.0000000000000036
 10
0.0649999999999977
 20
-0.0800000000000019
 10
0.1169615242270687
 20
-0.110000000000003
 10
0.1419615242270709
 20
-0.110000000000003
 10
0.1419615242270638
 20
-0.0800000000000019
 10
0.2800000000000011
 20
-0.0800000000000019
 10
0.2799999999999976
 20
-0.235000000000003
 10
0.0
 20
-0.235000000000003
 10
0.0
 20
-0.9380000000000059
 10
0.1999999999999993
 20
-0.9380000000000059
 10
0.1999999999999993
 20
-0.438000000000006
 10
0.8350000000000008
 20
-0.438000000000006
 10
0.8350000000000008
 20
-0.6280000000000037
 10
0.8000000000000007
 20
-0.6280000000000037
 10
0.8000000000000007
 20
-0.9380000000000059
 10
0.8900000000000005
 20
-0.9380000000000059
 42
1.0
 10
0.8900000000000005
 20
-0.8780000000000036
 10
0.8599999999999994
 20
-0.8780000000000001
 10
0.8599999999999994
 20
-0.6880000000000024
 10
1.054999999999999
 20
-0.6880000000000024
 10
1.054999999999999
 20
-0.8380000000000009
 10
1.112735026918961
 20
-0.9380000000000023
 10
2.15
 20
-0.9379999999999988
 10
2.15
 20
-1.103000000000005
 10
2.114999999999998
 20
-1.103000000000005
 10
2.074999999999993
 20
-1.063000000000005
 10
2.05
 20
-1.063000000000005
 10
2.049999999999998
 20
-1.563000000000005
 10
2.599999999999997
 20
-1.563000000000005
 42
0.4142135623731037
 10
2.629999999999999
 20
-1.533000000000004
 10
2.629999999999997
 20
-0.682282032302755
 10
2.669999999999998
 20
-0.6130000000000067
 10
2.669999999999996
 20
-0.5880000000000046
 10
2.629999999999999
 20
-0.5880000000000046
 10
2.629999999999999
 20
-0.4630000000000046
 10
4.269999999999999
 20
-0.4630000000000046
 10
4.269999999999997
 20
-0.5880000000000046
 10
4.230000000000002
 20
-0.5880000000000046
 10
4.230000000000002
 20
-0.6130000000000067
 10
4.269999999999999
 20
-0.682282032302755
 10
4.269999999999997
 20
-1.413000000000003
 10
4.230000000000002
 20
-1.413000000000003
 10
4.23
 20
-1.533000000000004
 42
0.4142135623730863
 10
4.259999999999998
 20
-1.563000000000002
 10
4.499999999999994
 20
-1.563000000000005
 10
4.499999999999998
 20
-0.235000000000003
 10
4.220000000000004
 20
-0.235000000000003
 10
4.22
 20
-0.0901420310525758
 10
4.144999999999997
 20
-0.0901420310525758
 10
4.145000000000003
 20
-0.235000000000003
 42
0.4142135623731037
 10
4.220000000000004
 20
-0.3100000000000058
 10
4.419999999999998
 20
-0.3100000000000058
 10
4.419999999999996
 20
-0.3830000000000027
 10
4.404899421459155
 20
-0.3830000000000027
 10
4.404899421459155
 20
-0.4430000000000014
 10
4.419999999999999
 20
-0.4430000000000014
 10
4.419999999999996
 20
-1.483000000000004
 10
4.33
 20
-1.483000000000004
 10
4.33
 20
-0.4430000000000014
 10
4.404899421459155
 20
-0.4430000000000014
 10
4.404899421459155
 20
-0.3830000000000027
 10
3.509
 20
-0.3830000000000027
 10
3.509000000000005
 20
-0.0901420310525758
 10
3.448999999999999
 20
-0.0901420310525758
 10
3.449000000000003
 20
-0.3830000000000027
 10
2.610000000000001
 20
-0.3830000000000027
 10
2.609999999999997
 20
-0.0901420310525758
 10
2.549999999999997
 20
-0.0901420310525758
 10
2.55
 20
-1.483000000000004
 10
2.130000000000002
 20
-1.483000000000004
 10
2.129999999999997
 20
-1.178000000000004
 10
2.150000000000002
 20
-1.178000000000007
 42
0.4142135623730822
 10
2.224999999999997
 20
-1.103000000000008
 10
2.224999999999997
 20
-0.9330000000000033
 42
0.414213562373109
 10
2.149999999999998
 20
-0.8580000000000005
 10
2.019999999999997
 20
-0.8580000000000005
 10
2.020000000000003
 20
-0.0901420310525758
 10
1.96
 20
-0.0901420310525758
 10
1.96
 20
-0.8580000000000005
 10
1.153149545762236
 20
-0.8580000000000005
 10
1.129999999999995
 20
-0.8179038105676674
 10
1.130000000000002
 20
-0.0901420310525758
 10
1.07
 20
-0.0901420310525758
 10
1.069999999999996
 20
-0.6130000000000031
 10
0.9100000000000036
 20
-0.6130000000000031
 10
0.9100000000000001
 20
-0.438000000000006
 42
0.4142135623730951
 10
0.8350000000000008
 20
-0.3630000000000031
 10
0.3550000000000004
 20
-0.3630000000000031
 10
0.3550000000000004
 20
-0.3530621331517061
 10
0.2950000000000017
 20
-0.3530621331517061
 10
0.2950000000000017
 20
-0.3630000000000031
 10
0.2149999999999999
 20
-0.3630000000000031
 42
0.4142135623730966
 10
0.1400000000000006
 20
-0.438000000000006
 10
0.139999999999997
 20
-0.858000000000004
 10
0.0800000000000019
 20
-0.858000000000004
 10
0.0799999999999983
 20
-0.3100000000000023
 10
0.2950000000000017
 20
-0.3100000000000023
 10
0.2950000000000017
 20
-0.3530621331517061
 10
0.3550000000000004
 20
-0.3530621331517061
 10
0.3550000000000004
 20
-0.0800000000000054
 10
1.07
 20
-0.0800000000000054
 10
1.07
 20
-0.0901420310525758
 10
1.130000000000006
 20
-0.0901420310525758
 10
1.129999999999999
 20
-0.0800000000000054
 10
1.96
 20
-0.0800000000000019
 10
1.96
 20
-0.0901420310525758
 10
2.019999999999999
 20
-0.0901420310525758
 10
2.020000000000001
 20
-0.0800000000000019
 10
2.550000000000002
 20
-0.0800000000000019
 10
2.550000000000004
 20
-0.0901420310525758
 10
2.610000000000001
 20
-0.0901420310525758
 10
2.609999999999997
 20
-0.0800000000000019
 10
3.448999999999999
 20
-0.0800000000000019
 10
3.449000000000001
 20
-0.0901420310525758
 10
3.509000000000003
 20
-0.0901420310525758
 10
3.509000000000003
 20
-0.0800000000000019
 10
4.144999999999999
 20
-0.0800000000000019
 10
4.144999999999997
 20
-0.0901420310525758
 10
4.220000000000004
 20
-0.0901420310525758
 10
4.22
 20
-0.0800000000000054
 10
4.358038475772936
 20
-0.0800000000000054
 10
4.358038475772936
 20
-0.110000000000003
 10
4.383038475772931
 20
-0.110000000000003
 10
4.435000000000004
 20
-0.0800000000000054
 10
4.435
 20
-0.0000000000000036
 10
1.429957603986363
 20
-0.0000000000000036
  0
POINT
  5
1C01
330
1BFB
100
AcDbEntity
  8
Pel_Points
100
AcDbPoint
 10
0.0
 20
-0.0000000000000071
 30
0.0
  0
LWPOLYLINE
  5
1C02
330
1BFB
100
AcDbEntity
  8
Pel_CS-Cross Section
 62
     4
100
AcDbPolyline
 90
       15
 70
     1
 43
0.0
 10
2.866857076183634
 20
-2.81299999999991
 10
2.866857076183634
 20
-2.724249999999905
 10
2.967719145149146
 20
-2.61834482758612
 42
1.0
 10
2.945995007218073
 20
-2.597655172413702
 10
2.821857076183619
 20
-2.727999999999916
 10
2.836857076183605
 20
-2.742999999999916
 10
2.836857076183605
 20
-2.81299999999991
 10
2.773443401098859
 20
-2.81299999999991
 42
0.5343310138307086
 10
2.759581993294659
 20
-2.833732484076342
 42
0.2404623521578165
 10
3.132215680118406
 20
-3.419880385509607
 42
0.9781803082727828
 10
3.147473102968035
 20
-3.394017467921706
 10
3.146200661725004
 20
-3.393311425494182
 42
-0.0133516086578351
 10
3.146910150142332
 20
-3.393685140719078
 42
-0.2361122684030795
 10
2.791337111878874
 20
-2.842999999999911
 10
2.836857076183605
 20
-2.842999999999911
 42
0.414213562373108
  0
LWPOLYLINE
  5
1C03
330
1BFB
100
AcDbEntity
  8
Pel_CS-Cross Section
 62
     4
100
AcDbPolyline
 90
       73
 70
     1
 43
0.0
 10
2.991857076183634
 20
-1.188000000000009
 10
2.796857076183641
 20
-1.188000000000009
 42
0.4142135623730951
 10
2.7168570761836
 20
-1.268000000000007
 10
2.7168570761836
 20
-1.310500000000011
 10
2.766857076183612
 20
-1.310500000000011
 10
2.766857076183612
 20
-1.268000000000007
 10
2.816857076183623
 20
-1.268000000000007
 10
2.816857076183623
 20
-1.478000000000015
 10
2.766857076183612
 20
-1.478000000000015
 10
2.766857076183612
 20
-1.435500000000011
 10
2.7168570761836
 20
-1.435500000000011
 10
2.7168570761836
 20
-1.478000000000015
 10
2.7168570761836
 20
-2.813000000000009
 10
2.806857076183632
 20
-2.813000000000009
 42
1.0
 10
2.806857076183632
 20
-2.753000000000007
 10
2.796857076183641
 20
-2.753000000000007
 10
2.796857076183641
 20
-2.563000000000009
 10
2.820574096771736
 20
-2.563000000000009
 10
2.820574096771736
 20
-2.483000000000011
 10
2.796857076183641
 20
-2.483000000000011
 10
2.796857076183641
 20
-1.842000000000005
 10
2.820574096771736
 20
-1.842000000000005
 10
2.820574096771736
 20
-1.792000000000008
 10
2.796857076183641
 20
-1.792000000000008
 10
2.796857076183641
 20
-1.558000000000014
 10
2.816857076183623
 20
-1.558000000000014
 42
0.4142135623731081
 10
2.896857076183607
 20
-1.478000000000015
 10
2.896857076183607
 20
-1.268000000000007
 10
2.991857076183634
 20
-1.268000000000007
 10
2.991857076183634
 20
-1.792000000000008
 10
2.820574096771736
 20
-1.792000000000008
 10
2.820574096771736
 20
-1.842000000000005
 10
4.120665511853701
 20
-1.842000000000005
 10
4.120665511853701
 20
-1.792000000000008
 10
3.941857076183623
 20
-1.792000000000008
 10
3.941857076183623
 20
-1.268000000000007
 10
4.136857076183616
 20
-1.268000000000007
 10
4.136857076183616
 20
-1.792000000000008
 10
4.120665511853701
 20
-1.792000000000008
 10
4.120665511853701
 20
-1.842000000000005
 10
4.136857076183616
 20
-1.842000000000005
 10
4.136857076183616
 20
-2.733000000000011
 10
4.120665511853701
 20
-2.733000000000011
 10
4.120665511853701
 20
-2.783000000000008
 10
4.136857076183616
 20
-2.783000000000008
 10
4.136857076183616
 20
-3.378000000000007
 10
4.026857076183603
 20
-3.378000000000007
 10
4.026857076183603
 20
-2.783000000000008
 10
4.120665511853701
 20
-2.783000000000008
 10
4.120665511853701
 20
-2.733000000000011
 10
3.911857076183594
 20
-2.733000000000011
 10
3.911857076183594
 20
-2.563000000000009
 10
3.831857076183609
 20
-2.563000000000009
 10
3.831857076183609
 20
-2.733000000000011
 10
3.051857076183637
 20
-2.733000000000011
 10
3.051857076183637
 20
-2.563000000000009
 10
3.101857076183591
 20
-2.563000000000009
 10
3.101857076183591
 20
-2.483000000000011
 10
2.820574096771736
 20
-2.483000000000011
 10
2.820574096771736
 20
-2.563000000000009
 10
2.971857076183596
 20
-2.563000000000009
 10
2.971857076183596
 20
-2.733000000000011
 42
0.4142135623730951
 10
3.051857076183637
 20
-2.813000000000009
 10
3.9668570761836
 20
-2.813000000000009
 10
3.9668570761836
 20
-3.438000000000009
 10
4.2168570761836
 20
-3.438000000000009
 10
4.2168570761836
 20
-1.268000000000007
 42
0.4142135623730951
 10
4.136857076183616
 20
-1.188000000000009
 10
3.941857076183623
 20
-1.188000000000009
 42
0.4142135623730951
 10
3.861857076183639
 20
-1.268000000000007
 10
3.861857076183639
 20
-1.762000000000007
 10
3.071857076183619
 20
-1.762000000000007
 10
3.071857076183619
 20
-1.268000000000007
 42
0.4142135623730951
  0
LWPOLYLINE
  5
1C04
330
1BFB
100
AcDbEntity
  8
Pel_CS-Cross Section
 62
     4
100
AcDbPolyline
 90
       17
 70
     1
 43
0.0
 10
3.930000000000006
 20
-0.463000000000001
 10
2.629999999999995
 20
-0.4630000000000152
 10
2.629999999999995
 20
-0.5130000000000124
 10
2.730000000000018
 20
-0.5130000000000124
 10
2.730000000000018
 20
-0.5430000000000135
 10
3.930000000000006
 20
-0.5429999999999993
 10
3.930000000000006
 20
-0.9630000000000009
 10
4.25
 20
-0.9630000000000009
 10
4.25
 20
-0.9130000000000038
 10
4.199999999999988
 20
-0.9130000000000038
 10
4.199999999999988
 20
-0.5830000000000056
 10
4.25
 20
-0.5830000000000056
 10
4.180717967697262
 20
-0.463000000000001
 10
4.120000000000004
 20
-0.463000000000001
 10
4.120000000000004
 20
-0.8830000000000026
 10
4.00999999999999
 20
-0.8830000000000168
 10
4.00999999999999
 20
-0.5430000000000135
 42
0.4142135623730951
  0
POLYLINE
  5
1C05
330
1BFB
100
AcDbEntity
  8
Pel_CS-Weatherstrip
100
AcDb2dPolyline
 66
     1
 10
0.0
 20
0.0
 30
0.0
  0
VERTEX
  5
2329
330
1C05
100
AcDbEntity
  8
Pel_CS-Weatherstrip
100
AcDbVertex
100
AcDb2dVertex
 10
2.775769530261641
 20
-1.465141855391429
 30
0.0
  0
VERTEX
  5
232A
330
1C05
100
AcDbEntity
  8
Pel_CS-Weatherstrip
100
AcDbVertex
100
AcDb2dVertex
 10
2.775769530261641
 20
-1.418897265753052
 30
0.0
  0
VERTEX
  5
232B
330
1C05
100
AcDbEntity
  8
Pel_CS-Weatherstrip
100
AcDbVertex
100
AcDb2dVertex
 10
2.629999999999995
 20
-1.457630846916224
 30
0.0
  0
VERTEX
  5
232C
330
1C05
100
AcDbEntity
  8
Pel_CS-Weatherstrip
100
AcDbVertex
100
AcDb2dVertex
 10
2.629999999999995
 20
-1.429455610262344
 30
0.0
  0
VERTEX
  5
232D
330
1C05
100
AcDbEntity
  8
Pel_CS-Weatherstrip
100
AcDbVertex
100
AcDb2dVertex
 10
2.775769530261641
 20
-1.418897265753052
 30
0.0
  0
VERTEX
  5
232E
330
1C05
100
AcDbEntity
  8
Pel_CS-Weatherstrip
100
AcDbVertex
100
AcDb2dVertex
 10
2.629999999999995
 20
-1.408054524604231
 30
0.0
  0
VERTEX
  5
232F
330
1C05
100
AcDbEntity
  8
Pel_CS-Weatherstrip
100
AcDbVertex
100
AcDb2dVertex
 10
2.629999999999995
 20
-1.377668283501314
 30
0.0
  0
VERTEX
  5
2330
330
1C05
100
AcDbEntity
  8
Pel_CS-Weatherstrip
100
AcDbVertex
100
AcDb2dVertex
 10
2.775769530261641
 20
-1.418897265753052
 30
0.0
  0
VERTEX
  5
2331
330
1C05
100
AcDbEntity
  8
Pel_CS-Weatherstrip
100
AcDbVertex
100
AcDb2dVertex
 10
2.775769530261641
 20
-1.33643930124959
 30
0.0
  0
VERTEX
  5
2332
330
1C05
100
AcDbEntity
  8
Pel_CS-Weatherstrip
100
AcDbVertex
100
AcDb2dVertex
 10
2.629999999999995
 20
-1.377668283501314
 30
0.0
  0
VERTEX
  5
2333
330
1C05
100
AcDbEntity
  8
Pel_CS-Weatherstrip
100
AcDbVertex
100
AcDb2dVertex
 10
2.629999999999995
 20
-1.347282042398397
 30
0.0
  0
VERTEX
  5
2334
330
1C05
100
AcDbEntity
  8
Pel_CS-Weatherstrip
100
AcDbVertex
100
AcDb2dVertex
 10
2.775769530261641
 20
-1.33643930124959
 30
0.0
  0
VERTEX
  5
2335
330
1C05
100
AcDbEntity
  8
Pel_CS-Weatherstrip
100
AcDbVertex
100
AcDb2dVertex
 10
2.629999999999995
 20
-1.318301524948033
 30
0.0
  0
VERTEX
  5
2336
330
1C05
100
AcDbEntity
  8
Pel_CS-Weatherstrip
100
AcDbVertex
100
AcDb2dVertex
 10
2.629999999999995
 20
-1.276839754777405
 30
0.0
  0
VERTEX
  5
2337
330
1C05
100
AcDbEntity
  8
Pel_CS-Weatherstrip
100
AcDbVertex
100
AcDb2dVertex
 10
2.775769530261641
 20
-1.33643930124959
 30
0.0
  0
VERTEX
  5
2338
330
1C05
100
AcDbEntity
  8
Pel_CS-Weatherstrip
100
AcDbVertex
100
AcDb2dVertex
 10
2.775769530261641
 20
-1.278364131705252
 30
0.0
  0
VERTEX
  5
2339
330
1C05
100
AcDbEntity
  8
Pel_CS-Weatherstrip
100
AcDbVertex
100
AcDb2dVertex
 10
2.810769516261643
 20
-1.278364131705252
 30
0.0
  0
VERTEX
  5
233A
330
1C05
100
AcDbEntity
  8
Pel_CS-Weatherstrip
100
AcDbVertex
100
AcDb2dVertex
 10
2.810769516261643
 20
-1.465141855391429
 30
0.0
  0
VERTEX
  5
233B
330
1C05
100
AcDbEntity
  8
0
100
AcDbVertex
100
AcDb2dVertex
 10
2.775769530261641
 20
-1.465141855391429
 30
0.0
  0
SEQEND
  5
233C
330
1C05
100
AcDbEntity
  8
Pel_CS-Weatherstrip
  0
LINE
  5
1C1A
330
1BFB
100
AcDbEntity
  8
0
100
AcDbLine
 10
2.637999441323472
 20
-1.408054524604231
 30
0.0
 11
2.637999441323472
 21
-1.408054524604231
 31
0.0
  0
LINE
  5
1C1B
330
1BFB
100
AcDbEntity
  8
0
100
AcDbLine
 10
2.637999441323472
 20
-1.408054524604231
 30
0.0
 11
2.637999441323472
 21
-1.408054524604231
 31
0.0
  0
HATCH
  5
1C1C
330
1BFB
100
AcDbEntity
  8
Pel_CS-Sealant
100
AcDbHatch
 10
0.0
 20
0.0
 30
0.0
210
0.0
220
0.0
230
1.0
  2
DASH
 70
     0
 71
     0
 91
        1
 92
        1
 93
        4
 72
     1
 10
3.310855922766052
 20
-3.121191049788851
 11
3.747605922766069
 21
-3.121191049788851
 72
     1
 10
3.747605922766069
 20
-3.121191049788851
 11
3.747605922766069
 21
-3.071500000000018
 72
     1
 10
3.747605922766069
 20
-3.071500000000018
 11
3.310855922766052
 21
-3.071500000000032
 72
     1
 10
3.310855922766052
 20
-3.071500000000032
 11
3.310855922766052
 21
-3.121191049788865
 97
        0
 75
     0
 76
     1
 52
30.0
 41
0.15
 77
     0
 78
     1
 53
30.0
 43
-8.0
 44
-0.0000000000000036
 45
0.0068629763209582
 46
0.0256129763209582
 79
     2
 49
0.01875
 49
-0.01875
 98
        1
 10
-8.0
 20
-0.0000000000000036
1001
ACAD
1010
0.0
1020
0.0
1030
0.0
  0
LWPOLYLINE
  5
1C1D
330
1BFB
100
AcDbEntity
  8
Pel_CS-Sealant
100
AcDbPolyline
 90
        4
 70
     1
 43
0.0
 10
3.310855922766052
 20
-3.121191049788855
 10
3.747605922766069
 20
-3.121191049788855
 10
3.747605922766069
 20
-3.071500000000021
 10
3.310855922766052
 20
-3.071500000000035
  0
LWPOLYLINE
  5
1C1E
330
1BFB
100
AcDbEntity
  8
Pel_CS-IG
100
AcDbPolyline
 90
        4
 70
     0
 43
0.0
 10
3.154105922766063
 20
-5.000000000000007
 10
3.154105922766063
 20
-2.938000000000023
 10
3.283105922766083
 20
-2.938000000000023
 10
3.283105922766083
 20
-5.000000000000007
  0
LWPOLYLINE
  5
1C1F
330
1BFB
100
AcDbEntity
  8
Pel_CS-IG
100
AcDbPolyline
 90
        4
 70
     0
 43
0.0
 10
3.775355922766038
 20
-5.000000000000007
 10
3.775355922766038
 20
-2.938000000000023
 10
3.904355922766058
 20
-2.938000000000023
 10
3.904355922766058
 20
-5.000000000000007
  0
LWPOLYLINE
  5
1C20
330
1BFB
100
AcDbEntity
  8
Pel_CS-IG
100
AcDbPolyline
 90
       16
 70
     1
 43
0.0
 10
3.754605922766074
 20
-3.062500000000021
 10
3.303855922766047
 20
-3.062500000000021
 42
0.4142135623730951
 10
3.294855922766089
 20
-3.071500000000021
 10
3.294855922766089
 20
-3.353500000000032
 42
0.4142135623730913
 10
3.303855922766047
 20
-3.362500000000018
 10
3.372980922766089
 20
-3.362500000000018
 10
3.372980922766089
 20
-3.353500000000032
 10
3.303855922766047
 20
-3.353500000000032
 10
3.303855922766047
 20
-3.071500000000021
 10
3.754605922766074
 20
-3.071500000000021
 10
3.754605922766074
 20
-3.353500000000032
 10
3.685480922766089
 20
-3.353500000000018
 10
3.685480922766089
 20
-3.362500000000018
 10
3.754605922766074
 20
-3.362500000000018
 42
0.4142135623730918
 10
3.763605922766089
 20
-3.353500000000032
 10
3.763605922766089
 20
-3.071500000000021
 42
0.4142135623730951
  0
LINE
  5
1C21
330
1BFB
100
AcDbEntity
  8
Pel_CS-Weatherstrip
  6
Continuous
100
AcDbLine
 10
3.760643836999577
 20
-3.064825901431014
 30
0.0
 11
3.775355922766038
 21
-3.064825901431014
 31
0.0
  0
LINE
  5
1C22
330
1BFB
100
AcDbEntity
  8
Pel_CS-Weatherstrip
  6
Continuous
100
AcDbLine
 10
3.760643836999577
 20
-3.360174098569039
 30
0.0
 11
3.775355922766038
 21
-3.360174098569039
 31
0.0
  0
LINE
  5
1C23
330
1BFB
100
AcDbEntity
  8
Pel_CS-Weatherstrip
  6
Continuous
100
AcDbLine
 10
3.297818008532544
 20
-3.064825901431014
 30
0.0
 11
3.283105922766083
 21
-3.064825901431014
 31
0.0
  0
LINE
  5
1C24
330
1BFB
100
AcDbEntity
  8
Pel_CS-Weatherstrip
  6
Continuous
100
AcDbLine
 10
3.297818008532544
 20
-3.360174098569039
 30
0.0
 11
3.283105922766083
 21
-3.360174098569039
 31
0.0
  0
ARC
  5
1C25
330
1BFB
100
AcDbEntity
  8
Pel_CS-Sealant
100
AcDbCircle
 10
3.529230922766032
 20
-1.241563280373448
 30
0.0
 40
1.774198080538652
100
AcDbArc
 50
262.0259462884691
 51
277.9740537115308
  0
ARC
  5
1C26
330
1BFB
100
AcDbEntity
  8
Pel_CS-Sealant
100
AcDbCircle
 10
3.529230922766032
 20
-1.241563280373448
 30
0.0
 40
1.714198080538652
100
AcDbArc
 50
261.7449263785131
 51
278.2550736214901
  0
ARC
  5
1C27
330
1BFB
100
AcDbEntity
  8
Pel_CS-Sealant
100
AcDbCircle
 10
3.529230922766032
 20
-1.241563280373448
 30
0.0
 40
1.734198080538652
100
AcDbArc
 50
261.8407824200472
 51
278.1592175799527
  0
ARC
  5
1C28
330
1BFB
100
AcDbEntity
  8
Pel_CS-Sealant
100
AcDbCircle
 10
3.529230922766032
 20
-1.241563280373448
 30
0.0
 40
1.754198080538652
100
AcDbArc
 50
261.9344305006234
 51
278.0655694993799
  0
LWPOLYLINE
  5
1C29
330
1BFB
100
AcDbEntity
  8
Pel_CS-Weatherstrip
100
AcDbPolyline
 90
        4
 70
     1
 43
0.0
 10
3.904355922766058
 20
-3.063000000000009
 10
3.9668570761836
 20
-3.063000000000009
 10
3.9668570761836
 20
-3.438000000000009
 10
3.904355922766058
 20
-3.438000000000009
  0
LWPOLYLINE
  5
1C2A
330
1BFB
100
AcDbEntity
  8
Pel_CS-Hardware
100
AcDbPolyline
 90
       19
 70
     0
 43
0.0
 10
0.406393398282205
 20
-0.694778575576315
 10
0.406393398282205
 20
-0.569778575576315
 10
0.3563933982821936
 20
-0.569778575576315
 10
0.3563933982821936
 20
-1.569778575576314
 10
0.406393398282205
 20
-1.569778575576314
 10
0.406393398282205
 20
-0.694778575576315
 10
0.406393398282205
 20
-1.444778575576314
 10
0.5003933982821991
 20
-1.394778575576317
 10
0.5003933982821991
 20
-0.7447785755763121
 10
0.5003933982821991
 20
-1.394778575576317
 10
0.5943933982821932
 20
-1.444778575576314
 10
0.5943933982821932
 20
-0.694778575576315
 10
0.5943933982821932
 20
-1.569778575576314
 10
0.6443933982822046
 20
-1.569778575576314
 10
0.6443933982822046
 20
-0.569778575576315
 10
0.5943933982821932
 20
-0.569778575576315
 10
0.5943933982821932
 20
-0.694778575576315
 10
0.5003933982821991
 20
-0.7447785755763121
 10
0.406393398282205
 20
-0.694778575576315
  0
LWPOLYLINE
  5
1C2B
330
1BFB
100
AcDbEntity
  8
Pel_Clad
100
AcDbPolyline
 90
       25
 70
     1
 43
0.0
 10
0.3563933982821936
 20
-1.070966782205282
 10
0.3082202507870306
 20
-1.070966782205282
 42
-0.3868658026623525
 10
0.2693933982822045
 20
-1.035637684623928
 10
0.2693933982822045
 20
-0.7649667822052848
 10
0.2693933982822045
 20
-1.035637684623928
 10
0.2693933982822045
 20
-2.085966782205282
 42
0.4142135623730822
 10
0.2893933982821863
 20
-2.105966782205292
 10
0.5993933982821887
 20
-2.105966782205292
 42
-0.4142135623730948
 10
0.6393933982822091
 20
-2.145966782205285
 10
0.6393933982822091
 20
-2.266966782205294
 42
-0.4142135623730854
 10
0.5993933982821887
 20
-2.306966782205286
 10
0.3658933982821964
 20
-2.306966782205286
 10
0.3658933982821964
 20
-2.287966782205295
 10
0.6003933982822219
 20
-2.287966782205295
 42
0.4142135623730847
 10
0.6203933982822037
 20
-2.267966782205284
 10
0.6203933982822037
 20
-2.144966782205294
 42
0.4142135623731412
 10
0.6003933982822219
 20
-2.124966782205284
 10
0.2903933982822195
 20
-2.124966782205284
 42
-0.4142135623730891
 10
0.2503933982821991
 20
-2.084966782205277
 10
0.2503933982821991
 20
-0.7644667822052967
 42
-0.417485751266966
 10
0.2690998357369381
 20
-0.7459679340363508
 42
-0.4174423589703049
 10
0.2883090443743299
 20
-0.7649667822052848
 10
0.2883090443743299
 20
-1.030084268144442
 42
0.4421005955735554
 10
0.3082202507870306
 20
-1.05196678220529
 10
0.3563933982821936
 20
-1.05196678220529
  0
CIRCLE
  5
1C2C
330
1BFB
100
AcDbEntity
  8
Pel_CS-Weatherstrip
100
AcDbCircle
 10
0.3193933982822159
 20
-2.450966782205291
 30
0.0
 40
0.018
  0
CIRCLE
  5
1C2D
102
{ACAD_REACTORS
330
1C30
102
}
330
1BFB
100
AcDbEntity
  8
Pel_CS-Weatherstrip
100
AcDbCircle
 10
0.3193933982822159
 20
-2.325966782205291
 30
0.0
 40
0.018
  0
CIRCLE
  5
1C2E
330
1BFB
100
AcDbEntity
  8
Pel_CS-Weatherstrip
100
AcDbCircle
 10
0.3193933982822159
 20
-2.700966782205291
 30
0.0
 40
0.018
  0
CIRCLE
  5
1C2F
330
1BFB
100
AcDbEntity
  8
Pel_CS-Weatherstrip
100
AcDbCircle
 10
0.3193933982822159
 20
-2.575966782205291
 30
0.0
 40
0.018
  0
HATCH
  5
1C30
330
1BFB
100
AcDbEntity
  8
Pel_CS-Weatherstrip
100
AcDbHatch
 10
0.0
 20
0.0
 30
0.0
210
0.0
220
0.0
230
1.0
  2
SOLID
 70
     1
 71
     1
 91
        1
 92
        1
 93
        1
 72
     2
 10
0.3193933982822159
 20
-2.325966782205291
 40
0.018
 50
0.0
 51
360.0
 73
     1
 97
        1
330
1C2D
 75
     0
 76
     1
 98
        1
 10
-0.3626066017178005
 20
-0.8409667822052746
  0
HATCH
  5
1C31
330
1BFB
100
AcDbEntity
  8
Pel_CS-Weatherstrip
100
AcDbHatch
 10
0.0
 20
0.0
 30
0.0
210
0.0
220
0.0
230
1.0
  2
SOLID
 70
     1
 71
     0
 91
        1
 92
        1
 93
        1
 72
     2
 10
0.3193933982822159
 20
-2.450966782205288
 40
0.018
 50
0.0
 51
360.0
 73
     1
 97
        0
 75
     0
 76
     1
 98
        1
 10
-0.3626066017178005
 20
-0.9659667822052746
  0
HATCH
  5
1C32
330
1BFB
100
AcDbEntity
  8
Pel_CS-Weatherstrip
100
AcDbHatch
 10
0.0
 20
0.0
 30
0.0
210
0.0
220
0.0
230
1.0
  2
SOLID
 70
     1
 71
     0
 91
        1
 92
        1
 93
        1
 72
     2
 10
0.3193933982822159
 20
-2.575966782205288
 40
0.018
 50
0.0
 51
360.0
 73
     1
 97
        0
 75
     0
 76
     1
 98
        1
 10
-0.3626066017178005
 20
-1.090966782205274
  0
HATCH
  5
1C33
330
1BFB
100
AcDbEntity
  8
Pel_CS-Weatherstrip
100
AcDbHatch
 10
0.0
 20
0.0
 30
0.0
210
0.0
220
0.0
230
1.0
  2
SOLID
 70
     1
 71
     0
 91
        1
 92
        1
 93
        1
 72
     2
 10
0.3193933982822159
 20
-2.700966782205288
 40
0.018
 50
0.0
 51
360.0
 73
     1
 97
        0
 75
     0
 76
     1
 98
        1
 10
-0.3626066017178005
 20
-1.215966782205274
  0
CIRCLE
  5
1C34
330
1BFB
100
AcDbEntity
  8
Pel_CS-Weatherstrip
100
AcDbCircle
 10
0.3193933982822159
 20
-2.950966782205291
 30
0.0
 40
0.018
  0
CIRCLE
  5
1C35
330
1BFB
100
AcDbEntity
  8
Pel_CS-Weatherstrip
100
AcDbCircle
 10
0.3193933982822159
 20
-2.825966782205291
 30
0.0
 40
0.018
  0
HATCH
  5
1C36
330
1BFB
100
AcDbEntity
  8
Pel_CS-Weatherstrip
100
AcDbHatch
 10
0.0
 20
0.0
 30
0.0
210
0.0
220
0.0
230
1.0
  2
SOLID
 70
     1
 71
     0
 91
        1
 92
        1
 93
        1
 72
     2
 10
0.3193933982822159
 20
-2.825966782205288
 40
0.018
 50
0.0
 51
360.0
 73
     1
 97
        0
 75
     0
 76
     1
 98
        1
 10
-0.3626066017178005
 20
-1.340966782205274
  0
HATCH
  5
1C37
330
1BFB
100
AcDbEntity
  8
Pel_CS-Weatherstrip
100
AcDbHatch
 10
0.0
 20
0.0
 30
0.0
210
0.0
220
0.0
230
1.0
  2
SOLID
 70
     1
 71
     0
 91
        1
 92
        1
 93
        1
 72
     2
 10
0.3193933982822159
 20
-2.950966782205288
 40
0.018
 50
0.0
 51
360.0
 73
     1
 97
        0
 75
     0
 76
     1
 98
        1
 10
-0.3626066017178005
 20
-1.465966782205274
  0
CIRCLE
  5
1C38
330
1BFB
100
AcDbEntity
  8
Pel_CS-Weatherstrip
100
AcDbCircle
 10
0.3193933982822159
 20
-3.200966782205291
 30
0.0
 40
0.018
  0
CIRCLE
  5
1C39
330
1BFB
100
AcDbEntity
  8
Pel_CS-Weatherstrip
100
AcDbCircle
 10
0.3193933982822159
 20
-3.075966782205291
 30
0.0
 40
0.018
  0
HATCH
  5
1C3A
330
1BFB
100
AcDbEntity
  8
Pel_CS-Weatherstrip
100
AcDbHatch
 10
0.0
 20
0.0
 30
0.0
210
0.0
220
0.0
230
1.0
  2
SOLID
 70
     1
 71
     0
 91
        1
 92
        1
 93
        1
 72
     2
 10
0.3193933982822159
 20
-3.075966782205288
 40
0.018
 50
0.0
 51
360.0
 73
     1
 97
        0
 75
     0
 76
     1
 98
        1
 10
-0.3626066017178005
 20
-1.590966782205274
  0
HATCH
  5
1C3B
330
1BFB
100
AcDbEntity
  8
Pel_CS-Weatherstrip
100
AcDbHatch
 10
0.0
 20
0.0
 30
0.0
210
0.0
220
0.0
230
1.0
  2
SOLID
 70
     1
 71
     0
 91
        1
 92
        1
 93
        1
 72
     2
 10
0.3193933982822159
 20
-3.200966782205288
 40
0.018
 50
0.0
 51
360.0
 73
     1
 97
        0
 75
     0
 76
     1
 98
        1
 10
-0.3626066017178005
 20
-1.715966782205274
  0
CIRCLE
  5
1C3C
330
1BFB
100
AcDbEntity
  8
Pel_CS-Weatherstrip
100
AcDbCircle
 10
0.3193933982822159
 20
-3.450966782205291
 30
0.0
 40
0.018
  0
CIRCLE
  5
1C3D
330
1BFB
100
AcDbEntity
  8
Pel_CS-Weatherstrip
100
AcDbCircle
 10
0.3193933982822159
 20
-3.325966782205291
 30
0.0
 40
0.018
  0
HATCH
  5
1C3E
330
1BFB
100
AcDbEntity
  8
Pel_CS-Weatherstrip
100
AcDbHatch
 10
0.0
 20
0.0
 30
0.0
210
0.0
220
0.0
230
1.0
  2
SOLID
 70
     1
 71
     0
 91
        1
 92
        1
 93
        1
 72
     2
 10
0.3193933982822159
 20
-3.325966782205288
 40
0.018
 50
0.0
 51
360.0
 73
     1
 97
        0
 75
     0
 76
     1
 98
        1
 10
-0.3626066017178005
 20
-1.840966782205274
  0
HATCH
  5
1C3F
330
1BFB
100
AcDbEntity
  8
Pel_CS-Weatherstrip
100
AcDbHatch
 10
0.0
 20
0.0
 30
0.0
210
0.0
220
0.0
230
1.0
  2
SOLID
 70
     1
 71
     0
 91
        1
 92
        1
 93
        1
 72
     2
 10
0.3193933982822159
 20
-3.450966782205288
 40
0.018
 50
0.0
 51
360.0
 73
     1
 97
        0
 75
     0
 76
     1
 98
        1
 10
-0.3626066017178005
 20
-1.965966782205274
  0
CIRCLE
  5
1C40
330
1BFB
100
AcDbEntity
  8
Pel_CS-Weatherstrip
100
AcDbCircle
 10
0.3193933982822159
 20
-3.575966782205291
 30
0.0
 40
0.018
  0
HATCH
  5
1C41
330
1BFB
100
AcDbEntity
  8
Pel_CS-Weatherstrip
100
AcDbHatch
 10
0.0
 20
0.0
 30
0.0
210
0.0
220
0.0
230
1.0
  2
SOLID
 70
     1
 71
     0
 91
        1
 92
        1
 93
        1
 72
     2
 10
0.3193933982822159
 20
-3.575966782205288
 40
0.018
 50
0.0
 51
360.0
 73
     1
 97
        0
 75
     0
 76
     1
 98
        1
 10
-0.3626066017178005
 20
-2.090966782205274
  0
LWPOLYLINE
  5
1C42
330
1BFB
100
AcDbEntity
  8
Pel_Clad
100
AcDbPolyline
 90
       29
 70
     1
 43
0.0
 10
0.6443933982822046
 20
-1.051966782205276
 10
0.6925665457773676
 20
-1.051966782205276
 42
0.4421005955734904
 10
0.7124777521901251
 20
-1.030084268144442
 10
0.7124777521901251
 20
-0.7649667822052848
 42
-0.4174423589703208
 10
0.7316869608274601
 20
-0.7459679340363508
 42
-0.4174857512669492
 10
0.7503933982821991
 20
-0.7644667822052825
 10
0.7503933982821991
 20
-2.084966782205292
 42
-0.4142135623730885
 10
0.7103933982821787
 20
-2.124966782205284
 10
0.6783933982821964
 20
-2.124966782205284
 42
0.4142135623731344
 10
0.6583933982822146
 20
-2.144966782205294
 10
0.6583933982822146
 20
-2.285966782205285
 42
-0.4142135623730889
 10
0.6183933982821941
 20
-2.325966782205291
 10
0.3658933982821964
 20
-2.325966782205291
 42
-1.0
 10
0.3658933982821964
 20
-2.268966782205289
 10
0.4953933982822037
 20
-2.268966782205289
 10
0.4953933982822037
 20
-2.287966782205295
 10
0.3658933982821964
 20
-2.287966782205295
 42
1.0
 10
0.3658933982821964
 20
-2.306966782205286
 10
0.6193933982822273
 20
-2.306966782205286
 42
0.4142135623730864
 10
0.6393933982822091
 20
-2.28696678220529
 10
0.6393933982822091
 20
-2.145966782205285
 42
-0.4142135623730826
 10
0.6793933982822296
 20
-2.105966782205292
 10
0.7113933982822119
 20
-2.105966782205292
 42
0.4142135623730822
 10
0.7313933982821937
 20
-2.085966782205282
 10
0.7313933982821937
 20
-1.035637684623928
 10
0.7313933982821937
 20
-0.7649667822052848
 10
0.7313933982821937
 20
-1.035637684623928
 42
-0.3868658026623807
 10
0.6925665457773676
 20
-1.070966782205282
 10
0.6443933982822046
 20
-1.070966782205282
  0
CIRCLE
  5
1C43
330
1BFB
100
AcDbEntity
  8
Pel_CS-Weatherstrip
100
AcDbCircle
 10
0.3193933982822159
 20
-3.825966782205291
 30
0.0
 40
0.018
  0
CIRCLE
  5
1C44
330
1BFB
100
AcDbEntity
  8
Pel_CS-Weatherstrip
100
AcDbCircle
 10
0.3193933982822159
 20
-3.700966782205291
 30
0.0
 40
0.018
  0
HATCH
  5
1C45
330
1BFB
100
AcDbEntity
  8
Pel_CS-Weatherstrip
100
AcDbHatch
 10
0.0
 20
0.0
 30
0.0
210
0.0
220
0.0
230
1.0
  2
SOLID
 70
     1
 71
     0
 91
        1
 92
        1
 93
        1
 72
     2
 10
0.3193933982822159
 20
-3.700966782205288
 40
0.018
 50
0.0
 51
360.0
 73
     1
 97
        0
 75
     0
 76
     1
 98
        1
 10
-0.3626066017178005
 20
-2.215966782205274
  0
HATCH
  5
1C46
330
1BFB
100
AcDbEntity
  8
Pel_CS-Weatherstrip
100
AcDbHatch
 10
0.0
 20
0.0
 30
0.0
210
0.0
220
0.0
230
1.0
  2
SOLID
 70
     1
 71
     0
 91
        1
 92
        1
 93
        1
 72
     2
 10
0.3193933982822159
 20
-3.825966782205288
 40
0.018
 50
0.0
 51
360.0
 73
     1
 97
        0
 75
     0
 76
     1
 98
        1
 10
-0.3626066017178005
 20
-2.340966782205274
  0
CIRCLE
  5
1C47
330
1BFB
100
AcDbEntity
  8
Pel_CS-Weatherstrip
100
AcDbCircle
 10
0.3193933982822159
 20
-3.950966782205291
 30
0.0
 40
0.018
  0
HATCH
  5
1C48
330
1BFB
100
AcDbEntity
  8
Pel_CS-Weatherstrip
100
AcDbHatch
 10
0.0
 20
0.0
 30
0.0
210
0.0
220
0.0
230
1.0
  2
SOLID
 70
     1
 71
     0
 91
        1
 92
        1
 93
        1
 72
     2
 10
0.3193933982822159
 20
-3.950966782205288
 40
0.018
 50
0.0
 51
360.0
 73
     1
 97
        0
 75
     0
 76
     1
 98
        1
 10
-0.3626066017178005
 20
-2.465966782205274
  0
LWPOLYLINE
  5
1C49
330
1BFB
100
AcDbEntity
  8
Pel_CS-Sealant
100
AcDbPolyline
 90
       30
 70
     1
 43
0.0
 10
0.5605937287370875
 20
-2.256063476543967
 10
0.5870437485369689
 20
-2.255427003307055
 10
0.5818239470211531
 20
-2.229489341158522
 10
0.6044120994799905
 20
-2.215713129266585
 10
0.5869227876903178
 20
-2.195860355689088
 10
0.5995965955982623
 20
-2.172635729993327
 10
0.5745240205049527
 20
-2.164187379634473
 10
0.5738875472680221
 20
-2.137737359834595
 10
0.5479498851195093
 20
-2.142957161350413
 10
0.5369777936405172
 20
-2.124966782205287
 10
0.5289545683447923
 20
-2.124966782205287
 10
0.5143208996500821
 20
-2.137858320681242
 10
0.4910962739543088
 20
-2.125184512773309
 10
0.4826479235954757
 20
-2.150257087866606
 10
0.4561979037955748
 20
-2.150893561103529
 10
0.4614177053113889
 20
-2.176831223252058
 10
0.438829552852555
 20
-2.190607435143999
 10
0.4563188646422259
 20
-2.210460208721489
 10
0.4952202698294439
 20
-2.206111527722999
 42
-0.1989123673796589
 10
0.5008659680348835
 20
-2.186579115510941
 42
-1.0
 10
0.5423756842976691
 20
-2.219741448899636
 42
-0.6681786379193064
 10
0.4952202698294439
 20
-2.206111527722999
 10
0.4563188646422259
 20
-2.210460208721489
 10
0.4436450567342903
 20
-2.23368483441725
 10
0.4687176318276052
 20
-2.242133184776111
 10
0.4693541050645216
 20
-2.268583204575985
 10
0.4952917672130415
 20
-2.263363403060164
 10
0.5090679791049837
 20
-2.285951555519002
 10
0.528920752682474
 20
-2.268462243729334
 10
0.5521453783782331
 20
-2.281136051637272
  0
CIRCLE
  5
1F22
330
1BFB
100
AcDbEntity
  8
Pel_CS-Weatherstrip
100
AcDbCircle
 10
0.3193933982822159
 20
-4.200966782205291
 30
0.0
 40
0.018
  0
CIRCLE
  5
1F23
330
1BFB
100
AcDbEntity
  8
Pel_CS-Weatherstrip
100
AcDbCircle
 10
0.3193933982822159
 20
-4.075966782205291
 30
0.0
 40
0.018
  0
HATCH
  5
1F24
330
1BFB
100
AcDbEntity
  8
Pel_CS-Weatherstrip
100
AcDbHatch
 10
0.0
 20
0.0
 30
0.0
210
0.0
220
0.0
230
1.0
  2
SOLID
 70
     1
 71
     0
 91
        1
 92
        1
 93
        1
 72
     2
 10
0.3193933982822159
 20
-4.075966782205288
 40
0.018
 50
0.0
 51
360.0
 73
     1
 97
        0
 75
     0
 76
     1
 98
        1
 10
-0.3626066017178005
 20
-2.590966782205274
  0
HATCH
  5
1F25
330
1BFB
100
AcDbEntity
  8
Pel_CS-Weatherstrip
100
AcDbHatch
 10
0.0
 20
0.0
 30
0.0
210
0.0
220
0.0
230
1.0
  2
SOLID
 70
     1
 71
     0
 91
        1
 92
        1
 93
        1
 72
     2
 10
0.3193933982822159
 20
-4.200966782205288
 40
0.018
 50
0.0
 51
360.0
 73
     1
 97
        0
 75
     0
 76
     1
 98
        1
 10
-0.3626066017178005
 20
-2.715966782205274
  0
CIRCLE
  5
1F26
330
1BFB
100
AcDbEntity
  8
Pel_CS-Weatherstrip
100
AcDbCircle
 10
0.3193933982822159
 20
-4.450966782205291
 30
0.0
 40
0.018
  0
CIRCLE
  5
1F27
330
1BFB
100
AcDbEntity
  8
Pel_CS-Weatherstrip
100
AcDbCircle
 10
0.3193933982822159
 20
-4.325966782205291
 30
0.0
 40
0.018
  0
HATCH
  5
1F28
330
1BFB
100
AcDbEntity
  8
Pel_CS-Weatherstrip
100
AcDbHatch
 10
0.0
 20
0.0
 30
0.0
210
0.0
220
0.0
230
1.0
  2
SOLID
 70
     1
 71
     0
 91
        1
 92
        1
 93
        1
 72
     2
 10
0.3193933982822159
 20
-4.325966782205288
 40
0.018
 50
0.0
 51
360.0
 73
     1
 97
        0
 75
     0
 76
     1
 98
        1
 10
-0.3626066017178005
 20
-2.840966782205274
  0
HATCH
  5
1F29
330
1BFB
100
AcDbEntity
  8
Pel_CS-Weatherstrip
100
AcDbHatch
 10
0.0
 20
0.0
 30
0.0
210
0.0
220
0.0
230
1.0
  2
SOLID
 70
     1
 71
     0
 91
        1
 92
        1
 93
        1
 72
     2
 10
0.3193933982822159
 20
-4.450966782205288
 40
0.018
 50
0.0
 51
360.0
 73
     1
 97
        0
 75
     0
 76
     1
 98
        1
 10
-0.3626066017178005
 20
-2.965966782205274
  0
CIRCLE
  5
1F2A
330
1BFB
100
AcDbEntity
  8
Pel_CS-Weatherstrip
100
AcDbCircle
 10
0.3193933982822159
 20
-4.700966782205291
 30
0.0
 40
0.018
  0
CIRCLE
  5
1F2B
330
1BFB
100
AcDbEntity
  8
Pel_CS-Weatherstrip
100
AcDbCircle
 10
0.3193933982822159
 20
-4.575966782205291
 30
0.0
 40
0.018
  0
HATCH
  5
1F2C
330
1BFB
100
AcDbEntity
  8
Pel_CS-Weatherstrip
100
AcDbHatch
 10
0.0
 20
0.0
 30
0.0
210
0.0
220
0.0
230
1.0
  2
SOLID
 70
     1
 71
     0
 91
        1
 92
        1
 93
        1
 72
     2
 10
0.3193933982822159
 20
-4.575966782205288
 40
0.018
 50
0.0
 51
360.0
 73
     1
 97
        0
 75
     0
 76
     1
 98
        1
 10
-0.3626066017178005
 20
-3.090966782205274
  0
HATCH
  5
1F2D
330
1BFB
100
AcDbEntity
  8
Pel_CS-Weatherstrip
100
AcDbHatch
 10
0.0
 20
0.0
 30
0.0
210
0.0
220
0.0
230
1.0
  2
SOLID
 70
     1
 71
     0
 91
        1
 92
        1
 93
        1
 72
     2
 10
0.3193933982822159
 20
-4.700966782205288
 40
0.018
 50
0.0
 51
360.0
 73
     1
 97
        0
 75
     0
 76
     1
 98
        1
 10
-0.3626066017178005
 20
-3.215966782205274
  0
CIRCLE
  5
1F2E
330
1BFB
100
AcDbEntity
  8
Pel_CS-Weatherstrip
100
AcDbCircle
 10
0.3193933982822159
 20
-4.825966782205291
 30
0.0
 40
0.018
  0
HATCH
  5
1F2F
330
1BFB
100
AcDbEntity
  8
Pel_CS-Weatherstrip
100
AcDbHatch
 10
0.0
 20
0.0
 30
0.0
210
0.0
220
0.0
230
1.0
  2
SOLID
 70
     1
 71
     0
 91
        1
 92
        1
 93
        1
 72
     2
 10
0.3193933982822159
 20
-4.825966782205288
 40
0.018
 50
0.0
 51
360.0
 73
     1
 97
        0
 75
     0
 76
     1
 98
        1
 10
-0.3626066017178005
 20
-3.340966782205274
  0
CIRCLE
  5
1F31
330
1BFB
100
AcDbEntity
  8
Pel_CS-Weatherstrip
100
AcDbCircle
 10
0.3193933982822159
 20
-4.950966782205291
 30
0.0
 40
0.018
  0
HATCH
  5
1F32
330
1BFB
100
AcDbEntity
  8
Pel_CS-Weatherstrip
100
AcDbHatch
 10
0.0
 20
0.0
 30
0.0
210
0.0
220
0.0
230
1.0
  2
SOLID
 70
     1
 71
     0
 91
        1
 92
        1
 93
        1
 72
     2
 10
0.3193933982822159
 20
-4.950966782205288
 40
0.018
 50
0.0
 51
360.0
 73
     1
 97
        0
 75
     0
 76
     1
 98
        1
 10
-0.3626066017178005
 20
-3.465966782205274
  0
ENDBLK
  5
1C4A
330
1BFB
100
AcDbEntity
  8
0
100
AcDbBlockEnd
  0
BLOCK
  5
1C4E
330
1C4B
100
AcDbEntity
  8
0
100
AcDbBlockBegin
  2
TSE 10 SD SV
 70
     0
 10
0.0
 20
0.0
 30
0.0
  3
TSE 10 SD SV
  1

  0
POINT
  5
1C4F
330
1C4B
100
AcDbEntity
  8
Pel_Points
100
AcDbPoint
 10
0.0
 20
0.0000000000000036
 30
0.0
  0
LWPOLYLINE
  5
1C50
330
1C4B
100
AcDbEntity
  8
Pel_CS-Cross Section
 62
     4
100
AcDbPolyline
 90
      129
 70
     1
 43
0.0
 10
1.429957603986359
 20
-1.125
 10
1.349957603986357
 20
-1.125
 10
1.349957603986357
 20
0.0
 10
0.0650000000000013
 20
0.0
 10
0.0649999999999977
 20
0.0799999999999983
 10
0.1169615242270687
 20
0.1099999999999994
 10
0.1419615242270709
 20
0.1099999999999994
 10
0.1419615242270638
 20
0.0799999999999983
 10
0.2800000000000011
 20
0.0799999999999983
 10
0.2799999999999976
 20
0.2349999999999994
 10
0.0
 20
0.2349999999999994
 10
0.0
 20
0.9380000000000023
 10
0.1999999999999993
 20
0.9380000000000023
 10
0.1999999999999993
 20
0.4380000000000024
 10
0.8350000000000008
 20
0.4380000000000024
 10
0.8350000000000008
 20
0.6280000000000002
 10
0.8000000000000007
 20
0.6280000000000002
 10
0.8000000000000007
 20
0.9380000000000023
 10
0.8900000000000005
 20
0.9380000000000023
 42
-1.0
 10
0.8900000000000005
 20
0.8780000000000001
 10
0.8599999999999994
 20
0.8779999999999965
 10
0.8599999999999994
 20
0.6879999999999989
 10
1.054999999999999
 20
0.6879999999999989
 10
1.054999999999999
 20
0.8379999999999974
 10
1.112735026918961
 20
0.9379999999999988
 10
2.15
 20
0.9379999999999952
 10
2.15
 20
1.103000000000001
 10
2.114999999999998
 20
1.103000000000001
 10
2.074999999999993
 20
1.063000000000002
 10
2.05
 20
1.063000000000002
 10
2.049999999999998
 20
1.563000000000002
 10
2.599999999999997
 20
1.563000000000002
 42
-0.4142135623731037
 10
2.629999999999999
 20
1.533000000000001
 10
2.629999999999997
 20
0.6822820323027515
 10
2.669999999999998
 20
0.6130000000000031
 10
2.669999999999996
 20
0.588000000000001
 10
2.629999999999999
 20
0.588000000000001
 10
2.629999999999999
 20
0.463000000000001
 10
4.269999999999999
 20
0.463000000000001
 10
4.269999999999997
 20
0.588000000000001
 10
4.230000000000002
 20
0.588000000000001
 10
4.230000000000002
 20
0.6130000000000031
 10
4.269999999999999
 20
0.6822820323027515
 10
4.269999999999997
 20
1.413
 10
4.230000000000002
 20
1.413
 10
4.23
 20
1.533000000000001
 42
-0.4142135623730863
 10
4.259999999999998
 20
1.562999999999998
 10
4.499999999999994
 20
1.563000000000002
 10
4.499999999999998
 20
0.2349999999999994
 10
4.220000000000004
 20
0.2349999999999994
 10
4.22
 20
0.0901420310525723
 10
4.144999999999997
 20
0.0901420310525723
 10
4.145000000000003
 20
0.2349999999999994
 42
-0.4142135623731037
 10
4.220000000000004
 20
0.3100000000000023
 10
4.419999999999998
 20
0.3100000000000023
 10
4.419999999999996
 20
0.3829999999999991
 10
4.404899421459155
 20
0.3829999999999991
 10
4.404899421459155
 20
0.4429999999999979
 10
4.419999999999999
 20
0.4429999999999979
 10
4.419999999999996
 20
1.483
 10
4.33
 20
1.483
 10
4.33
 20
0.4429999999999979
 10
4.404899421459155
 20
0.4429999999999979
 10
4.404899421459155
 20
0.3829999999999991
 10
3.509
 20
0.3829999999999991
 10
3.509000000000005
 20
0.0901420310525723
 10
3.448999999999999
 20
0.0901420310525723
 10
3.449000000000003
 20
0.3829999999999991
 10
2.610000000000001
 20
0.3829999999999991
 10
2.609999999999997
 20
0.0901420310525723
 10
2.549999999999997
 20
0.0901420310525723
 10
2.55
 20
1.483
 10
2.130000000000002
 20
1.483
 10
2.129999999999997
 20
1.178
 10
2.150000000000002
 20
1.178000000000004
 42
-0.4142135623730822
 10
2.224999999999997
 20
1.103000000000005
 10
2.224999999999997
 20
0.9329999999999998
 42
-0.414213562373109
 10
2.149999999999998
 20
0.8579999999999969
 10
2.019999999999997
 20
0.8579999999999969
 10
2.020000000000003
 20
0.0901420310525723
 10
1.96
 20
0.0901420310525723
 10
1.96
 20
0.8579999999999969
 10
1.153149545762236
 20
0.8579999999999969
 10
1.129999999999995
 20
0.8179038105676639
 10
1.130000000000002
 20
0.0901420310525723
 10
1.07
 20
0.0901420310525723
 10
1.069999999999996
 20
0.6129999999999996
 10
0.9100000000000036
 20
0.6129999999999996
 10
0.9100000000000001
 20
0.4380000000000024
 42
-0.4142135623730951
 10
0.8350000000000008
 20
0.3629999999999995
 10
0.3550000000000004
 20
0.3629999999999995
 10
0.3550000000000004
 20
0.3530621331517025
 10
0.2950000000000017
 20
0.3530621331517025
 10
0.2950000000000017
 20
0.3629999999999995
 10
0.2149999999999999
 20
0.3629999999999995
 42
-0.4142135623730966
 10
0.1400000000000006
 20
0.4380000000000024
 10
0.139999999999997
 20
0.8580000000000005
 10
0.0800000000000019
 20
0.8580000000000005
 10
0.0799999999999983
 20
0.3099999999999987
 10
0.2950000000000017
 20
0.3099999999999987
 10
0.2950000000000017
 20
0.3530621331517025
 10
0.3550000000000004
 20
0.3530621331517025
 10
0.3550000000000004
 20
0.0800000000000019
 10
1.07
 20
0.0800000000000019
 10
1.07
 20
0.0901420310525723
 10
1.130000000000006
 20
0.0901420310525723
 10
1.129999999999999
 20
0.0800000000000019
 10
1.96
 20
0.0799999999999983
 10
1.96
 20
0.0901420310525723
 10
2.019999999999999
 20
0.0901420310525723
 10
2.020000000000001
 20
0.0799999999999983
 10
2.550000000000002
 20
0.0799999999999983
 10
2.550000000000004
 20
0.0901420310525723
 10
2.610000000000001
 20
0.0901420310525723
 10
2.609999999999997
 20
0.0799999999999983
 10
3.448999999999999
 20
0.0799999999999983
 10
3.449000000000001
 20
0.0901420310525723
 10
3.509000000000003
 20
0.0901420310525723
 10
3.509000000000003
 20
0.0799999999999983
 10
4.144999999999999
 20
0.0799999999999983
 10
4.144999999999997
 20
0.0901420310525723
 10
4.220000000000004
 20
0.0901420310525723
 10
4.22
 20
0.0800000000000019
 10
4.358038475772936
 20
0.0800000000000019
 10
4.358038475772936
 20
0.1099999999999994
 10
4.383038475772931
 20
0.1099999999999994
 10
4.435000000000004
 20
0.0800000000000019
 10
4.435
 20
0.0
 10
1.429957603986363
 20
0.0
1001
AcDbBlockRepETag
1070
     1
1071
        2
1005
1C50
  0
LWPOLYLINE
  5
1C51
330
1C4B
100
AcDbEntity
  8
Pel_CS-Weatherstrip
100
AcDbPolyline
 90
        8
 70
     1
 43
0.0
 10
3.377119290024834
 20
1.210556247844277
 42
-1.0
 10
3.589119290024836
 20
1.210556247844316
 10
3.568119290024835
 20
1.074556247844316
 10
3.585908465696665
 20
1.071809389836165
 10
3.607110982726172
 20
1.209120928693959
 42
1.011642928794339
 10
3.359127597323524
 20
1.20912092869381
 10
3.380330114353011
 20
1.071809389836165
 10
3.398119290024833
 20
1.074556247844316
1001
AcDbBlockRepETag
1070
     1
1071
       23
1005
1C51
  0
LWPOLYLINE
  5
1C52
330
1C4B
100
AcDbEntity
  8
Pel_CS-Cross Section
 62
     4
100
AcDbPolyline
 90
       22
 70
     1
 43
0.0
 10
3.452119290024832
 20
1.121815051097822
 10
3.452119290024834
 20
0.9420617067050791
 10
2.725527450572624
 20
0.8891310290833018
 42
0.3930714131828159
 10
2.669886771830102
 20
0.8292896026449732
 10
2.6698867718301
 20
0.57132678386699
 10
2.638450042615247
 20
0.57132678386699
 10
2.701958572226104
 20
0.4613267838669906
 10
2.731886771830101
 20
0.4613267838669906
 10
2.731886771830101
 20
0.8274299986196602
 10
3.452119290024834
 20
0.879897413147777
 10
3.452119290024834
 20
0.463000000000001
 10
3.514119290024835
 20
0.463000000000001
 10
3.514119290024837
 20
0.8844139819204528
 10
4.171119290024831
 20
0.9322750413341154
 10
4.171119290024833
 20
0.463000000000001
 10
4.201047489628829
 20
0.463000000000001
 10
4.264556019239686
 20
0.5730000000000004
 10
4.233119290024831
 20
0.573000000000004
 10
4.233119290024831
 20
0.9344260368931465
 42
0.4356765784393732
 10
4.168759968767353
 20
0.9942674633314787
 10
3.514119290024835
 20
0.9465782754777514
 10
3.514119290024819
 20
1.121815051097819
 42
5.894877314404304
1001
AcDbBlockRepETag
1070
     1
1071
       25
1005
1C52
  0
LWPOLYLINE
  5
1C53
330
1C4B
100
AcDbEntity
  8
Pel_CS-Cross Section
 62
     4
100
AcDbPolyline
 90
       16
 70
     1
 43
0.0
 10
0.8002349772858536
 20
0.7841958558996467
 42
0.4142135623730951
 10
0.7682349772858537
 20
0.8161958558996467
 10
0.5342349772858555
 20
0.8161958558996467
 10
0.5342349772858466
 20
0.8988665754009872
 42
3.910976016622828
 10
0.4742349772858621
 20
0.8988665754009907
 10
0.4742349772858532
 20
0.8161958558996467
 10
0.240234977285855
 20
0.8161958558996467
 42
0.4142135623730951
 10
0.2082349772858549
 20
0.7841958558996467
 10
0.2082349772858549
 20
0.4411958558996468
 10
0.2682349772858554
 20
0.4411958558996468
 10
0.2682349772858554
 20
0.7561958558996445
 10
0.740234977285855
 20
0.7561958558996445
 10
0.7402349772858568
 20
0.4411958558996468
 10
0.8002349772858554
 20
0.4411958558996468
 10
0.8002349772858536
 20
0.5521958558996474
 42
1.0
 10
0.8002349772858536
 20
0.6161958558996546
1001
AcDbBlockRepETag
1070
     1
1071
       27
1005
1C53
  0
LWPOLYLINE
  5
1C54
330
1C4B
100
AcDbEntity
  8
Pel_CS-Cross Section
 62
     4
100
AcDbPolyline
 90
       15
 70
     1
 43
0.0
 10
2.866857076183634
 20
2.812999999999902
 10
2.866857076183634
 20
2.724249999999898
 10
2.967719145149146
 20
2.618344827586099
 42
-1.0
 10
2.945995007218073
 20
2.597655172413709
 10
2.821857076183619
 20
2.727999999999894
 10
2.836857076183605
 20
2.742999999999909
 10
2.836857076183605
 20
2.812999999999902
 10
2.773443401098859
 20
2.812999999999902
 42
-0.5343310138307086
 10
2.759581993294659
 20
2.833732484076335
 42
-0.2404623521578165
 10
3.132215680118406
 20
3.4198803855096
 42
-0.9781803082727828
 10
3.147473102968035
 20
3.394017467921713
 10
3.146200661725004
 20
3.393311425494175
 42
0.0133516086578351
 10
3.146910150142332
 20
3.393685140719071
 42
0.2361122684030795
 10
2.791337111878874
 20
2.842999999999904
 10
2.836857076183605
 20
2.842999999999904
 42
-0.414213562373108
1001
AcDbBlockRepETag
1070
     1
1071
       39
1005
1C54
  0
LWPOLYLINE
  5
1C55
330
1C4B
100
AcDbEntity
  8
Pel_CS-Cross Section
 62
     4
100
AcDbPolyline
 90
       73
 70
     1
 43
0.0
 10
2.991857076183634
 20
1.187999999999988
 10
2.796857076183641
 20
1.187999999999988
 42
-0.4142135623730951
 10
2.7168570761836
 20
1.268
 10
2.7168570761836
 20
1.31049999999999
 10
2.766857076183612
 20
1.31049999999999
 10
2.766857076183612
 20
1.268
 10
2.816857076183623
 20
1.268
 10
2.816857076183623
 20
1.478000000000008
 10
2.766857076183612
 20
1.478000000000008
 10
2.766857076183612
 20
1.43549999999999
 10
2.7168570761836
 20
1.43549999999999
 10
2.7168570761836
 20
1.478000000000008
 10
2.7168570761836
 20
2.812999999999988
 10
2.806857076183632
 20
2.812999999999988
 42
-1.0
 10
2.806857076183632
 20
2.753000000000014
 10
2.796857076183641
 20
2.753000000000014
 10
2.796857076183641
 20
2.562999999999988
 10
2.820574096771736
 20
2.562999999999988
 10
2.820574096771736
 20
2.483000000000004
 10
2.796857076183641
 20
2.483000000000004
 10
2.796857076183641
 20
1.842000000000012
 10
2.820574096771736
 20
1.842000000000012
 10
2.820574096771736
 20
1.792000000000001
 10
2.796857076183641
 20
1.792000000000001
 10
2.796857076183641
 20
1.557999999999992
 10
2.816857076183623
 20
1.557999999999992
 42
-0.4142135623731081
 10
2.896857076183607
 20
1.478000000000008
 10
2.896857076183607
 20
1.268
 10
2.991857076183634
 20
1.268
 10
2.991857076183634
 20
1.792000000000001
 10
2.820574096771736
 20
1.792000000000001
 10
2.820574096771736
 20
1.842000000000012
 10
4.120665511853701
 20
1.842000000000012
 10
4.120665511853701
 20
1.792000000000001
 10
3.941857076183623
 20
1.792000000000001
 10
3.941857076183623
 20
1.268
 10
4.136857076183616
 20
1.268
 10
4.136857076183616
 20
1.792000000000001
 10
4.120665511853701
 20
1.792000000000001
 10
4.120665511853701
 20
1.842000000000012
 10
4.136857076183616
 20
1.842000000000012
 10
4.136857076183616
 20
2.733000000000004
 10
4.120665511853701
 20
2.733000000000004
 10
4.120665511853701
 20
2.782999999999987
 10
4.136857076183616
 20
2.782999999999987
 10
4.136857076183616
 20
3.378000000000014
 10
4.026857076183603
 20
3.378000000000014
 10
4.026857076183603
 20
2.782999999999987
 10
4.120665511853701
 20
2.782999999999987
 10
4.120665511853701
 20
2.733000000000004
 10
3.911857076183594
 20
2.733000000000004
 10
3.911857076183594
 20
2.562999999999988
 10
3.831857076183609
 20
2.562999999999988
 10
3.831857076183609
 20
2.733000000000004
 10
3.051857076183637
 20
2.733000000000004
 10
3.051857076183637
 20
2.562999999999988
 10
3.101857076183591
 20
2.562999999999988
 10
3.101857076183591
 20
2.483000000000004
 10
2.820574096771736
 20
2.483000000000004
 10
2.820574096771736
 20
2.562999999999988
 10
2.971857076183596
 20
2.562999999999988
 10
2.971857076183596
 20
2.733000000000004
 42
-0.4142135623730951
 10
3.051857076183637
 20
2.812999999999988
 10
3.9668570761836
 20
2.812999999999988
 10
3.9668570761836
 20
3.437999999999988
 10
4.2168570761836
 20
3.437999999999988
 10
4.2168570761836
 20
1.268
 42
-0.4142135623730951
 10
4.136857076183616
 20
1.187999999999988
 10
3.941857076183623
 20
1.187999999999988
 42
-0.4142135623730951
 10
3.861857076183639
 20
1.268
 10
3.861857076183639
 20
1.762
 10
3.071857076183619
 20
1.762
 10
3.071857076183619
 20
1.268
 42
-0.4142135623730951
1001
AcDbBlockRepETag
1070
     1
1071
       40
1005
1C55
  0
POLYLINE
  5
1C56
330
1C4B
100
AcDbEntity
  8
Pel_CS-Weatherstrip
100
AcDb2dPolyline
 66
     1
 10
0.0
 20
0.0
 30
0.0
1001
AcDbBlockRepETag
1070
     1
1071
       41
1005
1C56
  0
VERTEX
  5
1C57
330
1C56
100
AcDbEntity
  8
Pel_CS-Weatherstrip
100
AcDbVertex
100
AcDb2dVertex
 10
2.775769530261641
 20
1.465141855391408
 30
0.0
  0
VERTEX
  5
1C58
330
1C56
100
AcDbEntity
  8
Pel_CS-Weatherstrip
100
AcDbVertex
100
AcDb2dVertex
 10
2.775769530261641
 20
1.418897265753031
 30
0.0
  0
VERTEX
  5
1C59
330
1C56
100
AcDbEntity
  8
Pel_CS-Weatherstrip
100
AcDbVertex
100
AcDb2dVertex
 10
2.629999999999995
 20
1.457630846916202
 30
0.0
  0
VERTEX
  5
1C5A
330
1C56
100
AcDbEntity
  8
Pel_CS-Weatherstrip
100
AcDbVertex
100
AcDb2dVertex
 10
2.629999999999995
 20
1.429455610262323
 30
0.0
  0
VERTEX
  5
1C5B
330
1C56
100
AcDbEntity
  8
Pel_CS-Weatherstrip
100
AcDbVertex
100
AcDb2dVertex
 10
2.775769530261641
 20
1.418897265753031
 30
0.0
  0
VERTEX
  5
1C5C
330
1C56
100
AcDbEntity
  8
Pel_CS-Weatherstrip
100
AcDbVertex
100
AcDb2dVertex
 10
2.629999999999995
 20
1.40805452460421
 30
0.0
  0
VERTEX
  5
1C5D
330
1C56
100
AcDbEntity
  8
Pel_CS-Weatherstrip
100
AcDbVertex
100
AcDb2dVertex
 10
2.629999999999995
 20
1.377668283501321
 30
0.0
  0
VERTEX
  5
1C5E
330
1C56
100
AcDbEntity
  8
Pel_CS-Weatherstrip
100
AcDbVertex
100
AcDb2dVertex
 10
2.775769530261641
 20
1.418897265753031
 30
0.0
  0
VERTEX
  5
1C5F
330
1C56
100
AcDbEntity
  8
Pel_CS-Weatherstrip
100
AcDbVertex
100
AcDb2dVertex
 10
2.775769530261641
 20
1.336439301249583
 30
0.0
  0
VERTEX
  5
1C60
330
1C56
100
AcDbEntity
  8
Pel_CS-Weatherstrip
100
AcDbVertex
100
AcDb2dVertex
 10
2.629999999999995
 20
1.377668283501321
 30
0.0
  0
VERTEX
  5
1C61
330
1C56
100
AcDbEntity
  8
Pel_CS-Weatherstrip
100
AcDbVertex
100
AcDb2dVertex
 10
2.629999999999995
 20
1.347282042398376
 30
0.0
  0
VERTEX
  5
1C62
330
1C56
100
AcDbEntity
  8
Pel_CS-Weatherstrip
100
AcDbVertex
100
AcDb2dVertex
 10
2.775769530261641
 20
1.336439301249583
 30
0.0
  0
VERTEX
  5
1C63
330
1C56
100
AcDbEntity
  8
Pel_CS-Weatherstrip
100
AcDbVertex
100
AcDb2dVertex
 10
2.629999999999995
 20
1.318301524948026
 30
0.0
  0
VERTEX
  5
1C64
330
1C56
100
AcDbEntity
  8
Pel_CS-Weatherstrip
100
AcDbVertex
100
AcDb2dVertex
 10
2.629999999999995
 20
1.276839754777398
 30
0.0
  0
VERTEX
  5
1C65
330
1C56
100
AcDbEntity
  8
Pel_CS-Weatherstrip
100
AcDbVertex
100
AcDb2dVertex
 10
2.775769530261641
 20
1.336439301249583
 30
0.0
  0
VERTEX
  5
1C66
330
1C56
100
AcDbEntity
  8
Pel_CS-Weatherstrip
100
AcDbVertex
100
AcDb2dVertex
 10
2.775769530261641
 20
1.278364131705245
 30
0.0
  0
VERTEX
  5
1C67
330
1C56
100
AcDbEntity
  8
Pel_CS-Weatherstrip
100
AcDbVertex
100
AcDb2dVertex
 10
2.810769516261643
 20
1.278364131705245
 30
0.0
  0
VERTEX
  5
1C68
330
1C56
100
AcDbEntity
  8
Pel_CS-Weatherstrip
100
AcDbVertex
100
AcDb2dVertex
 10
2.810769516261643
 20
1.465141855391408
 30
0.0
  0
VERTEX
  5
1C69
330
1C56
100
AcDbEntity
  8
0
100
AcDbVertex
100
AcDb2dVertex
 10
2.775769530261641
 20
1.465141855391408
 30
0.0
  0
SEQEND
  5
1C6A
330
1C56
100
AcDbEntity
  8
Pel_CS-Weatherstrip
  0
HATCH
  5
1C6B
330
1C4B
100
AcDbEntity
  8
Pel_CS-Sealant
100
AcDbHatch
 10
0.0
 20
0.0
 30
0.0
210
0.0
220
0.0
230
1.0
  2
DASH
 70
     0
 71
     0
 91
        1
 92
        1
 93
        4
 72
     1
 10
3.310855922766052
 20
3.121191049788848
 11
3.747605922766069
 21
3.121191049788848
 72
     1
 10
3.747605922766069
 20
3.121191049788848
 11
3.747605922766069
 21
3.071500000000014
 72
     1
 10
3.747605922766069
 20
3.071500000000014
 11
3.310855922766052
 21
3.071500000000014
 72
     1
 10
3.310855922766052
 20
3.071500000000014
 11
3.310855922766052
 21
3.121191049788848
 97
        0
 75
     0
 76
     1
 52
30.0
 41
0.15
 77
     0
 78
     1
 53
330.0000000000001
 43
-8.0
 44
0.0
 45
0.0068629763209582
 46
-0.0256129763209582
 79
     2
 49
0.01875
 49
-0.01875
 98
        1
 10
-8.0
 20
0.0
1001
ACAD
1010
0.0
1020
0.0
1030
0.0
1001
AcDbBlockRepETag
1070
     1
1071
       42
1005
1C6B
  0
LWPOLYLINE
  5
1C6C
330
1C4B
100
AcDbEntity
  8
Pel_CS-Sealant
100
AcDbPolyline
 90
        4
 70
     1
 43
0.0
 10
3.310855922766052
 20
3.121191049788848
 10
3.747605922766069
 20
3.121191049788848
 10
3.747605922766069
 20
3.071500000000014
 10
3.310855922766052
 20
3.071500000000014
1001
AcDbBlockRepETag
1070
     1
1071
       43
1005
1C6C
  0
LWPOLYLINE
  5
1C6D
330
1C4B
100
AcDbEntity
  8
Pel_CS-IG
100
AcDbPolyline
 90
        4
 70
     0
 43
0.0
 10
3.154105922766063
 20
4.249999999999992
 10
3.154105922766063
 20
2.938000000000016
 10
3.283105922766083
 20
2.938000000000016
 10
3.283105922766083
 20
4.249999999999992
1001
AcDbBlockRepETag
1070
     1
1071
       44
1005
1C6D
  0
LWPOLYLINE
  5
1C6E
330
1C4B
100
AcDbEntity
  8
Pel_CS-IG
100
AcDbPolyline
 90
        4
 70
     0
 43
0.0
 10
3.775355922766038
 20
4.249999999999992
 10
3.775355922766038
 20
2.938000000000016
 10
3.904355922766058
 20
2.938000000000016
 10
3.904355922766058
 20
4.249999999999992
1001
AcDbBlockRepETag
1070
     1
1071
       45
1005
1C6E
  0
LWPOLYLINE
  5
1C6F
330
1C4B
100
AcDbEntity
  8
Pel_CS-IG
100
AcDbPolyline
 90
       16
 70
     1
 43
0.0
 10
3.754605922766074
 20
3.062500000000028
 10
3.303855922766047
 20
3.062500000000028
 42
-0.4142135623730951
 10
3.294855922766089
 20
3.071500000000014
 10
3.294855922766089
 20
3.353500000000025
 42
-0.4142135623730913
 10
3.303855922766047
 20
3.362500000000011
 10
3.372980922766089
 20
3.362500000000011
 10
3.372980922766089
 20
3.353500000000025
 10
3.303855922766047
 20
3.353500000000025
 10
3.303855922766047
 20
3.071500000000014
 10
3.754605922766074
 20
3.071500000000014
 10
3.754605922766074
 20
3.353500000000025
 10
3.685480922766089
 20
3.353500000000025
 10
3.685480922766089
 20
3.362500000000011
 10
3.754605922766074
 20
3.362500000000011
 42
-0.4142135623730918
 10
3.763605922766089
 20
3.353500000000025
 10
3.763605922766089
 20
3.071500000000014
 42
-0.4142135623730951
1001
AcDbBlockRepETag
1070
     1
1071
       46
1005
1C6F
  0
LWPOLYLINE
  5
1C70
330
1C4B
100
AcDbEntity
  8
Pel_CS-Weatherstrip
100
AcDbPolyline
 90
        4
 70
     1
 43
0.0
 10
3.904355922766058
 20
3.062999999999988
 10
3.9668570761836
 20
3.062999999999988
 10
3.9668570761836
 20
3.437999999999988
 10
3.904355922766058
 20
3.437999999999988
1001
AcDbBlockRepETag
1070
     1
1071
       47
1005
1C70
  0
LWPOLYLINE
  5
1C71
330
1C4B
100
AcDbEntity
  8
Pel_CS-Sealant
100
AcDbPolyline
 90
        5
 70
     1
 43
0.0
 10
3.958934942850476
 20
2.921547325803004
 10
2.896934942892983
 20
2.921547325803004
 10
2.896934942892983
 20
2.871547325805011
 10
2.951934942890773
 20
2.816547325807192
 10
3.958934942850476
 20
2.816547325807192
1001
AcDbBlockRepETag
1070
     1
1071
       48
1005
1C71
  0
LWPOLYLINE
  5
1C72
330
1C4B
100
AcDbEntity
  8
Pel_CS-Hardware
100
AcDbPolyline
 90
       17
 70
     0
 43
0.0
 10
3.616224409242647
 20
1.708405281507253
 10
3.616224409242647
 20
1.280916354648923
 10
3.585224409242528
 20
1.280916354648923
 10
3.585224409242528
 20
1.708405281507253
 10
3.616224409242647
 20
1.708405281507253
 10
3.350014170807071
 20
1.708405281507253
 10
3.381014170807134
 20
1.708405281507253
 10
3.381014170807134
 20
1.280916354648923
 10
3.350014170807071
 20
1.280916354648923
 10
3.350014170807071
 20
1.708405281507253
 10
3.106763073355352
 20
1.708405281507253
 10
3.106763073355352
 20
2.677405281507247
 42
-0.4142135623730951
 10
3.156763073355364
 20
2.727405281507259
 10
3.776763073355368
 20
2.727405281507259
 42
-0.4142135623730951
 10
3.82676307335538
 20
2.677405281507247
 10
3.82676307335538
 20
1.708405281507253
 10
3.616224409242647
 20
1.708405281507253
1001
AcDbBlockRepETag
1070
     1
1071
       49
1005
1C72
  0
LWPOLYLINE
  5
1C73
330
1C4B
100
AcDbEntity
  8
Pel_CS-Hardware
100
AcDbPolyline
 90
        4
 70
     0
 43
0.0
 10
3.464448770306603
 20
2.608383855676578
 42
0.4088008425369511
 10
3.341763073355366
 20
2.483405281507259
 42
1.0
 10
3.591763073355366
 20
2.483405281507259
 42
0.4196466793747206
 10
3.464448939869384
 20
2.608383858816353
 42
0.4196466793747206
1001
AcDbBlockRepETag
1070
     1
1071
       50
1005
1C73
  0
LWPOLYLINE
  5
1C74
330
1C4B
100
AcDbEntity
  8
Pel_CS-Hardware
100
AcDbPolyline
 90
        4
 70
     0
 43
0.0
 10
3.464448770306603
 20
2.108383855676578
 42
0.4088008425369511
 10
3.341763073355366
 20
1.983405281507259
 42
1.0
 10
3.591763073355366
 20
1.983405281507259
 42
0.4196466793747206
 10
3.464448939869384
 20
2.108383858816353
 42
0.4196466793747206
1001
AcDbBlockRepETag
1070
     1
1071
       51
1005
1C74
  0
LWPOLYLINE
  5
1C75
330
1C4B
100
AcDbEntity
  8
Pel_CS-Hardware
100
AcDbPolyline
 90
       19
 70
     0
 43
0.0
 10
0.4102349772858816
 20
0.9744686354032126
 10
0.4102349772858816
 20
0.8494686354032126
 10
0.3602349772858702
 20
0.8494686354032126
 10
0.3602349772858702
 20
1.849468635403212
 10
0.4102349772858816
 20
1.849468635403212
 10
0.4102349772858816
 20
0.9744686354032126
 10
0.4102349772858816
 20
1.724468635403212
 10
0.5042349772858757
 20
1.674468635403201
 10
0.5042349772858757
 20
1.024468635403223
 10
0.5042349772858757
 20
1.674468635403201
 10
0.5982349772858698
 20
1.724468635403212
 10
0.5982349772858698
 20
0.9744686354032126
 10
0.5982349772858698
 20
1.849468635403212
 10
0.6482349772858811
 20
1.849468635403212
 10
0.6482349772858811
 20
0.8494686354032126
 10
0.5982349772858698
 20
0.8494686354032126
 10
0.5982349772858698
 20
0.9744686354032126
 10
0.5042349772858757
 20
1.024468635403223
 10
0.4102349772858816
 20
0.9744686354032126
1001
AcDbBlockRepETag
1070
     1
1071
       52
1005
1C75
  0
LWPOLYLINE
  5
1C76
330
1C4B
100
AcDbEntity
  8
Pel_Clad
100
AcDbPolyline
 90
       25
 70
     1
 43
0.0
 10
0.3602349772858702
 20
1.350656842032179
 10
0.3120618297907072
 20
1.350656842032179
 42
0.3868658026623525
 10
0.2732349772858811
 20
1.315327744450826
 10
0.2732349772858811
 20
1.044656842032196
 10
0.2732349772858811
 20
1.315327744450826
 10
0.2732349772858811
 20
2.365656842032194
 42
-0.4142135623730822
 10
0.2932349772858629
 20
2.385656842032176
 10
0.6032349772858652
 20
2.385656842032176
 42
0.4142135623730948
 10
0.6432349772858857
 20
2.425656842032196
 10
0.6432349772858288
 20
2.546656842032177
 42
0.4142135623730854
 10
0.6032349772858652
 20
2.586656842032198
 10
0.3697349772858729
 20
2.586656842032198
 10
0.3697349772858729
 20
2.567656842032192
 10
0.6042349772858416
 20
2.567656842032192
 42
-0.4142135623730847
 10
0.6242349772858802
 20
2.547656842032182
 10
0.6242349772858802
 20
2.424656842032192
 42
-0.4142135623731412
 10
0.6042349772858416
 20
2.404656842032181
 10
0.2942349772858392
 20
2.404656842032181
 42
0.4142135623730891
 10
0.2542349772858756
 20
2.364656842032189
 10
0.2542349772858756
 20
1.04415684203218
 42
0.417485751266966
 10
0.2729414147405578
 20
1.025657993863262
 42
0.4174423589703049
 10
0.2921506233779496
 20
1.044656842032196
 10
0.2921506233779496
 20
1.309774327971354
 42
-0.4421005955735554
 10
0.3120618297907072
 20
1.331656842032202
 10
0.3602349772858702
 20
1.331656842032202
1001
AcDbBlockRepETag
1070
     1
1071
       53
1005
1C76
  0
LWPOLYLINE
  5
1C77
330
1C4B
100
AcDbEntity
  8
Pel_Clad
100
AcDbPolyline
 90
       29
 70
     1
 43
0.0
 10
0.6482349772858811
 20
1.331656842032174
 10
0.6964081247809873
 20
1.331656842032174
 42
-0.4421005955734904
 10
0.7163193311937448
 20
1.309774327971354
 10
0.7163193311937448
 20
1.044656842032168
 42
0.4174423589703208
 10
0.7355285398311367
 20
1.025657993863262
 42
0.4174857512669492
 10
0.7542349772858757
 20
1.04415684203218
 10
0.7542349772858757
 20
2.364656842032189
 42
0.4142135623730885
 10
0.7142349772858552
 20
2.404656842032181
 10
0.6822349772858729
 20
2.404656842032181
 42
-0.4142135623731344
 10
0.6622349772858343
 20
2.424656842032192
 10
0.6622349772858343
 20
2.565656842032183
 42
0.4142135623730889
 10
0.6222349772858707
 20
2.605656842032175
 10
0.3697349772858729
 20
2.605656842032175
 42
1.0
 10
0.3697349772858729
 20
2.548656842032187
 10
0.4992349772858802
 20
2.548656842032187
 10
0.4992349772858802
 20
2.567656842032192
 10
0.3697349772858729
 20
2.567656842032192
 42
-1.0
 10
0.3697349772858729
 20
2.586656842032198
 10
0.623234977285847
 20
2.586656842032198
 42
-0.4142135623730864
 10
0.6432349772858288
 20
2.566656842032188
 10
0.6432349772858857
 20
2.425656842032196
 42
0.4142135623730826
 10
0.6832349772858493
 20
2.385656842032176
 10
0.7152349772858316
 20
2.385656842032176
 42
-0.4142135623730822
 10
0.7352349772858702
 20
2.365656842032194
 10
0.7352349772858702
 20
1.315327744450826
 10
0.7352349772858702
 20
1.044656842032196
 10
0.7352349772858702
 20
1.315327744450826
 42
0.3868658026623807
 10
0.6964081247809873
 20
1.350656842032179
 10
0.6482349772858811
 20
1.350656842032179
1001
AcDbBlockRepETag
1070
     1
1071
       54
1005
1C77
  0
LINE
  5
1C78
330
1C4B
100
AcDbEntity
  8
0
100
AcDbLine
 10
2.637999441323472
 20
1.40805452460421
 30
0.0
 11
2.637999441323472
 21
1.40805452460421
 31
0.0
1001
AcDbBlockRepETag
1070
     1
1071
       55
1005
1C78
  0
LINE
  5
1C79
330
1C4B
100
AcDbEntity
  8
0
100
AcDbLine
 10
2.637999441323472
 20
1.40805452460421
 30
0.0
 11
2.637999441323472
 21
1.40805452460421
 31
0.0
1001
AcDbBlockRepETag
1070
     1
1071
       56
1005
1C79
  0
LINE
  5
1C7A
330
1C4B
100
AcDbEntity
  8
Pel_CS-Weatherstrip
  6
Continuous
100
AcDbLine
 10
3.760643836999577
 20
3.064825901430992
 30
0.0
 11
3.775355922766038
 21
3.064825901430992
 31
0.0
1001
AcDbBlockRepETag
1070
     1
1071
       57
1005
1C7A
  0
LINE
  5
1C7B
330
1C4B
100
AcDbEntity
  8
Pel_CS-Weatherstrip
  6
Continuous
100
AcDbLine
 10
3.760643836999577
 20
3.360174098569018
 30
0.0
 11
3.775355922766038
 21
3.360174098569018
 31
0.0
1001
AcDbBlockRepETag
1070
     1
1071
       58
1005
1C7B
  0
LINE
  5
1C7C
330
1C4B
100
AcDbEntity
  8
Pel_CS-Weatherstrip
  6
Continuous
100
AcDbLine
 10
3.297818008532544
 20
3.064825901430992
 30
0.0
 11
3.283105922766083
 21
3.064825901430992
 31
0.0
1001
AcDbBlockRepETag
1070
     1
1071
       59
1005
1C7C
  0
LINE
  5
1C7D
330
1C4B
100
AcDbEntity
  8
Pel_CS-Weatherstrip
  6
Continuous
100
AcDbLine
 10
3.297818008532544
 20
3.360174098569018
 30
0.0
 11
3.283105922766083
 21
3.360174098569018
 31
0.0
1001
AcDbBlockRepETag
1070
     1
1071
       60
1005
1C7D
  0
ARC
  5
1C7E
330
1C4B
100
AcDbEntity
  8
Pel_CS-Sealant
100
AcDbCircle
 10
3.529230922766032
 20
1.241563280373441
 30
0.0
 40
1.774198080538652
100
AcDbArc
 50
82.02594628846911
 51
97.97405371153079
1001
AcDbBlockRepETag
1070
     1
1071
       61
1005
1C7E
  0
ARC
  5
1C7F
330
1C4B
100
AcDbEntity
  8
Pel_CS-Sealant
100
AcDbCircle
 10
3.529230922766032
 20
1.241563280373441
 30
0.0
 40
1.714198080538652
100
AcDbArc
 50
81.74492637850992
 51
98.25507362148686
1001
AcDbBlockRepETag
1070
     1
1071
       62
1005
1C7F
  0
ARC
  5
1C80
330
1C4B
100
AcDbEntity
  8
Pel_CS-Sealant
100
AcDbCircle
 10
3.529230922766032
 20
1.241563280373441
 30
0.0
 40
1.734198080538652
100
AcDbArc
 50
81.84078242004725
 51
98.15921757995266
1001
AcDbBlockRepETag
1070
     1
1071
       63
1005
1C80
  0
ARC
  5
1C81
330
1C4B
100
AcDbEntity
  8
Pel_CS-Sealant
100
AcDbCircle
 10
3.529230922766032
 20
1.241563280373441
 30
0.0
 40
1.754198080538652
100
AcDbArc
 50
81.93443050062022
 51
98.06556949937656
1001
AcDbBlockRepETag
1070
     1
1071
       64
1005
1C81
  0
CIRCLE
  5
1C82
330
1C4B
100
AcDbEntity
  8
Pel_CS-Weatherstrip
100
AcDbCircle
 10
0.3232349772858356
 20
2.702156842032195
 30
0.0
 40
0.018
1001
AcDbBlockRepETag
1070
     1
1071
       67
1005
1C82
  0
CIRCLE
  5
1C83
102
{ACAD_REACTORS
330
1C86
102
}
330
1C4B
100
AcDbEntity
  8
Pel_CS-Weatherstrip
100
AcDbCircle
 10
0.3232349772858356
 20
2.577156842032195
 30
0.0
 40
0.018
1001
AcDbBlockRepETag
1070
     1
1071
       68
1005
1C83
  0
CIRCLE
  5
1C84
330
1C4B
100
AcDbEntity
  8
Pel_CS-Weatherstrip
100
AcDbCircle
 10
0.3232349772858356
 20
2.952156842032195
 30
0.0
 40
0.018
1001
AcDbBlockRepETag
1070
     1
1071
       69
1005
1C84
  0
CIRCLE
  5
1C85
330
1C4B
100
AcDbEntity
  8
Pel_CS-Weatherstrip
100
AcDbCircle
 10
0.3232349772858356
 20
2.827156842032195
 30
0.0
 40
0.018
1001
AcDbBlockRepETag
1070
     1
1071
       70
1005
1C85
  0
HATCH
  5
1C86
330
1C4B
100
AcDbEntity
  8
Pel_CS-Weatherstrip
100
AcDbHatch
 10
0.0
 20
0.0
 30
0.0
210
0.0
220
0.0
230
1.0
  2
SOLID
 70
     1
 71
     1
 91
        1
 92
        1
 93
        1
 72
     2
 10
0.3232349772858356
 20
2.577156842032195
 40
0.018
 50
0.0
 51
360.0
 73
     1
 97
        1
330
1C83
 75
     0
 76
     1
 98
        1
 10
-0.3587650227141239
 20
1.092156842032181
1001
AcDbBlockRepETag
1070
     1
1071
       71
1005
1C86
  0
HATCH
  5
1C87
330
1C4B
100
AcDbEntity
  8
Pel_CS-Weatherstrip
100
AcDbHatch
 10
0.0
 20
0.0
 30
0.0
210
0.0
220
0.0
230
1.0
  2
SOLID
 70
     1
 71
     0
 91
        1
 92
        1
 93
        1
 72
     2
 10
0.3232349772858356
 20
2.702156842032195
 40
0.018
 50
0.0
 51
360.0
 73
     0
 97
        0
 75
     0
 76
     1
 98
        1
 10
-0.3587650227141239
 20
1.217156842032181
1001
AcDbBlockRepETag
1070
     1
1071
       72
1005
1C87
  0
HATCH
  5
1C88
330
1C4B
100
AcDbEntity
  8
Pel_CS-Weatherstrip
100
AcDbHatch
 10
0.0
 20
0.0
 30
0.0
210
0.0
220
0.0
230
1.0
  2
SOLID
 70
     1
 71
     0
 91
        1
 92
        1
 93
        1
 72
     2
 10
0.3232349772858356
 20
2.827156842032195
 40
0.018
 50
0.0
 51
360.0
 73
     0
 97
        0
 75
     0
 76
     1
 98
        1
 10
-0.3587650227141239
 20
1.342156842032181
1001
AcDbBlockRepETag
1070
     1
1071
       73
1005
1C88
  0
HATCH
  5
1C89
330
1C4B
100
AcDbEntity
  8
Pel_CS-Weatherstrip
100
AcDbHatch
 10
0.0
 20
0.0
 30
0.0
210
0.0
220
0.0
230
1.0
  2
SOLID
 70
     1
 71
     0
 91
        1
 92
        1
 93
        1
 72
     2
 10
0.3232349772858356
 20
2.952156842032195
 40
0.018
 50
0.0
 51
360.0
 73
     0
 97
        0
 75
     0
 76
     1
 98
        1
 10
-0.3587650227141239
 20
1.467156842032181
1001
AcDbBlockRepETag
1070
     1
1071
       74
1005
1C89
  0
CIRCLE
  5
1C8A
330
1C4B
100
AcDbEntity
  8
Pel_CS-Weatherstrip
100
AcDbCircle
 10
0.3232349772858356
 20
3.202156842032195
 30
0.0
 40
0.018
1001
AcDbBlockRepETag
1070
     1
1071
       75
1005
1C8A
  0
CIRCLE
  5
1C8B
330
1C4B
100
AcDbEntity
  8
Pel_CS-Weatherstrip
100
AcDbCircle
 10
0.3232349772858356
 20
3.077156842032195
 30
0.0
 40
0.018
1001
AcDbBlockRepETag
1070
     1
1071
       76
1005
1C8B
  0
HATCH
  5
1C8C
330
1C4B
100
AcDbEntity
  8
Pel_CS-Weatherstrip
100
AcDbHatch
 10
0.0
 20
0.0
 30
0.0
210
0.0
220
0.0
230
1.0
  2
SOLID
 70
     1
 71
     0
 91
        1
 92
        1
 93
        1
 72
     2
 10
0.3232349772858356
 20
3.077156842032195
 40
0.018
 50
0.0
 51
360.0
 73
     0
 97
        0
 75
     0
 76
     1
 98
        1
 10
-0.3587650227141239
 20
1.592156842032181
1001
AcDbBlockRepETag
1070
     1
1071
       77
1005
1C8C
  0
HATCH
  5
1C8D
330
1C4B
100
AcDbEntity
  8
Pel_CS-Weatherstrip
100
AcDbHatch
 10
0.0
 20
0.0
 30
0.0
210
0.0
220
0.0
230
1.0
  2
SOLID
 70
     1
 71
     0
 91
        1
 92
        1
 93
        1
 72
     2
 10
0.3232349772858356
 20
3.202156842032195
 40
0.018
 50
0.0
 51
360.0
 73
     0
 97
        0
 75
     0
 76
     1
 98
        1
 10
-0.3587650227141239
 20
1.717156842032181
1001
AcDbBlockRepETag
1070
     1
1071
       78
1005
1C8D
  0
CIRCLE
  5
1C8E
330
1C4B
100
AcDbEntity
  8
Pel_CS-Weatherstrip
100
AcDbCircle
 10
0.3232349772858356
 20
3.452156842032195
 30
0.0
 40
0.018
1001
AcDbBlockRepETag
1070
     1
1071
       79
1005
1C8E
  0
CIRCLE
  5
1C8F
330
1C4B
100
AcDbEntity
  8
Pel_CS-Weatherstrip
100
AcDbCircle
 10
0.3232349772858356
 20
3.327156842032195
 30
0.0
 40
0.018
1001
AcDbBlockRepETag
1070
     1
1071
       80
1005
1C8F
  0
HATCH
  5
1C90
330
1C4B
100
AcDbEntity
  8
Pel_CS-Weatherstrip
100
AcDbHatch
 10
0.0
 20
0.0
 30
0.0
210
0.0
220
0.0
230
1.0
  2
SOLID
 70
     1
 71
     0
 91
        1
 92
        1
 93
        1
 72
     2
 10
0.3232349772858356
 20
3.327156842032195
 40
0.018
 50
0.0
 51
360.0
 73
     0
 97
        0
 75
     0
 76
     1
 98
        1
 10
-0.3587650227141239
 20
1.842156842032181
1001
AcDbBlockRepETag
1070
     1
1071
       81
1005
1C90
  0
HATCH
  5
1C91
330
1C4B
100
AcDbEntity
  8
Pel_CS-Weatherstrip
100
AcDbHatch
 10
0.0
 20
0.0
 30
0.0
210
0.0
220
0.0
230
1.0
  2
SOLID
 70
     1
 71
     0
 91
        1
 92
        1
 93
        1
 72
     2
 10
0.3232349772858356
 20
3.452156842032195
 40
0.018
 50
0.0
 51
360.0
 73
     0
 97
        0
 75
     0
 76
     1
 98
        1
 10
-0.3587650227141239
 20
1.967156842032181
1001
AcDbBlockRepETag
1070
     1
1071
       82
1005
1C91
  0
CIRCLE
  5
1C92
330
1C4B
100
AcDbEntity
  8
Pel_CS-Weatherstrip
100
AcDbCircle
 10
0.3232349772858356
 20
3.702156842032195
 30
0.0
 40
0.018
1001
AcDbBlockRepETag
1070
     1
1071
       83
1005
1C92
  0
CIRCLE
  5
1C93
330
1C4B
100
AcDbEntity
  8
Pel_CS-Weatherstrip
100
AcDbCircle
 10
0.3232349772858356
 20
3.577156842032195
 30
0.0
 40
0.018
1001
AcDbBlockRepETag
1070
     1
1071
       84
1005
1C93
  0
HATCH
  5
1C94
330
1C4B
100
AcDbEntity
  8
Pel_CS-Weatherstrip
100
AcDbHatch
 10
0.0
 20
0.0
 30
0.0
210
0.0
220
0.0
230
1.0
  2
SOLID
 70
     1
 71
     0
 91
        1
 92
        1
 93
        1
 72
     2
 10
0.3232349772858356
 20
3.577156842032195
 40
0.018
 50
0.0
 51
360.0
 73
     0
 97
        0
 75
     0
 76
     1
 98
        1
 10
-0.3587650227141239
 20
2.092156842032181
1001
AcDbBlockRepETag
1070
     1
1071
       85
1005
1C94
  0
HATCH
  5
1C95
330
1C4B
100
AcDbEntity
  8
Pel_CS-Weatherstrip
100
AcDbHatch
 10
0.0
 20
0.0
 30
0.0
210
0.0
220
0.0
230
1.0
  2
SOLID
 70
     1
 71
     0
 91
        1
 92
        1
 93
        1
 72
     2
 10
0.3232349772858356
 20
3.702156842032195
 40
0.018
 50
0.0
 51
360.0
 73
     0
 97
        0
 75
     0
 76
     1
 98
        1
 10
-0.3587650227141239
 20
2.217156842032181
1001
AcDbBlockRepETag
1070
     1
1071
       86
1005
1C95
  0
CIRCLE
  5
1C96
330
1C4B
100
AcDbEntity
  8
Pel_CS-Weatherstrip
100
AcDbCircle
 10
0.3232349772858356
 20
3.952156842032195
 30
0.0
 40
0.018
1001
AcDbBlockRepETag
1070
     1
1071
       87
1005
1C96
  0
CIRCLE
  5
1C97
330
1C4B
100
AcDbEntity
  8
Pel_CS-Weatherstrip
100
AcDbCircle
 10
0.3232349772858356
 20
3.827156842032195
 30
0.0
 40
0.018
1001
AcDbBlockRepETag
1070
     1
1071
       88
1005
1C97
  0
HATCH
  5
1C98
330
1C4B
100
AcDbEntity
  8
Pel_CS-Weatherstrip
100
AcDbHatch
 10
0.0
 20
0.0
 30
0.0
210
0.0
220
0.0
230
1.0
  2
SOLID
 70
     1
 71
     0
 91
        1
 92
        1
 93
        1
 72
     2
 10
0.3232349772858356
 20
3.827156842032195
 40
0.018
 50
0.0
 51
360.0
 73
     0
 97
        0
 75
     0
 76
     1
 98
        1
 10
-0.3587650227141239
 20
2.342156842032181
1001
AcDbBlockRepETag
1070
     1
1071
       89
1005
1C98
  0
HATCH
  5
1C99
330
1C4B
100
AcDbEntity
  8
Pel_CS-Weatherstrip
100
AcDbHatch
 10
0.0
 20
0.0
 30
0.0
210
0.0
220
0.0
230
1.0
  2
SOLID
 70
     1
 71
     0
 91
        1
 92
        1
 93
        1
 72
     2
 10
0.3232349772858356
 20
3.952156842032195
 40
0.018
 50
0.0
 51
360.0
 73
     0
 97
        0
 75
     0
 76
     1
 98
        1
 10
-0.3587650227141239
 20
2.467156842032181
1001
AcDbBlockRepETag
1070
     1
1071
       90
1005
1C99
  0
LWPOLYLINE
  5
1C9A
330
1C4B
100
AcDbEntity
  8
Pel_CS-Sealant
100
AcDbPolyline
 90
       30
 70
     1
 43
0.0
 10
0.5644353077407623
 20
2.535753536370865
 10
0.5908853275406436
 20
2.535117063133952
 10
0.5856655260248296
 20
2.50917940098542
 10
0.608253678483667
 20
2.495403189093483
 10
0.5907643666939926
 20
2.475550415515986
 10
0.6034381746019371
 20
2.452325789820225
 10
0.5783655995086292
 20
2.44387743946137
 10
0.5777291262716986
 20
2.417427419661493
 10
0.5517914641231841
 20
2.42264722117731
 10
0.5408193726441937
 20
2.404656842032185
 10
0.5327961473484671
 20
2.404656842032185
 10
0.5181624786537569
 20
2.41754838050814
 10
0.4949378529579854
 20
2.404874572600206
 10
0.4864895025991523
 20
2.429947147693503
 10
0.4600394827992496
 20
2.430583620930427
 10
0.4652592843150636
 20
2.456521283078956
 10
0.4426711318562333
 20
2.470297494970896
 10
0.4601604436459006
 20
2.490150268548386
 10
0.4990618488331187
 20
2.485801587549897
 42
0.1989123673796589
 10
0.5047075470385601
 20
2.466269175337838
 42
1.0
 10
0.5462172633013438
 20
2.499431508726534
 42
0.6681786379193064
 10
0.4990618488331187
 20
2.485801587549897
 10
0.4601604436459006
 20
2.490150268548386
 10
0.4474866357379668
 20
2.513374894244147
 10
0.4725592108312818
 20
2.521823244603009
 10
0.4731956840681982
 20
2.548273264402883
 10
0.4991333462167198
 20
2.543053462887062
 10
0.5129095581086603
 20
2.565641615345899
 10
0.5327623316861505
 20
2.548152303556232
 10
0.5559869573819079
 20
2.560826111464169
1001
AcDbBlockRepETag
1070
     1
1071
      198
1005
1C9A
  0
CIRCLE
  5
1C9B
330
1C4B
100
AcDbEntity
  8
Pel_CS-Weatherstrip
100
AcDbCircle
 10
0.3232349772858356
 20
4.077156842032195
 30
0.0
 40
0.018
1001
AcDbBlockRepETag
1070
     1
1071
       83
1005
1C92
  0
HATCH
  5
1C9C
330
1C4B
100
AcDbEntity
  8
Pel_CS-Weatherstrip
100
AcDbHatch
 10
0.0
 20
0.0
 30
0.0
210
0.0
220
0.0
230
1.0
  2
SOLID
 70
     1
 71
     0
 91
        1
 92
        1
 93
        1
 72
     2
 10
0.3232349772858356
 20
4.077156842032195
 40
0.018
 50
0.0
 51
360.0
 73
     0
 97
        0
 75
     0
 76
     1
 98
        1
 10
-0.3587650227141239
 20
2.592156842032181
1001
AcDbBlockRepETag
1070
     1
1071
       86
1005
1C95
  0
CIRCLE
  5
1C9D
330
1C4B
100
AcDbEntity
  8
Pel_CS-Weatherstrip
100
AcDbCircle
 10
0.3232349772858356
 20
4.202156842032195
 30
0.0
 40
0.018
1001
AcDbBlockRepETag
1070
     1
1071
       88
1005
1C97
  0
HATCH
  5
1C9E
330
1C4B
100
AcDbEntity
  8
Pel_CS-Weatherstrip
100
AcDbHatch
 10
0.0
 20
0.0
 30
0.0
210
0.0
220
0.0
230
1.0
  2
SOLID
 70
     1
 71
     0
 91
        1
 92
        1
 93
        1
 72
     2
 10
0.3232349772858356
 20
4.202156842032195
 40
0.018
 50
0.0
 51
360.0
 73
     0
 97
        0
 75
     0
 76
     1
 98
        1
 10
-0.3587650227141239
 20
2.717156842032181
1001
AcDbBlockRepETag
1070
     1
1071
       89
1005
1C98
  0
ENDBLK
  5
1C9F
330
1C4B
100
AcDbEntity
  8
0
100
AcDbBlockEnd
  0
BLOCK
  5
1CA3
330
1CA0
100
AcDbEntity
  8
0
100
AcDbBlockBegin
  2
TSE 10 SD JV
 70
     0
 10
0.0
 20
0.0
 30
0.0
  3
TSE 10 SD JV
  1

  0
POINT
  5
1CA4
330
1CA0
100
AcDbEntity
  8
Pel_Points
100
AcDbPoint
 10
0.0000000000000015
 20
0.0000000000000002
 30
0.0
 50
89.99999999999998
  0
LINE
  5
1CA5
330
1CA0
100
AcDbEntity
  8
0
100
AcDbLine
 10
2.63799944132347
 20
-1.408054524604209
 30
0.0
 11
2.63799944132347
 21
-1.408054524604209
 31
0.0
  0
LINE
  5
1CA6
330
1CA0
100
AcDbEntity
  8
0
100
AcDbLine
 10
2.63799944132347
 20
-1.408054524604209
 30
0.0
 11
2.63799944132347
 21
-1.408054524604209
 31
0.0
  0
HATCH
  5
1CA7
330
1CA0
100
AcDbEntity
  8
Pel_Hatch
100
AcDbHatch
 10
0.0
 20
0.0
 30
0.0
210
0.0
220
0.0
230
1.0
  2
PLAST
 70
     0
 71
     1
 91
        1
 92
        1
 93
       19
 72
     2
 10
3.057807904473149
 20
-1.327393846287953
 40
0.0479999999999743
 50
-27.76672404073092
 51
0.0000000000424159
 73
     1
 72
     1
 10
3.105807904473122
 20
-1.327393846287917
 11
3.105807904473122
 21
-1.221055938570741
 72
     1
 10
3.105807904473122
 20
-1.221055938570741
 11
4.053564347943334
 21
-1.221055938570769
 72
     1
 10
4.053564347943334
 20
-1.22105593857077
 11
4.053564347943334
 21
-2.578055938570741
 72
     1
 10
4.053564347943334
 20
-2.578055938570741
 11
4.101564347943336
 21
-2.578055938570741
 72
     1
 10
4.101564347943336
 20
-2.578055938570741
 11
4.101564347943336
 21
-1.22105593857077
 72
     2
 10
4.053564347943334
 20
-1.22105593857077
 40
0.0480000000000032
 50
0.0000000000000127
 51
90.00000000000001
 73
     1
 72
     1
 10
4.053564347943334
 20
-1.173055938570768
 11
3.105807904473122
 21
-1.17305593857074
 72
     2
 10
3.105807904473122
 20
-1.221055938570741
 40
0.0480000000000018
 50
90.00000000000001
 51
180.0
 73
     1
 72
     1
 10
3.05780790447312
 20
-1.221055938570742
 11
3.05780790447312
 21
-1.327393846287918
 72
     1
 10
3.05780790447312
 20
-1.327393846287918
 11
2.925091466739784
 21
-1.579467716284681
 72
     2
 10
2.967564347943293
 20
-1.601829611603952
 40
0.047999999999974
 50
152.233275959269
 51
180.0000000000423
 73
     1
 72
     1
 10
2.919564347943319
 20
-1.601829611603988
 11
2.919564347943319
 21
-2.261592648131112
 72
     2
 10
2.967564347943328
 20
-2.261592648131126
 40
0.0480000000000093
 50
179.999999999983
 51
229.0395742083725
 73
     1
 72
     1
 10
2.936098543409455
 20
-2.297840450064994
 11
3.258899618310634
 21
-2.578055938570741
 72
     1
 10
3.258899618310634
 20
-2.578055938570741
 11
3.2903654228445
 21
-2.541808136636887
 72
     1
 10
3.2903654228445
 20
-2.541808136636887
 11
2.967564347943322
 21
-2.261592648131112
 72
     1
 10
2.967564347943321
 20
-2.261592648131112
 11
2.967564347943321
 21
-1.601829611603988
 72
     1
 10
2.967564347943321
 20
-1.601829611603988
 11
3.100280785676657
 21
-1.349755741607224
 97
        1
330
1CA8
 75
     0
 76
     1
 52
315.0
 41
1.0
 77
     0
 78
     3
 53
315.0
 43
10.0
 44
-0.0000000000000015
 45
0.1767766952966369
 46
0.1767766952966369
 79
     0
 53
315.0
 43
10.02209708691209
 44
0.0220970869120818
 45
0.1767766952966369
 46
0.1767766952966369
 79
     0
 53
315.0
 43
10.04419417382417
 44
0.0441941738241652
 45
0.1767766952966369
 46
0.1767766952966369
 79
     0
 98
        1
 10
10.0
 20
-0.0000000000000015
1001
ACAD
1010
0.0
1020
0.0
1030
0.0
  0
LWPOLYLINE
  5
1CA8
102
{ACAD_REACTORS
330
1CA7
102
}
330
1CA0
100
AcDbEntity
  8
Pel_CS-Reinforcement
100
AcDbPolyline
 90
       19
 70
     1
 43
0.0
 10
3.100280785676657
 20
-1.349755741607224
 42
0.121751485986151
 10
3.105807904473122
 20
-1.327393846287917
 10
3.105807904473122
 20
-1.221055938570741
 10
4.053564347943334
 20
-1.22105593857077
 10
4.053564347943334
 20
-2.578055938570741
 10
4.101564347943336
 20
-2.578055938570741
 10
4.101564347943336
 20
-1.22105593857077
 42
0.4142135623730789
 10
4.053564347943334
 20
-1.173055938570768
 10
3.105807904473122
 20
-1.173055938570739
 42
0.4142135623731005
 10
3.05780790447312
 20
-1.221055938570742
 10
3.05780790447312
 20
-1.327393846287918
 10
2.925091466739784
 20
-1.579467716284681
 42
0.1217514859861519
 10
2.919564347943319
 20
-1.601829611603988
 10
2.919564347943319
 20
-2.261592648131112
 42
0.2173021055735763
 10
2.936098543409455
 20
-2.297840450064994
 10
3.258899618310634
 20
-2.578055938570741
 10
3.2903654228445
 20
-2.541808136636887
 10
2.967564347943321
 20
-2.261592648131112
 10
2.967564347943321
 20
-1.601829611603988
  0
LWPOLYLINE
  5
1CA9
330
1CA0
100
AcDbEntity
  8
Pel_CS-Cross Section
 62
     4
100
AcDbPolyline
 90
       46
 70
     1
 43
0.0
 10
2.794451099289288
 20
-1.433055938570759
 10
2.81445109928927
 20
-1.433055938570759
 42
0.4142135623730823
 10
2.894451099289254
 20
-1.353055938570775
 10
2.894451099289254
 20
-1.143055938570767
 10
4.134451099289263
 20
-1.143055938570767
 10
4.134451099289263
 20
-2.60805593857077
 10
4.128992007408838
 20
-2.60805593857077
 10
4.128992007408838
 20
-2.658055938570782
 10
4.134451099289263
 20
-2.658055938570782
 10
4.134451099289266
 20
-3.253055938570752
 10
4.024451099289253
 20
-3.253055938570752
 10
4.024451099289249
 20
-2.658055938570782
 10
4.128992007408838
 20
-2.658055938570782
 10
4.128992007408838
 20
-2.60805593857077
 10
3.049451099289284
 20
-2.60805593857077
 10
3.049451099289284
 20
-2.438055938570754
 42
0.4142135623730835
 10
2.969451099289242
 20
-2.35805593857077
 10
2.801040949422597
 20
-2.35805593857077
 10
2.801040949422598
 20
-2.438055938570754
 10
2.969451099289243
 20
-2.438055938570754
 10
2.969451099289243
 20
-2.60805593857077
 42
0.4142135623730951
 10
3.049451099289284
 20
-2.688055938570754
 10
3.964451099289247
 20
-2.688055938570754
 10
3.964451099289247
 20
-3.313055938570754
 10
4.21445109928925
 20
-3.313055938570754
 10
4.214451099289247
 20
-1.143055938570767
 42
0.4142135623730951
 10
4.134451099289263
 20
-1.063055938570754
 10
2.794451099289288
 20
-1.063055938570754
 42
0.4142135623730951
 10
2.714451099289247
 20
-1.143055938570767
 10
2.714451099289247
 20
-1.185555938570757
 10
2.764451099289258
 20
-1.185555938570757
 10
2.764451099289258
 20
-1.143055938570767
 10
2.81445109928927
 20
-1.143055938570767
 10
2.81445109928927
 20
-1.353055938570775
 10
2.764451099289258
 20
-1.353055938570775
 10
2.764451099289258
 20
-1.310555938570757
 10
2.714451099289247
 20
-1.310555938570757
 10
2.714451099289247
 20
-1.353055938570775
 10
2.714451099289247
 20
-2.688055938570754
 10
2.804451099289279
 20
-2.688055938570754
 42
1.0
 10
2.804451099289279
 20
-2.628055938570752
 10
2.794451099289288
 20
-2.62805593857078
 10
2.794451099289288
 20
-2.438055938570754
 10
2.801040949422598
 20
-2.438055938570754
 10
2.801040949422597
 20
-2.35805593857077
 10
2.794451099289288
 20
-2.35805593857077
  0
LWPOLYLINE
  5
1CAA
330
1CA0
100
AcDbEntity
  8
Pel_CS-Cross Section
 62
     4
100
AcDbPolyline
 90
       15
 70
     1
 43
0.0
 10
2.860227951931504
 20
-2.686715228753654
 10
2.860227951931504
 20
-2.59796522875365
 10
2.961090020897016
 20
-2.492060056339879
 42
1.0
 10
2.939365882965999
 20
-2.471370401167461
 10
2.815227951931488
 20
-2.601715228753646
 10
2.830227951931475
 20
-2.616715228753661
 10
2.830227951931475
 20
-2.686715228753654
 10
2.766814276846729
 20
-2.686715228753654
 42
0.5343310138307086
 10
2.752952869042529
 20
-2.707447712830087
 42
0.2404623521578165
 10
3.125586555866276
 20
-3.293595614263352
 42
0.9781803082727828
 10
3.140843978715905
 20
-3.267732696675465
 10
3.13957153747293
 20
-3.267026654247927
 42
-0.0133516086578351
 10
3.140281025890259
 20
-3.267400369472823
 42
-0.2361122684030795
 10
2.784707987626744
 20
-2.716715228753655
 10
2.830227951931475
 20
-2.716715228753655
 42
0.414213562373108
  0
HATCH
  5
1CAB
330
1CA0
100
AcDbEntity
  8
Pel_CS-Sealant
100
AcDbHatch
 10
0.0
 20
0.0
 30
0.0
210
0.0
220
0.0
230
1.0
  2
DASH
 70
     0
 71
     0
 91
        1
 92
        1
 93
        4
 72
     1
 10
3.304226798513921
 20
-2.994906278542599
 11
3.740976798513939
 21
-2.994906278542599
 72
     1
 10
3.740976798513939
 20
-2.994906278542599
 11
3.740976798513939
 21
-2.945215228753766
 72
     1
 10
3.740976798513939
 20
-2.945215228753766
 11
3.304226798513921
 21
-2.945215228753766
 72
     1
 10
3.304226798513921
 20
-2.945215228753766
 11
3.304226798513921
 21
-2.994906278542599
 97
        0
 75
     0
 76
     1
 52
30.0
 41
0.15
 77
     0
 78
     1
 53
29.99999999999998
 43
-8.006629124252127
 44
0.1262847712462462
 45
0.0068629763209582
 46
0.0256129763209582
 79
     2
 49
0.01875
 49
-0.01875
 98
        1
 10
-8.006629124252127
 20
0.1262847712462462
1001
ACAD
1010
0.0
1020
0.0
1030
0.0
  0
LWPOLYLINE
  5
1CAC
330
1CA0
100
AcDbEntity
  8
Pel_CS-Sealant
100
AcDbPolyline
 90
        4
 70
     1
 43
0.0
 10
3.304226798513921
 20
-2.994906278542599
 10
3.740976798513939
 20
-2.994906278542599
 10
3.740976798513939
 20
-2.945215228753766
 10
3.304226798513921
 20
-2.945215228753766
  0
LWPOLYLINE
  5
1CAD
330
1CA0
100
AcDbEntity
  8
Pel_CS-IG
100
AcDbPolyline
 90
        4
 70
     0
 43
0.0
 10
3.147476798513933
 20
-4.375939711942115
 10
3.147476798513933
 20
-2.811715228753768
 10
3.276476798513952
 20
-2.811715228753768
 10
3.276476798513952
 20
-4.375939711942115
  0
LWPOLYLINE
  5
1CAE
330
1CA0
100
AcDbEntity
  8
Pel_CS-IG
100
AcDbPolyline
 90
        4
 70
     0
 43
0.0
 10
3.768726798513965
 20
-4.375939711942115
 10
3.768726798513965
 20
-2.811715228753768
 10
3.897726798513927
 20
-2.811715228753768
 10
3.897726798513927
 20
-4.375939711942115
  0
LWPOLYLINE
  5
1CAF
330
1CA0
100
AcDbEntity
  8
Pel_CS-IG
100
AcDbPolyline
 90
       16
 70
     1
 43
0.0
 10
3.747976798513944
 20
-2.93621522875378
 10
3.297226798513973
 20
-2.93621522875378
 42
0.4142135623730951
 10
3.288226798513959
 20
-2.945215228753766
 10
3.288226798513959
 20
-3.227215228753776
 42
0.4142135623730913
 10
3.297226798513973
 20
-3.236215228753763
 10
3.366351798513959
 20
-3.236215228753763
 10
3.366351798513959
 20
-3.227215228753776
 10
3.297226798513973
 20
-3.227215228753776
 10
3.297226798513973
 20
-2.945215228753766
 10
3.747976798513944
 20
-2.945215228753766
 10
3.747976798513944
 20
-3.227215228753776
 10
3.678851798513959
 20
-3.227215228753776
 10
3.678851798513959
 20
-3.236215228753763
 10
3.747976798513944
 20
-3.236215228753763
 42
0.4142135623730918
 10
3.756976798513959
 20
-3.227215228753776
 10
3.756976798513959
 20
-2.945215228753766
 42
0.4142135623730951
  0
LINE
  5
1CB0
330
1CA0
100
AcDbEntity
  8
Pel_CS-Weatherstrip
  6
Continuous
100
AcDbLine
 10
3.754014712747447
 20
-2.938541130184744
 30
0.0
 11
3.768726798513965
 21
-2.938541130184744
 31
0.0
  0
LINE
  5
1CB1
330
1CA0
100
AcDbEntity
  8
Pel_CS-Weatherstrip
  6
Continuous
100
AcDbLine
 10
3.754014712747447
 20
-3.23388932732277
 30
0.0
 11
3.768726798513965
 21
-3.23388932732277
 31
0.0
  0
LINE
  5
1CB2
330
1CA0
100
AcDbEntity
  8
Pel_CS-Weatherstrip
  6
Continuous
100
AcDbLine
 10
3.291188884280471
 20
-2.938541130184744
 30
0.0
 11
3.276476798513952
 21
-2.938541130184744
 31
0.0
  0
LINE
  5
1CB3
330
1CA0
100
AcDbEntity
  8
Pel_CS-Weatherstrip
  6
Continuous
100
AcDbLine
 10
3.291188884280471
 20
-3.23388932732277
 30
0.0
 11
3.276476798513952
 21
-3.23388932732277
 31
0.0
  0
ARC
  5
1CB4
330
1CA0
100
AcDbEntity
  8
Pel_CS-Sealant
100
AcDbCircle
 10
3.522601798513901
 20
-1.115278509127192
 30
0.0
 40
1.774198080538652
100
AcDbArc
 50
262.0259462884691
 51
277.9740537115308
  0
ARC
  5
1CB5
330
1CA0
100
AcDbEntity
  8
Pel_CS-Sealant
100
AcDbCircle
 10
3.522601798513901
 20
-1.115278509127192
 30
0.0
 40
1.714198080538652
100
AcDbArc
 50
261.7449263785131
 51
278.2550736214902
  0
ARC
  5
1CB6
330
1CA0
100
AcDbEntity
  8
Pel_CS-Sealant
100
AcDbCircle
 10
3.522601798513901
 20
-1.115278509127192
 30
0.0
 40
1.734198080538652
100
AcDbArc
 50
261.8407824200472
 51
278.1592175799528
  0
ARC
  5
1CB7
330
1CA0
100
AcDbEntity
  8
Pel_CS-Sealant
100
AcDbCircle
 10
3.522601798513901
 20
-1.115278509127192
 30
0.0
 40
1.754198080538652
100
AcDbArc
 50
261.9344305006234
 51
278.0655694993797
  0
LWPOLYLINE
  5
1CB8
330
1CA0
100
AcDbEntity
  8
Pel_CS-Weatherstrip
100
AcDbPolyline
 90
        4
 70
     1
 43
0.0
 10
3.897726798513927
 20
-2.936715228753768
 10
3.960227951931527
 20
-2.936715228753768
 10
3.960227951931527
 20
-3.311715228753768
 10
3.897726798513927
 20
-3.311715228753768
  0
POLYLINE
  5
1CB9
330
1CA0
100
AcDbEntity
  8
Pel_Clad
100
AcDb2dPolyline
 66
     1
 10
0.0
 20
0.0
 30
0.0
 70
     1
  0
VERTEX
  5
20AC
330
1CB9
100
AcDbEntity
  8
Pel_Clad
100
AcDbVertex
100
AcDb2dVertex
 10
0.7503933982821974
 20
-2.084968523638223
 30
0.0
 42
-0.4142135623730885
  0
VERTEX
  5
20AD
330
1CB9
100
AcDbEntity
  8
Pel_Clad
100
AcDbVertex
100
AcDb2dVertex
 10
0.710393398282177
 20
-2.124968523638215
 30
0.0
  0
VERTEX
  5
20AE
330
1CB9
100
AcDbEntity
  8
Pel_Clad
100
AcDbVertex
100
AcDb2dVertex
 10
0.6783933982821947
 20
-2.124968523638215
 30
0.0
 42
0.4142135623731344
  0
VERTEX
  5
20AF
330
1CB9
100
AcDbEntity
  8
Pel_Clad
100
AcDbVertex
100
AcDb2dVertex
 10
0.658393398282213
 20
-2.144968523638226
 30
0.0
  0
VERTEX
  5
20B0
330
1CB9
100
AcDbEntity
  8
Pel_Clad
100
AcDbVertex
100
AcDb2dVertex
 10
0.658393398282213
 20
-2.285968523638217
 30
0.0
 42
-0.4142135623730889
  0
VERTEX
  5
20B1
330
1CB9
100
AcDbEntity
  8
Pel_Clad
100
AcDbVertex
100
AcDb2dVertex
 10
0.6183933982821925
 20
-2.325968523638209
 30
0.0
  0
VERTEX
  5
20B2
330
1CB9
100
AcDbEntity
  8
Pel_Clad
100
AcDbVertex
100
AcDb2dVertex
 10
0.3658933982821948
 20
-2.325968523638209
 30
0.0
 42
-1.0
  0
VERTEX
  5
20B3
330
1CB9
100
AcDbEntity
  8
Pel_Clad
100
AcDbVertex
100
AcDb2dVertex
 10
0.3658933982821948
 20
-2.268968523638221
 30
0.0
  0
VERTEX
  5
20B4
330
1CB9
100
AcDbEntity
  8
Pel_Clad
100
AcDbVertex
100
AcDb2dVertex
 10
0.4953933982822021
 20
-2.268968523638221
 30
0.0
  0
VERTEX
  5
20B5
330
1CB9
100
AcDbEntity
  8
Pel_Clad
100
AcDbVertex
100
AcDb2dVertex
 10
0.4953933982822021
 20
-2.287968523638226
 30
0.0
  0
VERTEX
  5
20B6
330
1CB9
100
AcDbEntity
  8
Pel_Clad
100
AcDbVertex
100
AcDb2dVertex
 10
0.3658933982821948
 20
-2.287968523638226
 30
0.0
 42
1.0
  0
VERTEX
  5
20B7
330
1CB9
100
AcDbEntity
  8
Pel_Clad
100
AcDbVertex
100
AcDb2dVertex
 10
0.3658933982821948
 20
-2.306968523638203
 30
0.0
  0
VERTEX
  5
20B8
330
1CB9
100
AcDbEntity
  8
Pel_Clad
100
AcDbVertex
100
AcDb2dVertex
 10
0.6193933982822257
 20
-2.306968523638203
 30
0.0
 42
0.4142135623730864
  0
VERTEX
  5
20B9
330
1CB9
100
AcDbEntity
  8
Pel_Clad
100
AcDbVertex
100
AcDb2dVertex
 10
0.6393933982822075
 20
-2.286968523638222
 30
0.0
  0
VERTEX
  5
20BA
330
1CB9
100
AcDbEntity
  8
Pel_Clad
100
AcDbVertex
100
AcDb2dVertex
 10
0.6393933982822075
 20
-2.145968523638202
 30
0.0
 42
-0.4142135623730826
  0
VERTEX
  5
20BB
330
1CB9
100
AcDbEntity
  8
Pel_Clad
100
AcDbVertex
100
AcDb2dVertex
 10
0.6793933982822279
 20
-2.10596852363821
 30
0.0
  0
VERTEX
  5
20BC
330
1CB9
100
AcDbEntity
  8
Pel_Clad
100
AcDbVertex
100
AcDb2dVertex
 10
0.7113933982822102
 20
-2.10596852363821
 30
0.0
 42
0.4142135623730822
  0
VERTEX
  5
20BD
330
1CB9
100
AcDbEntity
  8
Pel_Clad
100
AcDbVertex
100
AcDb2dVertex
 10
0.731393398282192
 20
-2.0859685236382
 30
0.0
  0
VERTEX
  5
20BE
330
1CB9
100
AcDbEntity
  8
Pel_Clad
100
AcDbVertex
100
AcDb2dVertex
 10
0.7313933982821918
 20
-1.03563942605686
 30
0.0
  0
VERTEX
  5
20BF
330
1CB9
100
AcDbEntity
  8
Pel_Clad
100
AcDbVertex
100
AcDb2dVertex
 10
0.7313933982821918
 20
-0.7649685236382024
 30
0.0
  0
VERTEX
  5
20C0
330
1CB9
100
AcDbEntity
  8
Pel_Clad
100
AcDbVertex
100
AcDb2dVertex
 10
0.7313933982821918
 20
-1.03563942605686
 30
0.0
 42
-0.3868658026623807
  0
VERTEX
  5
20C1
330
1CB9
100
AcDbEntity
  8
Pel_Clad
100
AcDbVertex
100
AcDb2dVertex
 10
0.6925665457773657
 20
-1.070968523638213
 30
0.0
  0
VERTEX
  5
20C2
330
1CB9
100
AcDbEntity
  8
Pel_Clad
100
AcDbVertex
100
AcDb2dVertex
 10
0.3082202507870288
 20
-1.070968523638214
 30
0.0
 42
-0.3868658026623525
  0
VERTEX
  5
20C3
330
1CB9
100
AcDbEntity
  8
Pel_Clad
100
AcDbVertex
100
AcDb2dVertex
 10
0.2693933982822027
 20
-1.03563942605686
 30
0.0
  0
VERTEX
  5
20C4
330
1CB9
100
AcDbEntity
  8
Pel_Clad
100
AcDbVertex
100
AcDb2dVertex
 10
0.2693933982822027
 20
-0.7649685236382024
 30
0.0
  0
VERTEX
  5
20C5
330
1CB9
100
AcDbEntity
  8
Pel_Clad
100
AcDbVertex
100
AcDb2dVertex
 10
0.2693933982822027
 20
-1.03563942605686
 30
0.0
  0
VERTEX
  5
20C6
330
1CB9
100
AcDbEntity
  8
Pel_Clad
100
AcDbVertex
100
AcDb2dVertex
 10
0.2693933982822029
 20
-2.0859685236382
 30
0.0
 42
0.4142135623730822
  0
VERTEX
  5
20C7
330
1CB9
100
AcDbEntity
  8
Pel_Clad
100
AcDbVertex
100
AcDb2dVertex
 10
0.2893933982821847
 20
-2.10596852363821
 30
0.0
  0
VERTEX
  5
20C8
330
1CB9
100
AcDbEntity
  8
Pel_Clad
100
AcDbVertex
100
AcDb2dVertex
 10
0.599393398282187
 20
-2.10596852363821
 30
0.0
 42
-0.4142135623730948
  0
VERTEX
  5
20C9
330
1CB9
100
AcDbEntity
  8
Pel_Clad
100
AcDbVertex
100
AcDb2dVertex
 10
0.6393933982822075
 20
-2.145968523638202
 30
0.0
  0
VERTEX
  5
20CA
330
1CB9
100
AcDbEntity
  8
Pel_Clad
100
AcDbVertex
100
AcDb2dVertex
 10
0.6393933982822075
 20
-2.266968523638211
 30
0.0
 42
-0.4142135623730854
  0
VERTEX
  5
20CB
330
1CB9
100
AcDbEntity
  8
Pel_Clad
100
AcDbVertex
100
AcDb2dVertex
 10
0.5993933982821871
 20
-2.306968523638203
 30
0.0
  0
VERTEX
  5
20CC
330
1CB9
100
AcDbEntity
  8
Pel_Clad
100
AcDbVertex
100
AcDb2dVertex
 10
0.3658933982821948
 20
-2.306968523638203
 30
0.0
  0
VERTEX
  5
20CD
330
1CB9
100
AcDbEntity
  8
Pel_Clad
100
AcDbVertex
100
AcDb2dVertex
 10
0.3658933982821948
 20
-2.287968523638226
 30
0.0
  0
VERTEX
  5
20CE
330
1CB9
100
AcDbEntity
  8
Pel_Clad
100
AcDbVertex
100
AcDb2dVertex
 10
0.6003933982822203
 20
-2.287968523638226
 30
0.0
 42
0.4142135623730847
  0
VERTEX
  5
20CF
330
1CB9
100
AcDbEntity
  8
Pel_Clad
100
AcDbVertex
100
AcDb2dVertex
 10
0.6203933982822021
 20
-2.267968523638216
 30
0.0
  0
VERTEX
  5
20D0
330
1CB9
100
AcDbEntity
  8
Pel_Clad
100
AcDbVertex
100
AcDb2dVertex
 10
0.6203933982822021
 20
-2.144968523638226
 30
0.0
 42
0.4142135623731412
  0
VERTEX
  5
20D1
330
1CB9
100
AcDbEntity
  8
Pel_Clad
100
AcDbVertex
100
AcDb2dVertex
 10
0.6003933982822202
 20
-2.124968523638215
 30
0.0
  0
VERTEX
  5
20D2
330
1CB9
100
AcDbEntity
  8
Pel_Clad
100
AcDbVertex
100
AcDb2dVertex
 10
0.2903933982822179
 20
-2.124968523638215
 30
0.0
 42
-0.4142135623730891
  0
VERTEX
  5
20D3
330
1CB9
100
AcDbEntity
  8
Pel_Clad
100
AcDbVertex
100
AcDb2dVertex
 10
0.2503933982821975
 20
-2.084968523638223
 30
0.0
  0
VERTEX
  5
20D4
330
1CB9
100
AcDbEntity
  8
Pel_Clad
100
AcDbVertex
100
AcDb2dVertex
 10
0.2503933982821972
 20
-0.7644685236382144
 30
0.0
 42
-0.417485751266966
  0
VERTEX
  5
20D5
330
1CB9
100
AcDbEntity
  8
Pel_Clad
100
AcDbVertex
100
AcDb2dVertex
 10
0.2690998357369361
 20
-0.7459696754692683
 30
0.0
 42
-0.4174423589703049
  0
VERTEX
  5
20D6
330
1CB9
100
AcDbEntity
  8
Pel_Clad
100
AcDbVertex
100
AcDb2dVertex
 10
0.288309044374328
 20
-0.7649685236382024
 30
0.0
  0
VERTEX
  5
20D7
330
1CB9
100
AcDbEntity
  8
Pel_Clad
100
AcDbVertex
100
AcDb2dVertex
 10
0.2883090443743281
 20
-1.030086009577359
 30
0.0
 42
0.4421005955735554
  0
VERTEX
  5
20D8
330
1CB9
100
AcDbEntity
  8
Pel_Clad
100
AcDbVertex
100
AcDb2dVertex
 10
0.3082202507870288
 20
-1.051968523638208
 30
0.0
  0
VERTEX
  5
20D9
330
1CB9
100
AcDbEntity
  8
Pel_Clad
100
AcDbVertex
100
AcDb2dVertex
 10
0.6925665457773657
 20
-1.051968523638208
 30
0.0
 42
0.4421005955734904
  0
VERTEX
  5
20DA
330
1CB9
100
AcDbEntity
  8
Pel_Clad
100
AcDbVertex
100
AcDb2dVertex
 10
0.7124777521901233
 20
-1.030086009577359
 30
0.0
  0
VERTEX
  5
20DB
330
1CB9
100
AcDbEntity
  8
Pel_Clad
100
AcDbVertex
100
AcDb2dVertex
 10
0.7124777521901233
 20
-0.7649685236382024
 30
0.0
 42
-0.4174423589703208
  0
VERTEX
  5
20DC
330
1CB9
100
AcDbEntity
  8
Pel_Clad
100
AcDbVertex
100
AcDb2dVertex
 10
0.7316869608274583
 20
-0.7459696754692683
 30
0.0
 42
-0.4174857512669492
  0
VERTEX
  5
20DD
330
1CB9
100
AcDbEntity
  8
Pel_Clad
100
AcDbVertex
100
AcDb2dVertex
 10
0.7503933982821973
 20
-0.7644685236382142
 30
0.0
  0
SEQEND
  5
20DE
330
1CB9
100
AcDbEntity
  8
Pel_Clad
  0
LWPOLYLINE
  5
1CED
330
1CA0
100
AcDbEntity
  8
Pel_CS-Sealant
100
AcDbPolyline
 90
       30
 70
     1
 43
0.0
 10
0.5605937287370841
 20
-2.256065217976899
 10
0.5870437485369655
 20
-2.255428744739986
 10
0.5818239470211515
 20
-2.229491082591454
 10
0.6044120994799889
 20
-2.215714870699517
 10
0.5869227876903145
 20
-2.19586209712202
 10
0.5995965955982589
 20
-2.172637471426259
 10
0.5745240205049511
 20
-2.164189121067404
 10
0.5738875472680205
 20
-2.137739101267527
 10
0.5479498851195059
 20
-2.142958902783344
 10
0.5369777936405155
 20
-2.124968523638219
 10
0.5289545683447888
 20
-2.124968523638219
 10
0.5143208996500788
 20
-2.137860062114174
 10
0.4910962739543072
 20
-2.12518625420624
 10
0.4826479235954741
 20
-2.150258829299537
 10
0.4561979037955715
 20
-2.150895302536461
 10
0.4614177053113855
 20
-2.17683296468499
 10
0.4388295528525552
 20
-2.19060917657693
 10
0.4563188646422225
 20
-2.21046195015442
 10
0.4952202698294406
 20
-2.206113269155931
 42
-0.1989123673796589
 10
0.5008659680348819
 20
-2.186580856943872
 42
-1.0
 10
0.5423756842976657
 20
-2.219743190332568
 42
-0.6681786379193064
 10
0.4952202698294406
 20
-2.206113269155931
 10
0.4563188646422225
 20
-2.21046195015442
 10
0.4436450567342887
 20
-2.233686575850181
 10
0.4687176318276036
 20
-2.242134926209043
 10
0.46935410506452
 20
-2.268584946008917
 10
0.4952917672130417
 20
-2.263365144493096
 10
0.5090679791049821
 20
-2.285953296951933
 10
0.5289207526824724
 20
-2.268463985162266
 10
0.5521453783782297
 20
-2.281137793070203
  0
LWPOLYLINE
  5
1CEE
330
1CA0
100
AcDbEntity
  8
Pel_CS-Hardware
100
AcDbPolyline
 90
       40
 70
     0
 43
0.0
 10
4.214451099289098
 20
-1.574055938570864
 10
4.481545069091245
 20
-1.583383065522979
 42
-0.4040262258350691
 10
4.539451099289086
 20
-1.643346515144115
 10
4.539379296386718
 20
-1.645402681243097
 42
-0.0225325441494628
 10
4.820581162710956
 20
-1.661717817549827
 42
-0.0243068766402591
 10
4.952014183112842
 20
-1.685732282734589
 42
-0.0779250719197436
 10
5.346853849273278
 20
-1.84566526840595
 42
-0.0597023596658246
 10
5.605405289063972
 20
-2.04618671712643
 42
-0.0299641968389323
 10
5.715449708014764
 20
-2.16866763818035
 42
-0.0637974420991638
 10
5.896507935932495
 20
-2.467570144722769
 42
-0.0562853933761843
 10
5.989104656042249
 20
-2.761942168510499
 42
-0.0474531303761581
 10
6.014446325104293
 20
-3.021111994834085
 10
6.014451099289085
 20
-3.999350751280501
 42
-0.194382855300675
 10
5.944286067667596
 20
-4.17301528534952
 42
-0.1943777656335873
 10
5.773176045197337
 20
-4.249198369207277
 42
-0.0335145671179134
 10
5.664773210014508
 20
-4.24904798058145
 42
-0.1929384410841095
 10
5.514196343214584
 20
-4.182006840138227
 42
-0.1958229564131192
 10
5.45245109928907
 20
-4.029181998637255
 10
5.452468133977811
 20
-3.280987983638367
 42
0.1030251798112709
 10
5.374954880186029
 20
-2.908752466287835
 42
0.0635179896605866
 10
5.29831082484346
 20
-2.780161357552911
 42
0.0302747233968973
 10
5.199051876368192
 20
-2.668100456197349
 42
0.0643715405016018
 10
5.078356217170854
 20
-2.575043662702283
 42
0.1023066664215547
 10
4.722175693487221
 20
-2.455291588922135
 42
0.0165857740700632
 10
4.539025279561249
 20
-2.439268003983527
 42
-0.0165857740700323
 10
4.349451099058418
 20
-2.422682412292316
 10
4.349451099058426
 20
-3.387144877306098
 10
4.349451099058418
 20
-2.7485050165142
 42
-0.1065505972514744
 10
4.53736776631006
 20
-2.860851520902769
 42
-0.201947365830347
 10
4.629451099094515
 20
-3.055739051866139
 10
4.629451099094515
 20
-3.093006291509253
 42
-0.2162646955990915
 10
4.521581679895769
 20
-3.302435144092497
 42
-0.1099111178947065
 10
4.308417306250759
 20
-3.413265288718405
 42
-0.0431353532758265
 10
4.295546359389617
 20
-3.41659520979067
 10
4.249451099058432
 20
-3.41659520979067
 42
-0.4142135623728088
 10
4.239451099058441
 20
-3.406595209790679
 10
4.239451099058433
 20
-2.43624942941713
 10
4.22392773949601
 20
-2.435435884615428
 42
-0.3989595459728616
 10
4.214451099058427
 20
-2.425449589267883
 10
4.214451098934622
 20
-1.5740559385585
  0
LWPOLYLINE
  5
1CEF
330
1CA0
100
AcDbEntity
  8
Pel_CS-Hardware
100
AcDbPolyline
 90
       21
 70
     1
 43
0.0
 10
1.364451099058436
 20
-1.71879907259668
 10
1.364451099058433
 20
-2.34379907259668
 10
1.339451099058427
 20
-2.34379907259668
 10
1.339451099058431
 20
-1.71879907259668
 10
1.339451099058427
 20
-2.34379907259668
 10
1.314451099058422
 20
-2.318799072596675
 10
1.314451099058425
 20
-1.743799072596686
 10
1.339451099058431
 20
-1.71879907259668
 10
1.364451099058436
 20
-1.71879907259668
 10
1.339451099058431
 20
-1.71879907259668
 10
1.314451099058425
 20
-1.743799072596686
 10
1.314451099058422
 20
-2.318799072596675
 10
1.339451099058427
 20
-2.34379907259668
 10
1.364451099058433
 20
-2.34379907259668
 10
1.364451099058433
 20
-2.438219226670411
 42
0.4049229637942268
 10
1.408019261565433
 20
-2.483196439960493
 10
2.714451099058456
 20
-2.525815463199562
 10
2.714451099058427
 20
-1.609938851646858
 10
1.408443017361515
 20
-1.638065963300789
 42
0.3587001382042505
 10
1.364451099058436
 20
-1.686337639642374
 10
1.364451099058436
 20
-1.71879907259668
  0
CIRCLE
  5
1CF0
102
{ACAD_REACTORS
330
1CF1
102
}
330
1CA0
100
AcDbEntity
  8
Pel_CS-Weatherstrip
100
AcDbCircle
 10
0.3184933982822025
 20
-3.824849999999997
 30
0.0
 40
0.0189
  0
HATCH
  5
1CF1
330
1CA0
100
AcDbEntity
  8
Pel_CS-Weatherstrip
100
AcDbHatch
 10
0.0
 20
0.0
 30
0.0
210
0.0
220
0.0
230
1.0
  2
SOLID
 70
     1
 71
     1
 91
        1
 92
        1
 93
        1
 72
     2
 10
0.3184933982822025
 20
-3.824849999999997
 40
0.0189
 50
-89.99999999999998
 51
270.0
 73
     1
 97
        1
330
1CF0
 75
     0
 76
     1
 98
        1
 10
-6.243658745673663
 20
-10.31741485349673
  0
CIRCLE
  5
1CF2
102
{ACAD_REACTORS
330
1CF3
102
}
330
1CA0
100
AcDbEntity
  8
Pel_CS-Weatherstrip
100
AcDbCircle
 10
0.3184933982822025
 20
-3.668599999999997
 30
0.0
 40
0.0189
  0
HATCH
  5
1CF3
330
1CA0
100
AcDbEntity
  8
Pel_CS-Weatherstrip
100
AcDbHatch
 10
0.0
 20
0.0
 30
0.0
210
0.0
220
0.0
230
1.0
  2
SOLID
 70
     1
 71
     1
 91
        1
 92
        1
 93
        1
 72
     2
 10
0.3184933982822025
 20
-3.668599999999997
 40
0.0189
 50
-89.99999999999998
 51
270.0
 73
     1
 97
        1
330
1CF2
 75
     0
 76
     1
 98
        1
 10
-6.243658745673663
 20
-10.16116485349673
  0
CIRCLE
  5
1CF4
102
{ACAD_REACTORS
330
1CF5
102
}
330
1CA0
100
AcDbEntity
  8
Pel_CS-Weatherstrip
100
AcDbCircle
 10
0.3184933982822025
 20
-3.512349999999997
 30
0.0
 40
0.0189
  0
HATCH
  5
1CF5
330
1CA0
100
AcDbEntity
  8
Pel_CS-Weatherstrip
100
AcDbHatch
 10
0.0
 20
0.0
 30
0.0
210
0.0
220
0.0
230
1.0
  2
SOLID
 70
     1
 71
     1
 91
        1
 92
        1
 93
        1
 72
     2
 10
0.3184933982822025
 20
-3.512349999999997
 40
0.0189
 50
-89.99999999999998
 51
270.0
 73
     1
 97
        1
330
1CF4
 75
     0
 76
     1
 98
        1
 10
-6.243658745673663
 20
-10.00491485349673
  0
CIRCLE
  5
1CF6
102
{ACAD_REACTORS
330
1CF7
102
}
330
1CA0
100
AcDbEntity
  8
Pel_CS-Weatherstrip
100
AcDbCircle
 10
0.3184933982822025
 20
-3.356099999999997
 30
0.0
 40
0.0189
  0
HATCH
  5
1CF7
330
1CA0
100
AcDbEntity
  8
Pel_CS-Weatherstrip
100
AcDbHatch
 10
0.0
 20
0.0
 30
0.0
210
0.0
220
0.0
230
1.0
  2
SOLID
 70
     1
 71
     1
 91
        1
 92
        1
 93
        1
 72
     2
 10
0.3184933982822025
 20
-3.356099999999997
 40
0.0189
 50
-89.99999999999998
 51
270.0
 73
     1
 97
        1
330
1CF6
 75
     0
 76
     1
 98
        1
 10
-6.243658745673663
 20
-9.848664853496735
  0
CIRCLE
  5
1CF8
102
{ACAD_REACTORS
330
1CF9
102
}
330
1CA0
100
AcDbEntity
  8
Pel_CS-Weatherstrip
100
AcDbCircle
 10
0.3184933982822024
 20
-3.199849999999997
 30
0.0
 40
0.0189
  0
HATCH
  5
1CF9
330
1CA0
100
AcDbEntity
  8
Pel_CS-Weatherstrip
100
AcDbHatch
 10
0.0
 20
0.0
 30
0.0
210
0.0
220
0.0
230
1.0
  2
SOLID
 70
     1
 71
     1
 91
        1
 92
        1
 93
        1
 72
     2
 10
0.3184933982822024
 20
-3.199849999999997
 40
0.0189
 50
-89.99999999999998
 51
270.0
 73
     1
 97
        1
330
1CF8
 75
     0
 76
     1
 98
        1
 10
-6.243658745673663
 20
-9.692414853496735
  0
CIRCLE
  5
1CFA
102
{ACAD_REACTORS
330
1CFB
102
}
330
1CA0
100
AcDbEntity
  8
Pel_CS-Weatherstrip
100
AcDbCircle
 10
0.3184933982822024
 20
-3.043599999999997
 30
0.0
 40
0.0189
  0
HATCH
  5
1CFB
330
1CA0
100
AcDbEntity
  8
Pel_CS-Weatherstrip
100
AcDbHatch
 10
0.0
 20
0.0
 30
0.0
210
0.0
220
0.0
230
1.0
  2
SOLID
 70
     1
 71
     1
 91
        1
 92
        1
 93
        1
 72
     2
 10
0.3184933982822024
 20
-3.043599999999997
 40
0.0189
 50
-89.99999999999998
 51
270.0
 73
     1
 97
        1
330
1CFA
 75
     0
 76
     1
 98
        1
 10
-6.243658745673663
 20
-9.536164853496735
  0
CIRCLE
  5
1CFC
102
{ACAD_REACTORS
330
1CFD
102
}
330
1CA0
100
AcDbEntity
  8
Pel_CS-Weatherstrip
100
AcDbCircle
 10
0.3184933982822024
 20
-2.887349999999997
 30
0.0
 40
0.0189
  0
HATCH
  5
1CFD
330
1CA0
100
AcDbEntity
  8
Pel_CS-Weatherstrip
100
AcDbHatch
 10
0.0
 20
0.0
 30
0.0
210
0.0
220
0.0
230
1.0
  2
SOLID
 70
     1
 71
     1
 91
        1
 92
        1
 93
        1
 72
     2
 10
0.3184933982822024
 20
-2.887349999999997
 40
0.0189
 50
-89.99999999999998
 51
270.0
 73
     1
 97
        1
330
1CFC
 75
     0
 76
     1
 98
        1
 10
-6.243658745673663
 20
-9.379914853496732
  0
CIRCLE
  5
1CFE
102
{ACAD_REACTORS
330
1CFF
102
}
330
1CA0
100
AcDbEntity
  8
Pel_CS-Weatherstrip
100
AcDbCircle
 10
0.3184933982822023
 20
-2.731099999999997
 30
0.0
 40
0.0189
  0
HATCH
  5
1CFF
330
1CA0
100
AcDbEntity
  8
Pel_CS-Weatherstrip
100
AcDbHatch
 10
0.0
 20
0.0
 30
0.0
210
0.0
220
0.0
230
1.0
  2
SOLID
 70
     1
 71
     1
 91
        1
 92
        1
 93
        1
 72
     2
 10
0.3184933982822023
 20
-2.731099999999997
 40
0.0189
 50
-89.99999999999998
 51
270.0
 73
     1
 97
        1
330
1CFE
 75
     0
 76
     1
 98
        1
 10
-6.243658745673663
 20
-9.223664853496732
  0
CIRCLE
  5
1D00
102
{ACAD_REACTORS
330
1D01
102
}
330
1CA0
100
AcDbEntity
  8
Pel_CS-Weatherstrip
100
AcDbCircle
 10
0.3184933982822023
 20
-2.574849999999997
 30
0.0
 40
0.0189
  0
HATCH
  5
1D01
330
1CA0
100
AcDbEntity
  8
Pel_CS-Weatherstrip
100
AcDbHatch
 10
0.0
 20
0.0
 30
0.0
210
0.0
220
0.0
230
1.0
  2
SOLID
 70
     1
 71
     1
 91
        1
 92
        1
 93
        1
 72
     2
 10
0.3184933982822023
 20
-2.574849999999997
 40
0.0189
 50
-89.99999999999998
 51
270.0
 73
     1
 97
        1
330
1D00
 75
     0
 76
     1
 98
        1
 10
-6.243658745673663
 20
-9.067414853496732
  0
CIRCLE
  5
1D02
102
{ACAD_REACTORS
330
1D03
102
}
330
1CA0
100
AcDbEntity
  8
Pel_CS-Weatherstrip
100
AcDbCircle
 10
0.3184933982822022
 20
-2.418599999999997
 30
0.0
 40
0.0189
  0
HATCH
  5
1D03
330
1CA0
100
AcDbEntity
  8
Pel_CS-Weatherstrip
100
AcDbHatch
 10
0.0
 20
0.0
 30
0.0
210
0.0
220
0.0
230
1.0
  2
SOLID
 70
     1
 71
     1
 91
        1
 92
        1
 93
        1
 72
     2
 10
0.3184933982822022
 20
-2.418599999999997
 40
0.0189
 50
-89.99999999999998
 51
270.0
 73
     1
 97
        1
330
1D02
 75
     0
 76
     1
 98
        1
 10
-6.243658745673663
 20
-8.911164853496732
  0
HATCH
  5
1D04
330
1CA0
100
AcDbEntity
  8
Pel_CS-Weatherstrip
100
AcDbHatch
 10
0.0
 20
0.0
 30
0.0
210
0.0
220
0.0
230
1.0
  2
SOLID
 70
     1
 71
     1
 91
        1
 92
        1
 93
        1
 72
     2
 10
0.3184933982822022
 20
-2.262349999999997
 40
0.0189
 50
-89.99999999999998
 51
270.0
 73
     1
 97
        1
330
1D05
 75
     0
 76
     1
 98
        1
 10
-6.243658745673663
 20
-8.754914853496732
  0
CIRCLE
  5
1D05
102
{ACAD_REACTORS
330
1D04
102
}
330
1CA0
100
AcDbEntity
  8
Pel_CS-Weatherstrip
100
AcDbCircle
 10
0.3184933982822022
 20
-2.262349999999997
 30
0.0
 40
0.0189
  0
CIRCLE
  5
1D06
102
{ACAD_REACTORS
330
1D07
102
}
330
1CA0
100
AcDbEntity
  8
Pel_CS-Weatherstrip
100
AcDbCircle
 10
0.3184933982822026
 20
-4.137349999999997
 30
0.0
 40
0.0189
  0
HATCH
  5
1D07
330
1CA0
100
AcDbEntity
  8
Pel_CS-Weatherstrip
100
AcDbHatch
 10
0.0
 20
0.0
 30
0.0
210
0.0
220
0.0
230
1.0
  2
SOLID
 70
     1
 71
     1
 91
        1
 92
        1
 93
        1
 72
     2
 10
0.3184933982822026
 20
-4.137349999999997
 40
0.0189
 50
-89.99999999999998
 51
270.0
 73
     1
 97
        1
330
1D06
 75
     0
 76
     1
 98
        1
 10
-6.243658745673663
 20
-10.62991485349673
  0
CIRCLE
  5
1D08
102
{ACAD_REACTORS
330
1D09
102
}
330
1CA0
100
AcDbEntity
  8
Pel_CS-Weatherstrip
100
AcDbCircle
 10
0.3184933982822025
 20
-3.981099999999997
 30
0.0
 40
0.0189
  0
HATCH
  5
1D09
330
1CA0
100
AcDbEntity
  8
Pel_CS-Weatherstrip
100
AcDbHatch
 10
0.0
 20
0.0
 30
0.0
210
0.0
220
0.0
230
1.0
  2
SOLID
 70
     1
 71
     1
 91
        1
 92
        1
 93
        1
 72
     2
 10
0.3184933982822025
 20
-3.981099999999997
 40
0.0189
 50
-89.99999999999998
 51
270.0
 73
     1
 97
        1
330
1D08
 75
     0
 76
     1
 98
        1
 10
-6.243658745673663
 20
-10.47366485349673
  0
LWPOLYLINE
  5
1D0A
330
1CA0
100
AcDbEntity
  8
Pel_CS-Cross Section
 62
     4
100
AcDbPolyline
 90
      129
 70
     1
 43
0.0
 10
1.429957603986357
 20
1.125
 10
1.349957603986355
 20
1.125
 10
1.349957603986355
 20
0.0000000000000005
 10
0.0649999999999992
 20
0.0000000000000002
 10
0.0649999999999957
 20
-0.0799999999999981
 10
0.1169615242270667
 20
-0.1099999999999992
 10
0.1419615242270688
 20
-0.1099999999999992
 10
0.1419615242270617
 20
-0.0799999999999981
 10
0.2799999999999991
 20
-0.079999999999998
 10
0.2799999999999955
 20
-0.2349999999999992
 10
-0.000000000000002
 20
-0.2349999999999992
 10
-0.0000000000000019
 20
-0.9380000000000022
 10
0.1999999999999974
 20
-0.9380000000000022
 10
0.1999999999999973
 20
-0.4380000000000022
 10
0.8349999999999988
 20
-0.4380000000000021
 10
0.8349999999999988
 20
-0.6279999999999998
 10
0.7999999999999988
 20
-0.6279999999999998
 10
0.7999999999999989
 20
-0.938000000000002
 10
0.8899999999999986
 20
-0.938000000000002
 42
1.0
 10
0.8899999999999986
 20
-0.8779999999999997
 10
0.8599999999999974
 20
-0.8779999999999962
 10
0.8599999999999974
 20
-0.6879999999999985
 10
1.054999999999997
 20
-0.6879999999999984
 10
1.054999999999997
 20
-0.837999999999997
 10
1.11273502691896
 20
-0.9379999999999984
 10
2.15
 20
-0.9379999999999945
 10
2.15
 20
-1.103
 10
2.114999999999996
 20
-1.103
 10
2.07499999999999
 20
-1.063000000000001
 10
2.049999999999998
 20
-1.063000000000001
 10
2.049999999999998
 20
-1.563000000000001
 10
2.599999999999996
 20
-1.563000000000001
 42
0.4142135623731037
 10
2.629999999999997
 20
-1.533
 10
2.629999999999997
 20
-0.6822820323027507
 10
2.669999999999996
 20
-0.6130000000000024
 10
2.669999999999996
 20
-0.5880000000000003
 10
2.629999999999997
 20
-0.5880000000000003
 10
2.629999999999997
 20
-0.4630000000000003
 10
4.269999999999997
 20
-0.463
 10
4.269999999999997
 20
-0.588
 10
4.229999999999998
 20
-0.588
 10
4.229999999999998
 20
-0.6130000000000022
 10
4.269999999999997
 20
-0.6822820323027505
 10
4.269999999999997
 20
-1.412999999999999
 10
4.229999999999998
 20
-1.412999999999999
 10
4.229999999999998
 20
-1.533
 42
0.4142135623730863
 10
4.259999999999996
 20
-1.562999999999997
 10
4.499999999999994
 20
-1.563000000000001
 10
4.499999999999994
 20
-0.2349999999999984
 10
4.22
 20
-0.2349999999999984
 10
4.22
 20
-0.0901420310525713
 10
4.144999999999997
 20
-0.0901420310525713
 10
4.145000000000001
 20
-0.2349999999999984
 42
0.4142135623731037
 10
4.22
 20
-0.3100000000000013
 10
4.419999999999996
 20
-0.3100000000000013
 10
4.419999999999996
 20
-0.3829999999999981
 10
4.404899421459154
 20
-0.3829999999999981
 10
4.404899421459154
 20
-0.4429999999999969
 10
4.419999999999996
 20
-0.4429999999999969
 10
4.419999999999996
 20
-1.482999999999999
 10
4.33
 20
-1.482999999999999
 10
4.33
 20
-0.4429999999999969
 10
4.404899421459154
 20
-0.4429999999999969
 10
4.404899421459154
 20
-0.3829999999999981
 10
3.508999999999998
 20
-0.3829999999999983
 10
3.509000000000001
 20
-0.0901420310525714
 10
3.448999999999999
 20
-0.0901420310525714
 10
3.448999999999999
 20
-0.3829999999999983
 10
2.610000000000001
 20
-0.3829999999999984
 10
2.609999999999993
 20
-0.0901420310525716
 10
2.549999999999994
 20
-0.0901420310525716
 10
2.549999999999998
 20
-1.482999999999999
 10
2.13
 20
-1.482999999999999
 10
2.129999999999997
 20
-1.178
 10
2.15
 20
-1.178000000000003
 42
0.4142135623730822
 10
2.224999999999996
 20
-1.103000000000004
 10
2.224999999999996
 20
-0.9329999999999991
 42
0.414213562373109
 10
2.149999999999996
 20
-0.8579999999999962
 10
2.019999999999997
 20
-0.8579999999999964
 10
2.02
 20
-0.0901420310525717
 10
1.959999999999998
 20
-0.0901420310525717
 10
1.959999999999998
 20
-0.8579999999999964
 10
1.153149545762234
 20
-0.8579999999999966
 10
1.129999999999993
 20
-0.8179038105676635
 10
1.13
 20
-0.0901420310525718
 10
1.069999999999998
 20
-0.0901420310525718
 10
1.069999999999994
 20
-0.6129999999999991
 10
0.9100000000000017
 20
-0.6129999999999991
 10
0.9099999999999981
 20
-0.4380000000000021
 42
0.4142135623730951
 10
0.8349999999999988
 20
-0.3629999999999991
 10
0.3549999999999984
 20
-0.3629999999999993
 10
0.3549999999999984
 20
-0.3530621331517023
 10
0.2949999999999997
 20
-0.3530621331517023
 10
0.2949999999999997
 20
-0.3629999999999993
 10
0.2149999999999979
 20
-0.3629999999999993
 42
0.4142135623730966
 10
0.1399999999999986
 20
-0.4380000000000022
 10
0.1399999999999951
 20
-0.8580000000000003
 10
0.08
 20
-0.8580000000000003
 10
0.0799999999999963
 20
-0.3099999999999985
 10
0.2949999999999997
 20
-0.3099999999999984
 10
0.2949999999999997
 20
-0.3530621331517023
 10
0.3549999999999984
 20
-0.3530621331517023
 10
0.3549999999999984
 20
-0.0800000000000016
 10
1.069999999999998
 20
-0.0800000000000015
 10
1.069999999999998
 20
-0.0901420310525718
 10
1.130000000000004
 20
-0.0901420310525718
 10
1.129999999999997
 20
-0.0800000000000014
 10
1.959999999999998
 20
-0.0799999999999977
 10
1.959999999999998
 20
-0.0901420310525717
 10
2.019999999999997
 20
-0.0901420310525717
 10
2.019999999999997
 20
-0.0799999999999977
 10
2.549999999999998
 20
-0.0799999999999976
 10
2.550000000000002
 20
-0.0901420310525716
 10
2.61
 20
-0.0901420310525716
 10
2.609999999999993
 20
-0.0799999999999976
 10
3.448999999999999
 20
-0.0799999999999975
 10
3.448999999999999
 20
-0.0901420310525714
 10
3.509000000000001
 20
-0.0901420310525714
 10
3.509000000000001
 20
-0.0799999999999974
 10
4.144999999999997
 20
-0.0799999999999973
 10
4.144999999999997
 20
-0.0901420310525713
 10
4.22
 20
-0.0901420310525713
 10
4.22
 20
-0.0800000000000009
 10
4.358038475772934
 20
-0.0800000000000009
 10
4.358038475772934
 20
-0.1099999999999984
 10
4.383038475772929
 20
-0.1099999999999984
 10
4.435000000000004
 20
-0.0800000000000009
 10
4.434999999999996
 20
0.000000000000001
 10
1.429957603986361
 20
0.0000000000000005
  0
POLYLINE
  5
1D0B
330
1CA0
100
AcDbEntity
  8
Pel_CS-Weatherstrip
100
AcDb2dPolyline
 66
     1
 10
0.0
 20
0.0
 30
0.0
  0
VERTEX
  5
20FE
330
1D0B
100
AcDbEntity
  8
Pel_CS-Weatherstrip
100
AcDbVertex
100
AcDb2dVertex
 10
2.776488682347119
 20
-1.340260736308891
 30
0.0
  0
VERTEX
  5
20FF
330
1D0B
100
AcDbEntity
  8
Pel_CS-Weatherstrip
100
AcDbVertex
100
AcDb2dVertex
 10
2.776488682347119
 20
-1.294016146670514
 30
0.0
  0
VERTEX
  5
2100
330
1D0B
100
AcDbEntity
  8
Pel_CS-Weatherstrip
100
AcDbVertex
100
AcDb2dVertex
 10
2.630719152085474
 20
-1.332749727833685
 30
0.0
  0
VERTEX
  5
2101
330
1D0B
100
AcDbEntity
  8
Pel_CS-Weatherstrip
100
AcDbVertex
100
AcDb2dVertex
 10
2.630719152085474
 20
-1.304574491179806
 30
0.0
  0
VERTEX
  5
2102
330
1D0B
100
AcDbEntity
  8
Pel_CS-Weatherstrip
100
AcDbVertex
100
AcDb2dVertex
 10
2.776488682347119
 20
-1.294016146670514
 30
0.0
  0
VERTEX
  5
2103
330
1D0B
100
AcDbEntity
  8
Pel_CS-Weatherstrip
100
AcDbVertex
100
AcDb2dVertex
 10
2.630719152085474
 20
-1.283173405521693
 30
0.0
  0
VERTEX
  5
2104
330
1D0B
100
AcDbEntity
  8
Pel_CS-Weatherstrip
100
AcDbVertex
100
AcDb2dVertex
 10
2.630719152085474
 20
-1.252787164418776
 30
0.0
  0
VERTEX
  5
2105
330
1D0B
100
AcDbEntity
  8
Pel_CS-Weatherstrip
100
AcDbVertex
100
AcDb2dVertex
 10
2.776488682347119
 20
-1.294016146670514
 30
0.0
  0
VERTEX
  5
2106
330
1D0B
100
AcDbEntity
  8
Pel_CS-Weatherstrip
100
AcDbVertex
100
AcDb2dVertex
 10
2.776488682347119
 20
-1.211558182167038
 30
0.0
  0
VERTEX
  5
2107
330
1D0B
100
AcDbEntity
  8
Pel_CS-Weatherstrip
100
AcDbVertex
100
AcDb2dVertex
 10
2.630719152085474
 20
-1.252787164418776
 30
0.0
  0
VERTEX
  5
2108
330
1D0B
100
AcDbEntity
  8
Pel_CS-Weatherstrip
100
AcDbVertex
100
AcDb2dVertex
 10
2.630719152085474
 20
-1.222400923315859
 30
0.0
  0
VERTEX
  5
2109
330
1D0B
100
AcDbEntity
  8
Pel_CS-Weatherstrip
100
AcDbVertex
100
AcDb2dVertex
 10
2.776488682347119
 20
-1.211558182167038
 30
0.0
  0
VERTEX
  5
210A
330
1D0B
100
AcDbEntity
  8
Pel_CS-Weatherstrip
100
AcDbVertex
100
AcDb2dVertex
 10
2.630719152085474
 20
-1.19342040586548
 30
0.0
  0
VERTEX
  5
210B
330
1D0B
100
AcDbEntity
  8
Pel_CS-Weatherstrip
100
AcDbVertex
100
AcDb2dVertex
 10
2.630719152085474
 20
-1.151958635694853
 30
0.0
  0
VERTEX
  5
210C
330
1D0B
100
AcDbEntity
  8
Pel_CS-Weatherstrip
100
AcDbVertex
100
AcDb2dVertex
 10
2.776488682347119
 20
-1.211558182167038
 30
0.0
  0
VERTEX
  5
210D
330
1D0B
100
AcDbEntity
  8
Pel_CS-Weatherstrip
100
AcDbVertex
100
AcDb2dVertex
 10
2.776488682347119
 20
-1.1534830126227
 30
0.0
  0
VERTEX
  5
210E
330
1D0B
100
AcDbEntity
  8
Pel_CS-Weatherstrip
100
AcDbVertex
100
AcDb2dVertex
 10
2.811488668347122
 20
-1.1534830126227
 30
0.0
  0
VERTEX
  5
210F
330
1D0B
100
AcDbEntity
  8
Pel_CS-Weatherstrip
100
AcDbVertex
100
AcDb2dVertex
 10
2.811488668347122
 20
-1.340260736308891
 30
0.0
  0
VERTEX
  5
2110
330
1D0B
100
AcDbEntity
  8
0
100
AcDbVertex
100
AcDb2dVertex
 10
2.776488682347119
 20
-1.340260736308891
 30
0.0
  0
SEQEND
  5
2111
330
1D0B
100
AcDbEntity
  8
Pel_CS-Weatherstrip
  0
CIRCLE
  5
1E6E
102
{ACAD_REACTORS
330
1E6F
102
}
330
1CA0
100
AcDbEntity
  8
Pel_CS-Weatherstrip
100
AcDbCircle
 10
0.3184933982822027
 20
-4.293599999999997
 30
0.0
 40
0.0189
  0
HATCH
  5
1E6F
330
1CA0
100
AcDbEntity
  8
Pel_CS-Weatherstrip
100
AcDbHatch
 10
0.0
 20
0.0
 30
0.0
210
0.0
220
0.0
230
1.0
  2
SOLID
 70
     1
 71
     1
 91
        1
 92
        1
 93
        1
 72
     2
 10
0.3184933982822027
 20
-4.293599999999997
 40
0.0189
 50
-89.99999999999998
 51
270.0
 73
     1
 97
        1
330
1E6E
 75
     0
 76
     1
 98
        1
 10
-6.243658745673663
 20
-10.78616485349673
  0
ENDBLK
  5
1D20
330
1CA0
100
AcDbEntity
  8
0
100
AcDbBlockEnd
  0
BLOCK
  5
1D24
330
1D21
100
AcDbEntity
  8
0
100
AcDbBlockBegin
  2
30AY
 70
     0
 10
0.0
 20
0.0
 30
0.0
  3
30AY
  1

  0
POINT
  5
1D25
330
1D21
100
AcDbEntity
  8
Pel_Points
100
AcDbPoint
 10
0.0
 20
0.0
 30
0.0
  0
LWPOLYLINE
  5
1D26
102
{ACAD_REACTORS
330
1D27
102
}
330
1D21
100
AcDbEntity
  8
Pel_CS-Cross Section
 62
     3
100
AcDbPolyline
 90
       10
 70
     1
 43
0.0
 10
-0.0856840005828126
 20
0.3440206771484231
 10
-2.329824243307291
 20
0.6486369363310365
 42
0.4543042462927113
 10
-2.5
 20
0.5
 10
-2.5
 20
0.0
 10
-1.952999999999999
 20
0.0
 42
-0.4142135623730951
 10
-1.902999999999998
 20
0.0499999999999998
 10
-0.6199999999999993
 20
0.0499999999999998
 42
-0.4142135623730848
 10
-0.5700000000000003
 20
0.0
 10
0.0
 20
0.0
 10
0.0
 20
0.245920299169939
 42
0.3752280549949348
  0
HATCH
  5
1D27
330
1D21
100
AcDbEntity
  8
Pel_Hatch
 62
     2
100
AcDbHatch
 10
0.0
 20
0.0
 30
0.0
210
0.0
220
0.0
230
1.0
  2
WOOD
 70
     0
 71
     1
 91
        1
 92
        1
 93
       10
 72
     1
 10
-0.0856840005828126
 20
0.3440206771484231
 11
-2.329824243307291
 21
0.6486369363310365
 72
     2
 10
-2.35
 20
0.4999999999999999
 40
0.1500000000000001
 50
82.26999999999978
 51
179.9999999999999
 73
     1
 72
     1
 10
-2.5
 20
0.5
 11
-2.5
 21
0.0
 72
     1
 10
-2.5
 20
0.0
 11
-1.952999999999999
 21
0.0
 72
     2
 10
-1.902999999999999
 20
-0.0000000000000004
 40
0.0500000000000003
 50
180.0000000000005
 51
270.0000000000005
 73
     0
 72
     1
 10
-1.902999999999998
 20
0.0499999999999998
 11
-0.6199999999999993
 21
0.0499999999999998
 72
     2
 10
-0.6200000000000006
 20
-0.0000000000000004
 40
0.0500000000000003
 50
270.0000000000015
 51
359.9999999999995
 73
     0
 72
     1
 10
-0.5700000000000003
 20
0.0
 11
0.0
 21
0.0
 72
     1
 10
0.0
 20
0.0
 11
0.0
 21
0.245920299169939
 72
     2
 10
-0.0990000000000001
 20
0.2459202991699388
 40
0.0990000000000001
 50
0.0000000000000803
 51
82.27000000000002
 73
     1
 97
        1
330
1D26
 75
     0
 76
     1
 52
315.0
 41
0.14
 77
     0
 78
    12
 53
45.0
 43
1.684312581847876
 44
1.505394773761148
 45
0.7919595949289332
 46
-0.0000000000000003
 79
     2
 49
0.5600000000000001
 49
-5.04
 53
45.0
 43
2.971246923607393
 44
2.594339216788431
 45
0.7919595949289332
 46
-0.0000000000000003
 79
     2
 49
0.5600000000000001
 49
-2.24
 53
18.43494881999999
 43
1.28833278438341
 44
1.901374571225614
 45
0.7919595586260603
 46
0.0000000442314982
 79
     2
 49
1.25219808
 49
-11.26978258
 53
59.03624347000002
 43
-0.0975965067422236
 44
0.1194654826355155
 45
0.7919596908495017
 46
0.0000000240384626
 79
     2
 49
0.5772348400000001
 49
-4.04064346
 53
59.03624347000002
 43
0.5953681388205931
 44
1.010420026930565
 45
0.7919596908495017
 46
0.0000000240384626
 79
     2
 49
0.5772348400000001
 49
-4.04064346
 53
59.03624347000002
 43
0.1993883413561261
 44
-0.969478960391768
 45
0.7919596908495017
 46
0.0000000240384626
 79
     2
 49
0.5772348400000001
 49
-4.04064346
 53
30.96375652999997
 43
2.476272176776809
 44
2.297354368690081
 45
0.7919596908495016
 46
-0.000000024038463
 79
     2
 49
0.5772348400000001
 49
-22.51215666
 53
30.96375652999997
 43
9.603908531137211
 44
6.257152343334746
 45
0.7919596908495016
 46
-0.000000024038463
 79
     2
 49
0.5772348400000001
 49
-22.51215666
 53
30.96375652999997
 43
15.93958529056868
 44
10.21695031797941
 45
0.7919596908495016
 46
-0.000000024038463
 79
     2
 49
0.5772348400000001
 49
-22.51215666
 53
71.56505118000001
 43
3.66421156917021
 44
3.485293761083481
 45
0.7919595586260603
 46
-0.0000000442314985
 79
     2
 49
0.6260990400000001
 49
-11.89588162
 53
71.56505118000001
 43
1.288332784383408
 44
-4.434302188205851
 45
0.7919595586260603
 46
-0.0000000442314985
 79
     2
 49
0.6260990400000001
 49
-11.89588162
 53
71.56505118000001
 43
2.872251974241276
 44
-0.4745042135611853
 45
0.7919595586260603
 46
-0.0000000442314985
 79
     2
 49
0.6260990400000001
 49
-11.89588162
 98
        1
 10
1.88230248058011
 20
2.099364469957848
1001
ACAD
1010
0.0
1020
0.0
1030
0.0
  0
ENDBLK
  5
1D28
330
1D21
100
AcDbEntity
  8
0
100
AcDbBlockEnd
  0
BLOCK
  5
1D3E
330
1D3D
100
AcDbEntity
  8
0
100
AcDbBlockBegin
  2
*D14
 70
     1
 10
0.0
 20
0.0
 30
0.0
  3
*D14
  1

  0
LINE
  5
2A61
330
1D3D
100
AcDbEntity
  8
0
100
AcDbLine
 10
6.467247571333275
 20
16.80442141989135
 30
0.0
 11
2.942495336398568
 21
16.80442141989135
 31
0.0
  0
LINE
  5
2A62
330
1D3D
100
AcDbEntity
  8
0
100
AcDbLine
 10
3.192495336398569
 20
21.80442141989136
 30
0.0
 11
3.192495336398568
 21
17.02317141989135
 31
0.0
  0
MTEXT
  5
2A63
330
1D3D
100
AcDbEntity
  8
0
 62
   255
100
AcDbMText
 10
2.879995336398574
 20
20.90726614703634
 30
0.0
 40
0.28
 41
0.0
 71
     5
 72
     1
  1
\A1;FRAME
 11
0.0000000000000001
 21
1.0
 31
0.0
 73
     1
 44
1.0
1001
ACAD
1000
MTEXTBEGIN
1070
    73
1070
     1
1070
    44
1040
1.0
1070
    74
1070
     0
1000
MTEXTEND
  0
SOLID
  5
2A64
330
1D3D
100
AcDbEntity
  8
0
100
AcDbTrace
 10
3.156037003065234
 20
17.02317141989135
 30
0.0
 11
3.228953669731901
 21
17.02317141989135
 31
0.0
 12
3.192495336398568
 22
16.80442141989135
 32
0.0
 13
3.192495336398568
 23
16.80442141989135
 33
0.0
  0
POINT
  5
2A65
330
1D3D
100
AcDbEntity
  8
Defpoints
 62
     0
100
AcDbPoint
 10
7.073059813512556
 20
21.80442141989136
 30
0.0
  0
POINT
  5
2A66
330
1D3D
100
AcDbEntity
  8
Defpoints
 62
     0
100
AcDbPoint
 10
6.967247571333275
 20
16.80442141989135
 30
0.0
  0
POINT
  5
2A67
330
1D3D
100
AcDbEntity
  8
Defpoints
 62
     0
100
AcDbPoint
 10
3.192495336398568
 20
16.80442141989135
 30
0.0
  0
ENDBLK
  5
1D3F
330
1D3D
100
AcDbEntity
  8
0
100
AcDbBlockEnd
  0
BLOCK
  5
1D48
330
1D47
100
AcDbEntity
  8
0
100
AcDbBlockBegin
  2
*D15
 70
     1
 10
0.0
 20
0.0
 30
0.0
  3
*D15
  1

  0
LINE
  5
2A6F
330
1D47
100
AcDbEntity
  8
0
100
AcDbLine
 10
6.467247571333275
 20
16.80442141989135
 30
0.0
 11
1.942495336398567
 21
16.80442141989135
 31
0.0
  0
LINE
  5
2A70
330
1D47
100
AcDbEntity
  8
0
100
AcDbLine
 10
2.192495336398569
 20
21.80442141989136
 30
0.0
 11
2.192495336398568
 21
17.02317141989135
 31
0.0
  0
MTEXT
  5
2A71
330
1D47
100
AcDbEntity
  8
0
 62
   255
100
AcDbMText
 10
1.879995336398573
 20
19.96294861825421
 30
0.0
 40
0.28
 41
0.0
 71
     5
 72
     1
  1
\A1;ROUGH OPENING
 11
0.0000000000000001
 21
1.0
 31
0.0
 73
     1
 44
1.0
1001
ACAD
1000
MTEXTBEGIN
1070
    73
1070
     1
1070
    44
1040
1.0
1070
    74
1070
     0
1000
MTEXTEND
  0
SOLID
  5
2A72
330
1D47
100
AcDbEntity
  8
0
100
AcDbTrace
 10
2.156037003065235
 20
17.02317141989135
 30
0.0
 11
2.228953669731902
 21
17.02317141989135
 31
0.0
 12
2.192495336398568
 22
16.80442141989135
 32
0.0
 13
2.192495336398568
 23
16.80442141989135
 33
0.0
  0
POINT
  5
2A73
330
1D47
100
AcDbEntity
  8
Defpoints
 62
     0
100
AcDbPoint
 10
7.073059813512556
 20
21.80442141989136
 30
0.0
  0
POINT
  5
2A74
330
1D47
100
AcDbEntity
  8
Defpoints
 62
     0
100
AcDbPoint
 10
6.967247571333275
 20
16.80442141989135
 30
0.0
  0
POINT
  5
2A75
330
1D47
100
AcDbEntity
  8
Defpoints
 62
     0
100
AcDbPoint
 10
2.192495336398568
 20
16.80442141989135
 30
0.0
  0
ENDBLK
  5
1D49
330
1D47
100
AcDbEntity
  8
0
100
AcDbBlockEnd
  0
BLOCK
  5
1F66
330
1F65
100
AcDbEntity
  8
0
100
AcDbBlockBegin
  2
*D16
 70
     1
 10
0.0
 20
0.0
 30
0.0
  3
*D16
  1

  0
LINE
  5
2A04
330
1F65
100
AcDbEntity
  8
0
100
AcDbLine
 10
8.437495336398555
 20
27.80442141989135
 30
0.0
 11
2.942495336398566
 21
27.80442141989135
 31
0.0
  0
LINE
  5
2A05
330
1F65
100
AcDbEntity
  8
0
100
AcDbLine
 10
5.906245336398554
 20
28.30442141989135
 30
0.0
 11
2.942495336398565
 21
28.30442141989135
 31
0.0
  0
LINE
  5
2A06
330
1F65
100
AcDbEntity
  8
0
100
AcDbLine
 10
3.192495336398565
 20
27.58567141989135
 30
0.0
 11
3.192495336398565
 21
27.36692141989135
 31
0.0
  0
LINE
  5
2A07
330
1F65
100
AcDbEntity
  8
0
100
AcDbLine
 10
3.192495336398565
 20
28.52317141989135
 30
0.0
 11
3.192495336398565
 21
28.74192141989135
 31
0.0
  0
MTEXT
  5
2A08
330
1F65
100
AcDbEntity
  8
0
 62
   255
100
AcDbMText
 10
3.192495336398573
 20
29.74192141989133
 30
0.0
 40
0.28
 41
0.0
 71
     5
 72
     1
  1
\A1;1/2"\P [13]
 11
0.0000000000000001
 21
1.0
 31
0.0
 73
     1
 44
1.0
1001
ACAD
1000
MTEXTBEGIN
1070
    73
1070
     1
1070
    44
1040
1.0
1070
    74
1070
     0
1000
MTEXTEND
  0
SOLID
  5
2A09
330
1F65
100
AcDbEntity
  8
0
100
AcDbTrace
 10
3.156037003065232
 20
27.58567141989135
 30
0.0
 11
3.228953669731899
 21
27.58567141989135
 31
0.0
 12
3.192495336398565
 22
27.80442141989135
 32
0.0
 13
3.192495336398565
 23
27.80442141989135
 33
0.0
  0
SOLID
  5
2A0A
330
1F65
100
AcDbEntity
  8
0
100
AcDbTrace
 10
3.156037003065232
 20
28.52317141989135
 30
0.0
 11
3.228953669731899
 21
28.52317141989135
 31
0.0
 12
3.192495336398565
 22
28.30442141989135
 32
0.0
 13
3.192495336398565
 23
28.30442141989135
 33
0.0
  0
POINT
  5
2A0B
330
1F65
100
AcDbEntity
  8
Defpoints
 62
     0
100
AcDbPoint
 10
8.937495336398555
 20
27.80442141989135
 30
0.0
  0
POINT
  5
2A0C
330
1F65
100
AcDbEntity
  8
Defpoints
 62
     0
100
AcDbPoint
 10
6.406245336398554
 20
28.30442141989135
 30
0.0
  0
POINT
  5
2A0D
330
1F65
100
AcDbEntity
  8
Defpoints
 62
     0
100
AcDbPoint
 10
3.192495336398565
 20
28.30442141989135
 30
0.0
  0
ENDBLK
  5
1F67
330
1F65
100
AcDbEntity
  8
0
100
AcDbBlockEnd
  0
BLOCK
  5
1F73
330
1F72
100
AcDbEntity
  8
0
100
AcDbBlockBegin
  2
*D17
 70
     1
 10
0.0
 20
0.0
 30
0.0
  3
*D17
  1

  0
LINE
  5
2A15
330
1F72
100
AcDbEntity
  8
0
100
AcDbLine
 10
5.906245336398554
 20
28.30442141989135
 30
0.0
 11
1.942495336398563
 21
28.30442141989135
 31
0.0
  0
LINE
  5
2A16
330
1F72
100
AcDbEntity
  8
0
100
AcDbLine
 10
2.192495336398563
 20
22.80442141989135
 30
0.0
 11
2.192495336398564
 21
28.08567141989135
 31
0.0
  0
MTEXT
  5
2A17
330
1F72
100
AcDbEntity
  8
0
 62
   255
100
AcDbMText
 10
1.879995336398573
 20
24.64589422152846
 30
0.0
 40
0.28
 41
0.0
 71
     5
 72
     1
  1
\A1;ROUGH OPENING
 11
0.0000000000000001
 21
1.0
 31
0.0
 73
     1
 44
1.0
1001
ACAD
1000
MTEXTBEGIN
1070
    73
1070
     1
1070
    44
1040
1.0
1070
    74
1070
     0
1000
MTEXTEND
  0
SOLID
  5
2A18
330
1F72
100
AcDbEntity
  8
0
100
AcDbTrace
 10
2.15603700306523
 20
28.08567141989135
 30
0.0
 11
2.228953669731897
 21
28.08567141989135
 31
0.0
 12
2.192495336398564
 22
28.30442141989135
 32
0.0
 13
2.192495336398564
 23
28.30442141989135
 33
0.0
  0
POINT
  5
2A19
330
1F72
100
AcDbEntity
  8
Defpoints
 62
     0
100
AcDbPoint
 10
6.941772340952396
 20
22.80442141989135
 30
0.0
  0
POINT
  5
2A1A
330
1F72
100
AcDbEntity
  8
Defpoints
 62
     0
100
AcDbPoint
 10
6.406245336398554
 20
28.30442141989135
 30
0.0
  0
POINT
  5
2A1B
330
1F72
100
AcDbEntity
  8
Defpoints
 62
     0
100
AcDbPoint
 10
2.192495336398564
 20
28.30442141989135
 30
0.0
  0
ENDBLK
  5
1F74
330
1F72
100
AcDbEntity
  8
0
100
AcDbBlockEnd
  0
BLOCK
  5
1F7D
330
1F7C
100
AcDbEntity
  8
0
100
AcDbBlockBegin
  2
*D18
 70
     1
 10
0.0
 20
0.0
 30
0.0
  3
*D18
  1

  0
LINE
  5
2A23
330
1F7C
100
AcDbEntity
  8
0
100
AcDbLine
 10
8.437495336398555
 20
27.80442141989136
 30
0.0
 11
2.942495336398562
 21
27.80442141989136
 31
0.0
  0
LINE
  5
2A24
330
1F7C
100
AcDbEntity
  8
0
100
AcDbLine
 10
3.192495336398562
 20
22.80442141989135
 30
0.0
 11
3.192495336398563
 21
27.58567141989136
 31
0.0
  0
MTEXT
  5
2A25
330
1F7C
100
AcDbEntity
  8
0
 62
   255
100
AcDbMText
 10
2.879995336398574
 20
23.70157669274636
 30
0.0
 40
0.28
 41
0.0
 71
     5
 72
     1
  1
\A1;FRAME
 11
0.0000000000000001
 21
1.0
 31
0.0
 73
     1
 44
1.0
1001
ACAD
1000
MTEXTBEGIN
1070
    73
1070
     1
1070
    44
1040
1.0
1070
    74
1070
     0
1000
MTEXTEND
  0
SOLID
  5
2A26
330
1F7C
100
AcDbEntity
  8
0
100
AcDbTrace
 10
3.156037003065229
 20
27.58567141989136
 30
0.0
 11
3.228953669731896
 21
27.58567141989136
 31
0.0
 12
3.192495336398563
 22
27.80442141989136
 32
0.0
 13
3.192495336398563
 23
27.80442141989136
 33
0.0
  0
POINT
  5
2A27
330
1F7C
100
AcDbEntity
  8
Defpoints
 62
     0
100
AcDbPoint
 10
6.941772340952396
 20
22.80442141989135
 30
0.0
  0
POINT
  5
2A28
330
1F7C
100
AcDbEntity
  8
Defpoints
 62
     0
100
AcDbPoint
 10
8.937495336398555
 20
27.80442141989136
 30
0.0
  0
POINT
  5
2A29
330
1F7C
100
AcDbEntity
  8
Defpoints
 62
     0
100
AcDbPoint
 10
3.192495336398563
 20
27.80442141989136
 30
0.0
  0
ENDBLK
  5
1F7E
330
1F7C
100
AcDbEntity
  8
0
100
AcDbBlockEnd
  0
BLOCK
  5
254D
330
2526
100
AcDbEntity
  8
0
100
AcDbBlockBegin
  2
FOAM1
 70
     0
 10
0.0
 20
0.0
 30
0.0
  3
FOAM1
  1

  0
CIRCLE
  5
2527
330
2526
100
AcDbEntity
  8
Pel_Wall
100
AcDbCircle
 10
0.8888365763369517
 20
-0.0628599912741242
 30
0.0
 40
0.0339494177336776
  0
POLYLINE
  5
2528
330
2526
100
AcDbEntity
  8
Pel_Wall
100
AcDb2dPolyline
 66
     1
 10
0.0
 20
0.0
 30
0.0
 70
     1
  0
VERTEX
  5
26E8
330
2528
100
AcDbEntity
  8
Pel_Wall
100
AcDbVertex
100
AcDb2dVertex
 10
0.9374999999999989
 20
-0.0000000000000005
 30
0.0
  0
VERTEX
  5
26E9
330
2528
100
AcDbEntity
  8
Pel_Wall
100
AcDbVertex
100
AcDb2dVertex
 10
0.062499999999999
 20
-0.0000000000000008
 30
0.0
 42
0.4142135201926952
  0
VERTEX
  5
26EA
330
2528
100
AcDbEntity
  8
Pel_Wall
100
AcDbVertex
100
AcDb2dVertex
 10
0.0624999999999991
 20
-0.3125000450040475
 30
0.0
  0
VERTEX
  5
26EB
330
2528
100
AcDbEntity
  8
Pel_Wall
100
AcDbVertex
100
AcDb2dVertex
 10
0.9374999999999991
 20
-0.3125000450040436
 30
0.0
 42
0.4142135201926917
  0
VERTEX
  5
26EC
330
2528
100
AcDbEntity
  8
Pel_Wall
100
AcDbVertex
100
AcDb2dVertex
 10
0.9374999999999989
 20
-0.0000000000000005
 30
0.0
  0
SEQEND
  5
26ED
330
2528
100
AcDbEntity
  8
Pel_Wall
  0
CIRCLE
  5
252F
330
2526
100
AcDbEntity
  8
Pel_Wall
100
AcDbCircle
 10
0.7557105633208385
 20
-0.2072927991393249
 30
0.0
 40
0.0339494177336776
  0
CIRCLE
  5
2530
330
2526
100
AcDbEntity
  8
Pel_Wall
100
AcDbCircle
 10
0.6387236652603389
 20
-0.0538437433902607
 30
0.0
 40
0.0339494177336776
  0
CIRCLE
  5
2531
330
2526
100
AcDbEntity
  8
Pel_Wall
100
AcDbCircle
 10
0.501490870892769
 20
-0.1764588288447342
 30
0.0
 40
0.0339494177336776
  0
CIRCLE
  5
2532
330
2526
100
AcDbEntity
  8
Pel_Wall
100
AcDbCircle
 10
0.3246745122427467
 20
-0.0441973237942513
 30
0.0
 40
0.0339494177336776
  0
CIRCLE
  5
2533
330
2526
100
AcDbEntity
  8
Pel_Wall
100
AcDbCircle
 10
0.1026950210908478
 20
-0.0717856134512517
 30
0.0
 40
0.0339494177336776
  0
CIRCLE
  5
2534
330
2526
100
AcDbEntity
  8
Pel_Wall
100
AcDbCircle
 10
0.2334747586072785
 20
-0.2211095436613604
 30
0.0
 40
0.0339494177336776
  0
CIRCLE
  5
2535
330
2526
100
AcDbEntity
  8
Pel_Wall
100
AcDbCircle
 10
0.1014565870154013
 20
-0.2576131553567586
 30
0.0
 40
0.0166728848683996
  0
CIRCLE
  5
2536
330
2526
100
AcDbEntity
  8
Pel_Wall
100
AcDbCircle
 10
0.0461931663490337
 20
-0.1511100090459693
 30
0.0
 40
0.0166728848683996
  0
CIRCLE
  5
2537
330
2526
100
AcDbEntity
  8
Pel_Wall
100
AcDbCircle
 10
0.1468284082382024
 20
-0.1781015599216794
 30
0.0
 40
0.0166728848683996
  0
CIRCLE
  5
2538
330
2526
100
AcDbEntity
  8
Pel_Wall
100
AcDbCircle
 10
0.170024162888409
 20
-0.0242594260217687
 30
0.0
 40
0.0166728848683996
  0
CIRCLE
  5
2539
330
2526
100
AcDbEntity
  8
Pel_Wall
100
AcDbCircle
 10
0.2549660888664239
 20
-0.0559720713540742
 30
0.0
 40
0.0166728848683996
  0
CIRCLE
  5
253A
330
2526
100
AcDbEntity
  8
Pel_Wall
100
AcDbCircle
 10
0.2058430482740964
 20
-0.1204203514526164
 30
0.0
 40
0.0166728848683996
  0
CIRCLE
  5
253B
330
2526
100
AcDbEntity
  8
Pel_Wall
100
AcDbCircle
 10
0.3227529889462798
 20
-0.1544382249142522
 30
0.0
 40
0.0166728848683996
  0
CIRCLE
  5
253C
330
2526
100
AcDbEntity
  8
Pel_Wall
100
AcDbCircle
 10
0.3276272522656844
 20
-0.2823725947174019
 30
0.0
 40
0.0166728848683996
  0
CIRCLE
  5
253D
330
2526
100
AcDbEntity
  8
Pel_Wall
100
AcDbCircle
 10
0.402335210643403
 20
-0.215558289144515
 30
0.0
 40
0.0166728848683996
  0
CIRCLE
  5
253E
330
2526
100
AcDbEntity
  8
Pel_Wall
100
AcDbCircle
 10
0.4309579945735952
 20
-0.1099106476594833
 30
0.0
 40
0.0166728848683996
  0
CIRCLE
  5
253F
330
2526
100
AcDbEntity
  8
Pel_Wall
100
AcDbCircle
 10
0.4719261840056452
 20
-0.0222134488488777
 30
0.0
 40
0.0166728848683996
  0
CIRCLE
  5
2540
330
2526
100
AcDbEntity
  8
Pel_Wall
100
AcDbCircle
 10
0.5681254726425094
 20
-0.2700000000000144
 30
0.0
 40
0.0166728848683996
  0
CIRCLE
  5
2541
330
2526
100
AcDbEntity
  8
Pel_Wall
100
AcDbCircle
 10
0.6203093783466
 20
-0.136466654489429
 30
0.0
 40
0.0166728848683996
  0
CIRCLE
  5
2542
330
2526
100
AcDbEntity
  8
Pel_Wall
100
AcDbCircle
 10
0.7155916685661933
 20
-0.107544326702851
 30
0.0
 40
0.0166728848683996
  0
CIRCLE
  5
2543
330
2526
100
AcDbEntity
  8
Pel_Wall
100
AcDbCircle
 10
0.5357201334699963
 20
-0.084392540511218
 30
0.0
 40
0.0166728848683996
  0
CIRCLE
  5
2544
330
2526
100
AcDbEntity
  8
Pel_Wall
100
AcDbCircle
 10
0.6753862920821687
 20
-0.2173370926426059
 30
0.0
 40
0.0166728848683996
  0
CIRCLE
  5
2545
330
2526
100
AcDbEntity
  8
Pel_Wall
100
AcDbCircle
 10
0.7903337697686714
 20
-0.1153731059068092
 30
0.0
 40
0.0166728848683996
  0
CIRCLE
  5
2546
330
2526
100
AcDbEntity
  8
Pel_Wall
100
AcDbCircle
 10
0.8066873657857652
 20
-0.0386736491064716
 30
0.0
 40
0.0166728848683996
  0
CIRCLE
  5
2547
330
2526
100
AcDbEntity
  8
Pel_Wall
100
AcDbCircle
 10
0.9675556176318156
 20
-0.1014616876450104
 30
0.0
 40
0.0166728848683996
  0
CIRCLE
  5
2548
330
2526
100
AcDbEntity
  8
Pel_Wall
100
AcDbCircle
 10
0.9465617161956021
 20
-0.17852166217379
 30
0.0
 40
0.0166728848683996
  0
CIRCLE
  5
2549
330
2526
100
AcDbEntity
  8
Pel_Wall
100
AcDbCircle
 10
0.8540084060131423
 20
-0.1935003333352375
 30
0.0
 40
0.0166728848683996
  0
CIRCLE
  5
254A
330
2526
100
AcDbEntity
  8
Pel_Wall
100
AcDbCircle
 10
0.8385491590652867
 20
-0.2843865516172498
 30
0.0
 40
0.0166728848683996
  0
CIRCLE
  5
254B
330
2526
100
AcDbEntity
  8
Pel_Wall
100
AcDbCircle
 10
0.9340740215628882
 20
-0.2564925899885649
 30
0.0
 40
0.0166728848683996
  0
ENDBLK
  5
254E
330
2526
100
AcDbEntity
  8
0
100
AcDbBlockEnd
  0
ENDSEC
  0
SECTION
  2
ENTITIES
  0
POLYLINE
  5
73
102
{ACAD_REACTORS
330
7A
102
}
330
2
100
AcDbEntity
  8
0
100
AcDb2dPolyline
 66
     1
 10
0.0
 20
0.0
 30
0.0
 70
     1
  0
VERTEX
  5
75
330
73
100
AcDbEntity
  8
0
100
AcDbVertex
100
AcDb2dVertex
 10
23.61917902130711
 20
27.90372274643436
 30
0.0
  0
VERTEX
  5
76
330
73
100
AcDbEntity
  8
0
100
AcDbVertex
100
AcDb2dVertex
 10
24.4683703551091
 20
27.90372274643436
 30
0.0
  0
VERTEX
  5
77
330
73
100
AcDbEntity
  8
0
100
AcDbVertex
100
AcDb2dVertex
 10
24.4683703551091
 20
26.45049131714362
 30
0.0
  0
VERTEX
  5
78
330
73
100
AcDbEntity
  8
0
100
AcDbVertex
100
AcDb2dVertex
 10
23.61917902130711
 20
26.45034419413434
 30
0.0
  0
SEQEND
  5
79
330
73
100
AcDbEntity
  8
0
  0
HATCH
  5
7A
330
2
100
AcDbEntity
  8
0
100
AcDbHatch
 10
0.0
 20
0.0
 30
0.0
210
0.0
220
0.0
230
1.0
  2
WOOD
 70
     0
 71
     1
 91
        1
 92
        1
 93
        4
 72
     1
 10
23.61917902130711
 20
27.90372274643436
 11
24.4683703551091
 21
27.90372274643436
 72
     1
 10
24.4683703551091
 20
27.90372274643436
 11
24.4683703551091
 21
26.45049131714362
 72
     1
 10
24.4683703551091
 20
26.45049131714362
 11
23.61917902130711
 21
26.45034419413434
 72
     1
 10
23.61917902130711
 20
26.45034419413434
 11
23.61917902130711
 21
27.90372274643436
 97
        1
330
73
 75
     0
 76
     1
 52
225.0
 41
0.14
 77
     0
 78
    12
 53
315.0
 43
47.49998422683302
 44
4.78453070730737
 45
-0.0000000000000002
 46
-0.7919595949289332
 79
     2
 49
0.5600000000000001
 49
-5.04
 53
315.0
 43
48.58892866986031
 44
3.497596365547851
 45
-0.0000000000000002
 46
-0.7919595949289332
 79
     2
 49
0.5600000000000001
 49
-2.24
 53
288.4349488200001
 43
47.89596402429748
 44
5.180510504771836
 45
0.0000000442314982
 46
-0.7919595586260602
 79
     2
 49
1.25219808
 49
-11.26978258
 53
329.03624347
 43
46.1140549357074
 44
6.566439795897467
 45
0.0000000240384626
 46
-0.7919596908495017
 79
     2
 49
0.5772348400000001
 49
-4.04064346
 53
329.03624347
 43
47.00500948000246
 44
5.87347515033465
 45
0.0000000240384626
 46
-0.7919596908495017
 79
     2
 49
0.5772348400000001
 49
-4.04064346
 53
329.03624347
 43
45.02511049268011
 44
6.269454947799117
 45
0.0000000240384626
 46
-0.7919596908495017
 79
     2
 49
0.5772348400000001
 49
-4.04064346
 53
300.96375653
 43
48.29194382176197
 44
3.992571112378433
 45
-0.0000000240384629
 46
-0.7919596908495016
 79
     2
 49
0.5772348400000001
 49
-22.51215666
 53
300.96375653
 43
52.25174179640664
 44
-3.135065241981964
 45
-0.0000000240384629
 46
-0.7919596908495016
 79
     2
 49
0.5772348400000001
 49
-22.51215666
 53
300.96375653
 43
56.21153977105132
 44
-9.470742001413428
 45
-0.0000000240384629
 46
-0.7919596908495016
 79
     2
 49
0.5772348400000001
 49
-22.51215666
 53
341.56505118
 43
49.47988321415536
 44
2.804631719985033
 45
-0.0000000442314984
 46
-0.7919595586260602
 79
     2
 49
0.6260990400000001
 49
-11.89588162
 53
341.56505118
 43
41.56028726486602
 44
5.180510504771837
 45
-0.0000000442314984
 46
-0.7919595586260602
 79
     2
 49
0.6260990400000001
 49
-11.89588162
 53
341.56505118
 43
45.5200852395107
 44
3.596591314913966
 45
-0.0000000442314984
 46
-0.7919595586260602
 79
     2
 49
0.6260990400000001
 49
-11.89588162
 98
        1
 10
43.9941790213071
 20
54.20346673491014
  0
POLYLINE
  5
153
330
2
100
AcDbEntity
  8
0
100
AcDb2dPolyline
 66
     1
 10
0.0
 20
0.0
 30
0.0
  0
VERTEX
  5
154
330
153
100
AcDbEntity
  8
0
100
AcDbVertex
100
AcDb2dVertex
 10
1.728452877013873
 20
21.80442141989134
 30
0.0
  0
VERTEX
  5
155
330
153
100
AcDbEntity
  8
0
100
AcDbVertex
100
AcDb2dVertex
 10
8.663787732412195
 20
21.80442141989135
 30
0.0
  0
VERTEX
  5
156
330
153
100
AcDbEntity
  8
0
100
AcDbVertex
100
AcDb2dVertex
 10
8.726287732412195
 20
22.05442141989135
 30
0.0
  0
VERTEX
  5
157
330
153
100
AcDbEntity
  8
0
100
AcDbVertex
100
AcDb2dVertex
 10
8.851287732412195
 20
21.55442141989135
 30
0.0
  0
VERTEX
  5
158
330
153
100
AcDbEntity
  8
0
100
AcDbVertex
100
AcDb2dVertex
 10
8.913787732412195
 20
21.80442141989135
 30
0.0
  0
VERTEX
  5
159
330
153
100
AcDbEntity
  8
0
100
AcDbVertex
100
AcDb2dVertex
 10
13.49045619357684
 20
21.80442141989132
 30
0.0
  0
VERTEX
  5
15A
330
153
100
AcDbEntity
  8
0
100
AcDbVertex
100
AcDb2dVertex
 10
13.55295619357685
 20
22.05442141989132
 30
0.0
  0
VERTEX
  5
15B
330
153
100
AcDbEntity
  8
0
100
AcDbVertex
100
AcDb2dVertex
 10
13.67795619357685
 20
21.55442141989132
 30
0.0
  0
VERTEX
  5
15C
330
153
100
AcDbEntity
  8
0
100
AcDbVertex
100
AcDb2dVertex
 10
13.74045619357685
 20
21.80442141989132
 30
0.0
  0
VERTEX
  5
15D
330
153
100
AcDbEntity
  8
0
100
AcDbVertex
100
AcDb2dVertex
 10
14.74999533639857
 20
21.80442141989134
 30
0.0
  0
SEQEND
  5
15E
330
153
100
AcDbEntity
  8
0
  0
INSERT
  5
18B
330
2
100
AcDbEntity
  8
0
100
AcDbBlockReference
  2
TSE10SDSV
 10
8.788787732412219
 20
16.80442141989131
 30
0.0
  0
INSERT
  5
1F0
330
2
100
AcDbEntity
  8
0
100
AcDbBlockReference
  2
Td-2xbrk-fS-wdDr
 10
8.788787732412219
 20
16.80442141989132
 30
0.0
  0
DIMENSION
  5
282
330
2
100
AcDbEntity
  8
0
100
AcDbDimension
  2
*D15
 10
2.192495336398568
 20
16.80442141989135
 30
0.0
 11
1.879995336398573
 21
19.96294861825421
 31
0.0
 70
   160
  1
ROUGH OPENING
 71
     5
 42
5.000000000000007
  3
3 inch Scale
100
AcDbAlignedDimension
 13
7.073059813512557
 23
21.80442141989136
 33
0.0
 14
6.967247571333276
 24
16.80442141989135
 34
0.0
 50
90.0
100
AcDbRotatedDimension
1001
ACAD
1000
DSTYLE
1002
{
1070
   343
1005
283
1070
   173
1070
     1
1070
   344
1005
0
1070
    76
1070
     0
1070
    75
1070
     1
1002
}
  0
DIMENSION
  5
291
330
2
100
AcDbEntity
  8
0
100
AcDbDimension
  2
*D14
 10
3.192495336398568
 20
16.80442141989135
 30
0.0
 11
2.879995336398574
 21
20.90726614703634
 31
0.0
 70
   160
  1
FRAME
 71
     5
 42
5.000000000000007
  3
3 inch Scale
100
AcDbAlignedDimension
 13
7.073059813512557
 23
21.80442141989136
 33
0.0
 14
6.967247571333276
 24
16.80442141989135
 34
0.0
 50
270.0
100
AcDbRotatedDimension
1001
ACAD
1000
DSTYLE
1002
{
1070
   343
1005
283
1070
   173
1070
     1
1070
   344
1005
0
1070
    76
1070
     0
1070
    75
1070
     1
1002
}
  0
MTEXT
  5
29C
330
2
100
AcDbEntity
  8
0
100
AcDbMText
 10
11.34918188278764
 20
13.5520645553214
 30
0.0
 40
0.28
 41
1.40369753947796
 71
     2
 72
     5
  1
SILL
 73
     1
 44
1.0
1001
ACAD
1000
MTEXTBEGIN
1070
    73
1070
     1
1070
    44
1040
1.0
1070
    74
1070
     0
1000
MTEXTEND
  0
POLYLINE
  5
2B9
102
{ACAD_REACTORS
330
2BF
102
}
330
2
100
AcDbEntity
  8
0
100
AcDb2dPolyline
 66
     1
 10
0.0
 20
0.0
 30
0.0
 70
     1
  0
VERTEX
  5
2BA
330
2B9
100
AcDbEntity
  8
0
100
AcDbVertex
100
AcDb2dVertex
 10
14.78124533639861
 20
27.81042141989121
 30
0.0
  0
VERTEX
  5
2BB
330
2B9
100
AcDbEntity
  8
0
100
AcDbVertex
100
AcDb2dVertex
 10
14.78124533639861
 20
26.9612300860892
 30
0.0
  0
VERTEX
  5
2BC
330
2B9
100
AcDbEntity
  8
0
100
AcDbVertex
100
AcDb2dVertex
 10
13.28878773241221
 20
26.96123008608918
 30
0.0
  0
VERTEX
  5
2BD
330
2B9
100
AcDbEntity
  8
0
100
AcDbVertex
100
AcDb2dVertex
 10
13.28864060940291
 20
27.8104214198912
 30
0.0
  0
SEQEND
  5
2BE
330
2B9
100
AcDbEntity
  8
0
  0
HATCH
  5
2BF
330
2
100
AcDbEntity
  8
0
100
AcDbHatch
 10
0.0
 20
0.0
 30
0.0
210
0.0
220
0.0
230
1.0
  2
WOOD
 70
     0
 71
     1
 91
        1
 92
        1
 93
        4
 72
     1
 10
14.78124533639861
 20
27.81042141989121
 11
14.78124533639861
 21
26.9612300860892
 72
     1
 10
14.78124533639861
 20
26.9612300860892
 11
13.28878773241221
 21
26.96123008608918
 72
     1
 10
13.28878773241221
 20
26.96123008608918
 11
13.28864060940291
 21
27.8104214198912
 72
     1
 10
13.28864060940291
 20
27.8104214198912
 11
14.78124533639861
 21
27.81042141989121
 97
        1
330
2B9
 75
     0
 76
     1
 52
135.0
 41
0.14
 77
     0
 78
    12
 53
225.0
 43
-8.35707723481903
 44
3.929616214365255
 45
-0.7919595949289332
 46
0.0000000000000001
 79
     2
 49
0.5600000000000001
 49
-5.04
 53
225.0
 43
-9.644011576578549
 44
2.840671771337972
 45
-0.7919595949289332
 46
0.0000000000000001
 79
     2
 49
0.5600000000000001
 49
-2.24
 53
198.43494882
 43
-7.961097437354553
 44
3.533636416900789
 45
-0.7919595586260602
 46
-0.0000000442314982
 79
     2
 49
1.25219808
 49
-11.26978258
 53
239.03624347
 43
-6.575168146228932
 44
5.315545505490888
 45
-0.7919596908495017
 46
-0.0000000240384627
 79
     2
 49
0.5772348400000001
 49
-4.04064346
 53
239.03624347
 43
-7.268132791791742
 44
4.424590961195838
 45
-0.7919596908495017
 46
-0.0000000240384627
 79
     2
 49
0.5772348400000001
 49
-4.04064346
 53
239.03624347
 43
-6.872152994327279
 44
6.404489948518172
 45
-0.7919596908495017
 46
-0.0000000240384627
 79
     2
 49
0.5772348400000001
 49
-4.04064346
 53
210.96375653
 43
-9.14903682974797
 44
3.137656619436322
 45
-0.7919596908495016
 46
0.0000000240384629
 79
     2
 49
0.5772348400000001
 49
-22.51215666
 53
210.96375653
 43
-16.27667318410836
 44
-0.8221413552083429
 45
-0.7919596908495016
 46
0.0000000240384629
 79
     2
 49
0.5772348400000001
 49
-22.51215666
 53
210.96375653
 43
-22.61234994353983
 44
-4.78193932985301
 45
-0.7919596908495016
 46
0.0000000240384629
 79
     2
 49
0.5772348400000001
 49
-22.51215666
 53
251.56505118
 43
-10.33697622214136
 44
1.949717227042922
 45
-0.7919595586260602
 46
0.0000000442314984
 79
     2
 49
0.6260990400000001
 49
-11.89588162
 53
251.56505118
 43
-7.961097437354553
 44
9.869313176332255
 45
-0.7919595586260602
 46
0.0000000442314984
 79
     2
 49
0.6260990400000001
 49
-11.89588162
 53
251.56505118
 43
-9.545016627212433
 44
5.909515201687589
 45
-0.7919595586260602
 46
0.0000000442314984
 79
     2
 49
0.6260990400000001
 49
-11.89588162
 98
        1
 10
41.06185879278372
 20
7.435421419891204
  0
POLYLINE
  5
32C
330
2
100
AcDbEntity
  8
0
100
AcDb2dPolyline
 66
     1
 10
0.0
 20
0.0
 30
0.0
  0
VERTEX
  5
32D
330
32C
100
AcDbEntity
  8
0
100
AcDbVertex
100
AcDb2dVertex
 10
27.99511873324925
 20
13.86692141989133
 30
0.0
  0
VERTEX
  5
32E
330
32C
100
AcDbEntity
  8
0
100
AcDbVertex
100
AcDb2dVertex
 10
27.99511873324925
 20
21.91858551447974
 30
0.0
  0
VERTEX
  5
32F
330
32C
100
AcDbEntity
  8
0
100
AcDbVertex
100
AcDb2dVertex
 10
27.74511873324925
 20
21.98108551447974
 30
0.0
  0
VERTEX
  5
330
330
32C
100
AcDbEntity
  8
0
100
AcDbVertex
100
AcDb2dVertex
 10
28.24511873324925
 20
22.10608551447974
 30
0.0
  0
VERTEX
  5
331
330
32C
100
AcDbEntity
  8
0
100
AcDbVertex
100
AcDb2dVertex
 10
27.99511873324925
 20
22.16858551447974
 30
0.0
  0
VERTEX
  5
332
330
32C
100
AcDbEntity
  8
0
100
AcDbVertex
100
AcDb2dVertex
 10
27.99511873324925
 20
26.23968326491765
 30
0.0
  0
VERTEX
  5
333
330
32C
100
AcDbEntity
  8
0
100
AcDbVertex
100
AcDb2dVertex
 10
27.74511873324925
 20
26.30218326491765
 30
0.0
  0
VERTEX
  5
334
330
32C
100
AcDbEntity
  8
0
100
AcDbVertex
100
AcDb2dVertex
 10
28.24511873324925
 20
26.42718326491765
 30
0.0
  0
VERTEX
  5
335
330
32C
100
AcDbEntity
  8
0
100
AcDbVertex
100
AcDb2dVertex
 10
27.99511873324925
 20
26.48968326491765
 30
0.0
  0
VERTEX
  5
336
330
32C
100
AcDbEntity
  8
0
100
AcDbVertex
100
AcDb2dVertex
 10
27.99511873324925
 20
29.98968326491765
 30
0.0
  0
SEQEND
  5
337
330
32C
100
AcDbEntity
  8
0
  0
POLYLINE
  5
338
330
2
100
AcDbEntity
  8
0
100
AcDb2dPolyline
 66
     1
 10
0.0
 20
0.0
 30
0.0
  0
VERTEX
  5
339
330
338
100
AcDbEntity
  8
0
100
AcDbVertex
100
AcDb2dVertex
 10
18.36917902130713
 20
17.05442141989133
 30
0.0
  0
VERTEX
  5
33A
330
338
100
AcDbEntity
  8
0
100
AcDbVertex
100
AcDb2dVertex
 10
18.36917902130713
 20
21.91858551447975
 30
0.0
  0
VERTEX
  5
33B
330
338
100
AcDbEntity
  8
0
100
AcDbVertex
100
AcDb2dVertex
 10
18.11917902130713
 20
21.98108551447974
 30
0.0
  0
VERTEX
  5
33C
330
338
100
AcDbEntity
  8
0
100
AcDbVertex
100
AcDb2dVertex
 10
18.61917902130713
 20
22.10608551447974
 30
0.0
  0
VERTEX
  5
33D
330
338
100
AcDbEntity
  8
0
100
AcDbVertex
100
AcDb2dVertex
 10
18.36917902130713
 20
22.16858551447975
 30
0.0
  0
VERTEX
  5
33E
330
338
100
AcDbEntity
  8
0
100
AcDbVertex
100
AcDb2dVertex
 10
18.36917902130713
 20
25.65314483687722
 30
0.0
  0
VERTEX
  5
33F
330
338
100
AcDbEntity
  8
0
100
AcDbVertex
100
AcDb2dVertex
 10
18.11917902130713
 20
25.71564483687722
 30
0.0
  0
VERTEX
  5
340
330
338
100
AcDbEntity
  8
0
100
AcDbVertex
100
AcDb2dVertex
 10
18.61917902130713
 20
25.84064483687722
 30
0.0
  0
VERTEX
  5
341
330
338
100
AcDbEntity
  8
0
100
AcDbVertex
100
AcDb2dVertex
 10
18.36917902130713
 20
25.90314483687722
 30
0.0
  0
VERTEX
  5
342
330
338
100
AcDbEntity
  8
0
100
AcDbVertex
100
AcDb2dVertex
 10
18.36917902130713
 20
29.40314483687722
 30
0.0
  0
SEQEND
  5
343
330
338
100
AcDbEntity
  8
0
  0
POLYLINE
  5
344
330
2
100
AcDbEntity
  8
0
100
AcDb2dPolyline
 66
     1
 10
0.0
 20
0.0
 30
0.0
  0
VERTEX
  5
345
330
344
100
AcDbEntity
  8
0
100
AcDbVertex
100
AcDb2dVertex
 10
1.879995336398573
 20
22.80442141989135
 30
0.0
  0
VERTEX
  5
346
330
344
100
AcDbEntity
  8
0
100
AcDbVertex
100
AcDb2dVertex
 10
8.66378773241221
 20
22.80442141989135
 30
0.0
  0
VERTEX
  5
347
330
344
100
AcDbEntity
  8
0
100
AcDbVertex
100
AcDb2dVertex
 10
8.72628773241221
 20
23.05442141989136
 30
0.0
  0
VERTEX
  5
348
330
344
100
AcDbEntity
  8
0
100
AcDbVertex
100
AcDb2dVertex
 10
8.85128773241221
 20
22.55442141989135
 30
0.0
  0
VERTEX
  5
349
330
344
100
AcDbEntity
  8
0
100
AcDbVertex
100
AcDb2dVertex
 10
8.91378773241221
 20
22.80442141989135
 30
0.0
  0
VERTEX
  5
34A
330
344
100
AcDbEntity
  8
0
100
AcDbVertex
100
AcDb2dVertex
 10
13.49045619357684
 20
22.80442141989135
 30
0.0
  0
VERTEX
  5
34B
330
344
100
AcDbEntity
  8
0
100
AcDbVertex
100
AcDb2dVertex
 10
13.55295619357685
 20
23.05442141989136
 30
0.0
  0
VERTEX
  5
34C
330
344
100
AcDbEntity
  8
0
100
AcDbVertex
100
AcDb2dVertex
 10
13.67795619357685
 20
22.55442141989135
 30
0.0
  0
VERTEX
  5
34D
330
344
100
AcDbEntity
  8
0
100
AcDbVertex
100
AcDb2dVertex
 10
13.74045619357685
 20
22.80442141989135
 30
0.0
  0
VERTEX
  5
34E
330
344
100
AcDbEntity
  8
0
100
AcDbVertex
100
AcDb2dVertex
 10
14.74999533639857
 20
22.80442141989135
 30
0.0
  0
SEQEND
  5
34F
330
344
100
AcDbEntity
  8
0
  0
POLYLINE
  5
350
330
2
100
AcDbEntity
  8
0
100
AcDb2dPolyline
 66
     1
 10
0.0
 20
0.0
 30
0.0
  0
VERTEX
  5
351
330
350
100
AcDbEntity
  8
0
100
AcDbVertex
100
AcDb2dVertex
 10
4.051930859284539
 20
32.30442141989136
 30
0.0
  0
VERTEX
  5
352
330
350
100
AcDbEntity
  8
0
100
AcDbVertex
100
AcDb2dVertex
 10
8.66378773241221
 20
32.30442141989136
 30
0.0
  0
VERTEX
  5
353
330
350
100
AcDbEntity
  8
0
100
AcDbVertex
100
AcDb2dVertex
 10
8.72628773241221
 20
32.55442141989135
 30
0.0
  0
VERTEX
  5
354
330
350
100
AcDbEntity
  8
0
100
AcDbVertex
100
AcDb2dVertex
 10
8.85128773241221
 20
32.05442141989136
 30
0.0
  0
VERTEX
  5
355
330
350
100
AcDbEntity
  8
0
100
AcDbVertex
100
AcDb2dVertex
 10
8.91378773241221
 20
32.30442141989136
 30
0.0
  0
VERTEX
  5
356
330
350
100
AcDbEntity
  8
0
100
AcDbVertex
100
AcDb2dVertex
 10
13.75538326743305
 20
32.30442141989136
 30
0.0
  0
VERTEX
  5
357
330
350
100
AcDbEntity
  8
0
100
AcDbVertex
100
AcDb2dVertex
 10
13.81788326743304
 20
32.55442141989135
 30
0.0
  0
VERTEX
  5
358
330
350
100
AcDbEntity
  8
0
100
AcDbVertex
100
AcDb2dVertex
 10
13.94288326743305
 20
32.05442141989136
 30
0.0
  0
VERTEX
  5
359
330
350
100
AcDbEntity
  8
0
100
AcDbVertex
100
AcDb2dVertex
 10
14.00538326743304
 20
32.30442141989136
 30
0.0
  0
VERTEX
  5
35A
330
350
100
AcDbEntity
  8
0
100
AcDbVertex
100
AcDb2dVertex
 10
16.55193085928454
 20
32.30442141989136
 30
0.0
  0
SEQEND
  5
35B
330
350
100
AcDbEntity
  8
0
  0
INSERT
  5
35C
330
2
100
AcDbEntity
  8
0
100
AcDbBlockReference
  2
Td-2xbrk-fJ-Dr
 10
23.61917902130713
 20
21.95038490805334
 30
0.0
 50
90.0
  0
INSERT
  5
430
330
2
100
AcDbEntity
  8
0
100
AcDbBlockReference
  2
Td-2xbrk-fH-Dr.1
 10
8.78878773241221
 20
27.80442141989137
 30
0.0
  0
DIMENSION
  5
4E0
330
2
100
AcDbEntity
  8
0
100
AcDbDimension
  2
*D9
 10
23.36917902130716
 20
15.30442141989132
 30
0.0
 11
21.86908311683865
 21
15.30442141989133
 31
0.0
 70
   160
 71
     5
 42
0.2499999999999716
  3
3 inch Scale
100
AcDbAlignedDimension
 13
23.61917902130713
 23
21.95038490805334
 33
0.0
 14
23.36917902130716
 24
17.80442141989132
 34
0.0
 50
180.0
100
AcDbRotatedDimension
  0
DIMENSION
  5
4EE
330
2
100
AcDbEntity
  8
0
100
AcDbDimension
  2
*D7
 10
23.36917902130716
 20
14.30442141989132
 30
0.0
 11
26.16302534188112
 21
14.03455102425694
 31
0.0
 70
   160
  1
ROUGH OPENING
 71
     5
 42
4.625939711942088
  3
3 inch Scale
100
AcDbAlignedDimension
 13
27.99511873324925
 23
20.47629641989133
 33
0.0
 14
23.36917902130716
 24
17.80442141989132
 34
0.0
 50
180.0
100
AcDbRotatedDimension
1001
ACAD
1000
DSTYLE
1002
{
1070
    75
1070
     1
1070
   343
1005
283
1070
   173
1070
     1
1070
   344
1005
0
1002
}
  0
DIMENSION
  5
4F9
330
2
100
AcDbEntity
  8
0
100
AcDbDimension
  2
*D8
 10
23.61917902130713
 20
15.30442141989132
 30
0.0
 11
27.126551823567
 21
15.03942141989133
 31
0.0
 70
   160
  1
FRAME
 71
     5
 42
4.375939711942116
  3
3 inch Scale
100
AcDbAlignedDimension
 13
27.99511873324925
 23
20.47629641989133
 33
0.0
 14
23.61917902130713
 24
21.95038490805334
 34
0.0
 50
180.0
100
AcDbRotatedDimension
1001
ACAD
1000
DSTYLE
1002
{
1070
    75
1070
     1
1070
   343
1005
283
1070
   173
1070
     1
1070
   344
1005
0
1002
}
  0
DIMENSION
  5
504
330
2
100
AcDbEntity
  8
0
100
AcDbDimension
  2
*D18
 10
3.192495336398563
 20
27.80442141989136
 30
0.0
 11
2.879995336398574
 21
23.70157669274636
 31
0.0
 70
   160
  1
FRAME
 71
     5
 42
5.000000000000007
  3
3 inch Scale
100
AcDbAlignedDimension
 13
6.941772340952397
 23
22.80442141989135
 33
0.0
 14
8.937495336398555
 24
27.80442141989136
 34
0.0
 50
90.0
100
AcDbRotatedDimension
1001
ACAD
1000
DSTYLE
1002
{
1070
    75
1070
     1
1070
   343
1005
283
1070
   173
1070
     1
1070
   344
1005
0
1002
}
  0
DIMENSION
  5
50F
330
2
100
AcDbEntity
  8
0
100
AcDbDimension
  2
*D17
 10
2.192495336398564
 20
28.30442141989135
 30
0.0
 11
1.879995336398573
 21
24.64589422152846
 31
0.0
 70
   160
  1
ROUGH OPENING
 71
     5
 42
5.499999999999996
  3
3 inch Scale
100
AcDbAlignedDimension
 13
6.941772340952397
 23
22.80442141989135
 33
0.0
 14
6.406245336398555
 24
28.30442141989135
 34
0.0
 50
90.0
100
AcDbRotatedDimension
1001
ACAD
1000
DSTYLE
1002
{
1070
    75
1070
     1
1070
   343
1005
283
1070
   173
1070
     1
1070
   344
1005
0
1002
}
  0
DIMENSION
  5
51A
330
2
100
AcDbEntity
  8
0
100
AcDbDimension
  2
*D16
 10
3.192495336398565
 20
28.30442141989135
 30
0.0
 11
3.192495336398573
 21
29.74192141989133
 31
0.0
 70
   160
 71
     5
 42
0.5
  3
3 inch Scale
100
AcDbAlignedDimension
 13
8.937495336398555
 23
27.80442141989135
 33
0.0
 14
6.406245336398555
 24
28.30442141989135
 34
0.0
 50
90.0
100
AcDbRotatedDimension
  0
MTEXT
  5
528
330
2
100
AcDbEntity
  8
0
100
AcDbMText
 10
11.4636174056736
 20
22.3639214198931
 30
0.0
 40
0.28
 41
1.40369753947796
 71
     5
 72
     5
  1
HEAD
 73
     1
 44
1.0
1001
ACAD
1000
MTEXTBEGIN
1070
    73
1070
     1
1070
    44
1040
1.0
1070
    74
1070
     0
1000
MTEXTEND
  0
MTEXT
  5
529
330
2
100
AcDbEntity
  8
0
100
AcDbMText
 10
20.63389764706857
 20
17.05442141989132
 30
0.0
 40
0.28
 41
1.40369753947796
 71
     5
 72
     5
  1
JAMB
 73
     1
 44
1.0
1001
ACAD
1000
MTEXTBEGIN
1070
    73
1070
     1
1070
    44
1040
1.0
1070
    74
1070
     0
1000
MTEXTEND
  0
POLYLINE
  5
5AF
330
2
100
AcDbEntity
  8
0
  6
Continuous
100
AcDb2dPolyline
 66
     1
 10
0.0
 20
0.0
 30
0.0
  0
VERTEX
  5
5B0
330
5AF
100
AcDbEntity
  8
0
  6
Continuous
100
AcDbVertex
100
AcDb2dVertex
 10
4.051930859284547
 20
14.30442141989132
 30
0.0
  0
VERTEX
  5
5B1
330
5AF
100
AcDbEntity
  8
0
  6
Continuous
100
AcDbVertex
100
AcDb2dVertex
 10
8.662223908100978
 20
14.30442141989132
 30
0.0
  0
VERTEX
  5
5B2
330
5AF
100
AcDbEntity
  8
0
  6
Continuous
100
AcDbVertex
100
AcDb2dVertex
 10
8.762223908100986
 20
14.55442141989132
 30
0.0
  0
VERTEX
  5
5B3
330
5AF
100
AcDbEntity
  8
0
  6
Continuous
100
AcDbVertex
100
AcDb2dVertex
 10
8.862223908100981
 20
14.05442141989132
 30
0.0
  0
VERTEX
  5
5B4
330
5AF
100
AcDbEntity
  8
0
  6
Continuous
100
AcDbVertex
100
AcDb2dVertex
 10
8.962223908100975
 20
14.30442141989132
 30
0.0
  0
VERTEX
  5
5B5
330
5AF
100
AcDbEntity
  8
0
  6
Continuous
100
AcDbVertex
100
AcDb2dVertex
 10
13.57997012062157
 20
14.30442141989132
 30
0.0
  0
VERTEX
  5
5B6
330
5AF
100
AcDbEntity
  8
0
  6
Continuous
100
AcDbVertex
100
AcDb2dVertex
 10
13.67997012062157
 20
14.55442141989132
 30
0.0
  0
VERTEX
  5
5B7
330
5AF
100
AcDbEntity
  8
0
  6
Continuous
100
AcDbVertex
100
AcDb2dVertex
 10
13.77997012062159
 20
14.05442141989132
 30
0.0
  0
VERTEX
  5
5B8
330
5AF
100
AcDbEntity
  8
0
  6
Continuous
100
AcDbVertex
100
AcDb2dVertex
 10
13.87997012062158
 20
14.30442141989132
 30
0.0
  0
VERTEX
  5
5B9
330
5AF
100
AcDbEntity
  8
0
  6
Continuous
100
AcDbVertex
100
AcDb2dVertex
 10
16.54996746015764
 20
14.30442141989132
 30
0.0
  0
SEQEND
  5
5BA
330
5AF
100
AcDbEntity
  8
0
  6
Continuous
  0
POLYLINE
  5
1004
330
2
100
AcDbEntity
  8
0
  6
Continuous
100
AcDb2dPolyline
 66
     1
 10
0.0
 20
0.0
 30
0.0
  0
VERTEX
  5
1005
330
1004
100
AcDbEntity
  8
0
  6
Continuous
100
AcDbVertex
100
AcDb2dVertex
 10
16.03124533639858
 20
13.70656674558443
 30
0.0
  0
VERTEX
  5
1006
330
1004
100
AcDbEntity
  8
0
  6
Continuous
100
AcDbVertex
100
AcDb2dVertex
 10
16.03124533639858
 20
15.45760372003583
 30
0.0
  0
VERTEX
  5
1007
330
1004
100
AcDbEntity
  8
0
  6
Continuous
100
AcDbVertex
100
AcDb2dVertex
 10
15.78124533639858
 20
15.55760372003582
 30
0.0
  0
VERTEX
  5
1008
330
1004
100
AcDbEntity
  8
0
  6
Continuous
100
AcDbVertex
100
AcDb2dVertex
 10
16.28124533639857
 20
15.65760372003583
 30
0.0
  0
VERTEX
  5
1009
330
1004
100
AcDbEntity
  8
0
  6
Continuous
100
AcDbVertex
100
AcDb2dVertex
 10
16.03124533639858
 20
15.75760372003582
 30
0.0
  0
VERTEX
  5
100A
330
1004
100
AcDbEntity
  8
0
  6
Continuous
100
AcDbVertex
100
AcDb2dVertex
 10
16.03124533639858
 20
17.81579627160673
 30
0.0
  0
SEQEND
  5
100B
330
1004
100
AcDbEntity
  8
0
  6
Continuous
  0
INSERT
  5
1D38
330
2
100
AcDbEntity
  8
0
100
AcDbBlockReference
  2
TSE 10 SD JV
 10
23.61917902130713
 20
21.95038490805334
 30
0.0
 50
90.0
  0
INSERT
  5
1D39
330
2
100
AcDbEntity
  8
0
100
AcDbBlockReference
  2
TSE 10 SD SV
 10
8.788787732412219
 20
16.80442141989131
 30
0.0
  0
INSERT
  5
1D3A
330
2
100
AcDbEntity
  8
0
100
AcDbBlockReference
  2
TSE 10 SD HV
 10
8.78878773241221
 20
27.80442141989136
 30
0.0
  0
INSERT
  5
1D3B
330
2
100
AcDbEntity
  8
0
100
AcDbBlockReference
  2
30AY
 10
14.78124533639861
 20
27.0862300860892
 30
0.0
 50
270.0
  0
INSERT
  5
1D3C
330
2
100
AcDbEntity
  8
0
100
AcDbBlockReference
  2
30AY
 10
24.3433703551091
 20
27.90372274643436
 30
0.0
  0
ENDSEC
  0
SECTION
  2
OBJECTS
  0
DICTIONARY
  5
8
330
0
100
AcDbDictionary
281
     1
  3
ACAD_COLOR
350
31
  3
ACAD_GROUP
350
2D
  3
ACAD_LAYOUT
350
D
  3
ACAD_MATERIAL
350
30
  3
ACAD_MLEADERSTYLE
350
1BF4
  3
ACAD_MLINESTYLE
350
2E
  3
ACAD_PLOTSETTINGS
350
2F
  3
ACAD_PLOTSTYLENAME
350
7
  3
ACAD_SCALELIST
350
1BD2
  3
ACAD_TABLESTYLE
350
1BD0
  3
ACAD_VISUALSTYLE
350
1BBF
  3
ACDB_RECOMPOSE_DATA
350
1F55
  3
AcDbVariableDictionary
350
571
  3
AVAT_FILE_STORE
350
579
  3
DWGPROPS
350
2A79
1001
ADE
1000
ADE02C004
1000
[Query]
1000
CaseSensitiveMatch=0
1000
SaveCurrQueryInSession=1
1000
MkSelSetWithQryObj=0
1000
ShowBlockAsInsPt=0
1000
CreateAssociativeHatchObjects=0
1000
ReferenceBoundaryForAreaLocation=1
1000
ShowImageAsBoundary=1
1000
DefaultJoinOperator=2
1000
ColorForAdd=red
1000
ColorForRemove=red
1000
BlockLocnForQuery=1
1000
TextLocnForQuery=1
1000
[Save Back]
1000
RedefineBlockDefinitions=1
1000
RedefineLayerDefinitions=1
1000
RedefineTextStyleDefinitions=1
1000
RemoveUnusedGroups=1
1000
EraseSavedBackObjects=1
1000
RemoveLockAfterSave=1
1000
CreateHistoryFileOfChanges=0
1000
CreateBackupFileOfSourceDwg=1
1000
DontAddObjectsToSaveSet=0
1000
MarkObjectsForEditingWithoutPrompting=0
1000
[Coordinate Transformation]
1000
RestoreLastActiveDwgsOnStartup=1
1000
ActivateDwgsOnAttach=1
1000
AdjustSizesAndScalesForChangesInUnits=1
1000
AdjustRotationsForMapDistortions=1
1000
AdjustSizesAndScalesForMapDistortions=1
1000
AdjustElevations=1
1000
AdjustZeroRotationObjects=1
1000
ReconnectDbOnWSOpen=1
1000
NoOfSQLConditionsInHistory=10
  0
DICTIONARY
  5
1F56
330
20
100
AcDbDictionary
280
     1
281
     1
  0
DICTIONARY
  5
14
330
13
100
AcDbDictionary
280
     1
281
     1
  3
ACAD_LAYERFILTERS
360
15
  3
ACAD_LAYERSTATES
360
16
  0
DICTIONARY
  5
1F35
330
5
100
AcDbDictionary
280
     1
281
     1
  3
ADSK_XREC_LAYER_RECONCILED
360
1F36
  0
DICTIONARY
  5
1F3D
330
74
100
AcDbDictionary
280
     1
281
     1
  3
ADSK_XREC_LAYER_RECONCILED
360
1F3E
  0
DICTIONARY
  5
1F41
330
58
100
AcDbDictionary
280
     1
281
     1
  3
ADSK_XREC_LAYER_RECONCILED
360
1F42
  0
DICTIONARY
  5
1F43
330
B4
100
AcDbDictionary
280
     1
281
     1
  3
ADSK_XREC_LAYER_RECONCILED
360
1F44
  0
DICTIONARY
  5
1F45
330
A4
100
AcDbDictionary
280
     1
281
     1
  3
ADSK_XREC_LAYER_RECONCILED
360
1F46
  0
DICTIONARY
  5
1F47
330
85
100
AcDbDictionary
280
     1
281
     1
  3
ADSK_XREC_LAYER_RECONCILED
360
1F48
  0
DICTIONARY
  5
1F49
330
3A
100
AcDbDictionary
280
     1
281
     1
  3
ADSK_XREC_LAYER_RECONCILED
360
1F4A
  0
DICTIONARY
  5
1F4B
330
9E
100
AcDbDictionary
280
     1
281
     1
  3
ADSK_XREC_LAYER_RECONCILED
360
1F4C
  0
DICTIONARY
  5
1F4D
330
9D5
100
AcDbDictionary
280
     1
281
     1
  3
ADSK_XREC_LAYER_RECONCILED
360
1F4E
  0
DICTIONARY
  5
1F4F
330
9D7
100
AcDbDictionary
280
     1
281
     1
  3
ADSK_XREC_LAYER_RECONCILED
360
1F50
  0
DICTIONARY
  5
1F51
330
9D8
100
AcDbDictionary
280
     1
281
     1
  3
ADSK_XREC_LAYER_RECONCILED
360
1F52
  0
DICTIONARY
  5
3
330
2
100
AcDbDictionary
280
     1
281
     1
  3
ACAD_SORTENTS
360
1FBA
  0
DICTIONARY
  5
3E4
330
3E3
100
AcDbDictionary
280
     1
281
     1
  3
ACAD_SORTENTS
360
3E5
  0
DICTIONARY
  5
432
330
431
100
AcDbDictionary
280
     1
281
     1
  3
ACAD_SORTENTS
360
28DE
  0
DICTIONARY
  5
1F2
330
1F1
100
AcDbDictionary
280
     1
281
     1
  3
ACAD_SORTENTS
360
1108
  0
DICTIONARY
  5
35E
330
35D
100
AcDbDictionary
280
     1
281
     1
  3
ACAD_SORTENTS
360
29D3
  0
DICTIONARY
  5
18D
330
18C
100
AcDbDictionary
280
     1
281
     1
  3
ACAD_SORTENTS
360
2227
  0
DICTIONARY
  5
1BFC
330
1BFB
100
AcDbDictionary
280
     1
281
     1
  3
ACAD_SORTENTS
360
237D
  0
DICTIONARY
  5
1C4C
330
1C4B
100
AcDbDictionary
280
     1
281
     1
  3
ACAD_SORTENTS
360
1C4D
  0
DICTIONARY
  5
1CA1
330
1CA0
100
AcDbDictionary
280
     1
281
     1
  3
ACAD_SORTENTS
360
2114
  0
DICTIONARY
  5
1D22
330
1D21
100
AcDbDictionary
280
     1
281
     1
  3
ACAD_SORTENTS
360
1D23
  0
DICTIONARY
  5
254C
330
2526
100
AcDbDictionary
280
     1
281
     1
  3
ACAD_SORTENTS
360
270B
  0
DICTIONARY
  5
31
102
{ACAD_REACTORS
330
8
102
}
330
8
100
AcDbDictionary
281
     1
  0
DICTIONARY
  5
2D
102
{ACAD_REACTORS
330
8
102
}
330
8
100
AcDbDictionary
281
     1
  0
DICTIONARY
  5
D
102
{ACAD_REACTORS
330
8
102
}
330
8
100
AcDbDictionary
281
     1
  3
Layout1
350
1B98
  3
Model
350
C
  0
DICTIONARY
  5
30
102
{ACAD_REACTORS
330
8
102
}
330
8
100
AcDbDictionary
281
     1
  3
ByBlock
350
1BAF
  3
ByLayer
350
1BA7
  3
Global
350
1BB7
  0
DICTIONARY
  5
1BF4
102
{ACAD_REACTORS
330
8
102
}
330
8
100
AcDbDictionary
281
     1
  3
Standard
350
1BF5
  0
DICTIONARY
  5
2E
102
{ACAD_REACTORS
330
8
102
}
330
8
100
AcDbDictionary
281
     1
  3
Standard
350
32
  0
DICTIONARY
  5
2F
102
{ACAD_REACTORS
330
8
102
}
330
8
100
AcDbDictionary
281
     1
  0
ACDBDICTIONARYWDFLT
  5
7
102
{ACAD_REACTORS
330
8
102
}
330
8
100
AcDbDictionary
281
     1
  3
Normal
350
6
100
AcDbDictionaryWithDefault
340
6
  0
DICTIONARY
  5
1BD2
102
{ACAD_REACTORS
330
8
102
}
330
8
100
AcDbDictionary
281
     1
  3
*A1
350
1D2C
  3
A0
350
1BD3
  3
A1
350
1BD4
  3
A2
350
1BD5
  3
A3
350
1BD6
  3
A4
350
1BD7
  3
A5
350
1BD8
  3
A6
350
1BD9
  3
A7
350
1BDA
  3
A8
350
1BDB
  3
A9
350
1BDC
  3
B0
350
1BDD
  3
B1
350
1BDE
  3
B2
350
1BDF
  3
B3
350
1BE0
  3
B4
350
1BE1
  3
B5
350
1BE2
  3
B6
350
1BE3
  3
B7
350
1BE4
  3
B8
350
1BE5
  3
B9
350
1BE6
  3
C0
350
1BE7
  3
C1
350
1BE8
  3
C2
350
1BE9
  3
C3
350
1BEA
  3
C4
350
1BEB
  3
C5
350
1BEC
  3
C6
350
1BED
  3
C7
350
1BEE
  3
C8
350
1BEF
  3
C9
350
1BF0
  3
D0
350
1BF1
  3
D1
350
1BF2
  3
D2
350
1BF3
  0
DICTIONARY
  5
1BD0
102
{ACAD_REACTORS
330
8
102
}
330
8
100
AcDbDictionary
281
     1
  3
Standard
350
1BD1
  0
DICTIONARY
  5
1BBF
102
{ACAD_REACTORS
330
8
102
}
330
8
100
AcDbDictionary
281
     1
  3
2dWireframe
350
1BC5
  3
3D Hidden
350
1BC7
  3
3dWireframe
350
1BC6
  3
Basic
350
1BC4
  3
Brighten
350
1BCB
  3
ColorChange
350
1BCF
  3
Conceptual
350
1BC8
  3
Dim
350
1BCA
  3
Facepattern
350
1BCE
  3
Flat
350
1BC0
  3
FlatWithEdges
350
1BC1
  3
Gouraud
350
1BC2
  3
GouraudWithEdges
350
1BC3
  3
Linepattern
350
1BCD
  3
Realistic
350
1BC9
  3
Thicken
350
1BCC
  0
XRECORD
  5
1F55
102
{ACAD_REACTORS
330
8
102
}
330
8
100
AcDbXrecord
280
     1
 90
        1
330
1BD1
  0
DICTIONARY
  5
571
102
{ACAD_REACTORS
330
8
102
}
330
8
100
AcDbDictionary
281
     1
  3
CANNOSCALE
350
1F5E
  3
CMLEADERSTYLE
350
1F5D
  3
CTABLESTYLE
350
1F5C
  3
DIMASSOC
350
573
  3
HIDETEXT
350
572
  3
INDEXCTL
350
2A77
  3
PROJECTNAME
350
574
  3
SORTENTS
350
2A76
  0
DICTIONARY
  5
579
102
{ACAD_REACTORS
330
8
102
}
330
8
100
AcDbDictionary
281
     1
  0
XRECORD
  5
2A79
102
{ACAD_REACTORS
330
8
102
}
330
8
100
AcDbXrecord
280
     1
  1
DWGPROPS COOKIE
  2

  3

  4

  6

  7

  8
rohwertl
  9

300
=
301
=
302
=
303
=
304
=
305
=
306
=
307
=
308
=
309
=
 40
4.271013993055555
 41
2453963.430150475
 42
2455447.475405335
  1

 90
        0
  0
DICTIONARY
  5
15
102
{ACAD_REACTORS
330
14
102
}
330
14
100
AcDbDictionary
281
     1
  0
DICTIONARY
  5
16
102
{ACAD_REACTORS
330
14
102
}
330
14
100
AcDbDictionary
281
     1
  0
XRECORD
  5
1F36
102
{ACAD_REACTORS
330
1F35
102
}
330
1F35
100
AcDbXrecord
280
     1
290
     1
  0
XRECORD
  5
1F3E
102
{ACAD_REACTORS
330
1F3D
102
}
330
1F3D
100
AcDbXrecord
280
     1
290
     1
  0
XRECORD
  5
1F42
102
{ACAD_REACTORS
330
1F41
102
}
330
1F41
100
AcDbXrecord
280
     1
290
     1
  0
XRECORD
  5
1F44
102
{ACAD_REACTORS
330
1F43
102
}
330
1F43
100
AcDbXrecord
280
     1
290
     1
  0
XRECORD
  5
1F46
102
{ACAD_REACTORS
330
1F45
102
}
330
1F45
100
AcDbXrecord
280
     1
290
     1
  0
XRECORD
  5
1F48
102
{ACAD_REACTORS
330
1F47
102
}
330
1F47
100
AcDbXrecord
280
     1
290
     1
  0
XRECORD
  5
1F4A
102
{ACAD_REACTORS
330
1F49
102
}
330
1F49
100
AcDbXrecord
280
     1
290
     1
  0
XRECORD
  5
1F4C
102
{ACAD_REACTORS
330
1F4B
102
}
330
1F4B
100
AcDbXrecord
280
     1
290
     1
  0
XRECORD
  5
1F4E
102
{ACAD_REACTORS
330
1F4D
102
}
330
1F4D
100
AcDbXrecord
280
     1
290
     1
  0
XRECORD
  5
1F50
102
{ACAD_REACTORS
330
1F4F
102
}
330
1F4F
100
AcDbXrecord
280
     1
290
     1
  0
XRECORD
  5
1F52
102
{ACAD_REACTORS
330
1F51
102
}
330
1F51
100
AcDbXrecord
280
     1
290
     1
  0
SORTENTSTABLE
  5
1FBA
102
{ACAD_REACTORS
330
3
102
}
330
3
100
AcDbSortentsTable
330
2
331
1F0
  5
1F0
331
4E0
  5
4E0
331
7A
  5
7A
331
1004
  5
1004
331
344
  5
344
331
50F
  5
50F
331
4EE
  5
4EE
331
32C
  5
32C
331
35C
  5
35C
331
430
  5
430
331
29C
  5
29C
331
504
  5
504
331
1D3C
  5
1D3C
331
282
  5
282
331
2B9
  5
2B9
331
1D3B
  5
1D3B
331
51A
  5
51A
331
291
  5
291
331
350
  5
350
331
1D3A
  5
1D3A
331
529
  5
529
331
338
  5
338
331
4F9
  5
4F9
331
2BF
  5
2BF
331
1D39
  5
1D39
331
528
  5
528
331
153
  5
153
331
5AF
  5
5AF
331
73
  5
73
331
18B
  5
18B
331
1D38
  5
1D38
  0
SORTENTSTABLE
  5
3E5
102
{ACAD_REACTORS
330
3E4
102
}
330
3E4
100
AcDbSortentsTable
330
3E3
  0
SORTENTSTABLE
  5
28DE
102
{ACAD_REACTORS
330
432
102
}
330
432
100
AcDbSortentsTable
330
431
  0
SORTENTSTABLE
  5
1108
102
{ACAD_REACTORS
330
1F2
102
}
330
1F2
100
AcDbSortentsTable
330
1F1
  0
SORTENTSTABLE
  5
29D3
102
{ACAD_REACTORS
330
35E
102
}
330
35E
100
AcDbSortentsTable
330
35D
  0
SORTENTSTABLE
  5
2227
102
{ACAD_REACTORS
330
18D
102
}
330
18D
100
AcDbSortentsTable
330
18C
  0
SORTENTSTABLE
  5
237D
102
{ACAD_REACTORS
330
1BFC
102
}
330
1BFC
100
AcDbSortentsTable
330
1BFB
  0
SORTENTSTABLE
  5
1C4D
102
{ACAD_REACTORS
330
1C4C
102
}
330
1C4C
100
AcDbSortentsTable
330
1C4B
  0
SORTENTSTABLE
  5
2114
102
{ACAD_REACTORS
330
1CA1
102
}
330
1CA1
100
AcDbSortentsTable
330
1CA0
331
1D03
  5
1D04
331
1CEF
  5
1CF0
331
1D02
  5
1D03
331
1CEE
  5
1CEF
331
1D01
  5
1D02
331
1CED
  5
1CEE
331
1D00
  5
1D01
331
1CFF
  5
1D00
331
1CFE
  5
1CFF
331
1CFD
  5
1CFE
331
1CFC
  5
1CFD
331
1CFB
  5
1CFC
331
1CFA
  5
1CFB
331
1CF9
  5
1CFA
331
1CF8
  5
1CF9
331
1CAF
  5
1CB0
331
1CAE
  5
1CAF
331
1CB9
  5
1CED
331
1CAD
  5
1CAE
331
1CB8
  5
1CB9
331
1CAC
  5
1CAD
331
1CB7
  5
1CB8
331
1CAB
  5
1CAC
331
1CB6
  5
1CB7
331
1CAA
  5
1CAB
331
1D0B
  5
1CA5
331
1CB5
  5
1CB6
331
1CF7
  5
1CF8
331
1CA9
  5
1CAA
331
1CB4
  5
1CB5
331
1D0A
  5
1CA4
331
1CF6
  5
1CF7
331
1CA8
  5
1CA9
331
1CB3
  5
1CB4
331
1D09
  5
1D0A
331
1CA7
  5
1CA8
331
1CF5
  5
1CF6
331
1CB2
  5
1CB3
331
1D08
  5
1D09
331
1CA6
  5
1CA7
331
1CF4
  5
1CF5
331
1CB1
  5
1CB2
331
1D07
  5
1D08
331
1CA5
  5
1CA6
331
1CF3
  5
1CF4
331
1CB0
  5
1CB1
331
1D06
  5
1D07
331
1CA4
  5
1D0B
331
1CF2
  5
1CF3
331
1D05
  5
1D06
331
1CF1
  5
1CF2
331
1D04
  5
1D05
331
1CF0
  5
1CF1
  0
SORTENTSTABLE
  5
1D23
102
{ACAD_REACTORS
330
1D22
102
}
330
1D22
100
AcDbSortentsTable
330
1D21
331
1D26
  5
1C4
331
1D27
  5
1C3
  0
SORTENTSTABLE
  5
270B
102
{ACAD_REACTORS
330
254C
102
}
330
254C
100
AcDbSortentsTable
330
2526
  0
LAYOUT
  5
1B98
102
{ACAD_XDICTIONARY
360
2A7C
102
}
102
{ACAD_REACTORS
330
D
102
}
330
D
100
AcDbPlotSettings
  1

  2
\\pelsprnt01\PEASP5
  4

  6

 40
0.0
 41
0.0
 42
0.0
 43
0.0
 44
0.0
 45
0.0
 46
0.0
 47
0.0
 48
0.0
 49
0.0
140
0.0
141
0.0
142
1.0
143
1.0
 70
   688
 72
     0
 73
     0
 74
     5
  7
PellaCAD 2000.ctb
 75
    16
147
1.0
148
0.0
149
0.0
100
AcDbLayout
  1
Layout1
 70
     1
 71
     1
 10
0.0
 20
0.0
 11
12.0
 21
9.0
 12
0.0
 22
0.0
 32
0.0
 14
0.0
 24
0.0
 34
0.0
 15
0.0
 25
0.0
 35
0.0
146
0.0
 13
0.0
 23
0.0
 33
0.0
 16
1.0
 26
0.0
 36
0.0
 17
0.0
 27
1.0
 37
0.0
 76
     0
330
1B97
  0
LAYOUT
  5
C
102
{ACAD_XDICTIONARY
360
2A7A
102
}
102
{ACAD_REACTORS
330
D
102
}
330
D
100
AcDbPlotSettings
  1

  2
pdfFactory Pro
  4
Letter
  6

 40
7.143749713897705
 41
7.143756389617919
 42
7.14373779296875
 43
7.14373779296875
 44
215.8999938964844
 45
279.3999938964844
 46
-4172.303552225297
 47
-3362.883336105818
 48
0.0
 49
0.0
140
0.0
141
0.0
142
1.0
143
1.0
 70
 11956
 72
     0
 73
     0
 74
     1
  7
PellaCAD 2000.ctb
 75
    16
147
1.0
148
0.260774110343357
149
4383.221787653484
100
AcDbLayout
  1
Model
 70
     1
 71
     0
 10
0.0
 20
0.0
 11
12.0
 21
9.0
 12
0.0
 22
0.0
 32
0.0
 14
0.0
 24
0.0
 34
0.0
 15
0.0
 25
0.0
 35
0.0
146
0.0
 13
0.0
 23
0.0
 33
0.0
 16
1.0
 26
0.0
 36
0.0
 17
0.0
 27
1.0
 37
0.0
 76
     0
330
2
331
1B9E
  0
MATERIAL
  5
1BAF
102
{ACAD_XDICTIONARY
360
1BB0
102
}
102
{ACAD_REACTORS
330
30
102
}
330
30
100
AcDbMaterial
  1
ByBlock
 72
     0
 43
0.0208333333333333
 43
0.0
 43
0.0
 43
0.0
 43
0.0
 43
0.0208333333333333
 43
0.0
 43
0.0
 43
0.0
 43
0.0
 43
1.0
 43
0.0
 43
0.0
 43
0.0
 43
0.0
 43
1.0
 77
     0
 47
0.0208333333333333
 47
0.0
 47
0.0
 47
0.0
 47
0.0
 47
0.0208333333333333
 47
0.0
 47
0.0
 47
0.0
 47
0.0
 47
1.0
 47
0.0
 47
0.0
 47
0.0
 47
0.0
 47
1.0
171
     0
 49
0.0208333333333333
 49
0.0
 49
0.0
 49
0.0
 49
0.0
 49
0.0208333333333333
 49
0.0
 49
0.0
 49
0.0
 49
0.0
 49
1.0
 49
0.0
 49
0.0
 49
0.0
 49
0.0
 49
1.0
175
     0
142
0.0208333333333333
142
0.0
142
0.0
142
0.0
142
0.0
142
0.0208333333333333
142
0.0
142
0.0
142
0.0
142
0.0
142
1.0
142
0.0
142
0.0
142
0.0
142
0.0
142
1.0
179
     0
144
0.0208333333333333
144
0.0
144
0.0
144
0.0
144
0.0
144
0.0208333333333333
144
0.0
144
0.0
144
0.0
144
0.0
144
1.0
144
0.0
144
0.0
144
0.0
144
0.0
144
1.0
147
0.0208333333333333
147
0.0
147
0.0
147
0.0
147
0.0
147
0.0208333333333333
147
0.0
147
0.0
147
0.0
147
0.0
147
1.0
147
0.0
147
0.0
147
0.0
147
0.0
147
1.0
  0
MATERIAL
  5
1BA7
102
{ACAD_XDICTIONARY
360
1BA8
102
}
102
{ACAD_REACTORS
330
30
102
}
330
30
100
AcDbMaterial
  1
ByLayer
 72
     0
 43
0.0208333333333333
 43
0.0
 43
0.0
 43
0.0
 43
0.0
 43
0.0208333333333333
 43
0.0
 43
0.0
 43
0.0
 43
0.0
 43
1.0
 43
0.0
 43
0.0
 43
0.0
 43
0.0
 43
1.0
 77
     0
 47
0.0208333333333333
 47
0.0
 47
0.0
 47
0.0
 47
0.0
 47
0.0208333333333333
 47
0.0
 47
0.0
 47
0.0
 47
0.0
 47
1.0
 47
0.0
 47
0.0
 47
0.0
 47
0.0
 47
1.0
171
     0
 49
0.0208333333333333
 49
0.0
 49
0.0
 49
0.0
 49
0.0
 49
0.0208333333333333
 49
0.0
 49
0.0
 49
0.0
 49
0.0
 49
1.0
 49
0.0
 49
0.0
 49
0.0
 49
0.0
 49
1.0
175
     0
142
0.0208333333333333
142
0.0
142
0.0
142
0.0
142
0.0
142
0.0208333333333333
142
0.0
142
0.0
142
0.0
142
0.0
142
1.0
142
0.0
142
0.0
142
0.0
142
0.0
142
1.0
179
     0
144
0.0208333333333333
144
0.0
144
0.0
144
0.0
144
0.0
144
0.0208333333333333
144
0.0
144
0.0
144
0.0
144
0.0
144
1.0
144
0.0
144
0.0
144
0.0
144
0.0
144
1.0
147
0.0208333333333333
147
0.0
147
0.0
147
0.0
147
0.0
147
0.0208333333333333
147
0.0
147
0.0
147
0.0
147
0.0
147
1.0
147
0.0
147
0.0
147
0.0
147
0.0
147
1.0
  0
MATERIAL
  5
1BB7
102
{ACAD_XDICTIONARY
360
1BB8
102
}
102
{ACAD_REACTORS
330
30
102
}
330
30
100
AcDbMaterial
  1
Global
 72
     0
 43
0.0208333333333333
 43
0.0
 43
0.0
 43
0.0
 43
0.0
 43
0.0208333333333333
 43
0.0
 43
0.0
 43
0.0
 43
0.0
 43
1.0
 43
0.0
 43
0.0
 43
0.0
 43
0.0
 43
1.0
 77
     0
 47
0.0208333333333333
 47
0.0
 47
0.0
 47
0.0
 47
0.0
 47
0.0208333333333333
 47
0.0
 47
0.0
 47
0.0
 47
0.0
 47
1.0
 47
0.0
 47
0.0
 47
0.0
 47
0.0
 47
1.0
171
     0
 49
0.0208333333333333
 49
0.0
 49
0.0
 49
0.0
 49
0.0
 49
0.0208333333333333
 49
0.0
 49
0.0
 49
0.0
 49
0.0
 49
1.0
 49
0.0
 49
0.0
 49
0.0
 49
0.0
 49
1.0
175
     0
142
0.0208333333333333
142
0.0
142
0.0
142
0.0
142
0.0
142
0.0208333333333333
142
0.0
142
0.0
142
0.0
142
0.0
142
1.0
142
0.0
142
0.0
142
0.0
142
0.0
142
1.0
179
     0
144
0.0208333333333333
144
0.0
144
0.0
144
0.0
144
0.0
144
0.0208333333333333
144
0.0
144
0.0
144
0.0
144
0.0
144
1.0
144
0.0
144
0.0
144
0.0
144
0.0
144
1.0
147
0.0208333333333333
147
0.0
147
0.0
147
0.0
147
0.0
147
0.0208333333333333
147
0.0
147
0.0
147
0.0
147
0.0
147
1.0
147
0.0
147
0.0
147
0.0
147
0.0
147
1.0
  0
MLEADERSTYLE
  5
1BF5
102
{ACAD_REACTORS
330
1BF4
102
}
330
1BF4
100
AcDbMLeaderStyle
170
     2
171
     1
172
     0
 90
        2
 40
0.0
 41
0.0
173
     1
 91
-1056964608
340
1C
 92
       -2
290
     1
 42
0.09
291
     1
 43
0.36
  3
Standard
 44
0.18
300

342
18
174
     1
178
     6
175
     1
176
     0
 93
-1056964608
 45
0.18
292
     0
297
     0
 46
0.18
 94
-1056964608
 47
1.0
 49
1.0
140
1.0
293
     1
141
0.0
294
     1
177
     0
142
1.0
295
     0
296
     0
143
0.125
1001
ACAD_MLEADERVER
1070
     2
  0
MLINESTYLE
  5
32
102
{ACAD_REACTORS
330
2E
102
}
330
2E
100
AcDbMlineStyle
  2
STANDARD
 70
     0
  3

 62
   256
 51
90.0
 52
90.0
 71
     2
 49
0.5
 62
   256
  6
BYLAYER
 49
-0.5
 62
   256
  6
BYLAYER
  0
ACDBPLACEHOLDER
  5
6
102
{ACAD_REACTORS
330
7
102
}
330
7
  0
SCALE
  5
1D2C
102
{ACAD_REACTORS
330
1BD2
102
}
330
1BD2
100
AcDbScale
 70
     0
300
1" = 1'
140
1.0
141
1.0
290
     0
  0
SCALE
  5
1BD3
102
{ACAD_REACTORS
330
1BD2
102
}
330
1BD2
100
AcDbScale
 70
     0
300
1:1
140
1.0
141
1.0
290
     1
  0
SCALE
  5
1BD4
102
{ACAD_REACTORS
330
1BD2
102
}
330
1BD2
100
AcDbScale
 70
     0
300
1:2
140
1.0
141
2.0
290
     0
  0
SCALE
  5
1BD5
102
{ACAD_REACTORS
330
1BD2
102
}
330
1BD2
100
AcDbScale
 70
     0
300
1:4
140
1.0
141
4.0
290
     0
  0
SCALE
  5
1BD6
102
{ACAD_REACTORS
330
1BD2
102
}
330
1BD2
100
AcDbScale
 70
     0
300
1:5
140
1.0
141
5.0
290
     0
  0
SCALE
  5
1BD7
102
{ACAD_REACTORS
330
1BD2
102
}
330
1BD2
100
AcDbScale
 70
     0
300
1:8
140
1.0
141
8.0
290
     0
  0
SCALE
  5
1BD8
102
{ACAD_REACTORS
330
1BD2
102
}
330
1BD2
100
AcDbScale
 70
     0
300
1:10
140
1.0
141
10.0
290
     0
  0
SCALE
  5
1BD9
102
{ACAD_REACTORS
330
1BD2
102
}
330
1BD2
100
AcDbScale
 70
     0
300
1:16
140
1.0
141
16.0
290
     0
  0
SCALE
  5
1BDA
102
{ACAD_REACTORS
330
1BD2
102
}
330
1BD2
100
AcDbScale
 70
     0
300
1:20
140
1.0
141
20.0
290
     0
  0
SCALE
  5
1BDB
102
{ACAD_REACTORS
330
1BD2
102
}
330
1BD2
100
AcDbScale
 70
     0
300
1:30
140
1.0
141
30.0
290
     0
  0
SCALE
  5
1BDC
102
{ACAD_REACTORS
330
1BD2
102
}
330
1BD2
100
AcDbScale
 70
     0
300
1:40
140
1.0
141
40.0
290
     0
  0
SCALE
  5
1BDD
102
{ACAD_REACTORS
330
1BD2
102
}
330
1BD2
100
AcDbScale
 70
     0
300
1:50
140
1.0
141
50.0
290
     0
  0
SCALE
  5
1BDE
102
{ACAD_REACTORS
330
1BD2
102
}
330
1BD2
100
AcDbScale
 70
     0
300
1:100
140
1.0
141
100.0
290
     0
  0
SCALE
  5
1BDF
102
{ACAD_REACTORS
330
1BD2
102
}
330
1BD2
100
AcDbScale
 70
     0
300
2:1
140
2.0
141
1.0
290
     0
  0
SCALE
  5
1BE0
102
{ACAD_REACTORS
330
1BD2
102
}
330
1BD2
100
AcDbScale
 70
     0
300
4:1
140
4.0
141
1.0
290
     0
  0
SCALE
  5
1BE1
102
{ACAD_REACTORS
330
1BD2
102
}
330
1BD2
100
AcDbScale
 70
     0
300
8:1
140
8.0
141
1.0
290
     0
  0
SCALE
  5
1BE2
102
{ACAD_REACTORS
330
1BD2
102
}
330
1BD2
100
AcDbScale
 70
     0
300
10:1
140
10.0
141
1.0
290
     0
  0
SCALE
  5
1BE3
102
{ACAD_REACTORS
330
1BD2
102
}
330
1BD2
100
AcDbScale
 70
     0
300
100:1
140
100.0
141
1.0
290
     0
  0
SCALE
  5
1BE4
102
{ACAD_REACTORS
330
1BD2
102
}
330
1BD2
100
AcDbScale
 70
     0
300
1/128" = 1'-0"
140
0.0078125
141
12.0
290
     0
  0
SCALE
  5
1BE5
102
{ACAD_REACTORS
330
1BD2
102
}
330
1BD2
100
AcDbScale
 70
     0
300
1/64" = 1'-0"
140
0.015625
141
12.0
290
     0
  0
SCALE
  5
1BE6
102
{ACAD_REACTORS
330
1BD2
102
}
330
1BD2
100
AcDbScale
 70
     0
300
1/32" = 1'-0"
140
0.03125
141
12.0
290
     0
  0
SCALE
  5
1BE7
102
{ACAD_REACTORS
330
1BD2
102
}
330
1BD2
100
AcDbScale
 70
     0
300
1/16" = 1'-0"
140
0.0625
141
12.0
290
     0
  0
SCALE
  5
1BE8
102
{ACAD_REACTORS
330
1BD2
102
}
330
1BD2
100
AcDbScale
 70
     0
300
3/32" = 1'-0"
140
0.09375
141
12.0
290
     0
  0
SCALE
  5
1BE9
102
{ACAD_REACTORS
330
1BD2
102
}
330
1BD2
100
AcDbScale
 70
     0
300
1/8" = 1'-0"
140
0.125
141
12.0
290
     0
  0
SCALE
  5
1BEA
102
{ACAD_REACTORS
330
1BD2
102
}
330
1BD2
100
AcDbScale
 70
     0
300
3/16" = 1'-0"
140
0.1875
141
12.0
290
     0
  0
SCALE
  5
1BEB
102
{ACAD_REACTORS
330
1BD2
102
}
330
1BD2
100
AcDbScale
 70
     0
300
1/4" = 1'-0"
140
0.25
141
12.0
290
     0
  0
SCALE
  5
1BEC
102
{ACAD_REACTORS
330
1BD2
102
}
330
1BD2
100
AcDbScale
 70
     0
300
3/8" = 1'-0"
140
0.375
141
12.0
290
     0
  0
SCALE
  5
1BED
102
{ACAD_REACTORS
330
1BD2
102
}
330
1BD2
100
AcDbScale
 70
     0
300
1/2" = 1'-0"
140
0.5
141
12.0
290
     0
  0
SCALE
  5
1BEE
102
{ACAD_REACTORS
330
1BD2
102
}
330
1BD2
100
AcDbScale
 70
     0
300
3/4" = 1'-0"
140
0.75
141
12.0
290
     0
  0
SCALE
  5
1BEF
102
{ACAD_REACTORS
330
1BD2
102
}
330
1BD2
100
AcDbScale
 70
     0
300
1" = 1'-0"
140
1.0
141
12.0
290
     0
  0
SCALE
  5
1BF0
102
{ACAD_REACTORS
330
1BD2
102
}
330
1BD2
100
AcDbScale
 70
     0
300
1-1/2" = 1'-0"
140
1.5
141
12.0
290
     0
  0
SCALE
  5
1BF1
102
{ACAD_REACTORS
330
1BD2
102
}
330
1BD2
100
AcDbScale
 70
     0
300
3" = 1'-0"
140
3.0
141
12.0
290
     0
  0
SCALE
  5
1BF2
102
{ACAD_REACTORS
330
1BD2
102
}
330
1BD2
100
AcDbScale
 70
     0
300
6" = 1'-0"
140
6.0
141
12.0
290
     0
  0
SCALE
  5
1BF3
102
{ACAD_REACTORS
330
1BD2
102
}
330
1BD2
100
AcDbScale
 70
     0
300
1'-0" = 1'-0"
140
12.0
141
12.0
290
     0
  0
TABLESTYLE
  5
1BD1
102
{ACAD_XDICTIONARY
360
1F53
102
}
102
{ACAD_REACTORS
330
1BD0
102
}
330
1BD0
100
AcDbTableStyle
  3
Standard
 70
     0
 71
     0
 40
0.06
 41
0.06
280
     0
281
     0
  7
Standard
140
0.18
170
     2
 62
     0
 63
     7
283
     0
274
    -2
284
     1
 64
     0
275
    -2
285
     1
 65
     0
276
    -2
286
     1
 66
     0
277
    -2
287
     1
 67
     0
278
    -2
288
     1
 68
     0
279
    -2
289
     1
 69
     0
  7
Standard
140
0.25
170
     5
 62
     0
 63
     7
283
     0
274
    -2
284
     1
 64
     0
275
    -2
285
     1
 65
     0
276
    -2
286
     1
 66
     0
277
    -2
287
     1
 67
     0
278
    -2
288
     1
 68
     0
279
    -2
289
     1
 69
     0
  7
Standard
140
0.18
170
     5
 62
     0
 63
     7
283
     0
274
    -2
284
     1
 64
     0
275
    -2
285
     1
 65
     0
276
    -2
286
     1
 66
     0
277
    -2
287
     1
 67
     0
278
    -2
288
     1
 68
     0
279
    -2
289
     1
 69
     0
  0
VISUALSTYLE
  5
1BC5
102
{ACAD_REACTORS
330
1BBF
102
}
330
1BBF
100
AcDbVisualStyle
  2
2dWireframe
 70
     4
 71
     0
 72
     2
 73
     0
 90
        0
 40
-0.6
 41
-30.0
 62
     5
 63
     7
 74
     1
 91
        4
 64
     7
 65
   257
 75
     1
175
     1
 42
1.0
 92
        0
 66
   257
 43
1.0
 76
     1
 77
     6
 78
     2
 67
     7
 79
     5
170
     0
171
     0
290
     0
174
     0
 93
        1
 44
0.0
173
     0
291
     0
 45
0.0
1001
ACAD
1000
AcDbSavedByObjectVersion
1070
     0
  0
VISUALSTYLE
  5
1BC7
102
{ACAD_REACTORS
330
1BBF
102
}
330
1BBF
100
AcDbVisualStyle
  2
3D Hidden
 70
     6
 71
     1
 72
     2
 73
     2
 90
        0
 40
-0.6
 41
-30.0
 62
     5
 63
     7
 74
     2
 91
        2
 64
     7
 65
   257
 75
     2
175
     1
 42
40.0
 92
        0
 66
   257
 43
1.0
 76
     1
 77
     6
 78
     2
 67
     7
 79
     3
170
     0
171
     0
290
     0
174
     0
 93
        1
 44
0.0
173
     0
291
     0
 45
0.0
1001
ACAD
1000
AcDbSavedByObjectVersion
1070
     0
  0
VISUALSTYLE
  5
1BC6
102
{ACAD_REACTORS
330
1BBF
102
}
330
1BBF
100
AcDbVisualStyle
  2
3dWireframe
 70
     5
 71
     0
 72
     2
 73
     0
 90
        0
 40
-0.6
 41
-30.0
 62
     5
 63
     7
 74
     1
 91
        4
 64
     7
 65
   257
 75
     1
175
     1
 42
1.0
 92
        0
 66
   257
 43
1.0
 76
     1
 77
     6
 78
     2
 67
     7
 79
     5
170
     0
171
     0
290
     0
174
     0
 93
        1
 44
0.0
173
     0
291
     0
 45
0.0
1001
ACAD
1000
AcDbSavedByObjectVersion
1070
     0
  0
VISUALSTYLE
  5
1BC4
102
{ACAD_REACTORS
330
1BBF
102
}
330
1BBF
100
AcDbVisualStyle
  2
Basic
 70
     7
 71
     1
 72
     0
 73
     1
 90
        0
 40
-0.6
 41
-30.0
 62
     5
 63
     7
 74
     0
 91
        4
 64
     7
 65
   257
 75
     1
175
     1
 42
1.0
 92
        8
 66
     7
 43
1.0
 76
     1
 77
     6
 78
     2
 67
     7
 79
     5
170
     0
171
     0
290
     0
174
     0
 93
        1
 44
0.0
173
     0
291
     1
 45
0.0
1001
ACAD
1000
AcDbSavedByObjectVersion
1070
     0
  0
VISUALSTYLE
  5
1BCB
102
{ACAD_REACTORS
330
1BBF
102
}
330
1BBF
100
AcDbVisualStyle
  2
Brighten
 70
    12
 71
     2
 72
     2
 73
     0
 90
        0
 40
-0.6
 41
-30.0
 62
     5
 63
     7
 74
     1
 91
        4
 64
     7
 65
   257
 75
     1
175
     1
 42
1.0
 92
        8
 66
     7
 43
1.0
 76
     1
 77
     6
 78
     2
 67
     7
 79
     5
170
     0
171
     0
290
     0
174
     0
 93
        1
 44
50.0
173
     0
291
     1
 45
0.0
1001
ACAD
1000
AcDbSavedByObjectVersion
1070
     0
  0
VISUALSTYLE
  5
1BCF
102
{ACAD_REACTORS
330
1BBF
102
}
330
1BBF
100
AcDbVisualStyle
  2
ColorChange
 70
    16
 71
     2
 72
     2
 73
     3
 90
        0
 40
-0.6
 41
-30.0
 62
     5
 63
     8
 74
     1
 91
        4
 64
     7
 65
   257
 75
     1
175
     1
 42
1.0
 92
        8
 66
     8
 43
1.0
 76
     1
 77
     6
 78
     2
 67
     7
 79
     5
170
     0
171
     0
290
     0
174
     0
 93
        1
 44
0.0
173
     0
291
     1
 45
0.0
1001
ACAD
1000
AcDbSavedByObjectVersion
1070
     0
  0
VISUALSTYLE
  5
1BC8
102
{ACAD_REACTORS
330
1BBF
102
}
330
1BBF
100
AcDbVisualStyle
  2
Conceptual
 70
     9
 71
     3
 72
     2
 73
     0
 90
        0
 40
-0.6
 41
-30.0
 62
     5
 63
     7
 74
     2
 91
        2
 64
     7
 65
   257
 75
     1
175
     1
 42
40.0
 92
        8
 66
     7
 43
1.0
 76
     1
 77
     6
 78
     2
 67
     7
 79
     3
170
     0
171
     0
290
     0
174
     0
 93
        1
 44
0.0
173
     0
291
     0
 45
0.0
1001
ACAD
1000
AcDbSavedByObjectVersion
1070
     0
  0
VISUALSTYLE
  5
1BCA
102
{ACAD_REACTORS
330
1BBF
102
}
330
1BBF
100
AcDbVisualStyle
  2
Dim
 70
    11
 71
     2
 72
     2
 73
     0
 90
        0
 40
-0.6
 41
-30.0
 62
     5
 63
     7
 74
     1
 91
        4
 64
     7
 65
   257
 75
     1
175
     1
 42
1.0
 92
        8
 66
     7
 43
1.0
 76
     1
 77
     6
 78
     2
 67
     7
 79
     5
170
     0
171
     0
290
     0
174
     0
 93
        1
 44
-50.0
173
     0
291
     1
 45
0.0
1001
ACAD
1000
AcDbSavedByObjectVersion
1070
     0
  0
VISUALSTYLE
  5
1BCE
102
{ACAD_REACTORS
330
1BBF
102
}
330
1BBF
100
AcDbVisualStyle
  2
Facepattern
 70
    15
 71
     2
 72
     2
 73
     0
 90
        0
 40
-0.6
 41
-30.0
 62
     5
 63
     7
 74
     1
 91
        4
 64
     7
 65
   257
 75
     1
175
     1
 42
1.0
 92
        8
 66
     7
 43
1.0
 76
     1
 77
     6
 78
     2
 67
     7
 79
     5
170
     0
171
     0
290
     0
174
     0
 93
        1
 44
0.0
173
     0
291
     1
 45
0.0
1001
ACAD
1000
AcDbSavedByObjectVersion
1070
     0
  0
VISUALSTYLE
  5
1BC0
102
{ACAD_REACTORS
330
1BBF
102
}
330
1BBF
100
AcDbVisualStyle
  2
Flat
 70
     0
 71
     2
 72
     1
 73
     1
 90
        2
 40
-0.6
 41
30.0
 62
     5
 63
     7
 74
     0
 91
        4
 64
     7
 65
   257
 75
     1
175
     1
 42
1.0
 92
        8
 66
     7
 43
1.0
 76
     1
 77
     6
 78
     2
 67
     7
 79
     5
170
     0
171
     0
290
     0
174
     0
 93
       13
 44
0.0
173
     0
291
     1
 45
0.0
1001
ACAD
1000
AcDbSavedByObjectVersion
1070
     0
  0
VISUALSTYLE
  5
1BC1
102
{ACAD_REACTORS
330
1BBF
102
}
330
1BBF
100
AcDbVisualStyle
  2
FlatWithEdges
 70
     1
 71
     2
 72
     1
 73
     1
 90
        2
 40
-0.6
 41
30.0
 62
     5
 63
     7
 74
     1
 91
        4
 64
     7
 65
   257
 75
     1
175
     1
 42
1.0
 92
        0
 66
   257
 43
1.0
 76
     1
 77
     6
 78
     2
 67
     7
 79
     5
170
     0
171
     0
290
     0
174
     0
 93
       13
 44
0.0
173
     0
291
     1
 45
0.0
1001
ACAD
1000
AcDbSavedByObjectVersion
1070
     0
  0
VISUALSTYLE
  5
1BC2
102
{ACAD_REACTORS
330
1BBF
102
}
330
1BBF
100
AcDbVisualStyle
  2
Gouraud
 70
     2
 71
     2
 72
     2
 73
     1
 90
        2
 40
-0.6
 41
30.0
 62
     5
 63
     7
 74
     0
 91
        4
 64
     7
 65
   257
 75
     1
175
     1
 42
1.0
 92
        0
 66
     7
 43
1.0
 76
     1
 77
     6
 78
     2
 67
     7
 79
     5
170
     0
171
     0
290
     0
174
     0
 93
       13
 44
0.0
173
     0
291
     1
 45
0.0
1001
ACAD
1000
AcDbSavedByObjectVersion
1070
     0
  0
VISUALSTYLE
  5
1BC3
102
{ACAD_REACTORS
330
1BBF
102
}
330
1BBF
100
AcDbVisualStyle
  2
GouraudWithEdges
 70
     3
 71
     2
 72
     2
 73
     1
 90
        2
 40
-0.6
 41
30.0
 62
     5
 63
     7
 74
     1
 91
        4
 64
     7
 65
   257
 75
     1
175
     1
 42
1.0
 92
        0
 66
   257
 43
1.0
 76
     1
 77
     6
 78
     2
 67
     7
 79
     5
170
     0
171
     0
290
     0
174
     0
 93
       13
 44
0.0
173
     0
291
     1
 45
0.0
1001
ACAD
1000
AcDbSavedByObjectVersion
1070
     0
  0
VISUALSTYLE
  5
1BCD
102
{ACAD_REACTORS
330
1BBF
102
}
330
1BBF
100
AcDbVisualStyle
  2
Linepattern
 70
    14
 71
     2
 72
     2
 73
     0
 90
        0
 40
-0.6
 41
-30.0
 62
     5
 63
     7
 74
     1
 91
        4
 64
     7
 65
   257
 75
     7
175
     7
 42
1.0
 92
        8
 66
     7
 43
1.0
 76
     1
 77
     6
 78
     2
 67
     7
 79
     5
170
     0
171
     0
290
     0
174
     0
 93
        1
 44
0.0
173
     0
291
     1
 45
0.0
1001
ACAD
1000
AcDbSavedByObjectVersion
1070
     0
  0
VISUALSTYLE
  5
1BC9
102
{ACAD_REACTORS
330
1BBF
102
}
330
1BBF
100
AcDbVisualStyle
  2
Realistic
 70
     8
 71
     2
 72
     2
 73
     0
 90
        0
 40
-0.6
 41
-30.0
 62
     5
 63
     7
 74
     1
 91
        0
 64
     7
 65
   257
 75
     1
175
     1
 42
1.0
 92
        8
 66
     8
 43
1.0
 76
     1
 77
     6
 78
     2
 67
     7
 79
     5
170
     0
171
     0
290
     0
174
     0
 93
       13
 44
0.0
173
     0
291
     0
 45
0.0
1001
ACAD
1000
AcDbSavedByObjectVersion
1070
     0
  0
VISUALSTYLE
  5
1BCC
102
{ACAD_REACTORS
330
1BBF
102
}
330
1BBF
100
AcDbVisualStyle
  2
Thicken
 70
    13
 71
     2
 72
     2
 73
     0
 90
        0
 40
-0.6
 41
-30.0
 62
     5
 63
     7
 74
     1
 91
        4
 64
     7
 65
   257
 75
     1
175
     1
 42
1.0
 92
       12
 66
     7
 43
1.0
 76
     1
 77
     6
 78
     2
 67
     7
 79
     5
170
     0
171
     0
290
     0
174
     0
 93
        1
 44
0.0
173
     0
291
     1
 45
0.0
1001
ACAD
1000
AcDbSavedByObjectVersion
1070
     0
  0
DICTIONARYVAR
  5
1F5E
102
{ACAD_REACTORS
330
571
102
}
330
571
100
DictionaryVariables
280
     0
  1
1:1
  0
DICTIONARYVAR
  5
1F5D
102
{ACAD_REACTORS
330
571
102
}
330
571
100
DictionaryVariables
280
     0
  1
STANDARD
  0
DICTIONARYVAR
  5
1F5C
102
{ACAD_REACTORS
330
571
102
}
330
571
100
DictionaryVariables
280
     0
  1
STANDARD
  0
DICTIONARYVAR
  5
573
102
{ACAD_REACTORS
330
571
102
}
330
571
100
DictionaryVariables
280
     0
  1
2
  0
DICTIONARYVAR
  5
572
102
{ACAD_REACTORS
330
571
102
}
330
571
100
DictionaryVariables
280
     0
  1
1
  0
DICTIONARYVAR
  5
2A77
102
{ACAD_REACTORS
330
571
102
}
330
571
100
DictionaryVariables
280
     0
  1
0
  0
DICTIONARYVAR
  5
574
102
{ACAD_REACTORS
330
571
102
}
330
571
100
DictionaryVariables
280
     0
  1

  0
DICTIONARYVAR
  5
2A76
102
{ACAD_REACTORS
330
571
102
}
330
571
100
DictionaryVariables
280
     0
  1
127
  0
DICTIONARY
  5
2A7C
330
1B98
100
AcDbDictionary
280
     1
281
     1
  3
ACAD_XREC_ROUNDTRIP
360
2A7D
  0
DICTIONARY
  5
2A7A
330
C
100
AcDbDictionary
280
     1
281
     1
  3
ACAD_XREC_ROUNDTRIP
360
2A7B
  0
DICTIONARY
  5
1BB0
330
1BAF
100
AcDbDictionary
280
     1
281
     1
  3
ACAD_XREC_ROUNDTRIP
360
2A7F
  3
BUMPTILE
360
1BB2
  3
DIFFUSETILE
360
1BB1
  3
OPACITYTILE
360
1BB5
  3
REFLECTIONTILE
360
1BB4
  3
REFRACTIONTILE
360
1BB6
  3
SPECULARTILE
360
1BB3
  0
DICTIONARY
  5
1BA8
330
1BA7
100
AcDbDictionary
280
     1
281
     1
  3
ACAD_XREC_ROUNDTRIP
360
2A7E
  3
BUMPTILE
360
1BAA
  3
DIFFUSETILE
360
1BA9
  3
OPACITYTILE
360
1BAD
  3
REFLECTIONTILE
360
1BAC
  3
REFRACTIONTILE
360
1BAE
  3
SPECULARTILE
360
1BAB
  0
DICTIONARY
  5
1BB8
330
1BB7
100
AcDbDictionary
280
     1
281
     1
  3
ACAD_XREC_ROUNDTRIP
360
2A80
  3
BUMPTILE
360
1BBA
  3
DIFFUSETILE
360
1BB9
  3
OPACITYTILE
360
1BBD
  3
REFLECTIONTILE
360
1BBC
  3
REFRACTIONTILE
360
1BBE
  3
SPECULARTILE
360
1BBB
  0
DICTIONARY
  5
1F53
330
1BD1
100
AcDbDictionary
280
     1
281
     1
  3
ACAD_ROUNDTRIP_2008_TABLESTYLE_CELLSTYLEMAP
360
2A78
  3
ACAD_XREC_ROUNDTRIP
360
2A81
  0
XRECORD
  5
2A7D
102
{ACAD_REACTORS
330
2A7C
102
}
330
2A7C
100
AcDbXrecord
280
     1
102
SHADEPLOT
 70
     0
102
SHADEPLOTRESLEVEL
 70
     2
102
SHADEPLOTCUSTOMDPI
 70
   300
  0
XRECORD
  5
2A7B
102
{ACAD_REACTORS
330
2A7A
102
}
330
2A7A
100
AcDbXrecord
280
     1
102
SHADEPLOT
 70
     0
102
SHADEPLOTRESLEVEL
 70
     2
102
SHADEPLOTCUSTOMDPI
 70
   300
  0
XRECORD
  5
2A7F
102
{ACAD_REACTORS
330
1BB0
102
}
330
1BB0
100
AcDbXrecord
280
     1
102
MATERIAL
148
0.0
149
0.0
149
0.0
 93
        0
 94
      127
282
     0
 72
     0
 77
     0
171
     0
175
     0
179
     0
273
     0
  0
XRECORD
  5
1BB2
102
{ACAD_REACTORS
330
1BB0
102
}
330
1BB0
100
AcDbXrecord
280
     1
270
     1
271
     1
  0
XRECORD
  5
1BB1
102
{ACAD_REACTORS
330
1BB0
102
}
330
1BB0
100
AcDbXrecord
280
     1
270
     1
271
     1
  0
XRECORD
  5
1BB5
102
{ACAD_REACTORS
330
1BB0
102
}
330
1BB0
100
AcDbXrecord
280
     1
270
     1
271
     1
  0
XRECORD
  5
1BB4
102
{ACAD_REACTORS
330
1BB0
102
}
330
1BB0
100
AcDbXrecord
280
     1
270
     1
271
     1
  0
XRECORD
  5
1BB6
102
{ACAD_REACTORS
330
1BB0
102
}
330
1BB0
100
AcDbXrecord
280
     1
270
     1
271
     1
  0
XRECORD
  5
1BB3
102
{ACAD_REACTORS
330
1BB0
102
}
330
1BB0
100
AcDbXrecord
280
     1
270
     1
271
     1
  0
XRECORD
  5
2A7E
102
{ACAD_REACTORS
330
1BA8
102
}
330
1BA8
100
AcDbXrecord
280
     1
102
MATERIAL
148
0.0
149
0.0
149
0.0
 93
        0
 94
      127
282
     0
 72
     0
 77
     0
171
     0
175
     0
179
     0
273
     0
  0
XRECORD
  5
1BAA
102
{ACAD_REACTORS
330
1BA8
102
}
330
1BA8
100
AcDbXrecord
280
     1
270
     1
271
     1
  0
XRECORD
  5
1BA9
102
{ACAD_REACTORS
330
1BA8
102
}
330
1BA8
100
AcDbXrecord
280
     1
270
     1
271
     1
  0
XRECORD
  5
1BAD
102
{ACAD_REACTORS
330
1BA8
102
}
330
1BA8
100
AcDbXrecord
280
     1
270
     1
271
     1
  0
XRECORD
  5
1BAC
102
{ACAD_REACTORS
330
1BA8
102
}
330
1BA8
100
AcDbXrecord
280
     1
270
     1
271
     1
  0
XRECORD
  5
1BAE
102
{ACAD_REACTORS
330
1BA8
102
}
330
1BA8
100
AcDbXrecord
280
     1
270
     1
271
     1
  0
XRECORD
  5
1BAB
102
{ACAD_REACTORS
330
1BA8
102
}
330
1BA8
100
AcDbXrecord
280
     1
270
     1
271
     1
  0
XRECORD
  5
2A80
102
{ACAD_REACTORS
330
1BB8
102
}
330
1BB8
100
AcDbXrecord
280
     1
102
MATERIAL
148
0.0
149
0.0
149
0.0
 93
        0
 94
      127
282
     0
 72
     0
 77
     0
171
     0
175
     0
179
     0
273
     0
  0
XRECORD
  5
1BBA
102
{ACAD_REACTORS
330
1BB8
102
}
330
1BB8
100
AcDbXrecord
280
     1
270
     1
271
     1
  0
XRECORD
  5
1BB9
102
{ACAD_REACTORS
330
1BB8
102
}
330
1BB8
100
AcDbXrecord
280
     1
270
     1
271
     1
  0
XRECORD
  5
1BBD
102
{ACAD_REACTORS
330
1BB8
102
}
330
1BB8
100
AcDbXrecord
280
     1
270
     1
271
     1
  0
XRECORD
  5
1BBC
102
{ACAD_REACTORS
330
1BB8
102
}
330
1BB8
100
AcDbXrecord
280
     1
270
     1
271
     1
  0
XRECORD
  5
1BBE
102
{ACAD_REACTORS
330
1BB8
102
}
330
1BB8
100
AcDbXrecord
280
     1
270
     1
271
     1
  0
XRECORD
  5
1BBB
102
{ACAD_REACTORS
330
1BB8
102
}
330
1BB8
100
AcDbXrecord
280
     1
270
     1
271
     1
  0
CELLSTYLEMAP
  5
2A78
102
{ACAD_REACTORS
330
1F53
102
}
330
1F53
100
AcDbCellStyleMap
 90
        3
300
CELLSTYLE
  1
TABLEFORMAT_BEGIN
 90
        5
170
     1
 91
        0
 92
    32768
 62
   257
 93
        1
300
CONTENTFORMAT
  1
CONTENTFORMAT_BEGIN
 90
        0
 91
        0
 92
      512
 93
        0
300

 40
0.0
140
1.0
 94
        5
 62
     0
340
18
144
0.25
309
CONTENTFORMAT_END
171
     0
 94
        0
309
TABLEFORMAT_END
  1
CELLSTYLE_BEGIN
 90
        1
 91
        1
300
_TITLE
309
CELLSTYLE_END
300
CELLSTYLE
  1
TABLEFORMAT_BEGIN
 90
        5
170
     1
 91
        0
 92
        0
 62
   257
 93
        1
300
CONTENTFORMAT
  1
CONTENTFORMAT_BEGIN
 90
        0
 91
        0
 92
      512
 93
        0
300

 40
0.0
140
1.0
 94
        5
 62
     0
340
18
144
0.18
309
CONTENTFORMAT_END
171
     0
 94
        0
309
TABLEFORMAT_END
  1
CELLSTYLE_BEGIN
 90
        2
 91
        1
300
_HEADER
309
CELLSTYLE_END
300
CELLSTYLE
  1
TABLEFORMAT_BEGIN
 90
        5
170
     1
 91
        0
 92
        0
 62
   257
 93
        1
300
CONTENTFORMAT
  1
CONTENTFORMAT_BEGIN
 90
        0
 91
        0
 92
      512
 93
        0
300

 40
0.0
140
1.0
 94
        2
 62
     0
340
18
144
0.18
309
CONTENTFORMAT_END
171
     0
 94
        0
309
TABLEFORMAT_END
  1
CELLSTYLE_BEGIN
 90
        3
 91
        2
300
_DATA
309
CELLSTYLE_END
  0
XRECORD
  5
2A81
102
{ACAD_REACTORS
330
1F53
102
}
330
1F53
100
AcDbXrecord
280
     1
102
ACAD_ROUNDTRIP_PRE2007_TABLESTYLE
 90
      512
 91
        0
  1

 92
      512
 93
        0
  2

 94
      512
 95
        0
  3

  0
ENDSEC
  0
EOF
