  0
SECTION
  2
HEADER
  9
$ACADVER
  1
AC1015
  9
$ACADMAINTVER
 70
    18
  9
$DWGCODEPAGE
  3
ANSI_1252
  9
$INSBASE
 10
0.0
 20
0.0
 30
0.0
  9
$EXTMIN
 10
1.128821382854993
 20
10.16553047148289
 30
-0.0000000000112498
  9
$EXTMAX
 10
27.11695294392953
 20
31.1472650276118
 30
0.0000000000002956
  9
$LIMMIN
 10
0.0
 20
0.0
  9
$LIMMAX
 10
12.0
 20
9.0
  9
$ORTHOMODE
 70
     1
  9
$REGENMODE
 70
     1
  9
$FILLMODE
 70
     1
  9
$QTEXTMODE
 70
     0
  9
$MIRRTEXT
 70
     0
  9
$LTSCALE
 40
0.5
  9
$ATTMODE
 70
     1
  9
$TEXTSIZE
 40
1.9375
  9
$TRACEWID
 40
0.05
  9
$TEXTSTYLE
  7
ARCHQUIK
  9
$CLAYER
  8
0
  9
$CELTYPE
  6
ByLayer
  9
$CECOLOR
 62
   256
  9
$CELTSCALE
 40
1.0
  9
$DISPSILH
 70
     0
  9
$DIMSCALE
 40
0.7
  9
$DIMASZ
 40
2.0
  9
$DIMEXO
 40
0.0625
  9
$DIMDLI
 40
0.38
  9
$DIMRND
 40
0.0
  9
$DIMDLE
 40
0.0
  9
$DIMEXE
 40
0.1
  9
$DIMTP
 40
0.0
  9
$DIMTM
 40
0.0
  9
$DIMTXT
 40
1.919999999999999
  9
$DIMCEN
 40
0.125
  9
$DIMTSZ
 40
0.0
  9
$DIMTOL
 70
     0
  9
$DIMLIM
 70
     0
  9
$DIMTIH
 70
     1
  9
$DIMTOH
 70
     1
  9
$DIMSE1
 70
     0
  9
$DIMSE2
 70
     0
  9
$DIMTAD
 70
     0
  9
$DIMZIN
 70
     4
  9
$DIMBLK
  1

  9
$DIMASO
 70
     1
  9
$DIMSHO
 70
     1
  9
$DIMPOST
  1

  9
$DIMAPOST
  1

  9
$DIMALT
 70
     0
  9
$DIMALTD
 70
     2
  9
$DIMALTF
 40
25.4
  9
$DIMLFAC
 40
1.0
  9
$DIMTOFL
 70
     0
  9
$DIMTVP
 40
0.0
  9
$DIMTIX
 70
     0
  9
$DIMSOXD
 70
     0
  9
$DIMSAH
 70
     0
  9
$DIMBLK1
  1

  9
$DIMBLK2
  1

  9
$DIMSTYLE
  2
STANDARD
  9
$DIMCLRD
 70
     0
  9
$DIMCLRE
 70
     0
  9
$DIMCLRT
 70
     0
  9
$DIMTFAC
 40
1.0
  9
$DIMGAP
 40
0.09
  9
$DIMJUST
 70
     0
  9
$DIMSD1
 70
     0
  9
$DIMSD2
 70
     0
  9
$DIMTOLJ
 70
     1
  9
$DIMTZIN
 70
     0
  9
$DIMALTZ
 70
     0
  9
$DIMALTTZ
 70
     0
  9
$DIMUPT
 70
     0
  9
$DIMDEC
 70
     3
  9
$DIMTDEC
 70
     3
  9
$DIMALTU
 70
     2
  9
$DIMALTTD
 70
     2
  9
$DIMTXSTY
  7
Standard
  9
$DIMAUNIT
 70
     0
  9
$DIMADEC
 70
     3
  9
$DIMALTRND
 40
0.0
  9
$DIMAZIN
 70
     0
  9
$DIMDSEP
 70
    46
  9
$DIMATFIT
 70
     3
  9
$DIMFRAC
 70
     0
  9
$DIMLDRBLK
  1

  9
$DIMLUNIT
 70
     2
  9
$DIMLWD
 70
    -2
  9
$DIMLWE
 70
    -2
  9
$DIMTMOVE
 70
     0
  9
$LUNITS
 70
     2
  9
$LUPREC
 70
     4
  9
$SKETCHINC
 40
0.1
  9
$FILLETRAD
 40
0.25
  9
$AUNITS
 70
     0
  9
$AUPREC
 70
     3
  9
$MENU
  1
.
  9
$ELEVATION
 40
0.0
  9
$PELEVATION
 40
0.0
  9
$THICKNESS
 40
0.0
  9
$LIMCHECK
 70
     0
  9
$CHAMFERA
 40
0.5
  9
$CHAMFERB
 40
0.5
  9
$CHAMFERC
 40
1.0
  9
$CHAMFERD
 40
0.0
  9
$SKPOLY
 70
     0
  9
$TDCREATE
 40
2453963.430150475
  9
$TDUCREATE
 40
2453963.638483808
  9
$TDUPDATE
 40
2454183.556161088
  9
$TDUUPDATE
 40
2454183.764494421
  9
$TDINDWG
 40
4.2025877199
  9
$TDUSRTIMER
 40
4.2025873495
  9
$USRTIMER
 70
     1
  9
$ANGBASE
 50
0.0
  9
$ANGDIR
 70
     0
  9
$PDMODE
 70
    33
  9
$PDSIZE
 40
0.016
  9
$PLINEWID
 40
0.0
  9
$SPLFRAME
 70
     0
  9
$SPLINETYPE
 70
     6
  9
$SPLINESEGS
 70
     8
  9
$HANDSEED
  5
1057
  9
$SURFTAB1
 70
     6
  9
$SURFTAB2
 70
     6
  9
$SURFTYPE
 70
     6
  9
$SURFU
 70
     6
  9
$SURFV
 70
     6
  9
$UCSBASE
  2

  9
$UCSNAME
  2

  9
$UCSORG
 10
0.0
 20
0.0
 30
0.0
  9
$UCSXDIR
 10
1.0
 20
0.0
 30
0.0
  9
$UCSYDIR
 10
0.0
 20
1.0
 30
0.0
  9
$UCSORTHOREF
  2

  9
$UCSORTHOVIEW
 70
     0
  9
$UCSORGTOP
 10
0.0
 20
0.0
 30
0.0
  9
$UCSORGBOTTOM
 10
0.0
 20
0.0
 30
0.0
  9
$UCSORGLEFT
 10
0.0
 20
0.0
 30
0.0
  9
$UCSORGRIGHT
 10
0.0
 20
0.0
 30
0.0
  9
$UCSORGFRONT
 10
0.0
 20
0.0
 30
0.0
  9
$UCSORGBACK
 10
0.0
 20
0.0
 30
0.0
  9
$PUCSBASE
  2

  9
$PUCSNAME
  2

  9
$PUCSORG
 10
0.0
 20
0.0
 30
0.0
  9
$PUCSXDIR
 10
1.0
 20
0.0
 30
0.0
  9
$PUCSYDIR
 10
0.0
 20
1.0
 30
0.0
  9
$PUCSORTHOREF
  2

  9
$PUCSORTHOVIEW
 70
     0
  9
$PUCSORGTOP
 10
0.0
 20
0.0
 30
0.0
  9
$PUCSORGBOTTOM
 10
0.0
 20
0.0
 30
0.0
  9
$PUCSORGLEFT
 10
0.0
 20
0.0
 30
0.0
  9
$PUCSORGRIGHT
 10
0.0
 20
0.0
 30
0.0
  9
$PUCSORGFRONT
 10
0.0
 20
0.0
 30
0.0
  9
$PUCSORGBACK
 10
0.0
 20
0.0
 30
0.0
  9
$USERI1
 70
     0
  9
$USERI2
 70
     0
  9
$USERI3
 70
     0
  9
$USERI4
 70
     0
  9
$USERI5
 70
     0
  9
$USERR1
 40
24.0
  9
$USERR2
 40
0.0
  9
$USERR3
 40
22.0
  9
$USERR4
 40
0.0
  9
$USERR5
 40
0.0
  9
$WORLDVIEW
 70
     1
  9
$SHADEDGE
 70
     3
  9
$SHADEDIF
 70
    70
  9
$TILEMODE
 70
     1
  9
$MAXACTVP
 70
    64
  9
$PINSBASE
 10
0.0
 20
0.0
 30
0.0
  9
$PLIMCHECK
 70
     0
  9
$PEXTMIN
 10
0.1638280817378204
 20
0.1427245921142595
 30
0.0
  9
$PEXTMAX
 10
7.923815681737822
 20
10.46520809211426
 30
0.0
  9
$PLIMMIN
 10
-0.2061786625248921
 20
-0.1960345847423638
  9
$PLIMMAX
 10
8.293821097179217
 20
10.80396517496174
  9
$UNITMODE
 70
     0
  9
$VISRETAIN
 70
     1
  9
$PLINEGEN
 70
     0
  9
$PSLTSCALE
 70
     1
  9
$TREEDEPTH
 70
  3020
  9
$CMLSTYLE
  2
Standard
  9
$CMLJUST
 70
     0
  9
$CMLSCALE
 40
1.0
  9
$PROXYGRAPHICS
 70
     1
  9
$MEASUREMENT
 70
     0
  9
$CELWEIGHT
370
    -1
  9
$ENDCAPS
280
     0
  9
$JOINSTYLE
280
     0
  9
$LWDISPLAY
290
     0
  9
$INSUNITS
 70
     1
  9
$HYPERLINKBASE
  1

  9
$STYLESHEET
  1
PellaCAD 2000.ctb
  9
$XEDIT
290
     1
  9
$CEPSNTYPE
380
     0
  9
$PSTYLEMODE
290
     1
  9
$FINGERPRINTGUID
  2
{FDEAD576-A652-11D2-9A35-0060089B3A3F}
  9
$VERSIONGUID
  2
{2E4387AA-05CD-463A-80D5-145174B5A5DE}
  9
$EXTNAMES
290
     1
  9
$PSVPSCALE
 40
0.0
  9
$OLESTARTUP
290
     0
  0
ENDSEC
  0
SECTION
  2
CLASSES
  0
CLASS
  1
ACDBDICTIONARYWDFLT
  2
AcDbDictionaryWithDefault
  3
ObjectDBX Classes
 90
        0
280
     0
281
     0
  0
CLASS
  1
PLOTSETTINGS
  2
AcDbPlotSettings
  3
ObjectDBX Classes
 90
    32768
280
     0
281
     0
  0
CLASS
  1
AMLOADER
  2
AMLoader
  3
AMAcad
 90
    32768
280
     1
281
     0
  0
CLASS
  1
DICTIONARYVAR
  2
AcDbDictionaryVar
  3
ObjectDBX Classes
 90
        0
280
     0
281
     0
  0
CLASS
  1
SORTENTSTABLE
  2
AcDbSortentsTable
  3
ObjectDBX Classes
 90
        0
280
     0
281
     0
  0
CLASS
  1
DIMASSOC
  2
AcDbDimAssoc
  3
"AcDbDimAssoc|Product Desc:     AcDim ARX App For Dimension|Company:          Autodesk, Inc.|WEB Address:      www.autodesk.com"
 90
    32768
280
     0
281
     0
  0
CLASS
  1
ACDBPLACEHOLDER
  2
AcDbPlaceHolder
  3
ObjectDBX Classes
 90
        0
280
     0
281
     0
  0
CLASS
  1
LAYOUT
  2
AcDbLayout
  3
ObjectDBX Classes
 90
        0
280
     0
281
     0
  0
ENDSEC
  0
SECTION
  2
TABLES
  0
TABLE
  2
VPORT
  5
21
330
0
100
AcDbSymbolTable
 70
     3
  0
VPORT
  5
104E
330
21
100
AcDbSymbolTableRecord
100
AcDbViewportTableRecord
  2
*Active
 70
     0
 10
0.0
 20
0.0
 11
1.0
 21
1.0
 12
14.12288716339226
 22
20.65639774954735
 13
0.0
 23
0.0
 14
0.03125
 24
0.03125
 15
0.5
 25
0.5
 16
0.0
 26
0.0
 36
1.0
 17
0.0
 27
0.0
 37
0.0
 40
21.15048845336319
 41
1.459060402684563
 42
50.0
 43
0.0
 44
0.0
 50
0.0
 51
0.0
 71
     0
 72
  8000
 73
     1
 74
     0
 75
     0
 76
     0
 77
     0
 78
     0
281
     0
 65
     1
110
0.0
120
0.0
130
0.0
111
1.0
121
0.0
131
0.0
112
0.0
122
1.0
132
0.0
 79
     0
146
0.0
  0
ENDTAB
  0
TABLE
  2
LTYPE
  5
1C
330
0
100
AcDbSymbolTable
 70
     1
  0
LTYPE
  5
1D
330
1C
100
AcDbSymbolTableRecord
100
AcDbLinetypeTableRecord
  2
ByBlock
 70
     0
  3

 72
    65
 73
     0
 40
0.0
  0
LTYPE
  5
1E
330
1C
100
AcDbSymbolTableRecord
100
AcDbLinetypeTableRecord
  2
ByLayer
 70
     0
  3

 72
    65
 73
     0
 40
0.0
  0
LTYPE
  5
B
330
1C
100
AcDbSymbolTableRecord
100
AcDbLinetypeTableRecord
  2
Continuous
 70
     0
  3
Solid line
 72
    65
 73
     0
 40
0.0
  0
ENDTAB
  0
TABLE
  2
LAYER
  5
14
102
{ACAD_XDICTIONARY
360
15
102
}
330
0
100
AcDbSymbolTable
 70
    18
  0
LAYER
  5
6
330
14
100
AcDbSymbolTableRecord
100
AcDbLayerTableRecord
  2
0
 70
     0
 62
     7
  6
Continuous
370
    -3
390
7
  0
LAYER
  5
55
330
14
100
AcDbSymbolTableRecord
100
AcDbLayerTableRecord
  2
Pel_Dim
 70
     0
 62
     1
  6
Continuous
370
    -3
390
7
  0
LAYER
  5
30
330
14
100
AcDbSymbolTableRecord
100
AcDbLayerTableRecord
  2
Pel_Wall
 70
     0
 62
     9
  6
Continuous
370
    -3
390
7
  0
LAYER
  5
298
330
14
100
AcDbSymbolTableRecord
100
AcDbLayerTableRecord
  2
Pel_CS-IG
 70
     0
 62
     2
  6
Continuous
370
    -3
390
7
  0
LAYER
  5
2A5
330
14
100
AcDbSymbolTableRecord
100
AcDbLayerTableRecord
  2
Pel_CS-Hardware
 70
     0
 62
    53
  6
Continuous
370
    -3
390
7
  0
LAYER
  5
295
330
14
100
AcDbSymbolTableRecord
100
AcDbLayerTableRecord
  2
Pel_CS-Sealant
 70
     0
 62
    40
  6
Continuous
370
    -3
390
7
  0
LAYER
  5
275
330
14
100
AcDbSymbolTableRecord
100
AcDbLayerTableRecord
  2
Pel_CS-Cross Section
 70
     0
 62
     7
  6
Continuous
370
    -3
390
7
  0
LAYER
  5
182
330
14
100
AcDbSymbolTableRecord
100
AcDbLayerTableRecord
  2
Pel_Points
 70
     0
 62
     7
  6
Continuous
290
     0
370
    -3
390
7
  0
LAYER
  5
27D
330
14
100
AcDbSymbolTableRecord
100
AcDbLayerTableRecord
  2
Pel_CS-Weatherstrip
 70
     0
 62
     8
  6
Continuous
370
    -3
390
7
  0
LAYER
  5
2FB
330
14
100
AcDbSymbolTableRecord
100
AcDbLayerTableRecord
  2
Pel_CS-Reinforcement
 70
     0
 62
   150
  6
Continuous
370
    -3
390
7
  0
LAYER
  5
158
330
14
100
AcDbSymbolTableRecord
100
AcDbLayerTableRecord
  2
Pel_wal
 70
     0
 62
     7
  6
Continuous
370
    -3
390
7
  0
LAYER
  5
271
330
14
100
AcDbSymbolTableRecord
100
AcDbLayerTableRecord
  2
Pel_CS-Points
 70
     0
 62
     7
  6
Continuous
290
     0
370
    -3
390
7
  0
LAYER
  5
2A9
330
14
100
AcDbSymbolTableRecord
100
AcDbLayerTableRecord
  2
Pel_CS-Clad
 70
     0
 62
    63
  6
Continuous
370
    -3
390
7
  0
LAYER
  5
2A7
330
14
100
AcDbSymbolTableRecord
100
AcDbLayerTableRecord
  2
Pel_CS-Fill
 70
     0
 62
     9
  6
Continuous
370
    -3
390
7
  0
LAYER
  5
81F
330
14
100
AcDbSymbolTableRecord
100
AcDbLayerTableRecord
  2
Pel_CS-AM-Hatch
 70
     0
 62
   254
  6
Continuous
370
    -3
390
7
  0
LAYER
  5
FB9
330
14
100
AcDbSymbolTableRecord
100
AcDbLayerTableRecord
  2
Defpoints
 70
     0
 62
     7
  6
Continuous
290
     0
370
    -3
390
7
  0
ENDTAB
  0
TABLE
  2
STYLE
  5
18
330
0
100
AcDbSymbolTable
 70
     3
  0
STYLE
  5
19
330
18
100
AcDbSymbolTableRecord
100
AcDbTextStyleTableRecord
  2
Standard
 70
     0
 40
0.0
 41
1.0
 50
0.0
 71
     0
 42
1.9375
  3
ARIAL.TTF
  4

1001
ACAD
1000
Arial
1071
       34
  0
STYLE
  5
C5
330
18
100
AcDbSymbolTableRecord
100
AcDbTextStyleTableRecord
  2
Arial
 70
     0
 40
0.0
 41
1.0
 50
0.0
 71
     0
 42
0.2
  3
ARIAL.TTF
  4

1001
ACAD
1000
Arial
1071
       34
  0
STYLE
  5
2C
330
18
100
AcDbSymbolTableRecord
100
AcDbTextStyleTableRecord
  2
ARCHQUIK
 70
     0
 40
0.0
 41
1.0
 50
0.0
 71
     0
 42
1.9375
  3
archquik.shx
  4

  0
ENDTAB
  0
TABLE
  2
VIEW
  5
1F
330
0
100
AcDbSymbolTable
 70
     0
  0
ENDTAB
  0
TABLE
  2
UCS
  5
20
330
0
100
AcDbSymbolTable
 70
     0
  0
ENDTAB
  0
TABLE
  2
APPID
  5
23
330
0
100
AcDbSymbolTable
 70
     3
  0
APPID
  5
1A
330
23
100
AcDbSymbolTableRecord
100
AcDbRegAppTableRecord
  2
ACAD
 70
     0
  0
APPID
  5
A
330
23
100
AcDbSymbolTableRecord
100
AcDbRegAppTableRecord
  2
ADE
 70
     0
  0
APPID
  5
A9B
330
23
100
AcDbSymbolTableRecord
100
AcDbRegAppTableRecord
  2
ACAD_EXEMPT_FROM_CAD_STANDARDS
 70
     0
  0
ENDTAB
  0
TABLE
  2
DIMSTYLE
  5
24
330
0
100
AcDbSymbolTable
 70
     2
100
AcDbDimStyleTable
 71
     1
340
25
  0
DIMSTYLE
105
25
102
{ACAD_REACTORS
330
AC
330
A1
330
93
330
85
330
7A
330
6F
330
64
330
54
102
}
330
24
100
AcDbSymbolTableRecord
100
AcDbDimStyleTableRecord
  2
3 inch Scale
 70
     0
  3
"\X
 41
0.5
 42
0.5
 43
0.2
 44
0.25
 73
     0
 74
     0
 77
     1
 78
    10
140
0.28
146
0.75
147
0.125
170
     1
171
     0
176
   256
177
   256
178
   255
179
     3
274
     0
276
     2
277
     5
279
     2
340
19
371
    -1
372
    -1
  0
DIMSTYLE
105
2E
330
24
100
AcDbSymbolTableRecord
100
AcDbDimStyleTableRecord
  2
STANDARD
 70
     0
 40
0.7
 41
0.12
 44
0.1
 78
     4
140
0.12
141
0.125
271
     3
272
     3
340
19
  0
ENDTAB
  0
TABLE
  2
BLOCK_RECORD
  5
1
330
0
100
AcDbSymbolTable
 70
    30
  0
BLOCK_RECORD
  5
2
102
{ACAD_XDICTIONARY
360
3
102
}
330
1
100
AcDbSymbolTableRecord
100
AcDbBlockTableRecord
  2
*Model_Space
340
D
  0
BLOCK_RECORD
  5
F
102
{ACAD_XDICTIONARY
360
10
102
}
330
1
100
AcDbSymbolTableRecord
100
AcDbBlockTableRecord
  2
*Paper_Space
340
13
  0
BLOCK_RECORD
  5
56
330
1
100
AcDbSymbolTableRecord
100
AcDbBlockTableRecord
  2
_None
340
0
  0
BLOCK_RECORD
  5
1F0
102
{ACAD_XDICTIONARY
360
1F1
102
}
330
1
100
AcDbSymbolTableRecord
100
AcDbBlockTableRecord
  2
2x
340
0
102
{BLKREFS
331
1EF
331
1FD
102
}
  0
BLOCK_RECORD
  5
1FF
102
{ACAD_XDICTIONARY
360
200
102
}
330
1
100
AcDbSymbolTableRecord
100
AcDbBlockTableRecord
  2
Insul1
340
0
102
{BLKREFS
331
1FE
102
}
  0
BLOCK_RECORD
  5
145
102
{ACAD_XDICTIONARY
360
146
102
}
330
1
100
AcDbSymbolTableRecord
100
AcDbBlockTableRecord
  2
Rodseal
340
0
102
{BLKREFS
331
22C
331
4A4
331
144
102
}
  0
BLOCK_RECORD
  5
23D
102
{ACAD_XDICTIONARY
360
F61
102
}
330
1
100
AcDbSymbolTableRecord
100
AcDbBlockTableRecord
  2
*X4
340
0
102
{BLKREFS
331
23C
102
}
  0
BLOCK_RECORD
  5
238
102
{ACAD_XDICTIONARY
360
239
102
}
330
1
100
AcDbSymbolTableRecord
100
AcDbBlockTableRecord
  2
ACC31D0 Colonial
340
0
102
{BLKREFS
331
237
331
26A
102
}
  0
BLOCK_RECORD
  5
121
102
{ACAD_XDICTIONARY
360
122
102
}
330
1
100
AcDbSymbolTableRecord
100
AcDbBlockTableRecord
  2
vinyl J trim
340
0
102
{BLKREFS
331
1EE
331
120
102
}
  0
BLOCK_RECORD
  5
1DA
102
{ACAD_XDICTIONARY
360
1DB
102
}
330
1
100
AcDbSymbolTableRecord
100
AcDbBlockTableRecord
  2
10jambvinylsiding
340
0
102
{BLKREFS
331
1D9
102
}
  0
BLOCK_RECORD
  5
159
102
{ACAD_XDICTIONARY
360
15A
102
}
330
1
100
AcDbSymbolTableRecord
100
AcDbBlockTableRecord
  2
.25foam9
340
0
102
{BLKREFS
331
22D
331
157
102
}
  0
BLOCK_RECORD
  5
26C
102
{ACAD_XDICTIONARY
360
26D
102
}
330
1
100
AcDbSymbolTableRecord
100
AcDbBlockTableRecord
  2
TSE10SDHV
340
0
102
{BLKREFS
331
26B
102
}
  0
BLOCK_RECORD
  5
3B4
102
{ACAD_XDICTIONARY
360
3B5
102
}
330
1
100
AcDbSymbolTableRecord
100
AcDbBlockTableRecord
  2
TSE10SDSV
340
0
102
{BLKREFS
331
3B3
102
}
  0
BLOCK_RECORD
  5
414
102
{ACAD_XDICTIONARY
360
415
102
}
330
1
100
AcDbSymbolTableRecord
100
AcDbBlockTableRecord
  2
A$C5EDA733A
340
0
102
{BLKREFS
331
413
102
}
  0
BLOCK_RECORD
  5
106
102
{ACAD_XDICTIONARY
360
107
102
}
330
1
100
AcDbSymbolTableRecord
100
AcDbBlockTableRecord
  2
10headvinylsiding2
340
0
102
{BLKREFS
331
105
102
}
  0
BLOCK_RECORD
  5
A9E
102
{ACAD_XDICTIONARY
360
B68
102
}
330
1
100
AcDbSymbolTableRecord
100
AcDbBlockTableRecord
  2
TSE10SDLJ
340
0
102
{BLKREFS
331
B6D
102
}
  0
BLOCK_RECORD
  5
FBA
330
1
100
AcDbSymbolTableRecord
100
AcDbBlockTableRecord
  2
*D22
340
0
  0
BLOCK_RECORD
  5
FCB
330
1
100
AcDbSymbolTableRecord
100
AcDbBlockTableRecord
  2
*D23
340
0
  0
BLOCK_RECORD
  5
FDC
330
1
100
AcDbSymbolTableRecord
100
AcDbBlockTableRecord
  2
*D24
340
0
  0
BLOCK_RECORD
  5
FF3
330
1
100
AcDbSymbolTableRecord
100
AcDbBlockTableRecord
  2
*D25
340
0
  0
BLOCK_RECORD
  5
100A
330
1
100
AcDbSymbolTableRecord
100
AcDbBlockTableRecord
  2
*D26
340
0
  0
BLOCK_RECORD
  5
101B
330
1
100
AcDbSymbolTableRecord
100
AcDbBlockTableRecord
  2
*D27
340
0
  0
BLOCK_RECORD
  5
102C
330
1
100
AcDbSymbolTableRecord
100
AcDbBlockTableRecord
  2
*D28
340
0
  0
BLOCK_RECORD
  5
103D
330
1
100
AcDbSymbolTableRecord
100
AcDbBlockTableRecord
  2
*D29
340
0
  0
ENDTAB
  0
ENDSEC
  0
SECTION
  2
BLOCKS
  0
BLOCK
  5
5
330
2
100
AcDbEntity
  8
0
100
AcDbBlockBegin
  2
*Model_Space
 70
     0
 10
0.0
 20
0.0
 30
0.0
  3
*Model_Space
  1

  0
ENDBLK
  5
C
330
2
100
AcDbEntity
  8
0
100
AcDbBlockEnd
  0
BLOCK
  5
11
330
F
100
AcDbEntity
 67
     1
  8
0
100
AcDbBlockBegin
  2
*Paper_Space
 70
     0
 10
0.0
 20
0.0
 30
0.0
  3
*Paper_Space
  1

  0
ENDBLK
  5
12
330
F
100
AcDbEntity
 67
     1
  8
0
100
AcDbBlockEnd
  0
BLOCK
  5
57
330
56
100
AcDbEntity
  8
0
100
AcDbBlockBegin
  2
_None
 70
     0
 10
0.0
 20
0.0
 30
0.0
  3
_None
  1

  0
ENDBLK
  5
58
330
56
100
AcDbEntity
  8
0
100
AcDbBlockEnd
  0
BLOCK
  5
1F3
330
1F0
100
AcDbEntity
  8
0
100
AcDbBlockBegin
  2
2x
 70
     0
 10
0.0
 20
0.0
 30
0.0
  3
2x
  1

  0
LINE
  5
1F4
330
1F0
100
AcDbEntity
  8
Pel_Wall
100
AcDbLine
 10
0.0
 20
0.0
 30
0.0
 11
1.0
 21
1.0
 31
0.0
  0
LINE
  5
1F5
330
1F0
100
AcDbEntity
  8
Pel_Wall
100
AcDbLine
 10
1.0
 20
0.0
 30
0.0
 11
0.0
 21
1.0
 31
0.0
  0
POLYLINE
  5
1F6
330
1F0
100
AcDbEntity
  8
Pel_Wall
100
AcDb2dPolyline
 66
     1
 10
0.0
 20
0.0
 30
0.0
 70
     1
  0
VERTEX
  5
1F7
330
1F6
100
AcDbEntity
  8
Pel_Wall
100
AcDbVertex
100
AcDb2dVertex
 10
0.0
 20
0.0
 30
0.0
  0
VERTEX
  5
1F8
330
1F6
100
AcDbEntity
  8
Pel_Wall
100
AcDbVertex
100
AcDb2dVertex
 10
1.0
 20
0.0
 30
0.0
  0
VERTEX
  5
1F9
330
1F6
100
AcDbEntity
  8
Pel_Wall
100
AcDbVertex
100
AcDb2dVertex
 10
1.0
 20
1.0
 30
0.0
  0
VERTEX
  5
1FA
330
1F6
100
AcDbEntity
  8
Pel_Wall
100
AcDbVertex
100
AcDb2dVertex
 10
0.0
 20
1.0
 30
0.0
  0
SEQEND
  5
1FB
330
1F6
100
AcDbEntity
  8
Pel_Wall
  0
ENDBLK
  5
1FC
330
1F0
100
AcDbEntity
  8
0
100
AcDbBlockEnd
  0
BLOCK
  5
202
330
1FF
100
AcDbEntity
  8
0
100
AcDbBlockBegin
  2
Insul1
 70
     0
 10
0.0
 20
0.0
 30
0.0
  3
Insul1
  1

  0
POLYLINE
  5
203
330
1FF
100
AcDbEntity
  8
Pel_Wall
100
AcDb2dPolyline
 66
     1
 10
0.0
 20
0.0
 30
0.0
  0
VERTEX
  5
204
330
203
100
AcDbEntity
  8
Pel_Wall
100
AcDbVertex
100
AcDb2dVertex
 10
0.0
 20
1.0
 30
0.0
 42
0.6166658403406799
  0
VERTEX
  5
205
330
203
100
AcDbEntity
  8
Pel_Wall
100
AcDbVertex
100
AcDb2dVertex
 10
0.3992063386936024
 20
0.7994072072739158
 30
0.0
  0
VERTEX
  5
206
330
203
100
AcDbEntity
  8
Pel_Wall
100
AcDbVertex
100
AcDb2dVertex
 10
0.6000015638841063
 20
0.9500011729035227
 30
0.0
 42
-1.999090727876019
  0
VERTEX
  5
207
330
203
100
AcDbEntity
  8
Pel_Wall
100
AcDbVertex
100
AcDb2dVertex
 10
0.6001440114443854
 20
0.5498920723858767
 30
0.0
  0
VERTEX
  5
208
330
203
100
AcDbEntity
  8
Pel_Wall
100
AcDbVertex
100
AcDb2dVertex
 10
0.4005222086914985
 20
0.6996072761465229
 30
0.0
 42
1.991797741695639
  0
VERTEX
  5
209
330
203
100
AcDbEntity
  8
Pel_Wall
100
AcDbVertex
100
AcDb2dVertex
 10
0.3992063386936024
 20
0.2994072072739158
 30
0.0
  0
VERTEX
  5
20A
330
203
100
AcDbEntity
  8
Pel_Wall
100
AcDbVertex
100
AcDb2dVertex
 10
0.6000015638841063
 20
0.450001172903523
 30
0.0
 42
-1.999090727876016
  0
VERTEX
  5
20B
330
203
100
AcDbEntity
  8
Pel_Wall
100
AcDbVertex
100
AcDb2dVertex
 10
0.6001440114443854
 20
0.0498920723858767
 30
0.0
  0
VERTEX
  5
20C
330
203
100
AcDbEntity
  8
Pel_Wall
100
AcDbVertex
100
AcDb2dVertex
 10
0.4005222086914985
 20
0.1996072761465228
 30
0.0
 42
0.6171288319215244
  0
VERTEX
  5
20D
330
203
100
AcDbEntity
  8
Pel_Wall
100
AcDbVertex
100
AcDb2dVertex
 10
0.0
 20
0.0
 30
0.0
 42
1.002620720669957
  0
SEQEND
  5
20E
330
203
100
AcDbEntity
  8
Pel_Wall
  0
ENDBLK
  5
20F
330
1FF
100
AcDbEntity
  8
0
100
AcDbBlockEnd
  0
BLOCK
  5
148
330
145
100
AcDbEntity
  8
0
100
AcDbBlockBegin
  2
Rodseal
 70
     0
 10
0.0
 20
0.0
 30
0.0
  3
Rodseal
  1

  0
ARC
  5
149
330
145
100
AcDbEntity
  8
Pel_Wall
100
AcDbCircle
 10
-0.5625
 20
0.5
 30
0.0
 40
1.0625
100
AcDbArc
 50
17.99029647599064
 51
28.07248693585238
  0
ARC
  5
14A
330
145
100
AcDbEntity
  8
Pel_Wall
100
AcDbCircle
 10
-0.5625
 20
0.5
 30
0.0
 40
1.0625
100
AcDbArc
 50
331.9275130641474
 51
340.7928957547761
  0
ARC
  5
14B
330
145
100
AcDbEntity
  8
Pel_Wall
100
AcDbCircle
 10
-0.9375
 20
0.5
 30
0.0
 40
1.0625
100
AcDbArc
 50
331.9275130641474
 51
28.07248693585238
  0
ARC
  5
14C
330
145
100
AcDbEntity
  8
Pel_Wall
100
AcDbCircle
 10
-0.8125
 20
0.5
 30
0.0
 40
1.0625
100
AcDbArc
 50
331.9275130641474
 51
28.07248693585238
  0
ARC
  5
14D
330
145
100
AcDbEntity
  8
Pel_Wall
100
AcDbCircle
 10
-0.6875
 20
0.5
 30
0.0
 40
1.0625
100
AcDbArc
 50
331.9275130641474
 51
28.07248693585238
  0
CIRCLE
  5
14E
330
145
100
AcDbEntity
  8
Pel_Wall
100
AcDbCircle
 10
0.7708146583002531
 20
0.2987804878048763
 30
0.0
 40
0.0182801895249072
  0
ARC
  5
14F
330
145
100
AcDbEntity
  8
Pel_Wall
100
AcDbCircle
 10
-0.4375
 20
0.5
 30
0.0
 40
1.0625
100
AcDbArc
 50
331.9275130641474
 51
335.4550269558483
  0
CIRCLE
  5
150
330
145
100
AcDbEntity
  8
Pel_Wall
100
AcDbCircle
 10
0.5880127630511823
 20
0.189024390243901
 30
0.0
 40
0.0182926829268291
  0
ARC
  5
151
330
145
100
AcDbEntity
  8
Pel_Wall
100
AcDbCircle
 10
-0.4375
 20
0.5
 30
0.0
 40
1.0625
100
AcDbArc
 50
24.7733403565269
 51
28.07248693585238
  0
CIRCLE
  5
152
330
145
100
AcDbEntity
  8
Pel_Wall
100
AcDbCircle
 10
0.8165151321125279
 20
0.4939024390243958
 30
0.0
 40
0.027420284287361
  0
CIRCLE
  5
153
330
145
100
AcDbEntity
  8
Pel_Wall
100
AcDbCircle
 10
0.560592478763823
 20
0.4969512195121979
 30
0.0
 40
0.0274390243902443
  0
CIRCLE
  5
154
330
145
100
AcDbEntity
  8
Pel_Wall
100
AcDbCircle
 10
0.6855071071840087
 20
0.7835365853658516
 30
0.0
 40
0.0243735860332097
  0
ELLIPSE
  5
155
330
145
100
AcDbEntity
  8
Pel_Wall
100
AcDbEllipse
 10
0.6875
 20
0.5
 30
0.0
 11
0.0
 21
0.5
 31
0.0
210
0.0
220
0.0
230
1.0
 40
0.625
 41
4.712388980384688
 42
10.99557428756427
  0
ENDBLK
  5
156
330
145
100
AcDbEntity
  8
0
100
AcDbBlockEnd
  0
BLOCK
  5
23E
330
23D
100
AcDbEntity
  8
0
100
AcDbBlockBegin
  2
*X4
 70
     1
 10
0.0
 20
0.0
 30
0.0
  3
*X4
  1

  0
LINE
  5
23F
330
23D
100
AcDbEntity
  8
0
 62
     0
100
AcDbLine
 10
0.4406854249492387
 20
0.125
 30
0.0
 11
0.2828427124746184
 21
0.2828427124746184
 31
0.0
  0
LINE
  5
240
330
23D
100
AcDbEntity
  8
0
 62
     0
100
AcDbLine
 10
0.6830613898308702
 20
1.013994885016845
 30
0.0
 11
0.2828427124746184
 21
1.414213562373095
 31
0.0
  0
LINE
  5
241
330
23D
100
AcDbEntity
  8
0
 62
     0
100
AcDbLine
 10
0.2828426492867635
 20
0.2828426606133689
 30
0.0
 11
0.0470007505934564
 21
0.9903683568135726
 31
0.0
  0
LINE
  5
242
330
23D
100
AcDbEntity
  8
0
 62
     0
100
AcDbLine
 10
0.0027745262448633
 20
1.123047029881906
 30
0.0
 11
0.0000006036576732
 21
1.131368797644888
 31
0.0
  0
LINE
  5
243
330
23D
100
AcDbEntity
  8
0
 62
     0
100
AcDbLine
 10
0.2828425860989085
 20
1.4142134586506
 30
0.0
 11
0.2150840799441021
 21
1.617488977149577
 31
0.0
  0
LINE
  5
244
330
23D
100
AcDbEntity
  8
0
 62
     0
100
AcDbLine
 10
0.205936119654627
 20
-0.6178083589246591
 30
0.0
 11
0.0000000000379732
 21
0.0000000000303224
 31
0.0
  0
ENDBLK
  5
245
330
23D
100
AcDbEntity
  8
0
100
AcDbBlockEnd
  0
BLOCK
  5
23B
330
238
100
AcDbEntity
  8
0
100
AcDbBlockBegin
  2
ACC31D0 Colonial
 70
     0
 10
0.0
 20
0.0
 30
0.0
  3
ACC31D0 Colonial
  1

  0
INSERT
  5
23C
330
238
100
AcDbEntity
  8
Pel_Wall
 62
     2
100
AcDbBlockReference
  2
*X4
 10
0.0
 20
0.625
 30
0.0
1001
ACAD
1000
HATCH
1002
{
1070
    16
1000
WOOD
1040
0.2
1040
0.7853981633974483
1002
}
  0
POLYLINE
  5
246
330
238
100
AcDbEntity
  8
Pel_Wall
  6
Continuous
 62
     3
100
AcDb2dPolyline
 66
     1
 10
0.0
 20
0.0
 30
0.0
 70
     1
  0
VERTEX
  5
F7D
330
246
100
AcDbEntity
  8
Pel_Wall
  6
Continuous
 62
     3
100
AcDbVertex
100
AcDb2dVertex
 10
0.75
 20
2.223808999999999
 30
0.0
  0
VERTEX
  5
F7E
330
246
100
AcDbEntity
  8
Pel_Wall
  6
Continuous
 62
     3
100
AcDbVertex
100
AcDb2dVertex
 10
0.75
 20
1.75
 30
0.0
  0
VERTEX
  5
F7F
330
246
100
AcDbEntity
  8
Pel_Wall
  6
Continuous
 62
     3
100
AcDbVertex
100
AcDb2dVertex
 10
0.6880000000000006
 20
1.75
 30
0.0
 42
-0.0714559852478829
  0
VERTEX
  5
F80
330
246
100
AcDbEntity
  8
Pel_Wall
  6
Continuous
 62
     3
100
AcDbVertex
100
AcDb2dVertex
 10
0.6374578713513497
 20
1.398146600338595
 30
0.0
  0
VERTEX
  5
F81
330
246
100
AcDbEntity
  8
Pel_Wall
  6
Continuous
 62
     3
100
AcDbVertex
100
AcDb2dVertex
 10
0.550542128648651
 20
1.101853399661404
 30
0.0
 42
0.0714559852478834
  0
VERTEX
  5
F82
330
246
100
AcDbEntity
  8
Pel_Wall
  6
Continuous
 62
     3
100
AcDbVertex
100
AcDb2dVertex
 10
0.5
 20
0.75
 30
0.0
  0
VERTEX
  5
F83
330
246
100
AcDbEntity
  8
Pel_Wall
  6
Continuous
 62
     3
100
AcDbVertex
100
AcDb2dVertex
 10
0.4369999999999994
 20
0.75
 30
0.0
  0
VERTEX
  5
F84
330
246
100
AcDbEntity
  8
Pel_Wall
  6
Continuous
 62
     3
100
AcDbVertex
100
AcDb2dVertex
 10
0.4369999999999994
 20
0.3440000000000012
 30
0.0
  0
VERTEX
  5
F85
330
246
100
AcDbEntity
  8
Pel_Wall
  6
Continuous
 62
     3
100
AcDbVertex
100
AcDb2dVertex
 10
0.375
 20
0.3440000000000012
 30
0.0
 42
-0.1399088654239762
  0
VERTEX
  5
F86
330
246
100
AcDbEntity
  8
Pel_Wall
  6
Continuous
 62
     3
100
AcDbVertex
100
AcDb2dVertex
 10
0.3280000006036872
 20
0.1793214755818262
 30
0.0
 42
0.1399089885617641
  0
VERTEX
  5
F87
330
246
100
AcDbEntity
  8
Pel_Wall
  6
Continuous
 62
     3
100
AcDbVertex
100
AcDb2dVertex
 10
0.2810000000000006
 20
0.0146429999999995
 30
0.0
  0
VERTEX
  5
F88
330
246
100
AcDbEntity
  8
Pel_Wall
  6
Continuous
 62
     3
100
AcDbVertex
100
AcDb2dVertex
 10
0.2810000000000006
 20
0.0098130000000012
 30
0.0
  0
VERTEX
  5
F89
330
246
100
AcDbEntity
  8
Pel_Wall
  6
Continuous
 62
     3
100
AcDbVertex
100
AcDb2dVertex
 10
0.0
 20
0.0
 30
0.0
  0
VERTEX
  5
F8A
330
246
100
AcDbEntity
  8
Pel_Wall
  6
Continuous
 62
     3
100
AcDbVertex
100
AcDb2dVertex
 10
0.0
 20
0.625
 30
0.0
 42
0.2280720461942016
  0
VERTEX
  5
F8B
330
246
100
AcDbEntity
  8
Pel_Wall
  6
Continuous
 62
     3
100
AcDbVertex
100
AcDb2dVertex
 10
0.0470000000000006
 20
0.7226779999999984
 30
0.0
  0
VERTEX
  5
F8C
330
246
100
AcDbEntity
  8
Pel_Wall
  6
Continuous
 62
     3
100
AcDbVertex
100
AcDb2dVertex
 10
0.0470007834883894
 20
1.654490721224874
 30
0.0
 42
0.2240766004830583
  0
VERTEX
  5
F8D
330
246
100
AcDbEntity
  8
Pel_Wall
  6
Continuous
 62
     3
100
AcDbVertex
100
AcDb2dVertex
 10
0.0000006110440669
 20
1.750328694738353
 30
0.0
  0
VERTEX
  5
F8E
330
246
100
AcDbEntity
  8
Pel_Wall
  6
Continuous
 62
     3
100
AcDbVertex
100
AcDb2dVertex
 10
0.0
 20
2.25
 30
0.0
  0
VERTEX
  5
F8F
330
246
100
AcDbEntity
  8
Pel_Wall
  6
Continuous
 62
     3
100
AcDbVertex
100
AcDb2dVertex
 10
0.75
 20
2.223808999999999
 30
0.0
  0
SEQEND
  5
F90
330
246
100
AcDbEntity
  8
Pel_Wall
  6
Continuous
 62
     3
  0
ENDBLK
  5
25B
330
238
100
AcDbEntity
  8
0
100
AcDbBlockEnd
  0
BLOCK
  5
124
330
121
100
AcDbEntity
  8
0
100
AcDbBlockBegin
  2
vinyl J trim
 70
     0
 10
0.0
 20
0.0
 30
0.0
  3
vinyl J trim
  1

  0
LWPOLYLINE
  5
125
330
121
100
AcDbEntity
  8
Pel_Wall
100
AcDbPolyline
 90
       16
 70
     1
 43
0.0
 10
-0.714644660940671
 20
0.7146446609406745
 10
-0.8103553390593274
 20
0.6189339828220179
 42
0.1989123673796584
 10
-0.8249999999999957
 20
0.5835786437626888
 10
-0.8249999999999957
 20
0.0999999999999979
 42
0.4142135623730966
 10
-0.7749999999999986
 20
0.0500000000000007
 10
-0.1000000000000014
 20
0.0500000000000007
 42
0.4142135623730951
 10
-0.0500000000000043
 20
0.0999999999999979
 10
-0.0500000000000043
 20
1.75
 10
0.0
 20
1.75
 10
0.0
 20
0.0999999999999979
 42
-0.4142135623730951
 10
-0.1000000000000014
 20
0.0
 10
-0.7749999999999986
 20
0.0
 42
-0.4142135623730951
 10
-0.875
 20
0.0999999999999979
 10
-0.875
 20
0.5835786437626888
 42
-0.198912367379658
 10
-0.8457106781186567
 20
0.6542893218813468
 10
-0.75
 20
0.75
  0
ENDBLK
  5
126
330
121
100
AcDbEntity
  8
0
100
AcDbBlockEnd
  0
BLOCK
  5
1DD
330
1DA
100
AcDbEntity
  8
0
100
AcDbBlockBegin
  2
10jambvinylsiding
 70
     0
 10
0.0
 20
0.0
 30
0.0
  3
10jambvinylsiding
  1

  0
POLYLINE
  5
1DE
102
{ACAD_REACTORS
330
210
102
}
330
1DA
100
AcDbEntity
  8
Pel_Wall
100
AcDb2dPolyline
 66
     1
 10
0.0
 20
0.0
 30
0.0
 70
     1
  0
VERTEX
  5
1DF
330
1DE
100
AcDbEntity
  8
Pel_Wall
100
AcDbVertex
100
AcDb2dVertex
 10
5.530522188282886
 20
5.250000000000002
 30
0.0
  0
VERTEX
  5
1E0
330
1DE
100
AcDbEntity
  8
Pel_Wall
100
AcDbVertex
100
AcDb2dVertex
 10
6.155522188282888
 20
5.250000000000002
 30
0.0
  0
VERTEX
  5
1E1
330
1DE
100
AcDbEntity
  8
Pel_Wall
100
AcDbVertex
100
AcDb2dVertex
 10
6.155522188282888
 20
0.3125000000000035
 30
0.0
  0
VERTEX
  5
1E2
330
1DE
100
AcDbEntity
  8
Pel_Wall
100
AcDbVertex
100
AcDb2dVertex
 10
6.155522188282888
 20
0.3125000000000035
 30
0.0
  0
VERTEX
  5
1E3
330
1DE
100
AcDbEntity
  8
Pel_Wall
100
AcDbVertex
100
AcDb2dVertex
 10
5.530522188282886
 20
0.3124500000020269
 30
0.0
  0
VERTEX
  5
1E4
330
1DE
100
AcDbEntity
  8
Pel_Wall
100
AcDbVertex
100
AcDb2dVertex
 10
5.530522188282886
 20
0.3124500000020269
 30
0.0
  0
SEQEND
  5
1E5
330
1DE
100
AcDbEntity
  8
Pel_Wall
  0
HATCH
  5
1E6
330
1DA
100
AcDbEntity
  8
Pel_Wall
100
AcDbHatch
 10
0.0
 20
0.0
 30
0.0
210
0.0
220
0.0
230
1.0
  2
PLY
 70
     0
 71
     1
 91
        1
 92
        1
 93
        4
 72
     1
 10
1.556926266586415
 20
0.3124500000020269
 11
2.030522188282886
 21
0.3124500000020269
 72
     1
 10
2.030522188282886
 20
0.3124500000020269
 11
2.030522188282886
 21
5.250000000000009
 72
     1
 10
2.030522188282886
 20
5.250000000000009
 11
1.556926266586415
 21
5.250000000000002
 72
     1
 10
1.556926266586415
 20
5.250000000000002
 11
1.556926266586415
 21
0.3124500000020269
 97
        1
330
1E7
 75
     0
 76
     1
 52
90.0
 41
1.0
 77
     0
 78
     2
 53
90.0
 43
0.0305221882828875
 44
-0.1250499999979731
 45
-0.125
 46
0.0
 79
     0
 53
135.0
 43
0.1555221882828874
 44
-0.1250499999979731
 45
-0.3535533905932738
 46
-0.3535533905932737
 79
     0
 98
        1
 10
0.1555221882828874
 20
-0.1250499999979731
  0
POLYLINE
  5
1E7
102
{ACAD_REACTORS
330
1E6
102
}
330
1DA
100
AcDbEntity
  8
Pel_Wall
100
AcDb2dPolyline
 66
     1
 10
0.0
 20
0.0
 30
0.0
 70
     1
  0
VERTEX
  5
1E8
330
1E7
100
AcDbEntity
  8
Pel_Wall
100
AcDbVertex
100
AcDb2dVertex
 10
1.556926266586415
 20
0.3124500000020269
 30
0.0
  0
VERTEX
  5
1E9
330
1E7
100
AcDbEntity
  8
Pel_Wall
100
AcDbVertex
100
AcDb2dVertex
 10
2.030522188282886
 20
0.3124500000020269
 30
0.0
  0
VERTEX
  5
1EA
330
1E7
100
AcDbEntity
  8
Pel_Wall
100
AcDbVertex
100
AcDb2dVertex
 10
2.030522188282886
 20
5.250000000000009
 30
0.0
  0
VERTEX
  5
1EB
330
1E7
100
AcDbEntity
  8
Pel_Wall
100
AcDbVertex
100
AcDb2dVertex
 10
1.556926266586415
 20
5.250000000000002
 30
0.0
  0
SEQEND
  5
1EC
330
1E7
100
AcDbEntity
  8
Pel_Wall
  0
LWPOLYLINE
  5
1ED
330
1DA
100
AcDbEntity
  8
Pel_Wall
100
AcDbPolyline
 90
        4
 70
     1
 43
0.0
 10
0.9499472865635
 20
5.250000000000002
 10
0.9499472865635
 20
0.6250000000000036
 10
0.4499472865635
 20
0.6250000000000036
 10
0.4499472865635
 20
5.250000000000002
  0
INSERT
  5
1EE
330
1DA
100
AcDbEntity
  8
Pel_Wall
100
AcDbBlockReference
  2
vinyl J trim
 10
1.137447286563499
 20
0.2500000000000035
 30
0.0
  0
INSERT
  5
1EF
330
1DA
100
AcDbEntity
  8
Pel_Wall
100
AcDbBlockReference
  2
2x
 10
2.030522188282886
 20
0.3124500000020269
 30
0.0
 41
3.5
 42
1.5
  0
INSERT
  5
1FD
330
1DA
100
AcDbEntity
  8
Pel_Wall
100
AcDbBlockReference
  2
2x
 10
2.030522188282886
 20
1.812450000002026
 30
0.0
 41
3.5
 42
1.5
  0
INSERT
  5
1FE
330
1DA
100
AcDbEntity
  8
Pel_Wall
100
AcDbBlockReference
  2
Insul1
 10
5.530522188282886
 20
3.312450000002026
 30
0.0
 41
-3.5
 42
1.875
  0
HATCH
  5
210
330
1DA
100
AcDbEntity
  8
0
100
AcDbHatch
 10
0.0
 20
0.0
 30
0.0
210
0.0
220
0.0
230
1.0
  2
GYP
 70
     0
 71
     1
 91
        1
 92
        1
 93
        4
 72
     1
 10
5.530522188282886
 20
5.250000000000002
 11
6.155522188282888
 21
5.250000000000002
 72
     1
 10
6.155522188282888
 20
5.250000000000002
 11
6.155522188282888
 21
0.3125000000000035
 72
     1
 10
6.155522188282888
 20
0.3125000000000035
 11
5.530522188282886
 21
0.3124500000020269
 72
     1
 10
5.530522188282886
 20
0.3124500000020269
 11
5.530522188282886
 21
5.250000000000002
 97
        1
330
1DE
 75
     0
 76
     1
 52
0.0
 41
1.0
 77
     0
 78
     3
 53
0.0
 43
-14.35765290999772
 44
-17.86300000000119
 45
0.18
 46
0.5
 79
     2
 49
0.0
 49
-0.3
 53
30.0
 43
-14.32765290999772
 44
-17.74300000000119
 45
-0.094115427318801
 46
0.5230127018922194
 79
     2
 49
0.0
 49
-0.3
 53
60.0
 43
-14.29765290999772
 44
-17.68300000000119
 45
-0.3430127018922193
 46
0.4058845726811989
 79
     2
 49
0.0
 49
-0.3
 98
        1
 10
-14.35765290999772
 20
-17.86300000000119
  0
POLYLINE
  5
211
330
1DA
100
AcDbEntity
  8
Pel_Wall
  6
Continuous
100
AcDb2dPolyline
 66
     1
 10
0.0
 20
0.0
 30
0.0
  0
VERTEX
  5
212
330
211
100
AcDbEntity
  8
Pel_Wall
  6
Continuous
100
AcDbVertex
100
AcDb2dVertex
 10
1.491099283998003
 20
5.250000000000002
 30
0.0
  0
VERTEX
  5
213
330
211
100
AcDbEntity
  8
Pel_Wall
  6
Continuous
100
AcDbVertex
100
AcDb2dVertex
 10
1.491099283998003
 20
0.230000000000004
 30
0.0
  0
VERTEX
  5
214
330
211
100
AcDbEntity
  8
Pel_Wall
  6
Continuous
100
AcDbVertex
100
AcDb2dVertex
 10
4.214067431058971
 20
0.230000000000004
 30
0.0
  0
SEQEND
  5
215
330
211
100
AcDbEntity
  8
Pel_Wall
  6
Continuous
  0
POLYLINE
  5
216
330
1DA
100
AcDbEntity
  8
Pel_Wall
  6
Continuous
100
AcDb2dPolyline
 66
     1
 10
0.0
 20
0.0
 30
0.0
  0
VERTEX
  5
217
330
216
100
AcDbEntity
  8
Pel_Wall
  6
Continuous
100
AcDbVertex
100
AcDb2dVertex
 10
1.511099283997999
 20
5.250000000000002
 30
0.0
  0
VERTEX
  5
218
330
216
100
AcDbEntity
  8
Pel_Wall
  6
Continuous
100
AcDbVertex
100
AcDb2dVertex
 10
1.511099283997999
 20
0.2500000000000035
 30
0.0
  0
VERTEX
  5
219
330
216
100
AcDbEntity
  8
Pel_Wall
  6
Continuous
100
AcDbVertex
100
AcDb2dVertex
 10
4.214067431058971
 20
0.2500000000000035
 30
0.0
  0
SEQEND
  5
21A
330
216
100
AcDbEntity
  8
Pel_Wall
  6
Continuous
  0
POLYLINE
  5
21B
330
1DA
100
AcDbEntity
  8
Pel_Wall
  6
Continuous
100
AcDb2dPolyline
 66
     1
 10
0.0
 20
0.0
 30
0.0
  0
VERTEX
  5
21C
330
21B
100
AcDbEntity
  8
Pel_Wall
  6
Continuous
100
AcDbVertex
100
AcDb2dVertex
 10
1.231197286563499
 20
0.0000000000000036
 30
0.0
  0
VERTEX
  5
21D
330
21B
100
AcDbEntity
  8
Pel_Wall
  6
Continuous
100
AcDbVertex
100
AcDb2dVertex
 10
1.231197286563499
 20
1.187500000000002
 30
0.0
  0
VERTEX
  5
21E
330
21B
100
AcDbEntity
  8
Pel_Wall
  6
Continuous
100
AcDbVertex
100
AcDb2dVertex
 10
1.293697286563499
 20
1.312500000000002
 30
0.0
  0
VERTEX
  5
21F
330
21B
100
AcDbEntity
  8
Pel_Wall
  6
Continuous
100
AcDbVertex
100
AcDb2dVertex
 10
1.293697286563499
 20
3.000000000000003
 30
0.0
  0
SEQEND
  5
220
330
21B
100
AcDbEntity
  8
Pel_Wall
  6
Continuous
  0
LINE
  5
221
330
1DA
100
AcDbEntity
  8
Pel_Wall
  6
Continuous
100
AcDbLine
 10
1.26992427791137
 20
0.6905676875769906
 30
0.0
 11
1.26992427791137
 21
0.9405676875769906
 31
0.0
  0
LINE
  5
222
330
1DA
100
AcDbEntity
  8
Pel_Wall
  6
Continuous
100
AcDbLine
 10
2.274691119697536
 20
0.8155676875769906
 30
0.0
 11
2.712191119697536
 21
0.8155676875769906
 31
0.0
  0
LINE
  5
223
330
1DA
100
AcDbEntity
  8
Pel_Wall
  6
Continuous
100
AcDbLine
 10
2.923767802326899
 20
0.8155676875769906
 30
0.0
 11
3.798767802326891
 21
0.8155676875769906
 31
0.0
  0
LINE
  5
224
330
1DA
100
AcDbEntity
  8
Pel_Wall
  6
Continuous
100
AcDbLine
 10
1.20742427791137
 20
0.8155676875769906
 30
0.0
 11
2.08242427791137
 21
0.8155676875769906
 31
0.0
  0
POLYLINE
  5
225
330
1DA
100
AcDbEntity
  8
Pel_Wall
  6
Continuous
100
AcDb2dPolyline
 66
     1
 10
0.0
 20
0.0
 30
0.0
  0
VERTEX
  5
226
330
225
100
AcDbEntity
  8
Pel_Wall
  6
Continuous
100
AcDbVertex
100
AcDb2dVertex
 10
1.211197286563503
 20
0.0000000000000036
 30
0.0
  0
VERTEX
  5
227
330
225
100
AcDbEntity
  8
Pel_Wall
  6
Continuous
100
AcDbVertex
100
AcDb2dVertex
 10
1.211197286563503
 20
1.192221359549999
 30
0.0
  0
VERTEX
  5
228
330
225
100
AcDbEntity
  8
Pel_Wall
  6
Continuous
100
AcDbVertex
100
AcDb2dVertex
 10
1.273697286563503
 20
1.317221359549999
 30
0.0
  0
VERTEX
  5
229
330
225
100
AcDbEntity
  8
Pel_Wall
  6
Continuous
100
AcDbVertex
100
AcDb2dVertex
 10
1.273697286563503
 20
3.000000000000003
 30
0.0
  0
SEQEND
  5
22A
330
225
100
AcDbEntity
  8
Pel_Wall
  6
Continuous
  0
POINT
  5
22B
330
1DA
100
AcDbEntity
  8
Pel_Points
100
AcDbPoint
 10
0.0
 20
0.0000000000000036
 30
0.0
  0
INSERT
  5
22C
330
1DA
100
AcDbEntity
  8
Pel_Wall
100
AcDbBlockReference
  2
Rodseal
 10
0.3408766072423646
 20
0.0000000000000036
 30
0.0
 41
0.875
 42
0.25
  0
INSERT
  5
22D
330
1DA
100
AcDbEntity
  8
Pel_wal
 62
     4
100
AcDbBlockReference
  2
.25foam9
 10
3.493040580634676
 20
-0.0262237321549606
 30
0.0
  0
POLYLINE
  5
22E
330
1DA
100
AcDbEntity
  8
Pel_Wall
100
AcDb2dPolyline
 66
     1
 10
0.0
 20
0.0
 30
0.0
  0
VERTEX
  5
22F
330
22E
100
AcDbEntity
  8
Pel_Wall
100
AcDbVertex
100
AcDb2dVertex
 10
1.639608806742472
 20
0.21875
 30
0.0
  0
VERTEX
  5
230
330
22E
100
AcDbEntity
  8
Pel_Wall
100
AcDbVertex
100
AcDb2dVertex
 10
1.639608806742472
 20
0.03125
 30
0.0
  0
VERTEX
  5
231
330
22E
100
AcDbEntity
  8
Pel_Wall
100
AcDbVertex
100
AcDb2dVertex
 10
4.014608806742471
 20
0.03125
 30
0.0
  0
VERTEX
  5
232
330
22E
100
AcDbEntity
  8
Pel_Wall
100
AcDbVertex
100
AcDb2dVertex
 10
4.014608806742471
 20
0.21875
 30
0.0
  0
VERTEX
  5
233
330
22E
100
AcDbEntity
  8
Pel_Wall
100
AcDbVertex
100
AcDb2dVertex
 10
1.639608806742472
 20
0.21875
 30
0.0
  0
VERTEX
  5
234
330
22E
100
AcDbEntity
  8
Pel_Wall
100
AcDbVertex
100
AcDb2dVertex
 10
4.014608806742471
 20
0.03125
 30
0.0
  0
SEQEND
  5
235
330
22E
100
AcDbEntity
  8
Pel_Wall
  0
ENDBLK
  5
236
330
1DA
100
AcDbEntity
  8
0
100
AcDbBlockEnd
  0
BLOCK
  5
15C
330
159
100
AcDbEntity
  8
0
 62
     4
100
AcDbBlockBegin
  2
.25foam9
 70
     0
 10
0.0
 20
0.0
 30
0.0
  3
.25foam9
  1

  0
SPLINE
  5
15D
330
159
100
AcDbEntity
  8
Pel_wal
 62
     9
100
AcDbSpline
210
0.0
220
0.0
230
1.0
 70
    11
 71
     3
 72
    25
 73
    21
 74
     0
 42
0.0000000001
 43
0.0000000001
 40
0.0
 40
0.0
 40
0.0
 40
0.0
 40
0.0629554322876937
 40
0.158093302027984
 40
0.3666917292501777
 40
0.5784791336554056
 40
0.7355935303893652
 40
0.92015700109171
 40
0.9998917151712303
 40
1.084210485759284
 40
1.213963102362994
 40
1.314826092548635
 40
1.415272472028991
 40
1.637307026429963
 40
1.855898558905746
 40
2.026708445463031
 40
2.170524664608771
 40
2.273030982295875
 40
2.389147774011811
 40
2.478484947992602
 40
2.478484947992602
 40
2.478484947992602
 40
2.478484947992602
 10
-0.0052838773256099
 20
0.0877084049702148
 30
0.0
 10
0.0035736244217688
 20
0.0734402401887735
 30
0.0
 10
0.0410098883507359
 20
0.0425355671215684
 30
0.0
 10
0.161673954858081
 20
0.0153473068188248
 30
0.0
 10
0.3342086191525055
 20
0.0205204788290558
 30
0.0
 10
0.5258756454575249
 20
0.0157140236885169
 30
0.0
 10
0.7122585185560837
 20
0.0146081299101013
 30
0.0
 10
0.8466601511271392
 20
0.0217282685982099
 30
0.0
 10
0.9742661938488835
 20
0.0212597469187159
 30
0.0
 10
1.022167587561013
 20
0.0976050032300577
 30
0.0
 10
1.020051897079476
 20
0.1732764017321955
 30
0.0
 10
0.9846296782744303
 20
0.2628534772182576
 30
0.0
 10
0.8301470276118081
 20
0.2817640156416488
 30
0.0
 10
0.656947986136558
 20
0.2757931292397586
 30
0.0
 10
0.4506428829072249
 20
0.2766697230848081
 30
0.0
 10
0.2741929830495238
 20
0.2792244776232451
 30
0.0
 10
0.1329265682900029
 20
0.2828276832810133
 30
0.0
 10
0.0194821735985187
 20
0.2378090678745295
 30
0.0
 10
-0.0221579206999465
 20
0.1619446210323332
 30
0.0
 10
-0.0178531528573061
 20
0.1079557048956872
 30
0.0
 10
-0.0052838773256099
 20
0.0877084049702148
 30
0.0
  0
ELLIPSE
  5
15E
330
159
100
AcDbEntity
  8
Pel_wal
 62
     9
100
AcDbEllipse
 10
0.1513811950251238
 20
0.2052604425052209
 30
0.0
 11
-0.0339494177336768
 21
0.0000000000000027
 31
0.0
210
0.0
220
0.0
230
1.0
 40
0.7499999999999738
 41
3.141592653589897
 42
9.424777960769482
  0
ELLIPSE
  5
15F
330
159
100
AcDbEntity
  8
Pel_wal
 62
     9
100
AcDbEllipse
 10
0.0665181591414239
 20
0.169481735214049
 30
0.0
 11
0.0166728848683988
 21
0.0000000000000105
 31
0.0
210
0.0
220
0.0
230
1.0
 40
0.7500000000000001
 41
-0.0000000000008402
 42
6.283185307178746
  0
ELLIPSE
  5
160
330
159
100
AcDbEntity
  8
Pel_wal
 62
     9
100
AcDbEllipse
 10
0.0877358301306686
 20
0.0992500143103143
 30
0.0
 11
-0.0339494177336768
 21
0.0000000000000027
 31
0.0
210
0.0
220
0.0
230
1.0
 40
0.7499999999999738
 41
3.141592653589897
 42
9.424777960769482
  0
ELLIPSE
  5
161
330
159
100
AcDbEntity
  8
Pel_wal
 62
     9
100
AcDbEllipse
 10
0.2556913726259609
 20
0.0700969587813347
 30
0.0
 11
-0.0339494177336768
 21
0.0000000000000027
 31
0.0
210
0.0
220
0.0
230
1.0
 40
0.7499999999999738
 41
3.141592653589897
 42
9.424777960769482
  0
ELLIPSE
  5
162
330
159
100
AcDbEntity
  8
Pel_wal
 62
     9
100
AcDbEllipse
 10
0.2928189508249943
 20
0.1535799832096245
 30
0.0
 11
-0.0339494177336768
 21
0.0000000000000027
 31
0.0
210
0.0
220
0.0
230
1.0
 40
0.7499999999999738
 41
3.141592653589897
 42
9.424777960769482
  0
ELLIPSE
  5
163
330
159
100
AcDbEntity
  8
Pel_wal
 62
     9
100
AcDbEllipse
 10
0.393591893918483
 20
0.2291126010737798
 30
0.0
 11
-0.0339494177336768
 21
0.0000000000000027
 31
0.0
210
0.0
220
0.0
230
1.0
 40
0.7499999999999738
 41
3.141592653589897
 42
9.424777960769482
  0
ELLIPSE
  5
164
330
159
100
AcDbEntity
  8
Pel_wal
 62
     9
100
AcDbEllipse
 10
0.411270418381946
 20
0.1257526213590836
 30
0.0
 11
-0.0339494177336768
 21
0.0000000000000027
 31
0.0
210
0.0
220
0.0
230
1.0
 40
0.7499999999999738
 41
3.141592653589897
 42
9.424777960769482
  0
ELLIPSE
  5
165
330
159
100
AcDbEntity
  8
Pel_wal
 62
     9
100
AcDbEllipse
 10
0.4979020715193201
 20
0.0621456133408742
 30
0.0
 11
-0.0339494177336768
 21
0.0000000000000027
 31
0.0
210
0.0
220
0.0
230
1.0
 40
0.7499999999999738
 41
3.141592653589897
 42
9.424777960769482
  0
ELLIPSE
  5
166
330
159
100
AcDbEntity
  8
Pel_wal
 62
     9
100
AcDbEllipse
 10
0.5633160536674497
 20
0.1602056349718168
 30
0.0
 11
-0.0339494177336768
 21
0.0000000000000027
 31
0.0
210
0.0
220
0.0
230
1.0
 40
0.7499999999999738
 41
3.141592653589897
 42
9.424777960769482
  0
ELLIPSE
  5
167
330
159
100
AcDbEntity
  8
Pel_wal
 62
     9
100
AcDbEllipse
 10
0.6658576140146124
 20
0.2238126429900262
 30
0.0
 11
-0.0339494177336768
 21
0.0000000000000027
 31
0.0
210
0.0
220
0.0
230
1.0
 40
0.7499999999999738
 41
3.141592653589897
 42
9.424777960769482
  0
ELLIPSE
  5
168
330
159
100
AcDbEntity
  8
Pel_wal
 62
     9
100
AcDbEllipse
 10
0.6623222915256976
 20
0.1337030279230476
 30
0.0
 11
-0.0339494177336768
 21
0.0000000000000027
 31
0.0
210
0.0
220
0.0
230
1.0
 40
0.7499999999999738
 41
3.141592653589897
 42
9.424777960769482
  0
ELLIPSE
  5
169
330
159
100
AcDbEntity
  8
Pel_wal
 62
     9
100
AcDbEllipse
 10
0.706520514702561
 20
0.0621456133408742
 30
0.0
 11
-0.0339494177336768
 21
0.0000000000000027
 31
0.0
210
0.0
220
0.0
230
1.0
 40
0.7499999999999738
 41
3.141592653589897
 42
9.424777960769482
  0
ELLIPSE
  5
16A
330
159
100
AcDbEntity
  8
Pel_wal
 62
     9
100
AcDbEllipse
 10
0.8355817737631241
 20
0.0714217135832769
 30
0.0
 11
-0.0339494177336768
 21
0.0000000000000027
 31
0.0
210
0.0
220
0.0
230
1.0
 40
0.7499999999999738
 41
3.141592653589897
 42
9.424777960769482
  0
ELLIPSE
  5
16B
330
159
100
AcDbEntity
  8
Pel_wal
 62
     9
100
AcDbEllipse
 10
0.8179013372812278
 20
0.1734569384962015
 30
0.0
 11
-0.0339494177336768
 21
0.0000000000000027
 31
0.0
210
0.0
220
0.0
230
1.0
 40
0.7499999999999738
 41
3.141592653589897
 42
9.424777960769482
  0
ELLIPSE
  5
16C
330
159
100
AcDbEntity
  8
Pel_wal
 62
     9
100
AcDbEllipse
 10
0.9133722526505607
 20
0.2238126429900262
 30
0.0
 11
-0.0339494177336768
 21
0.0000000000000027
 31
0.0
210
0.0
220
0.0
230
1.0
 40
0.7499999999999738
 41
3.141592653589897
 42
9.424777960769482
  0
ELLIPSE
  5
16D
330
159
100
AcDbEntity
  8
Pel_wal
 62
     9
100
AcDbEllipse
 10
0.9469625963422457
 20
0.1045499723940679
 30
0.0
 11
-0.0339494177336768
 21
0.0000000000000027
 31
0.0
210
0.0
220
0.0
230
1.0
 40
0.7499999999999738
 41
3.141592653589897
 42
9.424777960769482
  0
ELLIPSE
  5
16E
330
159
100
AcDbEntity
  8
Pel_wal
 62
     9
100
AcDbEllipse
 10
0.1637557797459976
 20
0.0541942679002432
 30
0.0
 11
0.0166728848683988
 21
0.0000000000000105
 31
0.0
210
0.0
220
0.0
230
1.0
 40
0.7500000000000001
 41
-0.0000000000008402
 42
6.283185307178746
  0
ELLIPSE
  5
16F
330
159
100
AcDbEntity
  8
Pel_wal
 62
     9
100
AcDbEllipse
 10
0.1955794182024419
 20
0.1111756241562602
 30
0.0
 11
0.0166728848683988
 21
0.0000000000000105
 31
0.0
210
0.0
220
0.0
230
1.0
 40
0.7500000000000001
 41
-0.0000000000008402
 42
6.283185307178746
  0
ELLIPSE
  5
170
330
159
100
AcDbEntity
  8
Pel_wal
 62
     9
100
AcDbEllipse
 10
0.2415462586329795
 20
0.1933338937826079
 30
0.0
 11
0.0166728848683988
 21
0.0000000000000105
 31
0.0
210
0.0
220
0.0
230
1.0
 40
0.7500000000000001
 41
-0.0000000000008402
 42
6.283185307178746
  0
ELLIPSE
  5
171
330
159
100
AcDbEntity
  8
Pel_wal
 62
     9
100
AcDbEllipse
 10
0.2203304996621682
 20
0.2516400048405671
 30
0.0
 11
0.0166728848683988
 21
0.0000000000000105
 31
0.0
210
0.0
220
0.0
230
1.0
 40
0.7500000000000001
 41
-0.0000000000008402
 42
6.283185307178746
  0
ELLIPSE
  5
172
330
159
100
AcDbEntity
  8
Pel_wal
 62
     9
100
AcDbEllipse
 10
0.3228720600093311
 20
0.2383887013161825
 30
0.0
 11
0.0166728848683988
 21
0.0000000000000105
 31
0.0
210
0.0
220
0.0
230
1.0
 40
0.7500000000000001
 41
-0.0000000000008402
 42
6.283185307178746
  0
ELLIPSE
  5
173
330
159
100
AcDbEntity
  8
Pel_wal
 62
     9
100
AcDbEllipse
 10
0.3458545242153832
 20
0.0422686580542973
 30
0.0
 11
0.0166728848683988
 21
0.0000000000000105
 31
0.0
210
0.0
220
0.0
230
1.0
 40
0.7500000000000001
 41
-0.0000000000008402
 42
6.283185307178746
  0
ELLIPSE
  5
174
330
159
100
AcDbEntity
  8
Pel_wal
 62
     9
100
AcDbEllipse
 10
0.4430921448199571
 20
0.1827330387384336
 30
0.0
 11
0.0166728848683988
 21
0.0000000000000105
 31
0.0
210
0.0
220
0.0
230
1.0
 40
0.7500000000000001
 41
-0.0000000000008402
 42
6.283185307178746
  0
ELLIPSE
  5
175
330
159
100
AcDbEntity
  8
Pel_wal
 62
     9
100
AcDbEllipse
 10
0.5244179461958538
 20
0.2463391078801465
 30
0.0
 11
0.0166728848683988
 21
0.0000000000000105
 31
0.0
210
0.0
220
0.0
230
1.0
 40
0.7500000000000001
 41
-0.0000000000008402
 42
6.283185307178746
  0
ELLIPSE
  5
176
330
159
100
AcDbEntity
  8
Pel_wal
 62
     9
100
AcDbEllipse
 10
0.5385630601888352
 20
0.1191260307202242
 30
0.0
 11
0.0166728848683988
 21
0.0000000000000105
 31
0.0
210
0.0
220
0.0
230
1.0
 40
0.7500000000000001
 41
-0.0000000000008402
 42
6.283185307178746
  0
ELLIPSE
  5
177
330
159
100
AcDbEntity
  8
Pel_wal
 62
     9
100
AcDbEllipse
 10
0.6075123648258796
 20
0.0475686161380509
 30
0.0
 11
0.0166728848683988
 21
0.0000000000000105
 31
0.0
210
0.0
220
0.0
230
1.0
 40
0.7500000000000001
 41
-0.0000000000008402
 42
6.283185307178746
  0
ELLIPSE
  5
178
330
159
100
AcDbEntity
  8
Pel_wal
 62
     9
100
AcDbEllipse
 10
0.7595580001113831
 20
0.1018995239138576
 30
0.0
 11
0.0166728848683988
 21
0.0000000000000105
 31
0.0
210
0.0
220
0.0
230
1.0
 40
0.7500000000000001
 41
-0.0000000000008402
 42
6.283185307178746
  0
ELLIPSE
  5
179
330
159
100
AcDbEntity
  8
Pel_wal
 62
     9
100
AcDbEllipse
 10
0.7224304219123498
 20
0.1893586905006259
 30
0.0
 11
0.0166728848683988
 21
0.0000000000000105
 31
0.0
210
0.0
220
0.0
230
1.0
 40
0.7500000000000001
 41
-0.0000000000008402
 42
6.283185307178746
  0
ELLIPSE
  5
17A
330
159
100
AcDbEntity
  8
Pel_wal
 62
     9
100
AcDbEllipse
 10
0.8232033650058383
 20
0.2423639045981645
 30
0.0
 11
0.0166728848683988
 21
0.0000000000000105
 31
0.0
210
0.0
220
0.0
230
1.0
 40
0.7500000000000001
 41
-0.0000000000008402
 42
6.283185307178746
  0
ELLIPSE
  5
17B
330
159
100
AcDbEntity
  8
Pel_wal
 62
     9
100
AcDbEllipse
 10
0.8850820246645978
 20
0.1747816932979731
 30
0.0
 11
0.0166728848683988
 21
0.0000000000000105
 31
0.0
210
0.0
220
0.0
230
1.0
 40
0.7500000000000001
 41
-0.0000000000008402
 42
6.283185307178746
  0
ELLIPSE
  5
17C
330
159
100
AcDbEntity
  8
Pel_wal
 62
     9
100
AcDbEllipse
 10
0.9717117657835387
 20
0.1761073869762413
 30
0.0
 11
0.0166728848683988
 21
0.0000000000000105
 31
0.0
210
0.0
220
0.0
230
1.0
 40
0.7500000000000001
 41
-0.0000000000008402
 42
6.283185307178746
  0
ELLIPSE
  5
17D
330
159
100
AcDbEntity
  8
Pel_wal
 62
     9
100
AcDbEllipse
 10
0.8780094676683345
 20
0.1151508274382422
 30
0.0
 11
0.0166728848683988
 21
0.0000000000000105
 31
0.0
210
0.0
220
0.0
230
1.0
 40
0.7500000000000001
 41
-0.0000000000008402
 42
6.283185307178746
  0
ELLIPSE
  5
17E
330
159
100
AcDbEntity
  8
Pel_wal
 62
     9
100
AcDbEllipse
 10
0.9169056631210423
 20
0.0449191065345076
 30
0.0
 11
0.0166728848683988
 21
0.0000000000000105
 31
0.0
210
0.0
220
0.0
230
1.0
 40
0.7500000000000001
 41
-0.0000000000008402
 42
6.283185307178746
  0
POINT
  5
17F
330
159
100
AcDbEntity
  8
Pel_wal
 62
     9
100
AcDbPoint
 10
0.0
 20
0.0165330302862117
 30
0.0
  0
ENDBLK
  5
180
330
159
100
AcDbEntity
  8
0
 62
     4
100
AcDbBlockEnd
  0
BLOCK
  5
26F
330
26C
100
AcDbEntity
  8
0
100
AcDbBlockBegin
  2
TSE10SDHV
 70
     0
 10
0.0
 20
0.0
 30
0.0
  3
TSE10SDHV
  1

  0
POINT
  5
270
330
26C
100
AcDbEntity
  8
Pel_CS-Points
100
AcDbPoint
 10
0.0
 20
-0.0000000000000036
 30
0.0
  0
LWPOLYLINE
  5
274
330
26C
100
AcDbEntity
  8
Pel_CS-Cross Section
 62
     4
100
AcDbPolyline
 90
      129
 70
     1
 43
0.0
 10
1.429957603986359
 20
1.125
 10
1.349957603986356
 20
1.125
 10
1.349957603986356
 20
0.0
 10
0.0650000000000013
 20
0.0
 10
0.0649999999999977
 20
-0.0799999999999983
 10
0.1169615242270687
 20
-0.1099999999999994
 10
0.1419615242270709
 20
-0.1099999999999994
 10
0.1419615242270638
 20
-0.0799999999999983
 10
0.2800000000000011
 20
-0.0799999999999983
 10
0.2799999999999976
 20
-0.2349999999999994
 10
0.0
 20
-0.2349999999999994
 10
0.0
 20
-0.9380000000000023
 10
0.1999999999999993
 20
-0.9380000000000023
 10
0.1999999999999993
 20
-0.4380000000000024
 10
0.8350000000000008
 20
-0.4380000000000024
 10
0.8350000000000008
 20
-0.6280000000000002
 10
0.8000000000000007
 20
-0.6280000000000002
 10
0.8000000000000007
 20
-0.9380000000000023
 10
0.8900000000000005
 20
-0.9380000000000023
 42
1.0
 10
0.8900000000000005
 20
-0.8780000000000001
 10
0.8599999999999994
 20
-0.8779999999999965
 10
0.8599999999999994
 20
-0.6879999999999989
 10
1.054999999999998
 20
-0.6879999999999989
 10
1.054999999999998
 20
-0.8379999999999974
 10
1.112735026918961
 20
-0.9379999999999988
 10
2.15
 20
-0.9379999999999952
 10
2.15
 20
-1.103000000000001
 10
2.114999999999998
 20
-1.103000000000001
 10
2.074999999999992
 20
-1.063000000000002
 10
2.05
 20
-1.063000000000002
 10
2.049999999999997
 20
-1.563000000000002
 10
2.599999999999997
 20
-1.563000000000002
 42
0.4142135623731038
 10
2.629999999999999
 20
-1.533000000000001
 10
2.629999999999997
 20
-0.6822820323027515
 10
2.669999999999998
 20
-0.6130000000000031
 10
2.669999999999996
 20
-0.588000000000001
 10
2.629999999999999
 20
-0.588000000000001
 10
2.629999999999999
 20
-0.463000000000001
 10
4.269999999999999
 20
-0.463000000000001
 10
4.269999999999996
 20
-0.588000000000001
 10
4.230000000000002
 20
-0.588000000000001
 10
4.230000000000002
 20
-0.6130000000000031
 10
4.269999999999999
 20
-0.6822820323027515
 10
4.269999999999996
 20
-1.413
 10
4.230000000000002
 20
-1.413
 10
4.23
 20
-1.533000000000001
 42
0.4142135623730863
 10
4.259999999999998
 20
-1.562999999999998
 10
4.499999999999992
 20
-1.563000000000002
 10
4.499999999999998
 20
-0.2349999999999994
 10
4.220000000000004
 20
-0.2349999999999994
 10
4.219999999999998
 20
-0.0901420310525723
 10
4.144999999999996
 20
-0.0901420310525723
 10
4.145000000000003
 20
-0.2349999999999994
 42
0.4142135623731038
 10
4.220000000000004
 20
-0.3100000000000023
 10
4.419999999999998
 20
-0.3100000000000023
 10
4.419999999999994
 20
-0.3829999999999991
 10
4.404899421459155
 20
-0.3829999999999991
 10
4.404899421459155
 20
-0.4429999999999979
 10
4.419999999999998
 20
-0.4429999999999979
 10
4.419999999999994
 20
-1.483
 10
4.33
 20
-1.483
 10
4.33
 20
-0.4429999999999979
 10
4.404899421459155
 20
-0.4429999999999979
 10
4.404899421459155
 20
-0.3829999999999991
 10
3.509
 20
-0.3829999999999991
 10
3.509000000000003
 20
-0.0901420310525723
 10
3.448999999999998
 20
-0.0901420310525723
 10
3.449000000000003
 20
-0.3829999999999991
 10
2.610000000000001
 20
-0.3829999999999991
 10
2.609999999999997
 20
-0.0901420310525723
 10
2.549999999999997
 20
-0.0901420310525723
 10
2.55
 20
-1.483
 10
2.130000000000002
 20
-1.483
 10
2.129999999999997
 20
-1.178
 10
2.150000000000002
 20
-1.178000000000004
 42
0.4142135623730823
 10
2.224999999999997
 20
-1.103000000000005
 10
2.224999999999997
 20
-0.9329999999999998
 42
0.4142135623731091
 10
2.149999999999998
 20
-0.8579999999999969
 10
2.019999999999996
 20
-0.8579999999999969
 10
2.020000000000003
 20
-0.0901420310525723
 10
1.96
 20
-0.0901420310525723
 10
1.96
 20
-0.8579999999999969
 10
1.153149545762236
 20
-0.8579999999999969
 10
1.129999999999995
 20
-0.8179038105676639
 10
1.130000000000001
 20
-0.0901420310525723
 10
1.07
 20
-0.0901420310525723
 10
1.069999999999995
 20
-0.6129999999999996
 10
0.9100000000000036
 20
-0.6129999999999996
 10
0.9100000000000001
 20
-0.4380000000000024
 42
0.4142135623730951
 10
0.8350000000000008
 20
-0.3629999999999995
 10
0.3550000000000004
 20
-0.3629999999999995
 10
0.3550000000000004
 20
-0.3530621331517025
 10
0.2950000000000017
 20
-0.3530621331517025
 10
0.2950000000000017
 20
-0.3629999999999995
 10
0.2149999999999999
 20
-0.3629999999999995
 42
0.4142135623730966
 10
0.1400000000000006
 20
-0.4380000000000024
 10
0.139999999999997
 20
-0.8580000000000005
 10
0.0800000000000019
 20
-0.8580000000000005
 10
0.0799999999999983
 20
-0.3099999999999987
 10
0.2950000000000017
 20
-0.3099999999999987
 10
0.2950000000000017
 20
-0.3530621331517025
 10
0.3550000000000004
 20
-0.3530621331517025
 10
0.3550000000000004
 20
-0.0800000000000019
 10
1.07
 20
-0.0800000000000019
 10
1.07
 20
-0.0901420310525723
 10
1.130000000000006
 20
-0.0901420310525723
 10
1.129999999999999
 20
-0.0800000000000019
 10
1.96
 20
-0.0799999999999983
 10
1.96
 20
-0.0901420310525723
 10
2.019999999999999
 20
-0.0901420310525723
 10
2.020000000000001
 20
-0.0799999999999983
 10
2.550000000000002
 20
-0.0799999999999983
 10
2.550000000000004
 20
-0.0901420310525723
 10
2.610000000000001
 20
-0.0901420310525723
 10
2.609999999999997
 20
-0.0799999999999983
 10
3.448999999999998
 20
-0.0799999999999983
 10
3.449000000000001
 20
-0.0901420310525723
 10
3.509000000000003
 20
-0.0901420310525723
 10
3.509000000000003
 20
-0.0799999999999983
 10
4.144999999999999
 20
-0.0799999999999983
 10
4.144999999999996
 20
-0.0901420310525723
 10
4.220000000000004
 20
-0.0901420310525723
 10
4.219999999999998
 20
-0.0800000000000019
 10
4.358038475772936
 20
-0.0800000000000019
 10
4.358038475772936
 20
-0.1099999999999994
 10
4.383038475772931
 20
-0.1099999999999994
 10
4.435000000000004
 20
-0.0800000000000019
 10
4.434999999999998
 20
0.0
 10
1.429957603986363
 20
0.0
  0
LWPOLYLINE
  5
277
330
26C
100
AcDbEntity
  8
Pel_CS-Cross Section
 62
     4
100
AcDbPolyline
 90
       15
 70
     1
 43
0.0
 10
2.866857076183615
 20
-2.812999999999906
 10
2.86685707618362
 20
-2.724249999999901
 10
2.967719145149128
 20
-2.618344827586113
 42
1.0
 10
2.945995007218094
 20
-2.597655172413702
 10
2.821857076183615
 20
-2.727999999999905
 10
2.836857076183616
 20
-2.742999999999906
 10
2.836857076183616
 20
-2.812999999999906
 10
2.773443401098834
 20
-2.812999999999906
 42
0.5343310138307086
 10
2.759581993294665
 20
-2.833732484076335
 42
0.2404623521578165
 10
3.132215680118378
 20
-3.419880385509607
 42
0.9781803082727828
 10
3.147473102968026
 20
-3.394017467921699
 10
3.146200661725021
 20
-3.393311425494179
 42
-0.0133516086578351
 10
3.146910150142359
 20
-3.393685140719078
 42
-0.2361122684030795
 10
2.791337111878876
 20
-2.842999999999904
 10
2.836857076183616
 20
-2.842999999999904
 42
0.414213562373108
  0
LWPOLYLINE
  5
279
330
26C
100
AcDbEntity
  8
Pel_CS-Cross Section
 62
     4
100
AcDbPolyline
 90
       73
 70
     1
 43
0.0
 10
2.991857076183617
 20
-1.188000000000002
 10
2.796857076183616
 20
-1.188000000000002
 42
0.4142135623730951
 10
2.716857076183618
 20
-1.268000000000004
 10
2.716857076183618
 20
-1.310500000000004
 10
2.766857076183615
 20
-1.310500000000004
 10
2.766857076183615
 20
-1.268000000000004
 10
2.816857076183611
 20
-1.268000000000004
 10
2.816857076183611
 20
-1.478000000000005
 10
2.766857076183615
 20
-1.478000000000005
 10
2.766857076183615
 20
-1.435500000000004
 10
2.716857076183618
 20
-1.435500000000004
 10
2.716857076183618
 20
-1.478000000000005
 10
2.71685707618362
 20
-2.813000000000002
 10
2.806857076183614
 20
-2.813000000000002
 42
1.0
 10
2.806857076183614
 20
-2.753000000000003
 10
2.796857076183616
 20
-2.753000000000003
 10
2.796857076183616
 20
-2.563000000000002
 10
2.820574096771752
 20
-2.563000000000002
 10
2.820574096771752
 20
-2.483
 10
2.796857076183616
 20
-2.483
 10
2.796857076183616
 20
-1.842000000000002
 10
2.820574096771748
 20
-1.842000000000002
 10
2.820574096771748
 20
-1.792000000000005
 10
2.796857076183618
 20
-1.792000000000005
 10
2.796857076183616
 20
-1.558000000000003
 10
2.816857076183611
 20
-1.558000000000003
 42
0.4142135623731081
 10
2.896857076183618
 20
-1.478000000000001
 10
2.89685707618362
 20
-1.268000000000004
 10
2.991857076183617
 20
-1.268000000000004
 10
2.991857076183618
 20
-1.792000000000005
 10
2.82057409677175
 20
-1.792000000000005
 10
2.820574096771752
 20
-1.842000000000002
 10
4.120665511853701
 20
-1.842000000000002
 10
4.120665511853701
 20
-1.792000000000001
 10
3.941857076183612
 20
-1.792000000000001
 10
3.941857076183611
 20
-1.268000000000004
 10
4.136857076183613
 20
-1.268000000000004
 10
4.136857076183613
 20
-1.792000000000001
 10
4.120665511853701
 20
-1.792000000000001
 10
4.120665511853701
 20
-1.842000000000002
 10
4.136857076183613
 20
-1.842000000000002
 10
4.136857076183611
 20
-2.733
 10
4.120665511853701
 20
-2.733
 10
4.120665511853701
 20
-2.783000000000001
 10
4.136857076183613
 20
-2.783000000000001
 10
4.136857076183613
 20
-3.378000000000003
 10
4.026857076183613
 20
-3.378000000000003
 10
4.026857076183613
 20
-2.783000000000001
 10
4.120665511853701
 20
-2.783000000000001
 10
4.120665511853701
 20
-2.733
 10
3.91185707618362
 20
-2.733
 10
3.911857076183618
 20
-2.563000000000002
 10
3.831857076183613
 20
-2.563000000000002
 10
3.831857076183613
 20
-2.733
 10
3.051857076183612
 20
-2.733
 10
3.051857076183612
 20
-2.562999999999998
 10
3.101857076183616
 20
-2.562999999999998
 10
3.101857076183616
 20
-2.483
 10
2.82057409677175
 20
-2.483
 10
2.82057409677175
 20
-2.563000000000002
 10
2.971857076183615
 20
-2.563000000000002
 10
2.971857076183614
 20
-2.733
 42
0.4142135623730951
 10
3.051857076183612
 20
-2.813000000000002
 10
3.966857076183615
 20
-2.813000000000002
 10
3.966857076183615
 20
-3.438000000000002
 10
4.216857076183618
 20
-3.438000000000002
 10
4.216857076183618
 20
-1.268000000000004
 42
0.4142135623730951
 10
4.136857076183613
 20
-1.188000000000002
 10
3.941857076183611
 20
-1.188000000000002
 42
0.4142135623730951
 10
3.861857076183614
 20
-1.268000000000004
 10
3.861857076183614
 20
-1.762000000000004
 10
3.071857076183613
 20
-1.762000000000004
 10
3.071857076183615
 20
-1.268000000000004
 42
0.4142135623730951
  0
LWPOLYLINE
  5
27B
330
26C
100
AcDbEntity
  8
Pel_CS-Cross Section
 62
     4
100
AcDbPolyline
 90
       17
 70
     1
 43
0.0
 10
3.929999999999996
 20
-0.463000000000001
 10
2.629999999999999
 20
-0.463000000000001
 10
2.629999999999999
 20
-0.5130000000000017
 10
2.73
 20
-0.5130000000000017
 10
2.73
 20
-0.5430000000000029
 10
3.929999999999999
 20
-0.5429999999999993
 10
3.930000000000001
 20
-0.9630000000000009
 10
4.249999999999998
 20
-0.9630000000000009
 10
4.249999999999998
 20
-0.9130000000000002
 10
4.200000000000002
 20
-0.9130000000000002
 10
4.200000000000001
 20
-0.583000000000002
 10
4.249999999999998
 20
-0.583000000000002
 10
4.180717967697244
 20
-0.463000000000001
 10
4.12
 20
-0.463000000000001
 10
4.119999999999999
 20
-0.8830000000000026
 10
4.010000000000001
 20
-0.8830000000000026
 10
4.009999999999998
 20
-0.5430000000000029
 42
0.4142135623730951
  0
POLYLINE
  5
27C
330
26C
100
AcDbEntity
  8
Pel_CS-Weatherstrip
100
AcDb2dPolyline
 66
     1
 10
0.0
 20
0.0
 30
0.0
  0
VERTEX
  5
7B5
330
27C
100
AcDbEntity
  8
Pel_CS-Weatherstrip
100
AcDbVertex
100
AcDb2dVertex
 10
2.775769530261637
 20
-1.465141855391419
 30
0.0
  0
VERTEX
  5
7B6
330
27C
100
AcDbEntity
  8
Pel_CS-Weatherstrip
100
AcDbVertex
100
AcDb2dVertex
 10
2.775769530261637
 20
-1.418897265753042
 30
0.0
  0
VERTEX
  5
7B7
330
27C
100
AcDbEntity
  8
Pel_CS-Weatherstrip
100
AcDbVertex
100
AcDb2dVertex
 10
2.629999999999999
 20
-1.457630846916217
 30
0.0
  0
VERTEX
  5
7B8
330
27C
100
AcDbEntity
  8
Pel_CS-Weatherstrip
100
AcDbVertex
100
AcDb2dVertex
 10
2.629999999999999
 20
-1.429455610262337
 30
0.0
  0
VERTEX
  5
7B9
330
27C
100
AcDbEntity
  8
Pel_CS-Weatherstrip
100
AcDbVertex
100
AcDb2dVertex
 10
2.775769530261637
 20
-1.418897265753042
 30
0.0
  0
VERTEX
  5
7BA
330
27C
100
AcDbEntity
  8
Pel_CS-Weatherstrip
100
AcDbVertex
100
AcDb2dVertex
 10
2.629999999999999
 20
-1.408054524604224
 30
0.0
  0
VERTEX
  5
7BB
330
27C
100
AcDbEntity
  8
Pel_CS-Weatherstrip
100
AcDbVertex
100
AcDb2dVertex
 10
2.629999999999999
 20
-1.377668283501311
 30
0.0
  0
VERTEX
  5
7BC
330
27C
100
AcDbEntity
  8
Pel_CS-Weatherstrip
100
AcDbVertex
100
AcDb2dVertex
 10
2.775769530261637
 20
-1.418897265753042
 30
0.0
  0
VERTEX
  5
7BD
330
27C
100
AcDbEntity
  8
Pel_CS-Weatherstrip
100
AcDbVertex
100
AcDb2dVertex
 10
2.775769530261637
 20
-1.33643930124958
 30
0.0
  0
VERTEX
  5
7BE
330
27C
100
AcDbEntity
  8
Pel_CS-Weatherstrip
100
AcDbVertex
100
AcDb2dVertex
 10
2.629999999999999
 20
-1.377668283501311
 30
0.0
  0
VERTEX
  5
7BF
330
27C
100
AcDbEntity
  8
Pel_CS-Weatherstrip
100
AcDbVertex
100
AcDb2dVertex
 10
2.629999999999999
 20
-1.34728204239839
 30
0.0
  0
VERTEX
  5
7C0
330
27C
100
AcDbEntity
  8
Pel_CS-Weatherstrip
100
AcDbVertex
100
AcDb2dVertex
 10
2.775769530261637
 20
-1.33643930124958
 30
0.0
  0
VERTEX
  5
7C1
330
27C
100
AcDbEntity
  8
Pel_CS-Weatherstrip
100
AcDbVertex
100
AcDb2dVertex
 10
2.629999999999999
 20
-1.318301524948033
 30
0.0
  0
VERTEX
  5
7C2
330
27C
100
AcDbEntity
  8
Pel_CS-Weatherstrip
100
AcDbVertex
100
AcDb2dVertex
 10
2.629999999999999
 20
-1.276839754777398
 30
0.0
  0
VERTEX
  5
7C3
330
27C
100
AcDbEntity
  8
Pel_CS-Weatherstrip
100
AcDbVertex
100
AcDb2dVertex
 10
2.775769530261637
 20
-1.33643930124958
 30
0.0
  0
VERTEX
  5
7C4
330
27C
100
AcDbEntity
  8
Pel_CS-Weatherstrip
100
AcDbVertex
100
AcDb2dVertex
 10
2.775769530261637
 20
-1.278364131705249
 30
0.0
  0
VERTEX
  5
7C5
330
27C
100
AcDbEntity
  8
Pel_CS-Weatherstrip
100
AcDbVertex
100
AcDb2dVertex
 10
2.810769516261633
 20
-1.278364131705249
 30
0.0
  0
VERTEX
  5
7C6
330
27C
100
AcDbEntity
  8
Pel_CS-Weatherstrip
100
AcDbVertex
100
AcDb2dVertex
 10
2.810769516261633
 20
-1.465141855391419
 30
0.0
  0
VERTEX
  5
7C7
330
27C
100
AcDbEntity
  8
0
100
AcDbVertex
100
AcDb2dVertex
 10
2.775769530261637
 20
-1.465141855391419
 30
0.0
  0
SEQEND
  5
7C8
330
27C
100
AcDbEntity
  8
Pel_CS-Weatherstrip
  0
LINE
  5
292
330
26C
100
AcDbEntity
  8
0
100
AcDbLine
 10
2.637999441323476
 20
-1.408054524604224
 30
0.0
 11
2.637999441323476
 21
-1.408054524604224
 31
0.0
  0
LINE
  5
293
330
26C
100
AcDbEntity
  8
0
100
AcDbLine
 10
2.637999441323476
 20
-1.408054524604224
 30
0.0
 11
2.637999441323476
 21
-1.408054524604224
 31
0.0
  0
HATCH
  5
294
330
26C
100
AcDbEntity
  8
Pel_CS-Sealant
100
AcDbHatch
 10
0.0
 20
0.0
 30
0.0
210
0.0
220
0.0
230
1.0
  2
DASH
 70
     0
 71
     0
 91
        1
 92
        1
 93
        4
 72
     1
 10
3.310855922766062
 20
-3.121191049788855
 11
3.747605922766067
 21
-3.121191049788855
 72
     1
 10
3.747605922766066
 20
-3.121191049788855
 11
3.747605922766066
 21
-3.071500000000014
 72
     1
 10
3.747605922766066
 20
-3.071500000000014
 11
3.310855922766061
 21
-3.071500000000026
 72
     1
 10
3.310855922766062
 20
-3.071500000000025
 11
3.310855922766062
 21
-3.121191049788854
 97
        0
 75
     0
 76
     1
 52
30.0
 41
0.15
 77
     0
 78
     1
 53
30.0
 43
-8.0
 44
0.0
 45
0.0068629763209582
 46
0.0256129763209582
 79
     2
 49
0.01875
 49
-0.01875
 98
        1
 10
-8.0
 20
0.0
1001
ACAD
1010
0.0
1020
0.0
1030
0.0
  0
LWPOLYLINE
  5
296
330
26C
100
AcDbEntity
  8
Pel_CS-Sealant
100
AcDbPolyline
 90
        4
 70
     1
 43
0.0
 10
3.310855922766062
 20
-3.121191049788855
 10
3.747605922766066
 20
-3.121191049788855
 10
3.747605922766066
 20
-3.071500000000014
 10
3.310855922766062
 20
-3.071500000000025
  0
LWPOLYLINE
  5
297
330
26C
100
AcDbEntity
  8
Pel_CS-IG
100
AcDbPolyline
 90
        4
 70
     0
 43
0.0
 10
3.154105922766056
 20
-4.498444180476862
 10
3.15410592276606
 20
-2.938000000000013
 10
3.283105922766072
 20
-2.938000000000013
 10
3.283105922766068
 20
-4.498444180476862
  0
LWPOLYLINE
  5
299
330
26C
100
AcDbEntity
  8
Pel_CS-IG
100
AcDbPolyline
 90
        4
 70
     0
 43
0.0
 10
3.775355922766065
 20
-4.498444180476862
 10
3.775355922766067
 20
-2.938000000000009
 10
3.904355922766065
 20
-2.938000000000009
 10
3.904355922766063
 20
-4.498444180476862
  0
LWPOLYLINE
  5
29A
330
26C
100
AcDbEntity
  8
Pel_CS-IG
100
AcDbPolyline
 90
       16
 70
     1
 43
0.0
 10
3.754605922766064
 20
-3.062500000000017
 10
3.303855922766064
 20
-3.062500000000017
 42
0.4142135623730951
 10
3.294855922766064
 20
-3.071500000000018
 10
3.294855922766064
 20
-3.353500000000018
 42
0.4142135623730913
 10
3.303855922766064
 20
-3.362500000000018
 10
3.372980922766064
 20
-3.362500000000018
 10
3.372980922766066
 20
-3.353500000000018
 10
3.303855922766064
 20
-3.353500000000018
 10
3.303855922766064
 20
-3.071500000000018
 10
3.754605922766064
 20
-3.071500000000018
 10
3.754605922766064
 20
-3.353500000000018
 10
3.685480922766073
 20
-3.353500000000018
 10
3.68548092276606
 20
-3.362500000000018
 10
3.754605922766064
 20
-3.362500000000018
 42
0.4142135623730919
 10
3.763605922766064
 20
-3.353500000000018
 10
3.763605922766064
 20
-3.071500000000018
 42
0.4142135623730951
  0
LINE
  5
29B
330
26C
100
AcDbEntity
  8
Pel_CS-Weatherstrip
  6
Continuous
100
AcDbLine
 10
3.760643836999564
 20
-3.064825901431003
 30
0.0
 11
3.775355922766067
 21
-3.064825901431003
 31
0.0
  0
LINE
  5
29C
330
26C
100
AcDbEntity
  8
Pel_CS-Weatherstrip
  6
Continuous
100
AcDbLine
 10
3.760643836999564
 20
-3.360174098569032
 30
0.0
 11
3.775355922766067
 21
-3.360174098569032
 31
0.0
  0
LINE
  5
29D
330
26C
100
AcDbEntity
  8
Pel_CS-Weatherstrip
  6
Continuous
100
AcDbLine
 10
3.297818008532564
 20
-3.064825901431003
 30
0.0
 11
3.283105922766061
 21
-3.064825901431003
 31
0.0
  0
LINE
  5
29E
330
26C
100
AcDbEntity
  8
Pel_CS-Weatherstrip
  6
Continuous
100
AcDbLine
 10
3.297818008532564
 20
-3.360174098569032
 30
0.0
 11
3.283105922766061
 21
-3.360174098569032
 31
0.0
  0
ARC
  5
29F
330
26C
100
AcDbEntity
  8
Pel_CS-Sealant
100
AcDbCircle
 10
3.529230922766018
 20
-1.241563280373433
 30
0.0
 40
1.774198080538651
100
AcDbArc
 50
262.0259462884695
 51
277.9740537115322
  0
ARC
  5
2A0
330
26C
100
AcDbEntity
  8
Pel_CS-Sealant
100
AcDbCircle
 10
3.529230922766018
 20
-1.241563280373433
 30
0.0
 40
1.714198080538651
100
AcDbArc
 50
261.7449263785125
 51
278.2550736214894
  0
ARC
  5
2A1
330
26C
100
AcDbEntity
  8
Pel_CS-Sealant
100
AcDbCircle
 10
3.529230922766018
 20
-1.241563280373433
 30
0.0
 40
1.734198080538651
100
AcDbArc
 50
261.8407824200478
 51
278.1592175799541
  0
ARC
  5
2A2
330
26C
100
AcDbEntity
  8
Pel_CS-Sealant
100
AcDbCircle
 10
3.529230922766018
 20
-1.241563280373433
 30
0.0
 40
1.754198080538651
100
AcDbArc
 50
261.9344305006224
 51
278.0655694993797
  0
LWPOLYLINE
  5
2A3
330
26C
100
AcDbEntity
  8
Pel_CS-Weatherstrip
100
AcDbPolyline
 90
        4
 70
     1
 43
0.0
 10
3.904355922766065
 20
-3.063000000000002
 10
3.966857076183615
 20
-3.063000000000002
 10
3.966857076183615
 20
-3.438000000000002
 10
3.904355922766065
 20
-3.438000000000002
  0
LWPOLYLINE
  5
2A4
330
26C
100
AcDbEntity
  8
Pel_CS-Hardware
100
AcDbPolyline
 90
       19
 70
     0
 43
0.0
 10
0.4063933982821997
 20
-0.6947785755763079
 10
0.4063933982821997
 20
-0.5697785755763079
 10
0.356393398282199
 20
-0.5697785755763079
 10
0.356393398282199
 20
-1.569778575576307
 10
0.4063933982821997
 20
-1.569778575576307
 10
0.4063933982821997
 20
-0.6947785755763079
 10
0.4063933982821997
 20
-1.444778575576307
 10
0.5003933982822009
 20
-1.394778575576307
 10
0.5003933982822009
 20
-0.744778575576305
 10
0.5003933982822009
 20
-1.394778575576307
 10
0.5943933982821985
 20
-1.444778575576307
 10
0.5943933982821985
 20
-0.6947785755763079
 10
0.5943933982821985
 20
-1.569778575576307
 10
0.6443933982821993
 20
-1.569778575576307
 10
0.6443933982821993
 20
-0.5697785755763079
 10
0.5943933982821985
 20
-0.5697785755763079
 10
0.5943933982821985
 20
-0.6947785755763079
 10
0.5003933982822009
 20
-0.744778575576305
 10
0.4063933982821997
 20
-0.6947785755763079
  0
HATCH
  5
2A6
330
26C
100
AcDbEntity
  8
Pel_CS-Fill
100
AcDbHatch
 10
0.0
 20
0.0
 30
0.0
210
0.0
220
0.0
230
1.0
  2
SOLID
 70
     1
 71
     0
 91
        2
 92
        1
 93
       25
 72
     1
 10
0.356393398282199
 20
-1.070966782205275
 11
0.3082202507870433
 21
-1.070966782205275
 72
     2
 10
0.3082202507870431
 20
-1.031966782205273
 40
0.0390000000000002
 50
89.99999999999969
 51
174.598999199809
 73
     0
 72
     1
 10
0.269393398282201
 20
-1.035637684623928
 11
0.269393398282201
 21
-0.7649667822052811
 72
     1
 10
0.269393398282201
 20
-0.7649667822052777
 11
0.269393398282201
 21
-1.035637684623921
 72
     1
 10
0.269393398282201
 20
-1.035637684623921
 11
0.269393398282201
 21
-2.085966782205278
 72
     2
 10
0.2893933982822014
 20
-2.085966782205279
 40
0.02
 50
180.0000000000013
 51
269.9999999999988
 73
     1
 72
     1
 10
0.2893933982822006
 20
-2.105966782205278
 11
0.5993933982822011
 21
-2.105966782205278
 72
     2
 10
0.599393398282202
 20
-2.145966782205277
 40
0.04
 50
269.9999999999988
 51
359.9999999999988
 73
     0
 72
     1
 10
0.639393398282202
 20
-2.145966782205277
 11
0.6393933982822004
 21
-2.266966782205281
 72
     2
 10
0.5993933982822011
 20
-2.26696678220528
 40
0.0399999999999998
 50
0.0000000000019338
 51
90.0
 73
     0
 72
     1
 10
0.5993933982822011
 20
-2.306966782205279
 11
0.3658933982822021
 21
-2.306966782205279
 72
     1
 10
0.3658933982822017
 20
-2.306966782205279
 11
0.3658933982822017
 21
-2.287966782205279
 72
     1
 10
0.3658933982822017
 20
-2.28796678220528
 11
0.6003933982822005
 21
-2.28796678220528
 72
     2
 10
0.6003933982822005
 20
-2.267966782205281
 40
0.02
 50
270.0000000000013
 51
359.9999999999988
 73
     1
 72
     1
 10
0.6203933982822001
 20
-2.267966782205281
 11
0.6203933982822019
 21
-2.144966782205281
 72
     2
 10
0.6003933982822023
 20
-2.144966782205276
 40
0.02
 50
359.9999999999911
 51
450.0
 73
     1
 72
     1
 10
0.6003933982822023
 20
-2.124966782205277
 11
0.2903933982822005
 21
-2.124966782205277
 72
     2
 10
0.2903933982822009
 20
-2.084966782205277
 40
0.04
 50
90.00000000000126
 51
180.0
 73
     0
 72
     1
 10
0.2503933982822009
 20
-2.084966782205277
 11
0.2503933982822009
 21
-0.7644667822052838
 72
     2
 10
0.2688933982822013
 20
-0.7644667822052825
 40
0.0185
 50
180.0
 51
270.6393643443107
 73
     0
 72
     2
 10
0.269309044374304
 20
-0.7649667822052777
 40
0.0189999999999999
 50
269.3691045163644
 51
360.0
 73
     0
 72
     1
 10
0.2883090443743033
 20
-0.7649667822052777
 11
0.2883090443743033
 21
-1.030084268144434
 72
     2
 10
0.3082202507870431
 20
-1.03196678220528
 40
0.0200000000000001
 50
174.5989991998133
 51
270.0000000000006
 73
     1
 72
     1
 10
0.3082202507870431
 20
-1.05196678220528
 11
0.3563933982821986
 21
-1.051966782205279
 72
     1
 10
0.356393398282199
 20
-1.05196678220528
 11
0.356393398282199
 21
-1.070966782205275
 97
        0
 92
        1
 93
       29
 72
     1
 10
0.6443933982821993
 20
-1.051966782205276
 11
0.6925665457773586
 21
-1.051966782205275
 72
     2
 10
0.6925665457773587
 20
-1.031966782205273
 40
0.0199999999999998
 50
270.0
 51
365.4010008001746
 73
     1
 72
     1
 10
0.7124777521900985
 20
-1.030084268144435
 11
0.7124777521900985
 21
-0.7649667822052735
 72
     2
 10
0.7314777521900986
 20
-0.7649667822052706
 40
0.0190000000000001
 50
180.0
 51
270.6308954836383
 73
     0
 72
     2
 10
0.7318933982822014
 20
-0.7644667822052753
 40
0.0184999999999999
 50
269.3606356556919
 51
360.0
 73
     0
 72
     1
 10
0.7503933982822009
 20
-0.7644667822052753
 11
0.7503933982822009
 21
-2.084966782205277
 72
     2
 10
0.7103933982822009
 20
-2.084966782205277
 40
0.04
 50
0.0000000000012722
 51
90.0
 73
     0
 72
     1
 10
0.7103933982822009
 20
-2.124966782205277
 11
0.6783933982822016
 21
-2.124966782205277
 72
     2
 10
0.6783933982822026
 20
-2.144966782205276
 40
0.02
 50
90.00000000000126
 51
180.0000000000089
 73
     1
 72
     1
 10
0.6583933982822022
 20
-2.14496678220528
 11
0.6583933982822022
 21
-2.285966782205278
 72
     2
 10
0.6183933982822021
 20
-2.285966782205278
 40
0.04
 50
0.0000000000012722
 51
90.0
 73
     0
 72
     1
 10
0.6183933982822021
 20
-2.325966782205277
 11
0.3658933982822017
 21
-2.325966782205277
 72
     2
 10
0.3658933982822017
 20
-2.29746678220528
 40
0.0284999999999993
 50
90.0
 51
270.0
 73
     0
 72
     1
 10
0.3658933982822017
 20
-2.268966782205279
 11
0.495393398282202
 21
-2.268966782205279
 72
     1
 10
0.4953933982822019
 20
-2.268966782205279
 11
0.4953933982822017
 21
-2.287966782205279
 72
     1
 10
0.4953933982822019
 20
-2.28796678220528
 11
0.3658933982822019
 21
-2.28796678220528
 72
     2
 10
0.3658933982822017
 20
-2.29746678220528
 40
0.0094999999999992
 50
90.0
 51
270.0
 73
     1
 72
     1
 10
0.3658933982822017
 20
-2.306966782205279
 11
0.6193933982822008
 21
-2.306966782205279
 72
     2
 10
0.6193933982822007
 20
-2.286966782205279
 40
0.0199999999999996
 50
270.0000000000006
 51
360.0
 73
     1
 72
     1
 10
0.6393933982822002
 20
-2.286966782205279
 11
0.639393398282202
 21
-2.145966782205277
 72
     2
 10
0.6793933982822021
 20
-2.145966782205277
 40
0.04
 50
180.0000000000013
 51
269.9999999999988
 73
     0
 72
     1
 10
0.6793933982822012
 20
-2.105966782205278
 11
0.7113933982822011
 21
-2.105966782205278
 72
     2
 10
0.7113933982822012
 20
-2.085966782205279
 40
0.02
 50
270.0000000000013
 51
359.9999999999988
 73
     1
 72
     1
 10
0.7313933982822008
 20
-2.085966782205279
 11
0.7313933982822008
 21
-1.03563768462392
 72
     1
 10
0.7313933982822008
 20
-1.035637684623921
 11
0.7313933982822008
 21
-0.764966782205274
 72
     1
 10
0.7313933982822008
 20
-0.7649667822052742
 11
0.7313933982822008
 21
-1.035637684623921
 72
     2
 10
0.6925665457773596
 20
-1.031966782205277
 40
0.0389999999999997
 50
5.401000800185121
 51
90.0000000000003
 73
     0
 72
     1
 10
0.6925665457773587
 20
-1.070966782205275
 11
0.6443933982821993
 21
-1.070966782205275
 72
     1
 10
0.6443933982821993
 20
-1.070966782205275
 11
0.6443933982821993
 21
-1.051966782205274
 97
        0
 75
     0
 76
     1
 98
        1
 10
1.759066116549027
 20
0.2833500132488069
1001
ACAD
1010
0.0
1020
0.0
1030
0.0
  0
LWPOLYLINE
  5
2A8
330
26C
100
AcDbEntity
  8
Pel_CS-Clad
100
AcDbPolyline
 90
       25
 70
     1
 43
0.0
 10
0.356393398282199
 20
-1.070966782205275
 10
0.3082202507870431
 20
-1.070966782205275
 42
-0.3868658026623525
 10
0.269393398282201
 20
-1.035637684623928
 10
0.269393398282201
 20
-0.7649667822052777
 10
0.269393398282201
 20
-1.035637684623921
 10
0.269393398282201
 20
-2.085966782205279
 42
0.4142135623730823
 10
0.2893933982822006
 20
-2.105966782205278
 10
0.5993933982822011
 20
-2.105966782205278
 42
-0.4142135623730949
 10
0.639393398282202
 20
-2.145966782205277
 10
0.6393933982822011
 20
-2.26696678220528
 42
-0.4142135623730854
 10
0.5993933982822011
 20
-2.306966782205279
 10
0.3658933982822017
 20
-2.306966782205279
 10
0.3658933982822017
 20
-2.28796678220528
 10
0.6003933982822005
 20
-2.28796678220528
 42
0.4142135623730847
 10
0.6203933982822001
 20
-2.267966782205281
 10
0.6203933982822019
 20
-2.14496678220528
 42
0.4142135623731412
 10
0.6003933982822023
 20
-2.124966782205277
 10
0.2903933982822
 20
-2.124966782205277
 42
-0.4142135623730891
 10
0.2503933982822009
 20
-2.084966782205277
 10
0.2503933982822009
 20
-0.7644667822052825
 42
-0.417485751266966
 10
0.2690998357369203
 20
-0.7459679340363472
 42
-0.4174423589703049
 10
0.2883090443743033
 20
-0.7649667822052777
 10
0.2883090443743033
 20
-1.030084268144435
 42
0.4421005955735554
 10
0.3082202507870431
 20
-1.05196678220528
 10
0.356393398282199
 20
-1.05196678220528
  0
CIRCLE
  5
2AA
330
26C
100
AcDbEntity
  8
Pel_CS-Sealant
100
AcDbCircle
 10
0.4953933982822028
 20
-2.196966782205279
 30
0.0
 40
0.0575
  0
CIRCLE
  5
2AB
330
26C
100
AcDbEntity
  8
Pel_CS-Weatherstrip
100
AcDbCircle
 10
0.3193933982822026
 20
-2.42246678220528
 30
0.0
 40
0.018
  0
CIRCLE
  5
2AC
102
{ACAD_REACTORS
330
2AF
102
}
330
26C
100
AcDbEntity
  8
Pel_CS-Weatherstrip
100
AcDbCircle
 10
0.3193933982822026
 20
-2.29746678220528
 30
0.0
 40
0.018
  0
CIRCLE
  5
2AD
330
26C
100
AcDbEntity
  8
Pel_CS-Weatherstrip
100
AcDbCircle
 10
0.3193933982822026
 20
-2.67246678220528
 30
0.0
 40
0.018
  0
CIRCLE
  5
2AE
330
26C
100
AcDbEntity
  8
Pel_CS-Weatherstrip
100
AcDbCircle
 10
0.3193933982822026
 20
-2.54746678220528
 30
0.0
 40
0.018
  0
HATCH
  5
2AF
330
26C
100
AcDbEntity
  8
Pel_CS-Weatherstrip
100
AcDbHatch
 10
0.0
 20
0.0
 30
0.0
210
0.0
220
0.0
230
1.0
  2
SOLID
 70
     1
 71
     1
 91
        1
 92
        1
 93
        1
 72
     2
 10
0.3193933982822026
 20
-2.29746678220528
 40
0.018
 50
0.0
 51
360.0
 73
     1
 97
        1
330
2AC
 75
     0
 76
     1
 98
        1
 10
-0.362606601717796
 20
-0.8124667822052629
  0
HATCH
  5
2B0
330
26C
100
AcDbEntity
  8
Pel_CS-Weatherstrip
100
AcDbHatch
 10
0.0
 20
0.0
 30
0.0
210
0.0
220
0.0
230
1.0
  2
SOLID
 70
     1
 71
     0
 91
        1
 92
        1
 93
        1
 72
     2
 10
0.3193933982822026
 20
-2.42246678220528
 40
0.018
 50
0.0
 51
360.0
 73
     1
 97
        0
 75
     0
 76
     1
 98
        1
 10
-0.362606601717796
 20
-0.9374667822052629
  0
HATCH
  5
2B1
330
26C
100
AcDbEntity
  8
Pel_CS-Weatherstrip
100
AcDbHatch
 10
0.0
 20
0.0
 30
0.0
210
0.0
220
0.0
230
1.0
  2
SOLID
 70
     1
 71
     0
 91
        1
 92
        1
 93
        1
 72
     2
 10
0.3193933982822026
 20
-2.54746678220528
 40
0.018
 50
0.0
 51
360.0
 73
     1
 97
        0
 75
     0
 76
     1
 98
        1
 10
-0.362606601717796
 20
-1.062466782205262
  0
HATCH
  5
2B2
330
26C
100
AcDbEntity
  8
Pel_CS-Weatherstrip
100
AcDbHatch
 10
0.0
 20
0.0
 30
0.0
210
0.0
220
0.0
230
1.0
  2
SOLID
 70
     1
 71
     0
 91
        1
 92
        1
 93
        1
 72
     2
 10
0.3193933982822026
 20
-2.67246678220528
 40
0.018
 50
0.0
 51
360.0
 73
     1
 97
        0
 75
     0
 76
     1
 98
        1
 10
-0.362606601717796
 20
-1.187466782205262
  0
CIRCLE
  5
2B3
330
26C
100
AcDbEntity
  8
Pel_CS-Weatherstrip
100
AcDbCircle
 10
0.3193933982822026
 20
-2.92246678220528
 30
0.0
 40
0.018
  0
CIRCLE
  5
2B4
330
26C
100
AcDbEntity
  8
Pel_CS-Weatherstrip
100
AcDbCircle
 10
0.3193933982822026
 20
-2.79746678220528
 30
0.0
 40
0.018
  0
HATCH
  5
2B5
330
26C
100
AcDbEntity
  8
Pel_CS-Weatherstrip
100
AcDbHatch
 10
0.0
 20
0.0
 30
0.0
210
0.0
220
0.0
230
1.0
  2
SOLID
 70
     1
 71
     0
 91
        1
 92
        1
 93
        1
 72
     2
 10
0.3193933982822026
 20
-2.79746678220528
 40
0.018
 50
0.0
 51
360.0
 73
     1
 97
        0
 75
     0
 76
     1
 98
        1
 10
-0.362606601717796
 20
-1.312466782205262
  0
HATCH
  5
2B6
330
26C
100
AcDbEntity
  8
Pel_CS-Weatherstrip
100
AcDbHatch
 10
0.0
 20
0.0
 30
0.0
210
0.0
220
0.0
230
1.0
  2
SOLID
 70
     1
 71
     0
 91
        1
 92
        1
 93
        1
 72
     2
 10
0.3193933982822026
 20
-2.92246678220528
 40
0.018
 50
0.0
 51
360.0
 73
     1
 97
        0
 75
     0
 76
     1
 98
        1
 10
-0.362606601717796
 20
-1.437466782205262
  0
CIRCLE
  5
2B7
330
26C
100
AcDbEntity
  8
Pel_CS-Weatherstrip
100
AcDbCircle
 10
0.3193933982822026
 20
-3.17246678220528
 30
0.0
 40
0.018
  0
CIRCLE
  5
2B8
330
26C
100
AcDbEntity
  8
Pel_CS-Weatherstrip
100
AcDbCircle
 10
0.3193933982822026
 20
-3.04746678220528
 30
0.0
 40
0.018
  0
HATCH
  5
2B9
330
26C
100
AcDbEntity
  8
Pel_CS-Weatherstrip
100
AcDbHatch
 10
0.0
 20
0.0
 30
0.0
210
0.0
220
0.0
230
1.0
  2
SOLID
 70
     1
 71
     0
 91
        1
 92
        1
 93
        1
 72
     2
 10
0.3193933982822026
 20
-3.04746678220528
 40
0.018
 50
0.0
 51
360.0
 73
     1
 97
        0
 75
     0
 76
     1
 98
        1
 10
-0.362606601717796
 20
-1.562466782205262
  0
HATCH
  5
2BA
330
26C
100
AcDbEntity
  8
Pel_CS-Weatherstrip
100
AcDbHatch
 10
0.0
 20
0.0
 30
0.0
210
0.0
220
0.0
230
1.0
  2
SOLID
 70
     1
 71
     0
 91
        1
 92
        1
 93
        1
 72
     2
 10
0.3193933982822026
 20
-3.17246678220528
 40
0.018
 50
0.0
 51
360.0
 73
     1
 97
        0
 75
     0
 76
     1
 98
        1
 10
-0.362606601717796
 20
-1.687466782205262
  0
CIRCLE
  5
2BB
330
26C
100
AcDbEntity
  8
Pel_CS-Weatherstrip
100
AcDbCircle
 10
0.3193933982822026
 20
-3.42246678220528
 30
0.0
 40
0.018
  0
CIRCLE
  5
2BC
330
26C
100
AcDbEntity
  8
Pel_CS-Weatherstrip
100
AcDbCircle
 10
0.3193933982822026
 20
-3.29746678220528
 30
0.0
 40
0.018
  0
HATCH
  5
2BD
330
26C
100
AcDbEntity
  8
Pel_CS-Weatherstrip
100
AcDbHatch
 10
0.0
 20
0.0
 30
0.0
210
0.0
220
0.0
230
1.0
  2
SOLID
 70
     1
 71
     0
 91
        1
 92
        1
 93
        1
 72
     2
 10
0.3193933982822026
 20
-3.29746678220528
 40
0.018
 50
0.0
 51
360.0
 73
     1
 97
        0
 75
     0
 76
     1
 98
        1
 10
-0.362606601717796
 20
-1.812466782205262
  0
HATCH
  5
2BE
330
26C
100
AcDbEntity
  8
Pel_CS-Weatherstrip
100
AcDbHatch
 10
0.0
 20
0.0
 30
0.0
210
0.0
220
0.0
230
1.0
  2
SOLID
 70
     1
 71
     0
 91
        1
 92
        1
 93
        1
 72
     2
 10
0.3193933982822026
 20
-3.42246678220528
 40
0.018
 50
0.0
 51
360.0
 73
     1
 97
        0
 75
     0
 76
     1
 98
        1
 10
-0.362606601717796
 20
-1.937466782205262
  0
CIRCLE
  5
2BF
330
26C
100
AcDbEntity
  8
Pel_CS-Weatherstrip
100
AcDbCircle
 10
0.3193933982822026
 20
-3.54746678220528
 30
0.0
 40
0.018
  0
HATCH
  5
2C0
330
26C
100
AcDbEntity
  8
Pel_CS-Weatherstrip
100
AcDbHatch
 10
0.0
 20
0.0
 30
0.0
210
0.0
220
0.0
230
1.0
  2
SOLID
 70
     1
 71
     0
 91
        1
 92
        1
 93
        1
 72
     2
 10
0.3193933982822026
 20
-3.54746678220528
 40
0.018
 50
0.0
 51
360.0
 73
     1
 97
        0
 75
     0
 76
     1
 98
        1
 10
-0.362606601717796
 20
-2.062466782205262
  0
LWPOLYLINE
  5
2C1
330
26C
100
AcDbEntity
  8
Pel_CS-Clad
100
AcDbPolyline
 90
       29
 70
     1
 43
0.0
 10
0.6443933982821993
 20
-1.051966782205276
 10
0.6925665457773587
 20
-1.051966782205273
 42
0.4421005955734904
 10
0.7124777521900985
 20
-1.030084268144435
 10
0.7124777521900985
 20
-0.7649667822052706
 42
-0.4174423589703208
 10
0.7316869608274832
 20
-0.7459679340363401
 42
-0.4174857512669492
 10
0.7503933982822009
 20
-0.7644667822052753
 10
0.7503933982822009
 20
-2.084966782205277
 42
-0.4142135623730886
 10
0.7103933982822009
 20
-2.124966782205277
 10
0.6783933982822017
 20
-2.124966782205277
 42
0.4142135623731344
 10
0.6583933982822022
 20
-2.14496678220528
 10
0.6583933982822022
 20
-2.285966782205278
 42
-0.4142135623730889
 10
0.6183933982822021
 20
-2.325966782205277
 10
0.3658933982822017
 20
-2.325966782205277
 42
-1.0
 10
0.3658933982822017
 20
-2.268966782205279
 10
0.4953933982822019
 20
-2.268966782205279
 10
0.4953933982822019
 20
-2.28796678220528
 10
0.3658933982822017
 20
-2.28796678220528
 42
1.0
 10
0.3658933982822017
 20
-2.306966782205279
 10
0.6193933982822007
 20
-2.306966782205279
 42
0.4142135623730864
 10
0.6393933982822002
 20
-2.286966782205279
 10
0.639393398282202
 20
-2.145966782205277
 42
-0.4142135623730826
 10
0.6793933982822012
 20
-2.105966782205278
 10
0.7113933982822012
 20
-2.105966782205278
 42
0.4142135623730823
 10
0.7313933982822008
 20
-2.085966782205279
 10
0.7313933982822008
 20
-1.035637684623921
 10
0.7313933982822008
 20
-0.7649667822052742
 10
0.7313933982822008
 20
-1.035637684623921
 42
-0.3868658026623807
 10
0.6925665457773587
 20
-1.070966782205275
 10
0.6443933982821993
 20
-1.070966782205275
  0
CIRCLE
  5
2C2
330
26C
100
AcDbEntity
  8
Pel_CS-Weatherstrip
100
AcDbCircle
 10
0.3193933982822026
 20
-3.79746678220528
 30
0.0
 40
0.018
  0
CIRCLE
  5
2C3
330
26C
100
AcDbEntity
  8
Pel_CS-Weatherstrip
100
AcDbCircle
 10
0.3193933982822026
 20
-3.67246678220528
 30
0.0
 40
0.018
  0
HATCH
  5
2C4
330
26C
100
AcDbEntity
  8
Pel_CS-Weatherstrip
100
AcDbHatch
 10
0.0
 20
0.0
 30
0.0
210
0.0
220
0.0
230
1.0
  2
SOLID
 70
     1
 71
     0
 91
        1
 92
        1
 93
        1
 72
     2
 10
0.3193933982822026
 20
-3.67246678220528
 40
0.018
 50
0.0
 51
360.0
 73
     1
 97
        0
 75
     0
 76
     1
 98
        1
 10
-0.362606601717796
 20
-2.187466782205262
  0
HATCH
  5
2C5
330
26C
100
AcDbEntity
  8
Pel_CS-Weatherstrip
100
AcDbHatch
 10
0.0
 20
0.0
 30
0.0
210
0.0
220
0.0
230
1.0
  2
SOLID
 70
     1
 71
     0
 91
        1
 92
        1
 93
        1
 72
     2
 10
0.3193933982822026
 20
-3.79746678220528
 40
0.018
 50
0.0
 51
360.0
 73
     1
 97
        0
 75
     0
 76
     1
 98
        1
 10
-0.362606601717796
 20
-2.312466782205262
  0
CIRCLE
  5
2C6
330
26C
100
AcDbEntity
  8
Pel_CS-Weatherstrip
100
AcDbCircle
 10
0.3193933982822026
 20
-3.92246678220528
 30
0.0
 40
0.018
  0
HATCH
  5
2C7
330
26C
100
AcDbEntity
  8
Pel_CS-Weatherstrip
100
AcDbHatch
 10
0.0
 20
0.0
 30
0.0
210
0.0
220
0.0
230
1.0
  2
SOLID
 70
     1
 71
     0
 91
        1
 92
        1
 93
        1
 72
     2
 10
0.3193933982822026
 20
-3.92246678220528
 40
0.018
 50
0.0
 51
360.0
 73
     1
 97
        0
 75
     0
 76
     1
 98
        1
 10
-0.362606601717796
 20
-2.437466782205262
  0
CIRCLE
  5
2C8
330
26C
100
AcDbEntity
  8
Pel_CS-Weatherstrip
100
AcDbCircle
 10
0.3193933982822026
 20
-3.92246678220528
 30
0.0
 40
0.018
  0
HATCH
  5
2C9
330
26C
100
AcDbEntity
  8
Pel_CS-Weatherstrip
100
AcDbHatch
 10
0.0
 20
0.0
 30
0.0
210
0.0
220
0.0
230
1.0
  2
SOLID
 70
     1
 71
     0
 91
        1
 92
        1
 93
        1
 72
     2
 10
0.3193933982822026
 20
-3.92246678220528
 40
0.018
 50
0.0
 51
360.0
 73
     1
 97
        0
 75
     0
 76
     1
 98
        1
 10
-0.362606601717796
 20
-2.437466782205262
  0
CIRCLE
  5
2CA
330
26C
100
AcDbEntity
  8
Pel_CS-Weatherstrip
100
AcDbCircle
 10
0.3193933982822026
 20
-4.17246678220528
 30
0.0
 40
0.018
  0
CIRCLE
  5
2CB
330
26C
100
AcDbEntity
  8
Pel_CS-Weatherstrip
100
AcDbCircle
 10
0.3193933982822026
 20
-4.04746678220528
 30
0.0
 40
0.018
  0
HATCH
  5
2CC
330
26C
100
AcDbEntity
  8
Pel_CS-Weatherstrip
100
AcDbHatch
 10
0.0
 20
0.0
 30
0.0
210
0.0
220
0.0
230
1.0
  2
SOLID
 70
     1
 71
     0
 91
        1
 92
        1
 93
        1
 72
     2
 10
0.3193933982822026
 20
-4.04746678220528
 40
0.018
 50
0.0
 51
360.0
 73
     1
 97
        0
 75
     0
 76
     1
 98
        1
 10
-0.362606601717796
 20
-2.562466782205262
  0
HATCH
  5
2CD
330
26C
100
AcDbEntity
  8
Pel_CS-Weatherstrip
100
AcDbHatch
 10
0.0
 20
0.0
 30
0.0
210
0.0
220
0.0
230
1.0
  2
SOLID
 70
     1
 71
     0
 91
        1
 92
        1
 93
        1
 72
     2
 10
0.3193933982822026
 20
-4.17246678220528
 40
0.018
 50
0.0
 51
360.0
 73
     1
 97
        0
 75
     0
 76
     1
 98
        1
 10
-0.362606601717796
 20
-2.687466782205262
  0
CIRCLE
  5
2CE
330
26C
100
AcDbEntity
  8
Pel_CS-Weatherstrip
100
AcDbCircle
 10
0.3193933982822026
 20
-4.29746678220528
 30
0.0
 40
0.018
  0
HATCH
  5
2CF
330
26C
100
AcDbEntity
  8
Pel_CS-Weatherstrip
100
AcDbHatch
 10
0.0
 20
0.0
 30
0.0
210
0.0
220
0.0
230
1.0
  2
SOLID
 70
     1
 71
     0
 91
        1
 92
        1
 93
        1
 72
     2
 10
0.3193933982822026
 20
-4.29746678220528
 40
0.018
 50
0.0
 51
360.0
 73
     1
 97
        0
 75
     0
 76
     1
 98
        1
 10
-0.362606601717796
 20
-2.812466782205262
  0
CIRCLE
  5
2D0
330
26C
100
AcDbEntity
  8
Pel_CS-Weatherstrip
100
AcDbCircle
 10
0.3193933982822026
 20
-4.29746678220528
 30
0.0
 40
0.018
  0
HATCH
  5
2D1
330
26C
100
AcDbEntity
  8
Pel_CS-Weatherstrip
100
AcDbHatch
 10
0.0
 20
0.0
 30
0.0
210
0.0
220
0.0
230
1.0
  2
SOLID
 70
     1
 71
     0
 91
        1
 92
        1
 93
        1
 72
     2
 10
0.3193933982822026
 20
-4.29746678220528
 40
0.018
 50
0.0
 51
360.0
 73
     1
 97
        0
 75
     0
 76
     1
 98
        1
 10
-0.362606601717796
 20
-2.812466782205262
  0
CIRCLE
  5
2D2
330
26C
100
AcDbEntity
  8
Pel_CS-Weatherstrip
100
AcDbCircle
 10
0.3193933982822026
 20
-4.42246678220528
 30
0.0
 40
0.018
  0
HATCH
  5
2D3
330
26C
100
AcDbEntity
  8
Pel_CS-Weatherstrip
100
AcDbHatch
 10
0.0
 20
0.0
 30
0.0
210
0.0
220
0.0
230
1.0
  2
SOLID
 70
     1
 71
     0
 91
        1
 92
        1
 93
        1
 72
     2
 10
0.3193933982822026
 20
-4.42246678220528
 40
0.018
 50
0.0
 51
360.0
 73
     1
 97
        0
 75
     0
 76
     1
 98
        1
 10
-0.362606601717796
 20
-2.937466782205262
  0
ENDBLK
  5
2DA
330
26C
100
AcDbEntity
  8
0
100
AcDbBlockEnd
  0
BLOCK
  5
3B7
330
3B4
100
AcDbEntity
  8
0
100
AcDbBlockBegin
  2
TSE10SDSV
 70
     0
 10
0.0
 20
0.0
 30
0.0
  3
TSE10SDSV
  1

  0
POINT
  5
3B8
330
3B4
100
AcDbEntity
  8
Pel_CS-Points
100
AcDbPoint
 10
0.0
 20
0.0000000000000036
 30
0.0
  0
LWPOLYLINE
  5
3BA
330
3B4
100
AcDbEntity
  8
Pel_CS-Cross Section
 62
     4
100
AcDbPolyline
 90
      129
 70
     1
 43
0.0
 10
1.429957603986359
 20
-1.125
 10
1.349957603986356
 20
-1.125
 10
1.349957603986356
 20
0.0
 10
0.0650000000000013
 20
0.0
 10
0.0649999999999977
 20
0.0799999999999983
 10
0.1169615242270687
 20
0.1099999999999994
 10
0.1419615242270709
 20
0.1099999999999994
 10
0.1419615242270638
 20
0.0799999999999983
 10
0.2800000000000011
 20
0.0799999999999983
 10
0.2799999999999976
 20
0.2349999999999994
 10
0.0
 20
0.2349999999999994
 10
0.0
 20
0.9380000000000023
 10
0.1999999999999993
 20
0.9380000000000023
 10
0.1999999999999993
 20
0.4380000000000024
 10
0.8350000000000008
 20
0.4380000000000024
 10
0.8350000000000008
 20
0.6280000000000002
 10
0.8000000000000007
 20
0.6280000000000002
 10
0.8000000000000007
 20
0.9380000000000023
 10
0.8900000000000003
 20
0.9380000000000023
 42
-1.0
 10
0.8900000000000003
 20
0.8780000000000001
 10
0.8599999999999994
 20
0.8779999999999963
 10
0.8599999999999994
 20
0.687999999999999
 10
1.054999999999999
 20
0.687999999999999
 10
1.054999999999999
 20
0.8379999999999974
 10
1.11273502691896
 20
0.9379999999999988
 10
2.149999999999999
 20
0.9379999999999951
 10
2.149999999999999
 20
1.103000000000001
 10
2.114999999999997
 20
1.103000000000001
 10
2.074999999999993
 20
1.063000000000002
 10
2.049999999999999
 20
1.063000000000002
 10
2.049999999999998
 20
1.563000000000002
 10
2.599999999999996
 20
1.563000000000002
 42
-0.4142135623731038
 10
2.629999999999999
 20
1.533
 10
2.629999999999997
 20
0.6822820323027515
 10
2.669999999999997
 20
0.6130000000000031
 10
2.669999999999995
 20
0.588000000000001
 10
2.629999999999999
 20
0.588000000000001
 10
2.629999999999999
 20
0.4630000000000011
 10
4.269999999999998
 20
0.4630000000000011
 10
4.269999999999996
 20
0.588000000000001
 10
4.230000000000002
 20
0.588000000000001
 10
4.230000000000002
 20
0.6130000000000031
 10
4.269999999999998
 20
0.6822820323027498
 10
4.269999999999996
 20
1.413
 10
4.230000000000002
 20
1.413
 10
4.23
 20
1.533
 42
-0.4142135623730863
 10
4.259999999999998
 20
1.562999999999997
 10
4.499999999999993
 20
1.563000000000002
 10
4.499999999999998
 20
0.2349999999999994
 10
4.220000000000004
 20
0.2349999999999994
 10
4.219999999999999
 20
0.0901420310525723
 10
4.144999999999996
 20
0.0901420310525723
 10
4.145000000000003
 20
0.2349999999999994
 42
-0.4142135623731038
 10
4.220000000000004
 20
0.3100000000000023
 10
4.419999999999998
 20
0.3100000000000023
 10
4.419999999999995
 20
0.3829999999999991
 10
4.404899421459155
 20
0.3829999999999991
 10
4.404899421459155
 20
0.442999999999998
 10
4.419999999999999
 20
0.442999999999998
 10
4.419999999999995
 20
1.483
 10
4.33
 20
1.483
 10
4.33
 20
0.442999999999998
 10
4.404899421459155
 20
0.442999999999998
 10
4.404899421459155
 20
0.3829999999999991
 10
3.508999999999999
 20
0.3829999999999991
 10
3.509000000000004
 20
0.0901420310525723
 10
3.448999999999998
 20
0.0901420310525723
 10
3.449000000000002
 20
0.3829999999999991
 10
2.61
 20
0.3829999999999991
 10
2.609999999999997
 20
0.0901420310525723
 10
2.549999999999997
 20
0.0901420310525723
 10
2.549999999999999
 20
1.483
 10
2.130000000000002
 20
1.483
 10
2.129999999999996
 20
1.177999999999999
 10
2.150000000000002
 20
1.178000000000004
 42
-0.4142135623730823
 10
2.224999999999996
 20
1.103000000000004
 10
2.224999999999996
 20
0.9329999999999998
 42
-0.4142135623731091
 10
2.149999999999998
 20
0.8579999999999968
 10
2.019999999999996
 20
0.8579999999999968
 10
2.020000000000003
 20
0.0901420310525723
 10
1.959999999999999
 20
0.0901420310525723
 10
1.959999999999999
 20
0.8579999999999968
 10
1.153149545762235
 20
0.8579999999999968
 10
1.129999999999995
 20
0.8179038105676621
 10
1.130000000000001
 20
0.0901420310525723
 10
1.07
 20
0.0901420310525723
 10
1.069999999999996
 20
0.6129999999999996
 10
0.9100000000000035
 20
0.6129999999999996
 10
0.9099999999999999
 20
0.4380000000000024
 42
-0.4142135623730951
 10
0.8350000000000008
 20
0.3629999999999995
 10
0.3550000000000004
 20
0.3629999999999995
 10
0.3550000000000004
 20
0.3530621331517025
 10
0.2950000000000017
 20
0.3530621331517025
 10
0.2950000000000017
 20
0.3629999999999995
 10
0.2149999999999999
 20
0.3629999999999995
 42
-0.4142135623730966
 10
0.1400000000000006
 20
0.4380000000000024
 10
0.139999999999997
 20
0.8580000000000005
 10
0.0800000000000019
 20
0.8580000000000005
 10
0.0799999999999983
 20
0.3099999999999987
 10
0.2950000000000017
 20
0.3099999999999987
 10
0.2950000000000017
 20
0.3530621331517025
 10
0.3550000000000004
 20
0.3530621331517025
 10
0.3550000000000004
 20
0.0800000000000019
 10
1.07
 20
0.0800000000000019
 10
1.07
 20
0.0901420310525723
 10
1.130000000000005
 20
0.0901420310525723
 10
1.129999999999999
 20
0.0800000000000019
 10
1.959999999999999
 20
0.0799999999999983
 10
1.959999999999999
 20
0.0901420310525723
 10
2.019999999999999
 20
0.0901420310525723
 10
2.02
 20
0.0799999999999983
 10
2.550000000000002
 20
0.0799999999999983
 10
2.550000000000003
 20
0.0901420310525723
 10
2.61
 20
0.0901420310525723
 10
2.609999999999997
 20
0.0799999999999983
 10
3.448999999999998
 20
0.0799999999999983
 10
3.449000000000001
 20
0.0901420310525723
 10
3.509000000000003
 20
0.0901420310525723
 10
3.509000000000003
 20
0.0799999999999983
 10
4.144999999999998
 20
0.0799999999999983
 10
4.144999999999996
 20
0.0901420310525723
 10
4.220000000000004
 20
0.0901420310525723
 10
4.219999999999999
 20
0.0800000000000019
 10
4.358038475772935
 20
0.0800000000000019
 10
4.358038475772935
 20
0.1099999999999994
 10
4.383038475772931
 20
0.1099999999999994
 10
4.435000000000004
 20
0.0800000000000019
 10
4.434999999999999
 20
0.0
 10
1.429957603986363
 20
0.0
  0
LWPOLYLINE
  5
3BC
330
3B4
100
AcDbEntity
  8
Pel_CS-Cross Section
 62
     4
100
AcDbPolyline
 90
       15
 70
     1
 43
0.0
 10
2.866857076183615
 20
2.812999999999906
 10
2.86685707618362
 20
2.724249999999901
 10
2.967719145149128
 20
2.618344827586113
 42
-1.0
 10
2.945995007218094
 20
2.5976551724137
 10
2.821857076183615
 20
2.727999999999904
 10
2.836857076183616
 20
2.742999999999905
 10
2.836857076183616
 20
2.812999999999906
 10
2.773443401098834
 20
2.812999999999906
 42
-0.5343310138307086
 10
2.759581993294665
 20
2.833732484076334
 42
-0.2404623521578165
 10
3.132215680118378
 20
3.419880385509604
 42
-0.9781803082727828
 10
3.147473102968026
 20
3.394017467921698
 10
3.146200661725021
 20
3.393311425494176
 42
0.0133516086578351
 10
3.146910150142359
 20
3.393685140719075
 42
0.2361122684030795
 10
2.791337111878875
 20
2.842999999999904
 10
2.836857076183616
 20
2.842999999999904
 42
-0.414213562373108
  0
LWPOLYLINE
  5
3BE
330
3B4
100
AcDbEntity
  8
Pel_CS-Cross Section
 62
     4
100
AcDbPolyline
 90
       73
 70
     1
 43
0.0
 10
2.991857076183616
 20
1.188000000000001
 10
2.796857076183616
 20
1.188000000000001
 42
-0.4142135623730951
 10
2.716857076183618
 20
1.268000000000004
 10
2.716857076183618
 20
1.310500000000004
 10
2.766857076183615
 20
1.310500000000004
 10
2.766857076183615
 20
1.268000000000004
 10
2.816857076183611
 20
1.268000000000004
 10
2.816857076183611
 20
1.478000000000004
 10
2.766857076183615
 20
1.478000000000004
 10
2.766857076183615
 20
1.435500000000004
 10
2.716857076183618
 20
1.435500000000004
 10
2.716857076183618
 20
1.478000000000004
 10
2.716857076183619
 20
2.813000000000001
 10
2.806857076183614
 20
2.813000000000001
 42
-1.0
 10
2.806857076183614
 20
2.753000000000002
 10
2.796857076183616
 20
2.753000000000002
 10
2.796857076183616
 20
2.563000000000001
 10
2.820574096771752
 20
2.563000000000001
 10
2.820574096771752
 20
2.483
 10
2.796857076183616
 20
2.483
 10
2.796857076183616
 20
1.842000000000002
 10
2.820574096771748
 20
1.842000000000002
 10
2.820574096771748
 20
1.792000000000004
 10
2.796857076183618
 20
1.792000000000004
 10
2.796857076183616
 20
1.558000000000003
 10
2.816857076183611
 20
1.558000000000003
 42
-0.4142135623731081
 10
2.896857076183618
 20
1.478
 10
2.89685707618362
 20
1.268000000000004
 10
2.991857076183616
 20
1.268000000000004
 10
2.991857076183618
 20
1.792000000000004
 10
2.820574096771749
 20
1.792000000000004
 10
2.820574096771752
 20
1.842000000000002
 10
4.1206655118537
 20
1.842000000000002
 10
4.1206655118537
 20
1.792
 10
3.941857076183613
 20
1.792
 10
3.941857076183611
 20
1.268000000000004
 10
4.136857076183613
 20
1.268000000000004
 10
4.136857076183613
 20
1.792
 10
4.1206655118537
 20
1.792
 10
4.1206655118537
 20
1.842000000000002
 10
4.136857076183613
 20
1.842000000000002
 10
4.136857076183611
 20
2.733
 10
4.1206655118537
 20
2.733
 10
4.1206655118537
 20
2.783000000000001
 10
4.136857076183613
 20
2.783000000000001
 10
4.136857076183613
 20
3.378000000000002
 10
4.026857076183613
 20
3.378000000000002
 10
4.026857076183613
 20
2.783000000000001
 10
4.1206655118537
 20
2.783000000000001
 10
4.1206655118537
 20
2.733
 10
3.91185707618362
 20
2.733
 10
3.911857076183618
 20
2.563000000000001
 10
3.831857076183613
 20
2.563000000000001
 10
3.831857076183613
 20
2.733
 10
3.051857076183611
 20
2.733
 10
3.051857076183611
 20
2.562999999999997
 10
3.101857076183615
 20
2.562999999999997
 10
3.101857076183615
 20
2.483
 10
2.820574096771749
 20
2.483
 10
2.820574096771749
 20
2.563000000000001
 10
2.971857076183615
 20
2.563000000000001
 10
2.971857076183613
 20
2.733
 42
-0.4142135623730951
 10
3.051857076183611
 20
2.813000000000001
 10
3.966857076183615
 20
2.813000000000001
 10
3.966857076183615
 20
3.438000000000001
 10
4.216857076183618
 20
3.438000000000001
 10
4.216857076183618
 20
1.268000000000004
 42
-0.4142135623730951
 10
4.136857076183613
 20
1.188000000000001
 10
3.941857076183611
 20
1.188000000000001
 42
-0.4142135623730951
 10
3.861857076183613
 20
1.268000000000004
 10
3.861857076183613
 20
1.762000000000004
 10
3.071857076183613
 20
1.762000000000004
 10
3.071857076183615
 20
1.268000000000004
 42
-0.4142135623730951
  0
POLYLINE
  5
3BF
330
3B4
100
AcDbEntity
  8
Pel_CS-Weatherstrip
100
AcDb2dPolyline
 66
     1
 10
0.0
 20
0.0
 30
0.0
  0
VERTEX
  5
3C0
330
3BF
100
AcDbEntity
  8
Pel_CS-Weatherstrip
100
AcDbVertex
100
AcDb2dVertex
 10
2.775769530261636
 20
1.465141855391418
 30
0.0
  0
VERTEX
  5
3C1
330
3BF
100
AcDbEntity
  8
Pel_CS-Weatherstrip
100
AcDbVertex
100
AcDb2dVertex
 10
2.775769530261636
 20
1.418897265753042
 30
0.0
  0
VERTEX
  5
3C2
330
3BF
100
AcDbEntity
  8
Pel_CS-Weatherstrip
100
AcDbVertex
100
AcDb2dVertex
 10
2.629999999999999
 20
1.457630846916216
 30
0.0
  0
VERTEX
  5
3C3
330
3BF
100
AcDbEntity
  8
Pel_CS-Weatherstrip
100
AcDbVertex
100
AcDb2dVertex
 10
2.629999999999999
 20
1.429455610262337
 30
0.0
  0
VERTEX
  5
3C4
330
3BF
100
AcDbEntity
  8
Pel_CS-Weatherstrip
100
AcDbVertex
100
AcDb2dVertex
 10
2.775769530261636
 20
1.418897265753042
 30
0.0
  0
VERTEX
  5
3C5
330
3BF
100
AcDbEntity
  8
Pel_CS-Weatherstrip
100
AcDbVertex
100
AcDb2dVertex
 10
2.629999999999999
 20
1.408054524604224
 30
0.0
  0
VERTEX
  5
3C6
330
3BF
100
AcDbEntity
  8
Pel_CS-Weatherstrip
100
AcDbVertex
100
AcDb2dVertex
 10
2.629999999999999
 20
1.37766828350131
 30
0.0
  0
VERTEX
  5
3C7
330
3BF
100
AcDbEntity
  8
Pel_CS-Weatherstrip
100
AcDbVertex
100
AcDb2dVertex
 10
2.775769530261636
 20
1.418897265753042
 30
0.0
  0
VERTEX
  5
3C8
330
3BF
100
AcDbEntity
  8
Pel_CS-Weatherstrip
100
AcDbVertex
100
AcDb2dVertex
 10
2.775769530261636
 20
1.33643930124958
 30
0.0
  0
VERTEX
  5
3C9
330
3BF
100
AcDbEntity
  8
Pel_CS-Weatherstrip
100
AcDbVertex
100
AcDb2dVertex
 10
2.629999999999999
 20
1.37766828350131
 30
0.0
  0
VERTEX
  5
3CA
330
3BF
100
AcDbEntity
  8
Pel_CS-Weatherstrip
100
AcDbVertex
100
AcDb2dVertex
 10
2.629999999999999
 20
1.347282042398389
 30
0.0
  0
VERTEX
  5
3CB
330
3BF
100
AcDbEntity
  8
Pel_CS-Weatherstrip
100
AcDbVertex
100
AcDb2dVertex
 10
2.775769530261636
 20
1.33643930124958
 30
0.0
  0
VERTEX
  5
3CC
330
3BF
100
AcDbEntity
  8
Pel_CS-Weatherstrip
100
AcDbVertex
100
AcDb2dVertex
 10
2.629999999999999
 20
1.318301524948032
 30
0.0
  0
VERTEX
  5
3CD
330
3BF
100
AcDbEntity
  8
Pel_CS-Weatherstrip
100
AcDbVertex
100
AcDb2dVertex
 10
2.629999999999999
 20
1.276839754777397
 30
0.0
  0
VERTEX
  5
3CE
330
3BF
100
AcDbEntity
  8
Pel_CS-Weatherstrip
100
AcDbVertex
100
AcDb2dVertex
 10
2.775769530261636
 20
1.33643930124958
 30
0.0
  0
VERTEX
  5
3CF
330
3BF
100
AcDbEntity
  8
Pel_CS-Weatherstrip
100
AcDbVertex
100
AcDb2dVertex
 10
2.775769530261636
 20
1.278364131705248
 30
0.0
  0
VERTEX
  5
3D0
330
3BF
100
AcDbEntity
  8
Pel_CS-Weatherstrip
100
AcDbVertex
100
AcDb2dVertex
 10
2.810769516261633
 20
1.278364131705248
 30
0.0
  0
VERTEX
  5
3D1
330
3BF
100
AcDbEntity
  8
Pel_CS-Weatherstrip
100
AcDbVertex
100
AcDb2dVertex
 10
2.810769516261633
 20
1.465141855391418
 30
0.0
  0
VERTEX
  5
3D2
330
3BF
100
AcDbEntity
  8
0
100
AcDbVertex
100
AcDb2dVertex
 10
2.775769530261636
 20
1.465141855391418
 30
0.0
  0
SEQEND
  5
3D3
330
3BF
100
AcDbEntity
  8
Pel_CS-Weatherstrip
  0
LINE
  5
3D4
330
3B4
100
AcDbEntity
  8
0
100
AcDbLine
 10
2.637999441323476
 20
1.408054524604224
 30
0.0
 11
2.637999441323476
 21
1.408054524604224
 31
0.0
  0
LINE
  5
3D5
330
3B4
100
AcDbEntity
  8
0
100
AcDbLine
 10
2.637999441323476
 20
1.408054524604224
 30
0.0
 11
2.637999441323476
 21
1.408054524604224
 31
0.0
  0
HATCH
  5
3D6
330
3B4
100
AcDbEntity
  8
Pel_CS-Sealant
100
AcDbHatch
 10
0.0
 20
0.0
 30
0.0
210
0.0
220
0.0
230
1.0
  2
DASH
 70
     0
 71
     0
 91
        1
 92
        1
 93
        4
 72
     1
 10
3.310855922766061
 20
3.121191049788854
 11
3.747605922766066
 21
3.121191049788854
 72
     1
 10
3.747605922766066
 20
3.121191049788854
 11
3.747605922766066
 21
3.071500000000013
 72
     1
 10
3.747605922766066
 20
3.071500000000013
 11
3.310855922766061
 21
3.071500000000025
 72
     1
 10
3.310855922766061
 20
3.071500000000025
 11
3.310855922766061
 21
3.121191049788854
 97
        0
 75
     0
 76
     1
 52
30.0
 41
0.15
 77
     0
 78
     1
 53
330.0000000000001
 43
-8.0
 44
0.0
 45
0.0068629763209582
 46
-0.0256129763209582
 79
     2
 49
0.01875
 49
-0.01875
 98
        1
 10
-8.0
 20
0.0
1001
ACAD
1010
0.0
1020
0.0
1030
0.0
  0
LWPOLYLINE
  5
3D7
330
3B4
100
AcDbEntity
  8
Pel_CS-Sealant
100
AcDbPolyline
 90
        4
 70
     1
 43
0.0
 10
3.310855922766061
 20
3.121191049788854
 10
3.747605922766066
 20
3.121191049788854
 10
3.747605922766066
 20
3.071500000000013
 10
3.310855922766061
 20
3.071500000000025
  0
LWPOLYLINE
  5
3D8
330
3B4
100
AcDbEntity
  8
Pel_CS-IG
100
AcDbPolyline
 90
        4
 70
     0
 43
0.0
 10
3.15410592276606
 20
4.500000000000002
 10
3.15410592276606
 20
2.938000000000013
 10
3.283105922766071
 20
2.938000000000013
 10
3.283105922766069
 20
4.500000000000002
  0
LWPOLYLINE
  5
3D9
330
3B4
100
AcDbEntity
  8
Pel_CS-IG
100
AcDbPolyline
 90
        4
 70
     0
 43
0.0
 10
3.775355922766066
 20
4.500000000000002
 10
3.775355922766066
 20
2.938000000000009
 10
3.904355922766065
 20
2.938000000000009
 10
3.904355922766065
 20
4.5
  0
LWPOLYLINE
  5
3DA
330
3B4
100
AcDbEntity
  8
Pel_CS-IG
100
AcDbPolyline
 90
       16
 70
     1
 43
0.0
 10
3.754605922766063
 20
3.062500000000017
 10
3.303855922766063
 20
3.062500000000017
 42
-0.4142135623730951
 10
3.294855922766063
 20
3.071500000000017
 10
3.294855922766063
 20
3.353500000000017
 42
-0.4142135623730913
 10
3.303855922766063
 20
3.362500000000018
 10
3.372980922766063
 20
3.362500000000016
 10
3.372980922766066
 20
3.353500000000017
 10
3.303855922766063
 20
3.353500000000017
 10
3.303855922766063
 20
3.071500000000017
 10
3.754605922766063
 20
3.071500000000017
 10
3.754605922766063
 20
3.353500000000017
 10
3.685480922766073
 20
3.353500000000015
 10
3.685480922766061
 20
3.362500000000016
 10
3.754605922766063
 20
3.362500000000018
 42
-0.4142135623730919
 10
3.763605922766063
 20
3.353500000000017
 10
3.763605922766063
 20
3.071500000000017
 42
-0.4142135623730951
  0
LINE
  5
3DB
330
3B4
100
AcDbEntity
  8
Pel_CS-Weatherstrip
  6
Continuous
100
AcDbLine
 10
3.760643836999564
 20
3.064825901431003
 30
0.0
 11
3.775355922766066
 21
3.064825901431003
 31
0.0
  0
LINE
  5
3DC
330
3B4
100
AcDbEntity
  8
Pel_CS-Weatherstrip
  6
Continuous
100
AcDbLine
 10
3.760643836999564
 20
3.360174098569029
 30
0.0
 11
3.775355922766066
 21
3.360174098569029
 31
0.0
  0
LINE
  5
3DD
330
3B4
100
AcDbEntity
  8
Pel_CS-Weatherstrip
  6
Continuous
100
AcDbLine
 10
3.297818008532563
 20
3.064825901431003
 30
0.0
 11
3.28310592276606
 21
3.064825901431003
 31
0.0
  0
LINE
  5
3DE
330
3B4
100
AcDbEntity
  8
Pel_CS-Weatherstrip
  6
Continuous
100
AcDbLine
 10
3.297818008532563
 20
3.360174098569029
 30
0.0
 11
3.28310592276606
 21
3.360174098569029
 31
0.0
  0
ARC
  5
3DF
330
3B4
100
AcDbEntity
  8
Pel_CS-Sealant
100
AcDbCircle
 10
3.529230922766017
 20
1.241563280373432
 30
0.0
 40
1.774198080538651
100
AcDbArc
 50
82.02594628846751
 51
97.97405371153047
  0
ARC
  5
3E0
330
3B4
100
AcDbEntity
  8
Pel_CS-Sealant
100
AcDbCircle
 10
3.529230922766017
 20
1.241563280373432
 30
0.0
 40
1.714198080538651
100
AcDbArc
 50
81.74492637851065
 51
98.25507362148726
  0
ARC
  5
3E1
330
3B4
100
AcDbEntity
  8
Pel_CS-Sealant
100
AcDbCircle
 10
3.529230922766017
 20
1.241563280373432
 30
0.0
 40
1.734198080538651
100
AcDbArc
 50
81.84078242004565
 51
98.15921757995214
  0
ARC
  5
3E2
330
3B4
100
AcDbEntity
  8
Pel_CS-Sealant
100
AcDbCircle
 10
3.529230922766017
 20
1.241563280373432
 30
0.0
 40
1.754198080538651
100
AcDbArc
 50
81.93443050062034
 51
98.06556949937759
  0
LWPOLYLINE
  5
3E3
330
3B4
100
AcDbEntity
  8
Pel_CS-Weatherstrip
100
AcDbPolyline
 90
        4
 70
     1
 43
0.0
 10
3.904355922766065
 20
3.063000000000001
 10
3.966857076183615
 20
3.063000000000001
 10
3.966857076183615
 20
3.438000000000001
 10
3.904355922766065
 20
3.438000000000001
  0
LWPOLYLINE
  5
3E4
330
3B4
100
AcDbEntity
  8
Pel_CS-Weatherstrip
100
AcDbPolyline
 90
        8
 70
     1
 43
0.0
 10
3.377119290024834
 20
1.210556247844278
 42
-1.0
 10
3.589119290024836
 20
1.210556247844315
 10
3.568119290024835
 20
1.074556247844316
 10
3.585908465696665
 20
1.071809389836164
 10
3.607110982726171
 20
1.209120928693959
 42
1.011642928794339
 10
3.359127597323523
 20
1.20912092869381
 10
3.380330114353011
 20
1.071809389836164
 10
3.398119290024832
 20
1.074556247844316
  0
LWPOLYLINE
  5
3E6
330
3B4
100
AcDbEntity
  8
Pel_CS-Cross Section
 62
     4
100
AcDbPolyline
 90
       22
 70
     1
 43
0.0
 10
3.452119290024831
 20
1.121815051097821
 10
3.452119290024834
 20
0.9420617067050791
 10
2.725527450572624
 20
0.8891310290833017
 42
0.3930714131828159
 10
2.669886771830102
 20
0.8292896026449714
 10
2.6698867718301
 20
0.5713267838669918
 10
2.638450042615247
 20
0.57132678386699
 10
2.701958572226104
 20
0.4613267838669907
 10
2.7318867718301
 20
0.4613267838669907
 10
2.7318867718301
 20
0.82742999861966
 10
3.452119290024834
 20
0.879897413147777
 10
3.452119290024834
 20
0.4630000000000011
 10
3.514119290024834
 20
0.4630000000000011
 10
3.514119290024836
 20
0.8844139819204528
 10
4.171119290024831
 20
0.9322750413341154
 10
4.171119290024833
 20
0.4630000000000011
 10
4.201047489628829
 20
0.4630000000000011
 10
4.264556019239686
 20
0.5730000000000004
 10
4.233119290024831
 20
0.5730000000000022
 10
4.233119290024831
 20
0.9344260368931481
 42
0.4356765784393732
 10
4.168759968767353
 20
0.9942674633314787
 10
3.514119290024834
 20
0.9465782754777514
 10
3.514119290024818
 20
1.121815051097819
 42
5.894877314404303
  0
LWPOLYLINE
  5
3E7
330
3B4
100
AcDbEntity
  8
Pel_CS-Sealant
100
AcDbPolyline
 90
        5
 70
     1
 43
0.006
 10
3.958934942850485
 20
2.921547325802998
 10
2.896934942892968
 20
2.921547325802998
 10
2.896934942892964
 20
2.871547325804999
 10
2.951934942890768
 20
2.816547325807198
 10
3.958934942850485
 20
2.816547325807198
  0
LWPOLYLINE
  5
3E9
330
3B4
100
AcDbEntity
  8
Pel_CS-Cross Section
 62
     4
100
AcDbPolyline
 90
       16
 70
     1
 43
0.0
 10
0.8002349772858535
 20
0.7841958558996467
 42
0.4142135623730951
 10
0.7682349772858537
 20
0.8161958558996467
 10
0.5342349772858555
 20
0.8161958558996467
 10
0.5342349772858466
 20
0.898866575400989
 42
3.910976016622828
 10
0.4742349772858622
 20
0.8988665754009906
 10
0.4742349772858532
 20
0.8161958558996467
 10
0.240234977285855
 20
0.8161958558996467
 42
0.4142135623730951
 10
0.2082349772858549
 20
0.7841958558996467
 10
0.2082349772858549
 20
0.4411958558996468
 10
0.2682349772858554
 20
0.4411958558996468
 10
0.2682349772858554
 20
0.7561958558996463
 10
0.740234977285855
 20
0.7561958558996463
 10
0.7402349772858569
 20
0.4411958558996468
 10
0.8002349772858552
 20
0.4411958558996468
 10
0.8002349772858535
 20
0.5521958558996474
 42
1.0
 10
0.8002349772858535
 20
0.6161958558996547
  0
LWPOLYLINE
  5
3EA
330
3B4
100
AcDbEntity
  8
Pel_CS-Hardware
100
AcDbPolyline
 90
       17
 70
     0
 43
0.0
 10
3.616224409242621
 20
1.708405281507257
 10
3.616224409242621
 20
1.28091635464892
 10
3.585224409242547
 20
1.28091635464892
 10
3.585224409242547
 20
1.708405281507257
 10
3.616224409242621
 20
1.708405281507257
 10
3.350014170807073
 20
1.708405281507257
 10
3.381014170807148
 20
1.708405281507257
 10
3.381014170807148
 20
1.28091635464892
 10
3.350014170807073
 20
1.28091635464892
 10
3.350014170807073
 20
1.708405281507257
 10
3.106763073355366
 20
1.708405281507257
 10
3.10676307335537
 20
2.677405281507254
 42
-0.4142135623730951
 10
3.156763073355371
 20
2.727405281507254
 10
3.776763073355365
 20
2.727405281507254
 42
-0.4142135623730951
 10
3.826763073355365
 20
2.677405281507254
 10
3.826763073355365
 20
1.708405281507257
 10
3.616224409242621
 20
1.708405281507257
  0
LWPOLYLINE
  5
3EB
330
3B4
100
AcDbEntity
  8
Pel_CS-Hardware
100
AcDbPolyline
 90
        4
 70
     0
 43
0.0
 10
3.464448770306582
 20
2.608383855676583
 42
0.4088008425369511
 10
3.341763073355366
 20
2.483405281507255
 42
1.0
 10
3.591763073355366
 20
2.483405281507255
 42
0.4196466793747206
 10
3.464448939869404
 20
2.608383858816365
 42
0.4196466793747206
  0
LWPOLYLINE
  5
3EC
330
3B4
100
AcDbEntity
  8
Pel_CS-Hardware
100
AcDbPolyline
 90
        4
 70
     0
 43
0.0
 10
3.464448770306582
 20
2.108383855676585
 42
0.4088008425369511
 10
3.341763073355366
 20
1.983405281507255
 42
1.0
 10
3.591763073355366
 20
1.983405281507255
 42
0.4196466793747206
 10
3.464448939869404
 20
2.108383858816367
 42
0.4196466793747206
  0
LWPOLYLINE
  5
3ED
330
3B4
100
AcDbEntity
  8
Pel_CS-Hardware
100
AcDbPolyline
 90
       19
 70
     0
 43
0.0
 10
0.4102349772858549
 20
0.9744686354032159
 10
0.4102349772858549
 20
0.8494686354032161
 10
0.3602349772858542
 20
0.8494686354032161
 10
0.3602349772858542
 20
1.849468635403215
 10
0.4102349772858549
 20
1.849468635403215
 10
0.4102349772858549
 20
0.9744686354032159
 10
0.4102349772858549
 20
1.724468635403215
 10
0.5042349772858561
 20
1.674468635403214
 10
0.5042349772858561
 20
1.024468635403213
 10
0.5042349772858561
 20
1.674468635403214
 10
0.5982349772858539
 20
1.724468635403215
 10
0.5982349772858539
 20
0.9744686354032159
 10
0.5982349772858539
 20
1.849468635403215
 10
0.6482349772858546
 20
1.849468635403215
 10
0.6482349772858546
 20
0.8494686354032161
 10
0.5982349772858539
 20
0.8494686354032161
 10
0.5982349772858539
 20
0.9744686354032159
 10
0.5042349772858561
 20
1.024468635403213
 10
0.4102349772858549
 20
0.9744686354032159
  0
HATCH
  5
3EE
330
3B4
100
AcDbEntity
  8
Pel_CS-Fill
100
AcDbHatch
 10
0.0
 20
0.0
 30
0.0
210
0.0
220
0.0
230
1.0
  2
SOLID
 70
     1
 71
     0
 91
        2
 92
        1
 93
       25
 72
     1
 10
0.3602349772858542
 20
1.350656842032185
 11
0.3120618297906985
 21
1.350656842032185
 72
     2
 10
0.3120618297906983
 20
1.311656842032182
 40
0.0390000000000002
 50
89.99999999999969
 51
174.598999199809
 73
     1
 72
     1
 10
0.2732349772858562
 20
1.315327744450834
 11
0.2732349772858562
 21
1.044656842032186
 72
     1
 10
0.2732349772858562
 20
1.044656842032186
 11
0.2732349772858562
 21
1.315327744450832
 72
     1
 10
0.2732349772858562
 20
1.315327744450831
 11
0.2732349772858562
 21
2.365656842032187
 72
     2
 10
0.2932349772858567
 20
2.365656842032189
 40
0.02
 50
180.0000000000013
 51
269.9999999999988
 73
     0
 72
     1
 10
0.2932349772858558
 20
2.385656842032187
 11
0.6032349772858563
 21
2.385656842032187
 72
     2
 10
0.6032349772858572
 20
2.425656842032188
 40
0.04
 50
269.9999999999988
 51
359.9999999999988
 73
     1
 72
     1
 10
0.6432349772858573
 20
2.425656842032188
 11
0.6432349772858557
 21
2.54665684203219
 72
     2
 10
0.6032349772858563
 20
2.546656842032189
 40
0.0399999999999998
 50
0.0000000000019338
 51
90.0
 73
     1
 72
     1
 10
0.6032349772858563
 20
2.586656842032188
 11
0.3697349772858574
 21
2.586656842032188
 72
     1
 10
0.3697349772858569
 20
2.586656842032188
 11
0.3697349772858569
 21
2.567656842032191
 72
     1
 10
0.3697349772858569
 20
2.567656842032191
 11
0.6042349772858559
 21
2.56765684203219
 72
     2
 10
0.6042349772858559
 20
2.547656842032191
 40
0.02
 50
270.0000000000013
 51
359.9999999999988
 73
     0
 72
     1
 10
0.6242349772858553
 20
2.547656842032191
 11
0.6242349772858571
 21
2.424656842032189
 72
     2
 10
0.6042349772858575
 20
2.424656842032185
 40
0.02
 50
359.9999999999911
 51
450.0
 73
     0
 72
     1
 10
0.6042349772858575
 20
2.404656842032186
 11
0.2942349772858557
 21
2.404656842032186
 72
     2
 10
0.2942349772858561
 20
2.364656842032186
 40
0.04
 50
90.00000000000126
 51
180.0
 73
     1
 72
     1
 10
0.2542349772858561
 20
2.364656842032186
 11
0.2542349772858561
 21
1.04415684203219
 72
     2
 10
0.2727349772858565
 20
1.044156842032192
 40
0.0185
 50
180.0
 51
270.6393643443107
 73
     1
 72
     2
 10
0.2731506233779593
 20
1.044656842032186
 40
0.0189999999999999
 50
269.3691045163644
 51
360.0
 73
     1
 72
     1
 10
0.2921506233779585
 20
1.044656842032186
 11
0.2921506233779585
 21
1.309774327971344
 72
     2
 10
0.3120618297906983
 20
1.311656842032189
 40
0.0200000000000001
 50
174.5989991998133
 51
270.0000000000006
 73
     0
 72
     1
 10
0.3120618297906983
 20
1.331656842032189
 11
0.360234977285854
 21
1.331656842032188
 72
     1
 10
0.3602349772858542
 20
1.331656842032187
 11
0.3602349772858542
 21
1.350656842032184
 97
        0
 92
        1
 93
       29
 72
     1
 10
0.6482349772858546
 20
1.331656842032182
 11
0.6964081247810139
 21
1.331656842032182
 72
     2
 10
0.6964081247810139
 20
1.311656842032182
 40
0.0199999999999998
 50
270.0
 51
365.4010008001746
 73
     0
 72
     1
 10
0.7163193311937537
 20
1.30977432797134
 11
0.7163193311937537
 21
1.044656842032179
 72
     2
 10
0.7353193311937539
 20
1.04465684203218
 40
0.0190000000000001
 50
180.0
 51
270.6308954836383
 73
     1
 72
     2
 10
0.7357349772858566
 20
1.044156842032184
 40
0.0184999999999999
 50
269.3606356556919
 51
360.0
 73
     1
 72
     1
 10
0.7542349772858561
 20
1.044156842032184
 11
0.7542349772858561
 21
2.364656842032188
 72
     2
 10
0.7142349772858561
 20
2.364656842032186
 40
0.04
 50
0.0000000000012722
 51
90.0
 73
     1
 72
     1
 10
0.7142349772858561
 20
2.404656842032186
 11
0.682234977285857
 21
2.404656842032186
 72
     2
 10
0.6822349772858578
 20
2.424656842032185
 40
0.02
 50
90.00000000000126
 51
180.0000000000089
 73
     0
 72
     1
 10
0.6622349772858575
 20
2.424656842032189
 11
0.6622349772858575
 21
2.565656842032187
 72
     2
 10
0.6222349772858573
 20
2.565656842032187
 40
0.04
 50
0.0000000000012722
 51
90.0
 73
     1
 72
     1
 10
0.6222349772858573
 20
2.605656842032186
 11
0.3697349772858569
 21
2.605656842032186
 72
     2
 10
0.3697349772858569
 20
2.577156842032187
 40
0.0284999999999993
 50
90.0
 51
270.0
 73
     1
 72
     1
 10
0.3697349772858569
 20
2.548656842032189
 11
0.4992349772858571
 21
2.548656842032189
 72
     1
 10
0.4992349772858571
 20
2.548656842032189
 11
0.4992349772858569
 21
2.567656842032191
 72
     1
 10
0.4992349772858571
 20
2.567656842032191
 11
0.3697349772858571
 21
2.567656842032191
 72
     2
 10
0.3697349772858569
 20
2.577156842032189
 40
0.0094999999999992
 50
90.0
 51
270.0
 73
     0
 72
     1
 10
0.3697349772858569
 20
2.586656842032188
 11
0.6232349772858559
 21
2.586656842032188
 72
     2
 10
0.6232349772858559
 20
2.566656842032188
 40
0.0199999999999996
 50
270.0000000000006
 51
360.0
 73
     0
 72
     1
 10
0.6432349772858556
 20
2.566656842032188
 11
0.6432349772858573
 21
2.425656842032188
 72
     2
 10
0.6832349772858573
 20
2.425656842032188
 40
0.04
 50
180.0000000000013
 51
269.9999999999988
 73
     1
 72
     1
 10
0.6832349772858564
 20
2.385656842032187
 11
0.7152349772858564
 21
2.385656842032187
 72
     2
 10
0.7152349772858564
 20
2.365656842032189
 40
0.02
 50
270.0000000000013
 51
359.9999999999988
 73
     0
 72
     1
 10
0.735234977285856
 20
2.365656842032189
 11
0.735234977285856
 21
1.315327744450831
 72
     1
 10
0.735234977285856
 20
1.315327744450831
 11
0.735234977285856
 21
1.044656842032182
 72
     1
 10
0.735234977285856
 20
1.044656842032184
 11
0.735234977285856
 21
1.315327744450832
 72
     2
 10
0.6964081247810148
 20
1.311656842032185
 40
0.0389999999999997
 50
5.401000800185121
 51
90.0000000000003
 73
     1
 72
     1
 10
0.6964081247810139
 20
1.350656842032185
 11
0.6482349772858546
 21
1.350656842032185
 72
     1
 10
0.6482349772858546
 20
1.350656842032185
 11
0.6482349772858546
 21
1.331656842032184
 97
        0
 75
     0
 76
     1
 98
        1
 10
1.762907695552681
 20
-0.0036599534218986
1001
ACAD
1010
0.0
1020
0.0
1030
0.0
  0
LWPOLYLINE
  5
3EF
330
3B4
100
AcDbEntity
  8
Pel_CS-Clad
100
AcDbPolyline
 90
       25
 70
     1
 43
0.0
 10
0.3602349772858542
 20
1.350656842032185
 10
0.3120618297906983
 20
1.350656842032185
 42
0.3868658026623525
 10
0.2732349772858562
 20
1.315327744450834
 10
0.2732349772858562
 20
1.044656842032186
 10
0.2732349772858562
 20
1.315327744450831
 10
0.2732349772858562
 20
2.365656842032189
 42
-0.4142135623730823
 10
0.2932349772858558
 20
2.385656842032187
 10
0.6032349772858563
 20
2.385656842032187
 42
0.4142135623730949
 10
0.6432349772858573
 20
2.425656842032188
 10
0.6432349772858565
 20
2.546656842032189
 42
0.4142135623730854
 10
0.6032349772858563
 20
2.586656842032188
 10
0.3697349772858569
 20
2.586656842032188
 10
0.3697349772858569
 20
2.567656842032191
 10
0.6042349772858559
 20
2.567656842032191
 42
-0.4142135623730847
 10
0.6242349772858553
 20
2.547656842032191
 10
0.6242349772858571
 20
2.424656842032189
 42
-0.4142135623731412
 10
0.6042349772858575
 20
2.404656842032186
 10
0.2942349772858552
 20
2.404656842032186
 42
0.4142135623730891
 10
0.2542349772858561
 20
2.364656842032186
 10
0.2542349772858561
 20
1.044156842032192
 42
0.417485751266966
 10
0.2729414147405755
 20
1.025657993863257
 42
0.4174423589703049
 10
0.2921506233779585
 20
1.044656842032186
 10
0.2921506233779585
 20
1.309774327971344
 42
-0.4421005955735554
 10
0.3120618297906983
 20
1.331656842032189
 10
0.3602349772858542
 20
1.331656842032187
  0
CIRCLE
  5
3F0
330
3B4
100
AcDbEntity
  8
Pel_CS-Sealant
100
AcDbCircle
 10
0.499234977285858
 20
2.476656842032187
 30
0.0
 40
0.0575
  0
CIRCLE
  5
3F1
330
3B4
100
AcDbEntity
  8
Pel_CS-Weatherstrip
100
AcDbCircle
 10
0.3232349772858578
 20
2.702156842032187
 30
0.0
 40
0.018
  0
CIRCLE
  5
3F2
102
{ACAD_REACTORS
330
3F5
102
}
330
3B4
100
AcDbEntity
  8
Pel_CS-Weatherstrip
100
AcDbCircle
 10
0.3232349772858578
 20
2.577156842032187
 30
0.0
 40
0.018
  0
CIRCLE
  5
3F3
330
3B4
100
AcDbEntity
  8
Pel_CS-Weatherstrip
100
AcDbCircle
 10
0.3232349772858578
 20
2.952156842032187
 30
0.0
 40
0.018
  0
CIRCLE
  5
3F4
330
3B4
100
AcDbEntity
  8
Pel_CS-Weatherstrip
100
AcDbCircle
 10
0.3232349772858578
 20
2.827156842032187
 30
0.0
 40
0.018
  0
HATCH
  5
3F5
330
3B4
100
AcDbEntity
  8
Pel_CS-Weatherstrip
100
AcDbHatch
 10
0.0
 20
0.0
 30
0.0
210
0.0
220
0.0
230
1.0
  2
SOLID
 70
     1
 71
     1
 91
        1
 92
        1
 93
        1
 72
     2
 10
0.3232349772858578
 20
2.577156842032187
 40
0.018
 50
0.0
 51
360.0
 73
     1
 97
        1
330
3F2
 75
     0
 76
     1
 98
        1
 10
-0.3587650227141408
 20
1.09215684203217
  0
HATCH
  5
3F6
330
3B4
100
AcDbEntity
  8
Pel_CS-Weatherstrip
100
AcDbHatch
 10
0.0
 20
0.0
 30
0.0
210
0.0
220
0.0
230
1.0
  2
SOLID
 70
     1
 71
     0
 91
        1
 92
        1
 93
        1
 72
     2
 10
0.3232349772858578
 20
2.702156842032187
 40
0.018
 50
0.0
 51
360.0
 73
     0
 97
        0
 75
     0
 76
     1
 98
        1
 10
-0.3587650227141408
 20
1.21715684203217
  0
HATCH
  5
3F7
330
3B4
100
AcDbEntity
  8
Pel_CS-Weatherstrip
100
AcDbHatch
 10
0.0
 20
0.0
 30
0.0
210
0.0
220
0.0
230
1.0
  2
SOLID
 70
     1
 71
     0
 91
        1
 92
        1
 93
        1
 72
     2
 10
0.3232349772858578
 20
2.827156842032187
 40
0.018
 50
0.0
 51
360.0
 73
     0
 97
        0
 75
     0
 76
     1
 98
        1
 10
-0.3587650227141408
 20
1.34215684203217
  0
HATCH
  5
3F8
330
3B4
100
AcDbEntity
  8
Pel_CS-Weatherstrip
100
AcDbHatch
 10
0.0
 20
0.0
 30
0.0
210
0.0
220
0.0
230
1.0
  2
SOLID
 70
     1
 71
     0
 91
        1
 92
        1
 93
        1
 72
     2
 10
0.3232349772858578
 20
2.952156842032187
 40
0.018
 50
0.0
 51
360.0
 73
     0
 97
        0
 75
     0
 76
     1
 98
        1
 10
-0.3587650227141408
 20
1.46715684203217
  0
CIRCLE
  5
3F9
330
3B4
100
AcDbEntity
  8
Pel_CS-Weatherstrip
100
AcDbCircle
 10
0.3232349772858578
 20
3.202156842032187
 30
0.0
 40
0.018
  0
CIRCLE
  5
3FA
330
3B4
100
AcDbEntity
  8
Pel_CS-Weatherstrip
100
AcDbCircle
 10
0.3232349772858578
 20
3.077156842032187
 30
0.0
 40
0.018
  0
HATCH
  5
3FB
330
3B4
100
AcDbEntity
  8
Pel_CS-Weatherstrip
100
AcDbHatch
 10
0.0
 20
0.0
 30
0.0
210
0.0
220
0.0
230
1.0
  2
SOLID
 70
     1
 71
     0
 91
        1
 92
        1
 93
        1
 72
     2
 10
0.3232349772858578
 20
3.077156842032187
 40
0.018
 50
0.0
 51
360.0
 73
     0
 97
        0
 75
     0
 76
     1
 98
        1
 10
-0.3587650227141408
 20
1.59215684203217
  0
HATCH
  5
3FC
330
3B4
100
AcDbEntity
  8
Pel_CS-Weatherstrip
100
AcDbHatch
 10
0.0
 20
0.0
 30
0.0
210
0.0
220
0.0
230
1.0
  2
SOLID
 70
     1
 71
     0
 91
        1
 92
        1
 93
        1
 72
     2
 10
0.3232349772858578
 20
3.202156842032187
 40
0.018
 50
0.0
 51
360.0
 73
     0
 97
        0
 75
     0
 76
     1
 98
        1
 10
-0.3587650227141408
 20
1.71715684203217
  0
CIRCLE
  5
3FD
330
3B4
100
AcDbEntity
  8
Pel_CS-Weatherstrip
100
AcDbCircle
 10
0.3232349772858578
 20
3.452156842032187
 30
0.0
 40
0.018
  0
CIRCLE
  5
3FE
330
3B4
100
AcDbEntity
  8
Pel_CS-Weatherstrip
100
AcDbCircle
 10
0.3232349772858578
 20
3.327156842032187
 30
0.0
 40
0.018
  0
HATCH
  5
3FF
330
3B4
100
AcDbEntity
  8
Pel_CS-Weatherstrip
100
AcDbHatch
 10
0.0
 20
0.0
 30
0.0
210
0.0
220
0.0
230
1.0
  2
SOLID
 70
     1
 71
     0
 91
        1
 92
        1
 93
        1
 72
     2
 10
0.3232349772858578
 20
3.327156842032187
 40
0.018
 50
0.0
 51
360.0
 73
     0
 97
        0
 75
     0
 76
     1
 98
        1
 10
-0.3587650227141408
 20
1.84215684203217
  0
HATCH
  5
400
330
3B4
100
AcDbEntity
  8
Pel_CS-Weatherstrip
100
AcDbHatch
 10
0.0
 20
0.0
 30
0.0
210
0.0
220
0.0
230
1.0
  2
SOLID
 70
     1
 71
     0
 91
        1
 92
        1
 93
        1
 72
     2
 10
0.3232349772858578
 20
3.452156842032187
 40
0.018
 50
0.0
 51
360.0
 73
     0
 97
        0
 75
     0
 76
     1
 98
        1
 10
-0.3587650227141408
 20
1.96715684203217
  0
CIRCLE
  5
401
330
3B4
100
AcDbEntity
  8
Pel_CS-Weatherstrip
100
AcDbCircle
 10
0.3232349772858578
 20
3.702156842032187
 30
0.0
 40
0.018
  0
CIRCLE
  5
402
330
3B4
100
AcDbEntity
  8
Pel_CS-Weatherstrip
100
AcDbCircle
 10
0.3232349772858578
 20
3.577156842032187
 30
0.0
 40
0.018
  0
HATCH
  5
403
330
3B4
100
AcDbEntity
  8
Pel_CS-Weatherstrip
100
AcDbHatch
 10
0.0
 20
0.0
 30
0.0
210
0.0
220
0.0
230
1.0
  2
SOLID
 70
     1
 71
     0
 91
        1
 92
        1
 93
        1
 72
     2
 10
0.3232349772858578
 20
3.577156842032187
 40
0.018
 50
0.0
 51
360.0
 73
     0
 97
        0
 75
     0
 76
     1
 98
        1
 10
-0.3587650227141408
 20
2.09215684203217
  0
HATCH
  5
404
330
3B4
100
AcDbEntity
  8
Pel_CS-Weatherstrip
100
AcDbHatch
 10
0.0
 20
0.0
 30
0.0
210
0.0
220
0.0
230
1.0
  2
SOLID
 70
     1
 71
     0
 91
        1
 92
        1
 93
        1
 72
     2
 10
0.3232349772858578
 20
3.702156842032187
 40
0.018
 50
0.0
 51
360.0
 73
     0
 97
        0
 75
     0
 76
     1
 98
        1
 10
-0.3587650227141408
 20
2.21715684203217
  0
CIRCLE
  5
405
330
3B4
100
AcDbEntity
  8
Pel_CS-Weatherstrip
100
AcDbCircle
 10
0.3232349772858578
 20
3.952156842032187
 30
0.0
 40
0.018
  0
CIRCLE
  5
406
330
3B4
100
AcDbEntity
  8
Pel_CS-Weatherstrip
100
AcDbCircle
 10
0.3232349772858578
 20
3.827156842032187
 30
0.0
 40
0.018
  0
HATCH
  5
407
330
3B4
100
AcDbEntity
  8
Pel_CS-Weatherstrip
100
AcDbHatch
 10
0.0
 20
0.0
 30
0.0
210
0.0
220
0.0
230
1.0
  2
SOLID
 70
     1
 71
     0
 91
        1
 92
        1
 93
        1
 72
     2
 10
0.3232349772858578
 20
3.827156842032187
 40
0.018
 50
0.0
 51
360.0
 73
     0
 97
        0
 75
     0
 76
     1
 98
        1
 10
-0.3587650227141408
 20
2.34215684203217
  0
HATCH
  5
408
330
3B4
100
AcDbEntity
  8
Pel_CS-Weatherstrip
100
AcDbHatch
 10
0.0
 20
0.0
 30
0.0
210
0.0
220
0.0
230
1.0
  2
SOLID
 70
     1
 71
     0
 91
        1
 92
        1
 93
        1
 72
     2
 10
0.3232349772858578
 20
3.952156842032187
 40
0.018
 50
0.0
 51
360.0
 73
     0
 97
        0
 75
     0
 76
     1
 98
        1
 10
-0.3587650227141408
 20
2.46715684203217
  0
LWPOLYLINE
  5
409
330
3B4
100
AcDbEntity
  8
Pel_CS-Clad
100
AcDbPolyline
 90
       29
 70
     1
 43
0.0
 10
0.6482349772858546
 20
1.331656842032182
 10
0.6964081247810139
 20
1.331656842032182
 42
-0.4421005955734904
 10
0.7163193311937537
 20
1.30977432797134
 10
0.7163193311937537
 20
1.04465684203218
 42
0.4174423589703208
 10
0.7355285398311385
 20
1.025657993863249
 42
0.4174857512669492
 10
0.7542349772858561
 20
1.044156842032184
 10
0.7542349772858561
 20
2.364656842032188
 42
0.4142135623730886
 10
0.7142349772858561
 20
2.404656842032186
 10
0.682234977285857
 20
2.404656842032186
 42
-0.4142135623731344
 10
0.6622349772858575
 20
2.424656842032189
 10
0.6622349772858575
 20
2.565656842032187
 42
0.4142135623730889
 10
0.6222349772858573
 20
2.605656842032186
 10
0.3697349772858569
 20
2.605656842032186
 42
1.0
 10
0.3697349772858569
 20
2.548656842032189
 10
0.4992349772858571
 20
2.548656842032189
 10
0.4992349772858571
 20
2.567656842032191
 10
0.3697349772858569
 20
2.567656842032191
 42
-1.0
 10
0.3697349772858569
 20
2.586656842032188
 10
0.6232349772858559
 20
2.586656842032188
 42
-0.4142135623730864
 10
0.6432349772858556
 20
2.566656842032188
 10
0.6432349772858573
 20
2.425656842032188
 42
0.4142135623730826
 10
0.6832349772858564
 20
2.385656842032187
 10
0.7152349772858564
 20
2.385656842032187
 42
-0.4142135623730823
 10
0.735234977285856
 20
2.365656842032189
 10
0.735234977285856
 20
1.315327744450831
 10
0.735234977285856
 20
1.044656842032184
 10
0.735234977285856
 20
1.315327744450831
 42
0.3868658026623807
 10
0.6964081247810139
 20
1.350656842032185
 10
0.6482349772858546
 20
1.350656842032185
  0
CIRCLE
  5
40A
330
3B4
100
AcDbEntity
  8
Pel_CS-Weatherstrip
100
AcDbCircle
 10
0.3200498369514468
 20
4.087380341095077
 30
0.0
 40
0.018
  0
HATCH
  5
40B
330
3B4
100
AcDbEntity
  8
Pel_CS-Weatherstrip
100
AcDbHatch
 10
0.0
 20
0.0
 30
0.0
210
0.0
220
0.0
230
1.0
  2
SOLID
 70
     1
 71
     0
 91
        1
 92
        1
 93
        1
 72
     2
 10
0.3200498369514468
 20
4.087380341095077
 40
0.018
 50
0.0
 51
360.0
 73
     0
 97
        0
 75
     0
 76
     1
 98
        1
 10
-0.3619501630485518
 20
2.602380341095059
  0
CIRCLE
  5
40C
330
3B4
100
AcDbEntity
  8
Pel_CS-Weatherstrip
100
AcDbCircle
 10
0.3200498369514468
 20
4.337380341095077
 30
0.0
 40
0.018
  0
CIRCLE
  5
40D
330
3B4
100
AcDbEntity
  8
Pel_CS-Weatherstrip
100
AcDbCircle
 10
0.3200498369514468
 20
4.212380341095077
 30
0.0
 40
0.018
  0
HATCH
  5
40E
330
3B4
100
AcDbEntity
  8
Pel_CS-Weatherstrip
100
AcDbHatch
 10
0.0
 20
0.0
 30
0.0
210
0.0
220
0.0
230
1.0
  2
SOLID
 70
     1
 71
     0
 91
        1
 92
        1
 93
        1
 72
     2
 10
0.3200498369514468
 20
4.212380341095077
 40
0.018
 50
0.0
 51
360.0
 73
     0
 97
        0
 75
     0
 76
     1
 98
        1
 10
-0.3619501630485518
 20
2.727380341095059
  0
HATCH
  5
40F
330
3B4
100
AcDbEntity
  8
Pel_CS-Weatherstrip
100
AcDbHatch
 10
0.0
 20
0.0
 30
0.0
210
0.0
220
0.0
230
1.0
  2
SOLID
 70
     1
 71
     0
 91
        1
 92
        1
 93
        1
 72
     2
 10
0.3200498369514468
 20
4.337380341095077
 40
0.018
 50
0.0
 51
360.0
 73
     0
 97
        0
 75
     0
 76
     1
 98
        1
 10
-0.3619501630485518
 20
2.852380341095058
  0
CIRCLE
  5
410
330
3B4
100
AcDbEntity
  8
Pel_CS-Weatherstrip
100
AcDbCircle
 10
0.3200498369514468
 20
4.462380341095077
 30
0.0
 40
0.018
  0
HATCH
  5
411
330
3B4
100
AcDbEntity
  8
Pel_CS-Weatherstrip
100
AcDbHatch
 10
0.0
 20
0.0
 30
0.0
210
0.0
220
0.0
230
1.0
  2
SOLID
 70
     1
 71
     0
 91
        1
 92
        1
 93
        1
 72
     2
 10
0.3200498369514468
 20
4.462380341095077
 40
0.018
 50
0.0
 51
360.0
 73
     0
 97
        0
 75
     0
 76
     1
 98
        1
 10
-0.3619501630485518
 20
2.977380341095058
  0
ENDBLK
  5
412
330
3B4
100
AcDbEntity
  8
0
100
AcDbBlockEnd
  0
BLOCK
  5
417
330
414
100
AcDbEntity
  8
0
100
AcDbBlockBegin
  2
A$C5EDA733A
 70
     0
 10
0.0
 20
0.0
 30
0.0
  3
A$C5EDA733A
  1

  0
LINE
  5
418
330
414
100
AcDbEntity
  8
Pel_Wall
  6
Continuous
100
AcDbLine
 10
6.895754785170018
 20
0.0625
 30
0.0
 11
6.895754785170018
 21
0.375
 31
0.0
  0
LINE
  5
419
330
414
100
AcDbEntity
  8
Pel_Wall
  6
Continuous
100
AcDbLine
 10
6.895754785170018
 20
0.0625
 30
0.0
 11
6.895754785170018
 21
0.375
 31
0.0
  0
LINE
  5
41A
330
414
100
AcDbEntity
  8
Pel_Wall
  6
Continuous
100
AcDbLine
 10
7.145754785170018
 20
0.0625
 30
0.0
 11
7.145754785170018
 21
0.375
 31
0.0
  0
LINE
  5
41B
330
414
100
AcDbEntity
  8
Pel_Wall
  6
Continuous
100
AcDbLine
 10
7.145754785170018
 20
0.0625
 30
0.0
 11
7.145754785170018
 21
0.375
 31
0.0
  0
LINE
  5
41C
330
414
100
AcDbEntity
  8
Pel_Wall
  6
Continuous
100
AcDbLine
 10
7.083254785170018
 20
0.0625
 30
0.0
 11
7.083254785170018
 21
0.375
 31
0.0
  0
LINE
  5
41D
330
414
100
AcDbEntity
  8
Pel_Wall
  6
Continuous
100
AcDbLine
 10
7.083254785170018
 20
0.0625
 30
0.0
 11
7.083254785170018
 21
0.375
 31
0.0
  0
LINE
  5
41E
330
414
100
AcDbEntity
  8
Pel_Wall
  6
Continuous
100
AcDbLine
 10
7.020754785170018
 20
0.0625
 30
0.0
 11
7.020754785170018
 21
0.375
 31
0.0
  0
LINE
  5
41F
330
414
100
AcDbEntity
  8
Pel_Wall
  6
Continuous
100
AcDbLine
 10
7.020754785170018
 20
0.0625
 30
0.0
 11
7.020754785170018
 21
0.375
 31
0.0
  0
LINE
  5
420
330
414
100
AcDbEntity
  8
Pel_Wall
  6
Continuous
100
AcDbLine
 10
6.958254785170018
 20
0.0625
 30
0.0
 11
6.958254785170018
 21
0.375
 31
0.0
  0
LINE
  5
421
330
414
100
AcDbEntity
  8
Pel_Wall
  6
Continuous
100
AcDbLine
 10
6.958254785170018
 20
0.0625
 30
0.0
 11
6.958254785170018
 21
0.375
 31
0.0
  0
LINE
  5
422
330
414
100
AcDbEntity
  8
Pel_Wall
  6
Continuous
100
AcDbLine
 10
7.333254785170018
 20
0.0625
 30
0.0
 11
7.333254785170018
 21
0.375
 31
0.0
  0
LINE
  5
423
330
414
100
AcDbEntity
  8
Pel_Wall
  6
Continuous
100
AcDbLine
 10
7.333254785170018
 20
0.0625
 30
0.0
 11
7.333254785170018
 21
0.375
 31
0.0
  0
LINE
  5
424
330
414
100
AcDbEntity
  8
Pel_Wall
  6
Continuous
100
AcDbLine
 10
7.270754785170018
 20
0.0625
 30
0.0
 11
7.270754785170018
 21
0.375
 31
0.0
  0
LINE
  5
425
330
414
100
AcDbEntity
  8
Pel_Wall
  6
Continuous
100
AcDbLine
 10
7.270754785170018
 20
0.0625
 30
0.0
 11
7.270754785170018
 21
0.375
 31
0.0
  0
LINE
  5
426
330
414
100
AcDbEntity
  8
Pel_Wall
  6
Continuous
100
AcDbLine
 10
7.208254785170018
 20
0.0625
 30
0.0
 11
7.208254785170018
 21
0.375
 31
0.0
  0
LINE
  5
427
330
414
100
AcDbEntity
  8
Pel_Wall
  6
Continuous
100
AcDbLine
 10
7.208254785170018
 20
0.0625
 30
0.0
 11
7.208254785170018
 21
0.375
 31
0.0
  0
LINE
  5
428
330
414
100
AcDbEntity
  8
Pel_Wall
  6
Continuous
100
AcDbLine
 10
4.5
 20
0.0
 30
0.0
 11
7.394818566723891
 21
0.0
 31
0.0
  0
LINE
  5
429
330
414
100
AcDbEntity
  8
Pel_Wall
  6
Continuous
100
AcDbLine
 10
7.394818566723891
 20
0.0625
 30
0.0
 11
4.5
 21
0.0625
 31
0.0
  0
LINE
  5
42A
330
414
100
AcDbEntity
  8
Pel_Wall
  6
Continuous
100
AcDbLine
 10
6.395754785170018
 20
0.0625
 30
0.0
 11
6.395754785170018
 21
0.375
 31
0.0
  0
LINE
  5
42B
330
414
100
AcDbEntity
  8
Pel_Wall
  6
Continuous
100
AcDbLine
 10
6.395754785170018
 20
0.0625
 30
0.0
 11
6.395754785170018
 21
0.375
 31
0.0
  0
LINE
  5
42C
330
414
100
AcDbEntity
  8
Pel_Wall
  6
Continuous
100
AcDbLine
 10
6.208254785170018
 20
0.0625
 30
0.0
 11
6.208254785170018
 21
0.375
 31
0.0
  0
LINE
  5
42D
330
414
100
AcDbEntity
  8
Pel_Wall
  6
Continuous
100
AcDbLine
 10
6.208254785170018
 20
0.0625
 30
0.0
 11
6.208254785170018
 21
0.375
 31
0.0
  0
LINE
  5
42E
330
414
100
AcDbEntity
  8
Pel_Wall
  6
Continuous
100
AcDbLine
 10
6.333254785170018
 20
0.0625
 30
0.0
 11
6.333254785170018
 21
0.375
 31
0.0
  0
LINE
  5
42F
330
414
100
AcDbEntity
  8
Pel_Wall
  6
Continuous
100
AcDbLine
 10
6.333254785170018
 20
0.0625
 30
0.0
 11
6.333254785170018
 21
0.375
 31
0.0
  0
LINE
  5
430
330
414
100
AcDbEntity
  8
Pel_Wall
  6
Continuous
100
AcDbLine
 10
6.270754785170018
 20
0.0625
 30
0.0
 11
6.270754785170018
 21
0.375
 31
0.0
  0
LINE
  5
431
330
414
100
AcDbEntity
  8
Pel_Wall
  6
Continuous
100
AcDbLine
 10
6.270754785170018
 20
0.0625
 30
0.0
 11
6.270754785170018
 21
0.375
 31
0.0
  0
LINE
  5
432
330
414
100
AcDbEntity
  8
Pel_Wall
  6
Continuous
100
AcDbLine
 10
6.645754785170018
 20
0.0625
 30
0.0
 11
6.645754785170018
 21
0.375
 31
0.0
  0
LINE
  5
433
330
414
100
AcDbEntity
  8
Pel_Wall
  6
Continuous
100
AcDbLine
 10
6.645754785170018
 20
0.0625
 30
0.0
 11
6.645754785170018
 21
0.375
 31
0.0
  0
LINE
  5
434
330
414
100
AcDbEntity
  8
Pel_Wall
  6
Continuous
100
AcDbLine
 10
6.583254785170018
 20
0.0625
 30
0.0
 11
6.583254785170018
 21
0.375
 31
0.0
  0
LINE
  5
435
330
414
100
AcDbEntity
  8
Pel_Wall
  6
Continuous
100
AcDbLine
 10
6.583254785170018
 20
0.0625
 30
0.0
 11
6.583254785170018
 21
0.375
 31
0.0
  0
LINE
  5
436
330
414
100
AcDbEntity
  8
Pel_Wall
  6
Continuous
100
AcDbLine
 10
6.520754785170018
 20
0.0625
 30
0.0
 11
6.520754785170018
 21
0.375
 31
0.0
  0
LINE
  5
437
330
414
100
AcDbEntity
  8
Pel_Wall
  6
Continuous
100
AcDbLine
 10
6.520754785170018
 20
0.0625
 30
0.0
 11
6.520754785170018
 21
0.375
 31
0.0
  0
LINE
  5
438
330
414
100
AcDbEntity
  8
Pel_Wall
  6
Continuous
100
AcDbLine
 10
6.458254785170018
 20
0.0625
 30
0.0
 11
6.458254785170018
 21
0.375
 31
0.0
  0
LINE
  5
439
330
414
100
AcDbEntity
  8
Pel_Wall
  6
Continuous
100
AcDbLine
 10
6.458254785170018
 20
0.0625
 30
0.0
 11
6.458254785170018
 21
0.375
 31
0.0
  0
LINE
  5
43A
330
414
100
AcDbEntity
  8
Pel_Wall
  6
Continuous
100
AcDbLine
 10
6.770754785170018
 20
0.0625
 30
0.0
 11
6.770754785170018
 21
0.375
 31
0.0
  0
LINE
  5
43B
330
414
100
AcDbEntity
  8
Pel_Wall
  6
Continuous
100
AcDbLine
 10
6.770754785170018
 20
0.0625
 30
0.0
 11
6.770754785170018
 21
0.375
 31
0.0
  0
LINE
  5
43C
330
414
100
AcDbEntity
  8
Pel_Wall
  6
Continuous
100
AcDbLine
 10
6.708254785170018
 20
0.0625
 30
0.0
 11
6.708254785170018
 21
0.375
 31
0.0
  0
LINE
  5
43D
330
414
100
AcDbEntity
  8
Pel_Wall
  6
Continuous
100
AcDbLine
 10
6.708254785170018
 20
0.0625
 30
0.0
 11
6.708254785170018
 21
0.375
 31
0.0
  0
LINE
  5
43E
330
414
100
AcDbEntity
  8
Pel_Wall
  6
Continuous
100
AcDbLine
 10
6.833254785170018
 20
0.0625
 30
0.0
 11
6.833254785170018
 21
0.375
 31
0.0
  0
LINE
  5
43F
330
414
100
AcDbEntity
  8
Pel_Wall
  6
Continuous
100
AcDbLine
 10
6.833254785170018
 20
0.0625
 30
0.0
 11
6.833254785170018
 21
0.375
 31
0.0
  0
LINE
  5
440
330
414
100
AcDbEntity
  8
Pel_Wall
  6
Continuous
100
AcDbLine
 10
6.145754785170018
 20
0.0625
 30
0.0
 11
6.145754785170018
 21
0.375
 31
0.0
  0
LINE
  5
441
330
414
100
AcDbEntity
  8
Pel_Wall
  6
Continuous
100
AcDbLine
 10
6.145754785170018
 20
0.0625
 30
0.0
 11
6.145754785170018
 21
0.375
 31
0.0
  0
LINE
  5
442
330
414
100
AcDbEntity
  8
Pel_Wall
  6
Continuous
100
AcDbLine
 10
5.146691003616146
 20
0.0625
 30
0.0
 11
5.146691003616146
 21
0.375
 31
0.0
  0
LINE
  5
443
330
414
100
AcDbEntity
  8
Pel_Wall
  6
Continuous
100
AcDbLine
 10
5.146691003616146
 20
0.0625
 30
0.0
 11
5.146691003616146
 21
0.375
 31
0.0
  0
LINE
  5
444
330
414
100
AcDbEntity
  8
Pel_Wall
  6
Continuous
100
AcDbLine
 10
4.959191003616146
 20
0.0625
 30
0.0
 11
4.959191003616146
 21
0.375
 31
0.0
  0
LINE
  5
445
330
414
100
AcDbEntity
  8
Pel_Wall
  6
Continuous
100
AcDbLine
 10
4.959191003616146
 20
0.0625
 30
0.0
 11
4.959191003616146
 21
0.375
 31
0.0
  0
LINE
  5
446
330
414
100
AcDbEntity
  8
Pel_Wall
  6
Continuous
100
AcDbLine
 10
5.084191003616146
 20
0.0625
 30
0.0
 11
5.084191003616146
 21
0.375
 31
0.0
  0
LINE
  5
447
330
414
100
AcDbEntity
  8
Pel_Wall
  6
Continuous
100
AcDbLine
 10
5.084191003616146
 20
0.0625
 30
0.0
 11
5.084191003616146
 21
0.375
 31
0.0
  0
LINE
  5
448
330
414
100
AcDbEntity
  8
Pel_Wall
  6
Continuous
100
AcDbLine
 10
5.021691003616146
 20
0.0625
 30
0.0
 11
5.021691003616146
 21
0.375
 31
0.0
  0
LINE
  5
449
330
414
100
AcDbEntity
  8
Pel_Wall
  6
Continuous
100
AcDbLine
 10
5.021691003616146
 20
0.0625
 30
0.0
 11
5.021691003616146
 21
0.375
 31
0.0
  0
LINE
  5
44A
330
414
100
AcDbEntity
  8
Pel_Wall
  6
Continuous
100
AcDbLine
 10
5.396691003616147
 20
0.0625
 30
0.0
 11
5.396691003616147
 21
0.375
 31
0.0
  0
LINE
  5
44B
330
414
100
AcDbEntity
  8
Pel_Wall
  6
Continuous
100
AcDbLine
 10
5.396691003616147
 20
0.0625
 30
0.0
 11
5.396691003616147
 21
0.375
 31
0.0
  0
LINE
  5
44C
330
414
100
AcDbEntity
  8
Pel_Wall
  6
Continuous
100
AcDbLine
 10
5.334191003616146
 20
0.0625
 30
0.0
 11
5.334191003616146
 21
0.375
 31
0.0
  0
LINE
  5
44D
330
414
100
AcDbEntity
  8
Pel_Wall
  6
Continuous
100
AcDbLine
 10
5.334191003616146
 20
0.0625
 30
0.0
 11
5.334191003616146
 21
0.375
 31
0.0
  0
LINE
  5
44E
330
414
100
AcDbEntity
  8
Pel_Wall
  6
Continuous
100
AcDbLine
 10
5.271691003616146
 20
0.0625
 30
0.0
 11
5.271691003616146
 21
0.375
 31
0.0
  0
LINE
  5
44F
330
414
100
AcDbEntity
  8
Pel_Wall
  6
Continuous
100
AcDbLine
 10
5.271691003616146
 20
0.0625
 30
0.0
 11
5.271691003616146
 21
0.375
 31
0.0
  0
LINE
  5
450
330
414
100
AcDbEntity
  8
Pel_Wall
  6
Continuous
100
AcDbLine
 10
5.209191003616146
 20
0.0625
 30
0.0
 11
5.209191003616146
 21
0.375
 31
0.0
  0
LINE
  5
451
330
414
100
AcDbEntity
  8
Pel_Wall
  6
Continuous
100
AcDbLine
 10
5.209191003616146
 20
0.0625
 30
0.0
 11
5.209191003616146
 21
0.375
 31
0.0
  0
LINE
  5
452
330
414
100
AcDbEntity
  8
Pel_Wall
  6
Continuous
100
AcDbLine
 10
5.521691003616147
 20
0.0625
 30
0.0
 11
5.521691003616147
 21
0.375
 31
0.0
  0
LINE
  5
453
330
414
100
AcDbEntity
  8
Pel_Wall
  6
Continuous
100
AcDbLine
 10
5.521691003616147
 20
0.0625
 30
0.0
 11
5.521691003616147
 21
0.375
 31
0.0
  0
LINE
  5
454
330
414
100
AcDbEntity
  8
Pel_Wall
  6
Continuous
100
AcDbLine
 10
5.459191003616147
 20
0.0625
 30
0.0
 11
5.459191003616147
 21
0.375
 31
0.0
  0
LINE
  5
455
330
414
100
AcDbEntity
  8
Pel_Wall
  6
Continuous
100
AcDbLine
 10
5.459191003616147
 20
0.0625
 30
0.0
 11
5.459191003616147
 21
0.375
 31
0.0
  0
LINE
  5
456
330
414
100
AcDbEntity
  8
Pel_Wall
  6
Continuous
100
AcDbLine
 10
5.584191003616147
 20
0.0625
 30
0.0
 11
5.584191003616147
 21
0.375
 31
0.0
  0
LINE
  5
457
330
414
100
AcDbEntity
  8
Pel_Wall
  6
Continuous
100
AcDbLine
 10
5.584191003616147
 20
0.0625
 30
0.0
 11
5.584191003616147
 21
0.375
 31
0.0
  0
LINE
  5
458
330
414
100
AcDbEntity
  8
Pel_Wall
  6
Continuous
100
AcDbLine
 10
5.646691003616147
 20
0.0625
 30
0.0
 11
5.646691003616147
 21
0.375
 31
0.0
  0
LINE
  5
459
330
414
100
AcDbEntity
  8
Pel_Wall
  6
Continuous
100
AcDbLine
 10
5.646691003616147
 20
0.0625
 30
0.0
 11
5.646691003616147
 21
0.375
 31
0.0
  0
LINE
  5
45A
330
414
100
AcDbEntity
  8
Pel_Wall
  6
Continuous
100
AcDbLine
 10
5.896691003616147
 20
0.0625
 30
0.0
 11
5.896691003616147
 21
0.375
 31
0.0
  0
LINE
  5
45B
330
414
100
AcDbEntity
  8
Pel_Wall
  6
Continuous
100
AcDbLine
 10
5.896691003616147
 20
0.0625
 30
0.0
 11
5.896691003616147
 21
0.375
 31
0.0
  0
LINE
  5
45C
330
414
100
AcDbEntity
  8
Pel_Wall
  6
Continuous
100
AcDbLine
 10
5.834191003616147
 20
0.0625
 30
0.0
 11
5.834191003616147
 21
0.375
 31
0.0
  0
LINE
  5
45D
330
414
100
AcDbEntity
  8
Pel_Wall
  6
Continuous
100
AcDbLine
 10
5.834191003616147
 20
0.0625
 30
0.0
 11
5.834191003616147
 21
0.375
 31
0.0
  0
LINE
  5
45E
330
414
100
AcDbEntity
  8
Pel_Wall
  6
Continuous
100
AcDbLine
 10
5.771691003616147
 20
0.0625
 30
0.0
 11
5.771691003616147
 21
0.375
 31
0.0
  0
LINE
  5
45F
330
414
100
AcDbEntity
  8
Pel_Wall
  6
Continuous
100
AcDbLine
 10
5.771691003616147
 20
0.0625
 30
0.0
 11
5.771691003616147
 21
0.375
 31
0.0
  0
LINE
  5
460
330
414
100
AcDbEntity
  8
Pel_Wall
  6
Continuous
100
AcDbLine
 10
5.709191003616147
 20
0.0625
 30
0.0
 11
5.709191003616147
 21
0.375
 31
0.0
  0
LINE
  5
461
330
414
100
AcDbEntity
  8
Pel_Wall
  6
Continuous
100
AcDbLine
 10
5.709191003616147
 20
0.0625
 30
0.0
 11
5.709191003616147
 21
0.375
 31
0.0
  0
LINE
  5
462
330
414
100
AcDbEntity
  8
Pel_Wall
  6
Continuous
100
AcDbLine
 10
6.084191003616147
 20
0.0625
 30
0.0
 11
6.084191003616147
 21
0.375
 31
0.0
  0
LINE
  5
463
330
414
100
AcDbEntity
  8
Pel_Wall
  6
Continuous
100
AcDbLine
 10
6.084191003616147
 20
0.0625
 30
0.0
 11
6.084191003616147
 21
0.375
 31
0.0
  0
LINE
  5
464
330
414
100
AcDbEntity
  8
Pel_Wall
  6
Continuous
100
AcDbLine
 10
6.021691003616147
 20
0.0625
 30
0.0
 11
6.021691003616147
 21
0.375
 31
0.0
  0
LINE
  5
465
330
414
100
AcDbEntity
  8
Pel_Wall
  6
Continuous
100
AcDbLine
 10
6.021691003616147
 20
0.0625
 30
0.0
 11
6.021691003616147
 21
0.375
 31
0.0
  0
LINE
  5
466
330
414
100
AcDbEntity
  8
Pel_Wall
  6
Continuous
100
AcDbLine
 10
5.959191003616147
 20
0.0625
 30
0.0
 11
5.959191003616147
 21
0.375
 31
0.0
  0
LINE
  5
467
330
414
100
AcDbEntity
  8
Pel_Wall
  6
Continuous
100
AcDbLine
 10
5.959191003616147
 20
0.0625
 30
0.0
 11
5.959191003616147
 21
0.375
 31
0.0
  0
LINE
  5
468
330
414
100
AcDbEntity
  8
Pel_Wall
  6
Continuous
100
AcDbLine
 10
4.896691003616146
 20
0.0625
 30
0.0
 11
4.896691003616146
 21
0.375
 31
0.0
  0
LINE
  5
469
330
414
100
AcDbEntity
  8
Pel_Wall
  6
Continuous
100
AcDbLine
 10
4.896691003616146
 20
0.0625
 30
0.0
 11
4.896691003616146
 21
0.375
 31
0.0
  0
LINE
  5
46A
330
414
100
AcDbEntity
  8
Pel_Wall
  6
Continuous
100
AcDbLine
 10
4.709191003616146
 20
0.0625
 30
0.0
 11
4.709191003616146
 21
0.375
 31
0.0
  0
LINE
  5
46B
330
414
100
AcDbEntity
  8
Pel_Wall
  6
Continuous
100
AcDbLine
 10
4.709191003616146
 20
0.0625
 30
0.0
 11
4.709191003616146
 21
0.375
 31
0.0
  0
LINE
  5
46C
330
414
100
AcDbEntity
  8
Pel_Wall
  6
Continuous
100
AcDbLine
 10
4.521691003616146
 20
0.0625
 30
0.0
 11
4.521691003616146
 21
0.375
 31
0.0
  0
LINE
  5
46D
330
414
100
AcDbEntity
  8
Pel_Wall
  6
Continuous
100
AcDbLine
 10
4.521691003616146
 20
0.0625
 30
0.0
 11
4.521691003616146
 21
0.375
 31
0.0
  0
LINE
  5
46E
330
414
100
AcDbEntity
  8
Pel_Wall
  6
Continuous
100
AcDbLine
 10
4.646691003616146
 20
0.0625
 30
0.0
 11
4.646691003616146
 21
0.375
 31
0.0
  0
LINE
  5
46F
330
414
100
AcDbEntity
  8
Pel_Wall
  6
Continuous
100
AcDbLine
 10
4.646691003616146
 20
0.0625
 30
0.0
 11
4.646691003616146
 21
0.375
 31
0.0
  0
LINE
  5
470
330
414
100
AcDbEntity
  8
Pel_Wall
  6
Continuous
100
AcDbLine
 10
4.584191003616146
 20
0.0625
 30
0.0
 11
4.584191003616146
 21
0.375
 31
0.0
  0
LINE
  5
471
330
414
100
AcDbEntity
  8
Pel_Wall
  6
Continuous
100
AcDbLine
 10
4.584191003616146
 20
0.0625
 30
0.0
 11
4.584191003616146
 21
0.375
 31
0.0
  0
LINE
  5
472
330
414
100
AcDbEntity
  8
Pel_Wall
  6
Continuous
100
AcDbLine
 10
4.834191003616146
 20
0.0625
 30
0.0
 11
4.834191003616146
 21
0.375
 31
0.0
  0
LINE
  5
473
330
414
100
AcDbEntity
  8
Pel_Wall
  6
Continuous
100
AcDbLine
 10
4.834191003616146
 20
0.0625
 30
0.0
 11
4.834191003616146
 21
0.375
 31
0.0
  0
LINE
  5
474
330
414
100
AcDbEntity
  8
Pel_Wall
  6
Continuous
100
AcDbLine
 10
4.771691003616146
 20
0.0625
 30
0.0
 11
4.771691003616146
 21
0.375
 31
0.0
  0
LINE
  5
475
330
414
100
AcDbEntity
  8
Pel_Wall
  6
Continuous
100
AcDbLine
 10
4.771691003616146
 20
0.0625
 30
0.0
 11
4.771691003616146
 21
0.375
 31
0.0
  0
HATCH
  5
476
330
414
100
AcDbEntity
  8
Pel_Wall
100
AcDbHatch
 10
0.0
 20
0.0
 30
0.0
210
0.0
220
0.0
230
1.0
  2
PLY
 70
     0
 71
     0
 91
        1
 92
        7
 72
     0
 73
     1
 93
        4
 10
2.14481856672389
 20
-0.1252020798704763
 10
2.14481856672389
 20
-0.875202079870476
 10
7.394818566723891
 20
-0.875202079870476
 10
7.394818566723891
 20
-0.1252020798704763
 97
        0
 75
     0
 76
     1
 52
0.0
 41
1.0
 77
     0
 78
     2
 53
0.0
 43
-4.955967748125551
 44
-2.4375
 45
0.0
 46
0.125
 79
     0
 53
45.0
 43
-4.955967748125551
 44
-2.5625
 45
-0.3535533905932737
 46
0.3535533905932738
 79
     0
 47
0.0200949616831401
 98
        1
 10
3.518161781183827
 20
-0.3404294637855116
  0
POLYLINE
  5
477
330
414
100
AcDbEntity
  8
Pel_Wall
  6
Continuous
100
AcDb2dPolyline
 66
     1
 10
0.0
 20
0.0
 30
0.0
  0
VERTEX
  5
478
330
477
100
AcDbEntity
  8
Pel_Wall
  6
Continuous
100
AcDbVertex
100
AcDb2dVertex
 10
7.394818566723891
 20
-0.1252020798704763
 30
0.0
  0
VERTEX
  5
479
330
477
100
AcDbEntity
  8
Pel_Wall
  6
Continuous
100
AcDbVertex
100
AcDb2dVertex
 10
2.14481856672389
 20
-0.1252020798704763
 30
0.0
  0
VERTEX
  5
47A
330
477
100
AcDbEntity
  8
Pel_Wall
  6
Continuous
100
AcDbVertex
100
AcDb2dVertex
 10
2.14481856672389
 20
-0.875202079870476
 30
0.0
  0
VERTEX
  5
47B
330
477
100
AcDbEntity
  8
Pel_Wall
  6
Continuous
100
AcDbVertex
100
AcDb2dVertex
 10
7.394818566723891
 20
-0.875202079870476
 30
0.0
  0
SEQEND
  5
47C
330
477
100
AcDbEntity
  8
Pel_Wall
  6
Continuous
  0
POLYLINE
  5
47D
330
414
100
AcDbEntity
  8
Pel_Wall
100
AcDb2dPolyline
 66
     1
 10
0.0
 20
0.0
 30
0.0
  0
VERTEX
  5
47E
330
47D
100
AcDbEntity
  8
Pel_Wall
100
AcDbVertex
100
AcDb2dVertex
 10
1.499818566723909
 20
-2.5
 30
0.0
  0
VERTEX
  5
47F
330
47D
100
AcDbEntity
  8
Pel_Wall
100
AcDbVertex
100
AcDb2dVertex
 10
1.499818566723909
 20
-0.042500000000004
 30
0.0
  0
VERTEX
  5
480
330
47D
100
AcDbEntity
  8
Pel_Wall
100
AcDbVertex
100
AcDb2dVertex
 10
3.93896121500878
 20
-0.042500000000004
 30
0.0
  0
SEQEND
  5
481
330
47D
100
AcDbEntity
  8
Pel_Wall
  0
POLYLINE
  5
482
330
414
100
AcDbEntity
  8
Pel_Wall
100
AcDb2dPolyline
 66
     1
 10
0.0
 20
0.0
 30
0.0
  0
VERTEX
  5
483
330
482
100
AcDbEntity
  8
Pel_Wall
100
AcDbVertex
100
AcDb2dVertex
 10
1.51981856672389
 20
-2.5
 30
0.0
  0
VERTEX
  5
484
330
482
100
AcDbEntity
  8
Pel_Wall
100
AcDbVertex
100
AcDb2dVertex
 10
1.51981856672389
 20
-0.0625
 30
0.0
  0
VERTEX
  5
485
330
482
100
AcDbEntity
  8
Pel_Wall
100
AcDbVertex
100
AcDb2dVertex
 10
3.93896121500878
 20
-0.0625
 30
0.0
  0
SEQEND
  5
486
330
482
100
AcDbEntity
  8
Pel_Wall
  0
POLYLINE
  5
487
330
414
100
AcDbEntity
  8
Pel_Wall
  6
Continuous
100
AcDb2dPolyline
 66
     1
 10
0.0
 20
0.0
 30
0.0
  0
VERTEX
  5
488
330
487
100
AcDbEntity
  8
Pel_Wall
  6
Continuous
100
AcDbVertex
100
AcDb2dVertex
 10
3.644818566723897
 20
-5.275000000000002
 30
0.0
  0
VERTEX
  5
489
330
487
100
AcDbEntity
  8
Pel_Wall
  6
Continuous
100
AcDbVertex
100
AcDb2dVertex
 10
3.64481856672389
 20
-0.875202079870476
 30
0.0
  0
VERTEX
  5
48A
330
487
100
AcDbEntity
  8
Pel_Wall
  6
Continuous
100
AcDbVertex
100
AcDb2dVertex
 10
2.14481856672389
 20
-0.875202079870476
 30
0.0
  0
VERTEX
  5
48B
330
487
100
AcDbEntity
  8
Pel_Wall
  6
Continuous
100
AcDbVertex
100
AcDb2dVertex
 10
2.144818566723897
 20
-5.275000000000002
 30
0.0
  0
SEQEND
  5
48C
330
487
100
AcDbEntity
  8
Pel_Wall
  6
Continuous
  0
LINE
  5
48D
330
414
100
AcDbEntity
  8
Pel_Wall
  6
Continuous
100
AcDbLine
 10
3.457191261768748
 20
-5.275000000000002
 30
0.0
 11
2.14481856672389
 21
-0.875202079870476
 31
0.0
  0
POLYLINE
  5
48E
102
{ACAD_REACTORS
330
495
102
}
330
414
100
AcDbEntity
  8
Pel_Wall
  6
Continuous
100
AcDb2dPolyline
 66
     1
 10
0.0
 20
0.0
 30
0.0
 70
     1
  0
VERTEX
  5
48F
330
48E
100
AcDbEntity
  8
Pel_Wall
  6
Continuous
100
AcDbVertex
100
AcDb2dVertex
 10
2.144818566723897
 20
-5.275000000000002
 30
0.0
  0
VERTEX
  5
490
330
48E
100
AcDbEntity
  8
Pel_Wall
  6
Continuous
100
AcDbVertex
100
AcDb2dVertex
 10
2.14481856672389
 20
-0.1252020798704763
 30
0.0
  0
VERTEX
  5
491
330
48E
100
AcDbEntity
  8
Pel_Wall
  6
Continuous
100
AcDbVertex
100
AcDb2dVertex
 10
1.64481856672389
 20
-0.1252020798704763
 30
0.0
  0
VERTEX
  5
492
330
48E
100
AcDbEntity
  8
Pel_Wall
  6
Continuous
100
AcDbVertex
100
AcDb2dVertex
 10
1.644818566723898
 20
-5.275000000000002
 30
0.0
  0
VERTEX
  5
493
330
48E
100
AcDbEntity
  8
0
100
AcDbVertex
100
AcDb2dVertex
 10
2.144818566723897
 20
-5.275000000000002
 30
0.0
  0
SEQEND
  5
494
330
48E
100
AcDbEntity
  8
Pel_Wall
  6
Continuous
  0
HATCH
  5
495
330
414
100
AcDbEntity
  8
Pel_Wall
100
AcDbHatch
 10
0.0
 20
0.0
 30
0.0
210
0.0
220
0.0
230
1.0
  2
PLY
 70
     0
 71
     1
 91
        1
 92
        1
 93
        4
 72
     1
 10
2.144818566723897
 20
-5.275000000000002
 11
2.14481856672389
 21
-0.1252020798704763
 72
     1
 10
2.14481856672389
 20
-0.1252020798704763
 11
1.64481856672389
 21
-0.1252020798704763
 72
     1
 10
1.64481856672389
 20
-0.1252020798704763
 11
1.644818566723898
 21
-5.275000000000002
 72
     1
 10
1.644818566723898
 20
-5.275000000000002
 11
2.144818566723897
 21
-5.275000000000002
 97
        1
330
48E
 75
     0
 76
     1
 52
90.0
 41
1.0
 77
     0
 78
     2
 53
90.0
 43
-7.88166395463191
 44
-10.6239736882269
 45
-0.125
 46
0.0
 79
     0
 53
135.0
 43
-7.75666395463191
 44
-10.6239736882269
 45
-0.3535533905932738
 46
-0.3535533905932737
 79
     0
 98
        1
 10
-7.75666395463191
 20
-10.6239736882269
  0
POLYLINE
  5
496
330
414
100
AcDbEntity
  8
Pel_Wall
100
AcDb2dPolyline
 66
     1
 10
0.0
 20
0.0
 30
0.0
  0
VERTEX
  5
497
330
496
100
AcDbEntity
  8
Pel_Wall
100
AcDbVertex
100
AcDb2dVertex
 10
1.587086045368089
 20
-0.1252020798704763
 30
0.0
  0
VERTEX
  5
498
330
496
100
AcDbEntity
  8
Pel_Wall
100
AcDbVertex
100
AcDb2dVertex
 10
1.587086045368095
 20
-5.275000000000002
 30
0.0
  0
SEQEND
  5
499
330
496
100
AcDbEntity
  8
Pel_Wall
  0
POLYLINE
  5
49A
330
414
100
AcDbEntity
  8
Pel_Wall
100
AcDb2dPolyline
 66
     1
 10
0.0
 20
0.0
 30
0.0
  0
VERTEX
  5
49B
330
49A
100
AcDbEntity
  8
Pel_Wall
100
AcDbVertex
100
AcDb2dVertex
 10
1.567086045368107
 20
-0.1252020798704763
 30
0.0
  0
VERTEX
  5
49C
330
49A
100
AcDbEntity
  8
Pel_Wall
100
AcDbVertex
100
AcDb2dVertex
 10
1.567086045368114
 20
-5.275000000000002
 30
0.0
  0
SEQEND
  5
49D
330
49A
100
AcDbEntity
  8
Pel_Wall
  0
LWPOLYLINE
  5
49E
330
414
100
AcDbEntity
  8
Pel_Wall
100
AcDbPolyline
 90
       16
 70
     0
 43
0.0
 10
1.274429528271077
 20
-5.275000000000002
 10
1.274429528271077
 20
-3.850000000000006
 42
0.4142135623730951
 10
1.174429528271075
 20
-3.750000000000008
 10
0.3567543931810491
 20
-3.750000000000008
 42
0.4142135623730951
 10
0.2567543931810476
 20
-3.850000000000006
 10
0.2567543931810476
 20
-4.333578643762696
 42
0.198912367379658
 10
0.2860437150623909
 20
-4.404289321881355
 10
0.3817543931810476
 20
-4.500000000000007
 10
0.4171097322403769
 20
-4.464644660940683
 10
0.32139905412172
 20
-4.368933982822026
 42
-0.1989123673796584
 10
0.3067543931810519
 20
-4.333578643762696
 10
0.3067543931810519
 20
-3.850000000000006
 42
-0.4142135623730966
 10
0.3567543931810491
 20
-3.800000000000009
 10
1.174429528271075
 20
-3.800000000000009
 42
-0.4142135623730951
 10
1.224429528271072
 20
-3.850000000000006
 10
1.224429528271072
 20
-5.275000000000002
  0
POINT
  5
49F
330
414
100
AcDbEntity
  8
Pel_Points
100
AcDbPoint
 10
0.0
 20
0.0
 30
0.0
  0
LINE
  5
4A0
330
414
100
AcDbEntity
  8
Pel_Wall
  6
Continuous
100
AcDbLine
 10
2.108228623975854
 20
-0.8585137151526376
 30
0.0
 11
2.358228623975854
 21
-0.8585137151526376
 31
0.0
  0
LINE
  5
4A1
330
414
100
AcDbEntity
  8
Pel_Wall
  6
Continuous
100
AcDbLine
 10
2.483228623975854
 20
-0.8585137151526376
 30
0.0
 11
3.233228623975853
 21
-0.8585137151526376
 31
0.0
  0
LINE
  5
4A2
330
414
100
AcDbEntity
  8
Pel_Wall
  6
Continuous
100
AcDbLine
 10
1.313403759065884
 20
-0.9835137151526376
 30
0.0
 11
1.313403759065884
 21
-0.7335137151526379
 31
0.0
  0
LINE
  5
4A3
330
414
100
AcDbEntity
  8
Pel_Wall
  6
Continuous
100
AcDbLine
 10
1.250903759065884
 20
-0.8585137151526376
 30
0.0
 11
1.983228623975853
 21
-0.8585137151526376
 31
0.0
  0
INSERT
  5
4A4
330
414
100
AcDbEntity
  8
Pel_Wall
100
AcDbBlockReference
  2
Rodseal
 10
0.3300320984126301
 20
-3.500000000000006
 30
0.0
 41
-0.875
 42
0.25
 50
180.0
  0
LINE
  5
4A5
330
414
100
AcDbEntity
  8
Pel_Wall
  6
Continuous
100
AcDbLine
 10
2.332445871679026
 20
-5.275000000000002
 30
0.0
 11
3.644818566723883
 21
-0.875202079870476
 31
0.0
  0
POLYLINE
  5
4A6
330
414
100
AcDbEntity
  8
Pel_Wall
100
AcDb2dPolyline
 66
     1
 10
0.0
 20
0.0
 30
0.0
  0
VERTEX
  5
4A7
330
4A6
100
AcDbEntity
  8
Pel_Wall
100
AcDbVertex
100
AcDb2dVertex
 10
0.8955353906518226
 20
-5.275
 30
0.0
 42
0.0600216795404884
  0
VERTEX
  5
4A8
330
4A6
100
AcDbEntity
  8
Pel_Wall
100
AcDbVertex
100
AcDb2dVertex
 10
1.099839878185469
 20
-3.939644660940681
 30
0.0
  0
VERTEX
  5
4A9
330
4A6
100
AcDbEntity
  8
Pel_Wall
100
AcDbVertex
100
AcDb2dVertex
 10
1.150803933812432
 20
-3.939644660940681
 30
0.0
 42
-0.0645789000901077
  0
VERTEX
  5
4AA
330
4A6
100
AcDbEntity
  8
Pel_Wall
100
AcDbVertex
100
AcDb2dVertex
 10
0.959713031958948
 20
-5.275
 30
0.0
 42
0.5032064810093626
  0
SEQEND
  5
4AB
330
4A6
100
AcDbEntity
  8
Pel_Wall
  0
LWPOLYLINE
  5
4AC
330
414
100
AcDbEntity
  8
Pel_Wall
100
AcDbPolyline
 90
       16
 70
     1
 43
0.0
 10
1.057640206389732
 20
-4.529289321881353
 10
0.9692518587414156
 20
-4.440900974233035
 42
-0.1989123673796589
 10
0.9472848673304063
 20
-4.387867965644043
 10
0.9472848673304063
 20
-3.939644660940681
 42
-0.4142135623730959
 10
1.022284867330405
 20
-3.864644660940681
 10
1.084784867330405
 20
-3.864644660940681
 42
-0.4142135623730959
 10
1.159784867330404
 20
-3.939644660940681
 10
1.159784867330404
 20
-5.275000000000002
 10
1.209784867330405
 20
-5.275000000000002
 10
1.209784867330405
 20
-3.939644660940681
 42
0.4142135623730951
 10
1.084784867330405
 20
-3.814644660940681
 10
1.022284867330405
 20
-3.814644660940681
 42
0.4142135623730951
 10
0.8972848673304055
 20
-3.939644660940681
 10
0.8972848673304055
 20
-4.387867965644043
 42
0.198912367379658
 10
0.9338965196820863
 20
-4.476256313292362
 10
1.022284867330405
 20
-4.564644660940682
  0
POLYLINE
  5
4AD
330
414
100
AcDbEntity
  8
Pel_Wall
100
AcDb2dPolyline
 66
     1
 10
0.0
 20
0.0
 30
0.0
  0
VERTEX
  5
4AE
330
4AD
100
AcDbEntity
  8
Pel_Wall
100
AcDbVertex
100
AcDb2dVertex
 10
1.274429528271077
 20
-3.500000000000008
 30
0.0
  0
VERTEX
  5
4AF
330
4AD
100
AcDbEntity
  8
Pel_Wall
100
AcDbVertex
100
AcDb2dVertex
 10
1.274429528271077
 20
-0.1250000000000089
 30
0.0
  0
VERTEX
  5
4B0
330
4AD
100
AcDbEntity
  8
Pel_Wall
100
AcDbVertex
100
AcDb2dVertex
 10
0.024429528271078
 20
-0.1250000000000089
 30
0.0
  0
VERTEX
  5
4B1
330
4AD
100
AcDbEntity
  8
Pel_Wall
100
AcDbVertex
100
AcDb2dVertex
 10
0.0244295282710798
 20
-3.500000000000008
 30
0.0
  0
VERTEX
  5
4B2
330
4AD
100
AcDbEntity
  8
Pel_Wall
100
AcDbVertex
100
AcDb2dVertex
 10
1.274429528271077
 20
-3.500000000000008
 30
0.0
  0
VERTEX
  5
4B3
330
4AD
100
AcDbEntity
  8
Pel_Wall
100
AcDbVertex
100
AcDb2dVertex
 10
0.024429528271078
 20
-0.1250000000000089
 30
0.0
  0
VERTEX
  5
4B4
330
4AD
100
AcDbEntity
  8
Pel_Wall
100
AcDbVertex
100
AcDb2dVertex
 10
1.274429528271077
 20
-0.1250000000000089
 30
0.0
  0
VERTEX
  5
4B5
330
4AD
100
AcDbEntity
  8
Pel_Wall
100
AcDbVertex
100
AcDb2dVertex
 10
0.0244295282710798
 20
-3.500000000000008
 30
0.0
  0
SEQEND
  5
4B6
330
4AD
100
AcDbEntity
  8
Pel_Wall
  0
POLYLINE
  5
4B7
330
414
100
AcDbEntity
  8
Pel_Wall
100
AcDb2dPolyline
 66
     1
 10
0.0
 20
0.0
 30
0.0
  0
VERTEX
  5
4B8
330
4B7
100
AcDbEntity
  8
Pel_Wall
100
AcDbVertex
100
AcDb2dVertex
 10
1.274429528271077
 20
-0.0625000000000089
 30
0.0
  0
VERTEX
  5
4B9
330
4B7
100
AcDbEntity
  8
Pel_Wall
100
AcDbVertex
100
AcDb2dVertex
 10
-0.038070471728922
 20
-0.0625000000000089
 30
0.0
  0
VERTEX
  5
4BA
330
4B7
100
AcDbEntity
  8
Pel_Wall
100
AcDbVertex
100
AcDb2dVertex
 10
-0.0380704717289238
 20
-3.500000000000008
 30
0.0
  0
VERTEX
  5
4BB
330
4B7
100
AcDbEntity
  8
Pel_Wall
100
AcDbVertex
100
AcDb2dVertex
 10
-0.244185042991397
 20
-3.706114571262481
 30
0.0
  0
SEQEND
  5
4BC
330
4B7
100
AcDbEntity
  8
Pel_Wall
  0
ENDBLK
  5
4BD
330
414
100
AcDbEntity
  8
0
100
AcDbBlockEnd
  0
BLOCK
  5
109
330
106
100
AcDbEntity
  8
0
100
AcDbBlockBegin
  2
10headvinylsiding2
 70
     0
 10
0.0
 20
0.0
 30
0.0
  3
10headvinylsiding2
  1

  0
POLYLINE
  5
10A
102
{ACAD_REACTORS
330
110
102
}
330
106
100
AcDbEntity
  8
Pel_Wall
100
AcDb2dPolyline
 66
     1
 10
0.0
 20
0.0
 30
0.0
 70
     1
  0
VERTEX
  5
10B
330
10A
100
AcDbEntity
  8
Pel_Wall
100
AcDbVertex
100
AcDb2dVertex
 10
1.175687396715375
 20
0.25
 30
0.0
  0
VERTEX
  5
10C
330
10A
100
AcDbEntity
  8
Pel_Wall
100
AcDbVertex
100
AcDb2dVertex
 10
1.675687396715381
 20
0.25
 30
0.0
  0
VERTEX
  5
10D
330
10A
100
AcDbEntity
  8
Pel_Wall
100
AcDbVertex
100
AcDb2dVertex
 10
1.675687396715381
 20
4.213768087480622
 30
0.0
  0
VERTEX
  5
10E
330
10A
100
AcDbEntity
  8
Pel_Wall
100
AcDbVertex
100
AcDb2dVertex
 10
1.175687396715375
 20
4.213768087480622
 30
0.0
  0
SEQEND
  5
10F
330
10A
100
AcDbEntity
  8
Pel_Wall
  0
HATCH
  5
110
330
106
100
AcDbEntity
  8
Pel_Wall
100
AcDbHatch
 10
0.0
 20
0.0
 30
0.0
210
0.0
220
0.0
230
1.0
  2
PLY
 70
     0
 71
     1
 91
        1
 92
        1
 93
        4
 72
     1
 10
1.175687396715375
 20
0.25
 11
1.675687396715381
 21
0.25
 72
     1
 10
1.675687396715381
 20
0.25
 11
1.675687396715381
 21
4.213768087480622
 72
     1
 10
1.675687396715381
 20
4.213768087480622
 11
1.175687396715375
 21
4.213768087480622
 72
     1
 10
1.175687396715375
 20
4.213768087480622
 11
1.175687396715375
 21
0.25
 97
        1
330
10A
 75
     0
 76
     1
 52
90.0
 41
1.0
 77
     0
 78
     2
 53
90.0
 43
-0.3243126032846249
 44
-0.125
 45
-0.125
 46
0.0
 79
     0
 53
135.0
 43
-0.1993126032846248
 44
-0.125
 45
-0.3535533905932738
 46
-0.3535533905932737
 79
     0
 98
        1
 10
-0.1993126032846248
 20
-0.125
  0
POLYLINE
  5
111
102
{ACAD_REACTORS
330
117
102
}
330
106
100
AcDbEntity
  8
Pel_Wall
100
AcDb2dPolyline
 66
     1
 10
0.0
 20
0.0
 30
0.0
 70
     1
  0
VERTEX
  5
112
330
111
100
AcDbEntity
  8
Pel_Wall
100
AcDbVertex
100
AcDb2dVertex
 10
3.175687396715416
 20
0.2499999999999964
 30
0.0
  0
VERTEX
  5
113
330
111
100
AcDbEntity
  8
Pel_Wall
100
AcDbVertex
100
AcDb2dVertex
 10
3.675687396715416
 20
0.2499999999999964
 30
0.0
  0
VERTEX
  5
114
330
111
100
AcDbEntity
  8
Pel_Wall
100
AcDbVertex
100
AcDb2dVertex
 10
3.675687396715381
 20
4.213768087480622
 30
0.0
  0
VERTEX
  5
115
330
111
100
AcDbEntity
  8
Pel_Wall
100
AcDbVertex
100
AcDb2dVertex
 10
3.175687396715381
 20
4.213768087480622
 30
0.0
  0
SEQEND
  5
116
330
111
100
AcDbEntity
  8
Pel_Wall
  0
HATCH
  5
117
330
106
100
AcDbEntity
  8
Pel_Wall
100
AcDbHatch
 10
0.0
 20
0.0
 30
0.0
210
0.0
220
0.0
230
1.0
  2
PLY
 70
     0
 71
     1
 91
        1
 92
        1
 93
        4
 72
     1
 10
3.175687396715416
 20
0.2499999999999964
 11
3.675687396715416
 21
0.2499999999999964
 72
     1
 10
3.675687396715416
 20
0.2499999999999964
 11
3.675687396715381
 21
4.213768087480622
 72
     1
 10
3.675687396715381
 20
4.213768087480622
 11
3.175687396715381
 21
4.213768087480622
 72
     1
 10
3.175687396715381
 20
4.213768087480622
 11
3.175687396715416
 21
0.2499999999999964
 97
        1
330
111
 75
     0
 76
     1
 52
90.0
 41
1.0
 77
     0
 78
     2
 53
90.0
 43
-0.2618126032846249
 44
-0.125
 45
-0.125
 46
0.0
 79
     0
 53
135.0
 43
-0.1368126032846249
 44
-0.125
 45
-0.3535533905932738
 46
-0.3535533905932737
 79
     0
 98
        1
 10
-0.1368126032846249
 20
-0.125
  0
POLYLINE
  5
118
102
{ACAD_REACTORS
330
127
102
}
330
106
100
AcDbEntity
  8
Pel_Wall
100
AcDb2dPolyline
 66
     1
 10
0.0
 20
0.0
 30
0.0
 70
     1
  0
VERTEX
  5
119
330
118
100
AcDbEntity
  8
Pel_Wall
100
AcDbVertex
100
AcDb2dVertex
 10
5.175687396715381
 20
4.213768087480622
 30
0.0
  0
VERTEX
  5
11A
330
118
100
AcDbEntity
  8
Pel_Wall
100
AcDbVertex
100
AcDb2dVertex
 10
5.800687396715382
 20
4.213768087480622
 30
0.0
  0
VERTEX
  5
11B
330
118
100
AcDbEntity
  8
Pel_Wall
100
AcDbVertex
100
AcDb2dVertex
 10
5.800687396715382
 20
0.25
 30
0.0
  0
VERTEX
  5
11C
330
118
100
AcDbEntity
  8
Pel_Wall
100
AcDbVertex
100
AcDb2dVertex
 10
5.800687396715382
 20
0.25
 30
0.0
  0
VERTEX
  5
11D
330
118
100
AcDbEntity
  8
Pel_Wall
100
AcDbVertex
100
AcDb2dVertex
 10
5.175687396715381
 20
0.25
 30
0.0
  0
VERTEX
  5
11E
330
118
100
AcDbEntity
  8
Pel_Wall
100
AcDbVertex
100
AcDb2dVertex
 10
5.175687396715381
 20
0.25
 30
0.0
  0
SEQEND
  5
11F
330
118
100
AcDbEntity
  8
Pel_Wall
  0
INSERT
  5
120
330
106
100
AcDbEntity
  8
Pel_Wall
100
AcDbBlockReference
  2
vinyl J trim
 10
0.8139124949927634
 20
0.25
 30
0.0
  0
HATCH
  5
127
330
106
100
AcDbEntity
  8
Pel_Wall
100
AcDbHatch
 10
0.0
 20
0.0
 30
0.0
210
0.0
220
0.0
230
1.0
  2
GYP
 70
     0
 71
     1
 91
        1
 92
        1
 93
        4
 72
     1
 10
5.175687396715381
 20
4.213768087480622
 11
5.800687396715382
 21
4.213768087480622
 72
     1
 10
5.800687396715382
 20
4.213768087480622
 11
5.800687396715382
 21
0.25
 72
     1
 10
5.800687396715382
 20
0.25
 11
5.175687396715381
 21
0.25
 72
     1
 10
5.175687396715381
 20
0.25
 11
5.175687396715381
 21
4.213768087480622
 97
        1
330
118
 75
     0
 76
     1
 52
0.0
 41
1.0
 77
     0
 78
     3
 53
0.0
 43
-16.77503770156201
 44
-27.76823191252117
 45
0.18
 46
0.5
 79
     2
 49
0.0
 49
-0.3
 53
30.0
 43
-16.74503770156201
 44
-27.64823191252117
 45
-0.094115427318801
 46
0.5230127018922194
 79
     2
 49
0.0
 49
-0.3
 53
60.0
 43
-16.715037701562
 44
-27.58823191252117
 45
-0.3430127018922193
 46
0.4058845726811989
 79
     2
 49
0.0
 49
-0.3
 98
        1
 10
-16.77503770156201
 20
-27.76823191252117
  0
LINE
  5
128
330
106
100
AcDbEntity
  8
Pel_Wall
  6
Continuous
100
AcDbLine
 10
2.368961178192201
 20
0.8174057854251799
 30
0.0
 11
3.118961178192201
 21
0.8174057854251799
 31
0.0
  0
LINE
  5
129
330
106
100
AcDbEntity
  8
Pel_Wall
  6
Continuous
100
AcDbLine
 10
1.9939611781922
 20
0.8174057854251799
 30
0.0
 11
2.243961178192201
 21
0.8174057854251799
 31
0.0
  0
LINE
  5
12A
330
106
100
AcDbEntity
  8
Pel_Wall
  6
Continuous
100
AcDbLine
 10
0.9939611781921939
 20
0.8174057854251799
 30
0.0
 11
1.8689611781922
 21
0.8174057854251799
 31
0.0
  0
POLYLINE
  5
12B
330
106
100
AcDbEntity
  8
Pel_Wall
  6
Continuous
100
AcDb2dPolyline
 66
     1
 10
0.0
 20
0.0
 30
0.0
  0
VERTEX
  5
12C
330
12B
100
AcDbEntity
  8
Pel_Wall
  6
Continuous
100
AcDbVertex
100
AcDb2dVertex
 10
0.8563624949959843
 20
0.0887680874806272
 30
0.0
  0
VERTEX
  5
12D
330
12B
100
AcDbEntity
  8
Pel_Wall
  6
Continuous
100
AcDbVertex
100
AcDb2dVertex
 10
0.8563624949959843
 20
1.155989447030624
 30
0.0
  0
VERTEX
  5
12E
330
12B
100
AcDbEntity
  8
Pel_Wall
  6
Continuous
100
AcDbVertex
100
AcDb2dVertex
 10
0.9188624949959843
 20
1.280989447030624
 30
0.0
  0
VERTEX
  5
12F
330
12B
100
AcDbEntity
  8
Pel_Wall
  6
Continuous
100
AcDbVertex
100
AcDb2dVertex
 10
0.9188624949959843
 20
4.213768087480622
 30
0.0
  0
SEQEND
  5
130
330
12B
100
AcDbEntity
  8
Pel_Wall
  6
Continuous
  0
POLYLINE
  5
131
330
106
100
AcDbEntity
  8
Pel_Wall
  6
Continuous
100
AcDb2dPolyline
 66
     1
 10
0.0
 20
0.0
 30
0.0
  0
VERTEX
  5
132
330
131
100
AcDbEntity
  8
Pel_Wall
  6
Continuous
100
AcDbVertex
100
AcDb2dVertex
 10
0.8763624949959876
 20
0.0887680874806272
 30
0.0
  0
VERTEX
  5
133
330
131
100
AcDbEntity
  8
Pel_Wall
  6
Continuous
100
AcDbVertex
100
AcDb2dVertex
 10
0.8763624949959876
 20
1.151268087480626
 30
0.0
  0
VERTEX
  5
134
330
131
100
AcDbEntity
  8
Pel_Wall
  6
Continuous
100
AcDbVertex
100
AcDb2dVertex
 10
0.9388624949959876
 20
1.276268087480626
 30
0.0
  0
VERTEX
  5
135
330
131
100
AcDbEntity
  8
Pel_Wall
  6
Continuous
100
AcDbVertex
100
AcDb2dVertex
 10
0.9388624949959876
 20
4.213768087480622
 30
0.0
  0
SEQEND
  5
136
330
131
100
AcDbEntity
  8
Pel_Wall
  6
Continuous
  0
POLYLINE
  5
137
330
106
100
AcDbEntity
  8
Pel_Wall
  6
Continuous
100
AcDb2dPolyline
 66
     1
 10
0.0
 20
0.0
 30
0.0
  0
VERTEX
  5
138
330
137
100
AcDbEntity
  8
Pel_Wall
  6
Continuous
100
AcDbVertex
100
AcDb2dVertex
 10
0.9813624949959843
 20
0.0887680874806272
 30
0.0
  0
VERTEX
  5
139
330
137
100
AcDbEntity
  8
Pel_Wall
  6
Continuous
100
AcDbVertex
100
AcDb2dVertex
 10
0.9813624949959843
 20
1.155989447030624
 30
0.0
  0
VERTEX
  5
13A
330
137
100
AcDbEntity
  8
Pel_Wall
  6
Continuous
100
AcDbVertex
100
AcDb2dVertex
 10
1.043862494995984
 20
1.280989447030624
 30
0.0
  0
VERTEX
  5
13B
330
137
100
AcDbEntity
  8
Pel_Wall
  6
Continuous
100
AcDbVertex
100
AcDb2dVertex
 10
1.043862494995984
 20
2.963768087480626
 30
0.0
  0
SEQEND
  5
13C
330
137
100
AcDbEntity
  8
Pel_Wall
  6
Continuous
  0
POLYLINE
  5
13D
330
106
100
AcDbEntity
  8
Pel_Wall
  6
Continuous
100
AcDb2dPolyline
 66
     1
 10
0.0
 20
0.0
 30
0.0
  0
VERTEX
  5
13E
330
13D
100
AcDbEntity
  8
Pel_Wall
  6
Continuous
100
AcDbVertex
100
AcDb2dVertex
 10
1.001362494995987
 20
0.0887680874806272
 30
0.0
  0
VERTEX
  5
13F
330
13D
100
AcDbEntity
  8
Pel_Wall
  6
Continuous
100
AcDbVertex
100
AcDb2dVertex
 10
1.001362494995987
 20
1.151268087480626
 30
0.0
  0
VERTEX
  5
140
330
13D
100
AcDbEntity
  8
Pel_Wall
  6
Continuous
100
AcDbVertex
100
AcDb2dVertex
 10
1.063862494995987
 20
1.276268087480626
 30
0.0
  0
VERTEX
  5
141
330
13D
100
AcDbEntity
  8
Pel_Wall
  6
Continuous
100
AcDbVertex
100
AcDb2dVertex
 10
1.063862494995987
 20
2.963768087480626
 30
0.0
  0
SEQEND
  5
142
330
13D
100
AcDbEntity
  8
Pel_Wall
  6
Continuous
  0
LINE
  5
143
330
106
100
AcDbEntity
  8
Pel_Wall
  6
Continuous
100
AcDbLine
 10
1.056461178192193
 20
0.6924057854251801
 30
0.0
 11
1.056461178192193
 21
0.9424057854251801
 31
0.0
  0
INSERT
  5
144
330
106
100
AcDbEntity
  8
Pel_Wall
100
AcDbBlockReference
  2
Rodseal
 10
0.0
 20
0.0
 30
0.0
 41
0.75
 42
0.25
  0
INSERT
  5
157
330
106
100
AcDbEntity
  8
Pel_wal
 62
     4
100
AcDbBlockReference
  2
.25foam9
 10
1.426544817596392
 20
-0.0274350038488507
 30
0.0
  0
POINT
  5
181
330
106
100
AcDbEntity
  8
Pel_Points
100
AcDbPoint
 10
0.0
 20
0.0
 30
0.0
  0
POLYLINE
  5
183
330
106
100
AcDbEntity
  8
Pel_Wall
100
AcDb2dPolyline
 66
     1
 10
0.0
 20
0.0
 30
0.0
  0
VERTEX
  5
184
330
183
100
AcDbEntity
  8
Pel_Wall
100
AcDbVertex
100
AcDb2dVertex
 10
4.226650553517077
 20
4.213768090873549
 30
0.0
  0
VERTEX
  5
185
330
183
100
AcDbEntity
  8
Pel_Wall
100
AcDbVertex
100
AcDb2dVertex
 10
3.675687396715381
 20
4.213768087480622
 30
0.0
  0
VERTEX
  5
186
330
183
100
AcDbEntity
  8
Pel_Wall
100
AcDbVertex
100
AcDb2dVertex
 10
3.675687396715381
 20
0.25
 30
0.0
  0
VERTEX
  5
187
330
183
100
AcDbEntity
  8
Pel_Wall
100
AcDbVertex
100
AcDb2dVertex
 10
5.175687396715416
 20
0.2499999999999964
 30
0.0
  0
VERTEX
  5
188
330
183
100
AcDbEntity
  8
Pel_Wall
100
AcDbVertex
100
AcDb2dVertex
 10
5.175687396715381
 20
4.213768087480622
 30
0.0
  0
VERTEX
  5
189
330
183
100
AcDbEntity
  8
Pel_Wall
100
AcDbVertex
100
AcDb2dVertex
 10
4.476650553517077
 20
4.213768090873549
 30
0.0
  0
SEQEND
  5
18A
330
183
100
AcDbEntity
  8
Pel_Wall
  0
POLYLINE
  5
18B
330
106
100
AcDbEntity
  8
Pel_Wall
100
AcDb2dPolyline
 66
     1
 10
0.0
 20
0.0
 30
0.0
  0
VERTEX
  5
18C
330
18B
100
AcDbEntity
  8
Pel_Wall
100
AcDbVertex
100
AcDb2dVertex
 10
4.226650553517077
 20
4.213768090873549
 30
0.0
  0
VERTEX
  5
18D
330
18B
100
AcDbEntity
  8
Pel_Wall
100
AcDbVertex
100
AcDb2dVertex
 10
3.983217518772763
 20
4.213768087480622
 30
0.0
  0
VERTEX
  5
18E
330
18B
100
AcDbEntity
  8
Pel_Wall
100
AcDbVertex
100
AcDb2dVertex
 10
5.175687396715416
 20
0.2499999999999964
 30
0.0
  0
VERTEX
  5
18F
330
18B
100
AcDbEntity
  8
Pel_Wall
100
AcDbVertex
100
AcDb2dVertex
 10
3.675687396715381
 20
0.25
 30
0.0
  0
VERTEX
  5
190
330
18B
100
AcDbEntity
  8
Pel_Wall
100
AcDbVertex
100
AcDb2dVertex
 10
4.868187396715383
 20
4.213768087480608
 30
0.0
  0
SEQEND
  5
191
330
18B
100
AcDbEntity
  8
Pel_Wall
  0
POLYLINE
  5
192
330
106
100
AcDbEntity
  8
Pel_Wall
100
AcDb2dPolyline
 66
     1
 10
0.0
 20
0.0
 30
0.0
  0
VERTEX
  5
193
330
192
100
AcDbEntity
  8
Pel_Wall
100
AcDbVertex
100
AcDb2dVertex
 10
4.226650553517077
 20
4.213768090873549
 30
0.0
  0
VERTEX
  5
194
330
192
100
AcDbEntity
  8
Pel_Wall
100
AcDbVertex
100
AcDb2dVertex
 10
3.675687396715381
 20
4.213768087480622
 30
0.0
  0
VERTEX
  5
195
330
192
100
AcDbEntity
  8
Pel_Wall
100
AcDbVertex
100
AcDb2dVertex
 10
3.675687396715381
 20
0.25
 30
0.0
  0
VERTEX
  5
196
330
192
100
AcDbEntity
  8
Pel_Wall
100
AcDbVertex
100
AcDb2dVertex
 10
5.175687396715416
 20
0.2499999999999964
 30
0.0
  0
VERTEX
  5
197
330
192
100
AcDbEntity
  8
Pel_Wall
100
AcDbVertex
100
AcDb2dVertex
 10
5.175687396715381
 20
4.213768087480622
 30
0.0
  0
VERTEX
  5
198
330
192
100
AcDbEntity
  8
Pel_Wall
100
AcDbVertex
100
AcDb2dVertex
 10
4.476650553517077
 20
4.213768090873549
 30
0.0
  0
SEQEND
  5
199
330
192
100
AcDbEntity
  8
Pel_Wall
  0
POLYLINE
  5
19A
330
106
100
AcDbEntity
  8
Pel_Wall
100
AcDb2dPolyline
 66
     1
 10
0.0
 20
0.0
 30
0.0
  0
VERTEX
  5
19B
330
19A
100
AcDbEntity
  8
Pel_Wall
100
AcDbVertex
100
AcDb2dVertex
 10
4.226650553517077
 20
4.213768090873549
 30
0.0
  0
VERTEX
  5
19C
330
19A
100
AcDbEntity
  8
Pel_Wall
100
AcDbVertex
100
AcDb2dVertex
 10
3.675687396715381
 20
4.213768087480622
 30
0.0
  0
VERTEX
  5
19D
330
19A
100
AcDbEntity
  8
Pel_Wall
100
AcDbVertex
100
AcDb2dVertex
 10
3.675687396715381
 20
0.25
 30
0.0
  0
VERTEX
  5
19E
330
19A
100
AcDbEntity
  8
Pel_Wall
100
AcDbVertex
100
AcDb2dVertex
 10
5.175687396715416
 20
0.2499999999999964
 30
0.0
  0
VERTEX
  5
19F
330
19A
100
AcDbEntity
  8
Pel_Wall
100
AcDbVertex
100
AcDb2dVertex
 10
5.175687396715381
 20
4.213768087480622
 30
0.0
  0
VERTEX
  5
1A0
330
19A
100
AcDbEntity
  8
Pel_Wall
100
AcDbVertex
100
AcDb2dVertex
 10
4.476650553517077
 20
4.213768090873549
 30
0.0
  0
SEQEND
  5
1A1
330
19A
100
AcDbEntity
  8
Pel_Wall
  0
POLYLINE
  5
1A2
330
106
100
AcDbEntity
  8
Pel_Wall
100
AcDb2dPolyline
 66
     1
 10
0.0
 20
0.0
 30
0.0
  0
VERTEX
  5
1A3
330
1A2
100
AcDbEntity
  8
Pel_Wall
100
AcDbVertex
100
AcDb2dVertex
 10
3.175687396715381
 20
4.213768087480622
 30
0.0
  0
VERTEX
  5
1A4
330
1A2
100
AcDbEntity
  8
Pel_Wall
100
AcDbVertex
100
AcDb2dVertex
 10
1.675687396715381
 20
4.213768087480622
 30
0.0
  0
VERTEX
  5
1A5
330
1A2
100
AcDbEntity
  8
Pel_Wall
100
AcDbVertex
100
AcDb2dVertex
 10
1.675687396715381
 20
0.25
 30
0.0
  0
VERTEX
  5
1A6
330
1A2
100
AcDbEntity
  8
Pel_Wall
100
AcDbVertex
100
AcDb2dVertex
 10
3.175687396715416
 20
0.2499999999999964
 30
0.0
  0
VERTEX
  5
1A7
330
1A2
100
AcDbEntity
  8
Pel_Wall
100
AcDbVertex
100
AcDb2dVertex
 10
3.175687396715381
 20
4.213768087480622
 30
0.0
  0
VERTEX
  5
1A8
330
1A2
100
AcDbEntity
  8
Pel_Wall
100
AcDbVertex
100
AcDb2dVertex
 10
1.983217518772764
 20
4.213768087480622
 30
0.0
  0
VERTEX
  5
1A9
330
1A2
100
AcDbEntity
  8
Pel_Wall
100
AcDbVertex
100
AcDb2dVertex
 10
3.175687396715416
 20
0.2499999999999964
 30
0.0
  0
VERTEX
  5
1AA
330
1A2
100
AcDbEntity
  8
Pel_Wall
100
AcDbVertex
100
AcDb2dVertex
 10
1.675687396715381
 20
0.25
 30
0.0
  0
VERTEX
  5
1AB
330
1A2
100
AcDbEntity
  8
Pel_Wall
100
AcDbVertex
100
AcDb2dVertex
 10
2.868187396715383
 20
4.213768087480608
 30
0.0
  0
SEQEND
  5
1AC
330
1A2
100
AcDbEntity
  8
Pel_Wall
  0
POLYLINE
  5
1AD
330
106
100
AcDbEntity
  8
Pel_Wall
100
AcDb2dPolyline
 66
     1
 10
0.0
 20
0.0
 30
0.0
  0
VERTEX
  5
1AE
330
1AD
100
AcDbEntity
  8
Pel_Wall
100
AcDbVertex
100
AcDb2dVertex
 10
4.226650553517077
 20
4.213768090873549
 30
0.0
  0
VERTEX
  5
1AF
330
1AD
100
AcDbEntity
  8
Pel_Wall
100
AcDbVertex
100
AcDb2dVertex
 10
3.675687396715381
 20
4.213768087480622
 30
0.0
  0
VERTEX
  5
1B0
330
1AD
100
AcDbEntity
  8
Pel_Wall
100
AcDbVertex
100
AcDb2dVertex
 10
3.675687396715381
 20
0.25
 30
0.0
  0
VERTEX
  5
1B1
330
1AD
100
AcDbEntity
  8
Pel_Wall
100
AcDbVertex
100
AcDb2dVertex
 10
5.175687396715416
 20
0.2499999999999964
 30
0.0
  0
VERTEX
  5
1B2
330
1AD
100
AcDbEntity
  8
Pel_Wall
100
AcDbVertex
100
AcDb2dVertex
 10
5.175687396715381
 20
4.213768087480622
 30
0.0
  0
VERTEX
  5
1B3
330
1AD
100
AcDbEntity
  8
Pel_Wall
100
AcDbVertex
100
AcDb2dVertex
 10
4.476650553517077
 20
4.213768090873549
 30
0.0
  0
SEQEND
  5
1B4
330
1AD
100
AcDbEntity
  8
Pel_Wall
  0
POLYLINE
  5
1B5
330
106
100
AcDbEntity
  8
Pel_Wall
100
AcDb2dPolyline
 66
     1
 10
0.0
 20
0.0
 30
0.0
  0
VERTEX
  5
1B6
330
1B5
100
AcDbEntity
  8
Pel_Wall
100
AcDbVertex
100
AcDb2dVertex
 10
4.226650553517077
 20
4.213768090873549
 30
0.0
  0
VERTEX
  5
1B7
330
1B5
100
AcDbEntity
  8
Pel_Wall
100
AcDbVertex
100
AcDb2dVertex
 10
3.675687396715381
 20
4.213768087480622
 30
0.0
  0
VERTEX
  5
1B8
330
1B5
100
AcDbEntity
  8
Pel_Wall
100
AcDbVertex
100
AcDb2dVertex
 10
3.675687396715381
 20
0.25
 30
0.0
  0
VERTEX
  5
1B9
330
1B5
100
AcDbEntity
  8
Pel_Wall
100
AcDbVertex
100
AcDb2dVertex
 10
5.175687396715416
 20
0.2499999999999964
 30
0.0
  0
VERTEX
  5
1BA
330
1B5
100
AcDbEntity
  8
Pel_Wall
100
AcDbVertex
100
AcDb2dVertex
 10
5.175687396715381
 20
4.213768087480622
 30
0.0
  0
VERTEX
  5
1BB
330
1B5
100
AcDbEntity
  8
Pel_Wall
100
AcDbVertex
100
AcDb2dVertex
 10
4.476650553517077
 20
4.213768090873549
 30
0.0
  0
SEQEND
  5
1BC
330
1B5
100
AcDbEntity
  8
Pel_Wall
  0
POLYLINE
  5
1BD
330
106
100
AcDbEntity
  8
Pel_Wall
100
AcDb2dPolyline
 66
     1
 10
0.0
 20
0.0
 30
0.0
  0
VERTEX
  5
1BE
330
1BD
100
AcDbEntity
  8
Pel_Wall
100
AcDbVertex
100
AcDb2dVertex
 10
0.7367416266290637
 20
4.213768090873529
 30
0.0
 42
-0.055359834818489
  0
VERTEX
  5
1BF
330
1BD
100
AcDbEntity
  8
Pel_Wall
100
AcDbVertex
100
AcDb2dVertex
 10
0.0805972962135684
 20
0.6769911398276208
 30
0.0
 42
0.50320648100936
  0
VERTEX
  5
1C0
330
1BD
100
AcDbEntity
  8
Pel_Wall
100
AcDbVertex
100
AcDb2dVertex
 10
0.1284513124138442
 20
0.6124999999999972
 30
0.0
  0
VERTEX
  5
1C1
330
1BD
100
AcDbEntity
  8
Pel_Wall
100
AcDbVertex
100
AcDb2dVertex
 10
0.6514124949927691
 20
0.6124999999999972
 30
0.0
 42
0.4142135623730898
  0
VERTEX
  5
1C2
330
1BD
100
AcDbEntity
  8
Pel_Wall
100
AcDbVertex
100
AcDb2dVertex
 10
0.7014124949927663
 20
0.6624999999999944
 30
0.0
  0
VERTEX
  5
1C3
330
1BD
100
AcDbEntity
  8
Pel_Wall
100
AcDbVertex
100
AcDb2dVertex
 10
0.7014124949927663
 20
1.0625
 30
0.0
  0
VERTEX
  5
1C4
330
1BD
100
AcDbEntity
  8
Pel_Wall
100
AcDbVertex
100
AcDb2dVertex
 10
0.7514124949927635
 20
1.0625
 30
0.0
  0
VERTEX
  5
1C5
330
1BD
100
AcDbEntity
  8
Pel_Wall
100
AcDbVertex
100
AcDb2dVertex
 10
0.7514124949927635
 20
0.6624999999999944
 30
0.0
 42
-0.4142135623730925
  0
VERTEX
  5
1C6
330
1BD
100
AcDbEntity
  8
Pel_Wall
100
AcDbVertex
100
AcDb2dVertex
 10
0.6514124949927691
 20
0.5625
 30
0.0
  0
VERTEX
  5
1C7
330
1BD
100
AcDbEntity
  8
Pel_Wall
100
AcDbVertex
100
AcDb2dVertex
 10
0.1284513124138442
 20
0.5625
 30
0.0
 42
-0.5032064810093663
  0
VERTEX
  5
1C8
330
1BD
100
AcDbEntity
  8
Pel_Wall
100
AcDbVertex
100
AcDb2dVertex
 10
0.0327432800132925
 20
0.6914822796552329
 30
0.0
 42
0.0562280014867292
  0
VERTEX
  5
1C9
330
1BD
100
AcDbEntity
  8
Pel_Wall
100
AcDbVertex
100
AcDb2dVertex
 10
0.6835519250690753
 20
4.213768090873529
 30
0.0
  0
SEQEND
  5
1CA
330
1BD
100
AcDbEntity
  8
Pel_Wall
  0
ENDBLK
  5
1CB
330
106
100
AcDbEntity
  8
0
100
AcDbBlockEnd
  0
BLOCK
  5
B6A
330
A9E
100
AcDbEntity
  8
0
100
AcDbBlockBegin
  2
TSE10SDLJ
 70
     0
 10
0.0
 20
0.0
 30
0.0
  3
TSE10SDLJ
  1

  0
POINT
  5
A9F
330
A9E
100
AcDbEntity
  8
Pel_CS-Points
100
AcDbPoint
 10
0.0
 20
-0.0000000000000036
 30
0.0
 50
360.0
  0
LWPOLYLINE
  5
AA1
330
A9E
100
AcDbEntity
  8
Pel_CS-Cross Section
 62
     4
100
AcDbPolyline
 90
      129
 70
     1
 43
0.0
 10
1.429957603986359
 20
1.125
 10
1.349957603986357
 20
1.125
 10
1.349957603986357
 20
0.0
 10
0.0650000000000013
 20
0.0
 10
0.0649999999999977
 20
-0.0799999999999983
 10
0.1169615242270687
 20
-0.1099999999999994
 10
0.1419615242270709
 20
-0.1099999999999994
 10
0.1419615242270638
 20
-0.0799999999999983
 10
0.2800000000000011
 20
-0.0799999999999983
 10
0.2799999999999976
 20
-0.2349999999999994
 10
0.0
 20
-0.2349999999999994
 10
0.0
 20
-0.9380000000000023
 10
0.1999999999999993
 20
-0.9380000000000023
 10
0.1999999999999993
 20
-0.4380000000000024
 10
0.8350000000000008
 20
-0.4380000000000024
 10
0.8350000000000008
 20
-0.6280000000000002
 10
0.8000000000000007
 20
-0.6280000000000002
 10
0.8000000000000007
 20
-0.9380000000000023
 10
0.8900000000000005
 20
-0.9380000000000023
 42
1.0
 10
0.8900000000000005
 20
-0.8780000000000001
 10
0.8599999999999994
 20
-0.8779999999999965
 10
0.8599999999999994
 20
-0.6879999999999989
 10
1.054999999999999
 20
-0.6879999999999989
 10
1.054999999999999
 20
-0.8379999999999974
 10
1.112735026918961
 20
-0.9379999999999988
 10
2.149999999999998
 20
-0.9379999999999952
 10
2.149999999999998
 20
-1.103000000000001
 10
2.114999999999998
 20
-1.103000000000001
 10
2.074999999999992
 20
-1.063000000000002
 10
2.05
 20
-1.063000000000002
 10
2.049999999999997
 20
-1.563000000000002
 10
2.599999999999997
 20
-1.563000000000002
 42
0.4142135623731037
 10
2.629999999999999
 20
-1.533000000000001
 10
2.629999999999995
 20
-0.6822820323027515
 10
2.669999999999998
 20
-0.6130000000000031
 10
2.669999999999994
 20
-0.588000000000001
 10
2.629999999999999
 20
-0.588000000000001
 10
2.629999999999999
 20
-0.463000000000001
 10
4.269999999999999
 20
-0.463000000000001
 10
4.269999999999996
 20
-0.588000000000001
 10
4.230000000000003
 20
-0.588000000000001
 10
4.230000000000003
 20
-0.6130000000000031
 10
4.269999999999999
 20
-0.6822820323027515
 10
4.269999999999996
 20
-1.413
 10
4.230000000000003
 20
-1.413
 10
4.23
 20
-1.533000000000001
 42
0.4142135623730863
 10
4.259999999999998
 20
-1.562999999999998
 10
4.499999999999992
 20
-1.563000000000002
 10
4.5
 20
-0.2349999999999994
 10
4.220000000000005
 20
-0.2349999999999994
 10
4.219999999999998
 20
-0.0901420310525723
 10
4.144999999999996
 20
-0.0901420310525723
 10
4.145000000000003
 20
-0.2349999999999994
 42
0.4142135623731037
 10
4.220000000000005
 20
-0.3100000000000023
 10
4.419999999999998
 20
-0.3100000000000023
 10
4.419999999999994
 20
-0.3829999999999991
 10
4.404899421459155
 20
-0.3829999999999991
 10
4.404899421459155
 20
-0.4429999999999979
 10
4.420000000000001
 20
-0.4429999999999979
 10
4.419999999999994
 20
-1.483
 10
4.329999999999998
 20
-1.483
 10
4.329999999999998
 20
-0.4429999999999979
 10
4.404899421459155
 20
-0.4429999999999979
 10
4.404899421459155
 20
-0.3829999999999991
 10
3.509
 20
-0.3829999999999991
 10
3.509000000000007
 20
-0.0901420310525723
 10
3.448999999999998
 20
-0.0901420310525723
 10
3.449000000000005
 20
-0.3829999999999991
 10
2.609999999999999
 20
-0.3829999999999991
 10
2.609999999999999
 20
-0.0901420310525723
 10
2.549999999999997
 20
-0.0901420310525723
 10
2.55
 20
-1.483
 10
2.130000000000002
 20
-1.483
 10
2.129999999999995
 20
-1.178
 10
2.150000000000002
 20
-1.178000000000004
 42
0.4142135623730822
 10
2.224999999999997
 20
-1.103000000000005
 10
2.224999999999997
 20
-0.9329999999999998
 42
0.414213562373109
 10
2.149999999999998
 20
-0.8579999999999969
 10
2.019999999999996
 20
-0.8579999999999969
 10
2.020000000000003
 20
-0.0901420310525723
 10
1.96
 20
-0.0901420310525723
 10
1.96
 20
-0.8579999999999969
 10
1.153149545762236
 20
-0.8579999999999969
 10
1.129999999999995
 20
-0.8179038105676639
 10
1.130000000000002
 20
-0.0901420310525723
 10
1.07
 20
-0.0901420310525723
 10
1.069999999999996
 20
-0.6129999999999996
 10
0.9100000000000036
 20
-0.6129999999999996
 10
0.9100000000000001
 20
-0.4380000000000024
 42
0.4142135623730951
 10
0.8350000000000008
 20
-0.3629999999999995
 10
0.3550000000000004
 20
-0.3629999999999995
 10
0.3550000000000004
 20
-0.3530621331517025
 10
0.2950000000000017
 20
-0.3530621331517025
 10
0.2950000000000017
 20
-0.3629999999999995
 10
0.2149999999999999
 20
-0.3629999999999995
 42
0.4142135623730966
 10
0.1400000000000006
 20
-0.4380000000000024
 10
0.139999999999997
 20
-0.8580000000000005
 10
0.0800000000000019
 20
-0.8580000000000005
 10
0.0799999999999983
 20
-0.3099999999999987
 10
0.2950000000000017
 20
-0.3099999999999987
 10
0.2950000000000017
 20
-0.3530621331517025
 10
0.3550000000000004
 20
-0.3530621331517025
 10
0.3550000000000004
 20
-0.0800000000000019
 10
1.07
 20
-0.0800000000000019
 10
1.07
 20
-0.0901420310525723
 10
1.130000000000006
 20
-0.0901420310525723
 10
1.129999999999999
 20
-0.0800000000000019
 10
1.96
 20
-0.0799999999999983
 10
1.96
 20
-0.0901420310525723
 10
2.019999999999999
 20
-0.0901420310525723
 10
2.020000000000003
 20
-0.0799999999999983
 10
2.550000000000004
 20
-0.0799999999999983
 10
2.550000000000004
 20
-0.0901420310525723
 10
2.609999999999999
 20
-0.0901420310525723
 10
2.609999999999999
 20
-0.0799999999999983
 10
3.448999999999998
 20
-0.0799999999999983
 10
3.449000000000001
 20
-0.0901420310525723
 10
3.509000000000003
 20
-0.0901420310525723
 10
3.509000000000003
 20
-0.0799999999999983
 10
4.144999999999999
 20
-0.0799999999999983
 10
4.144999999999996
 20
-0.0901420310525723
 10
4.220000000000005
 20
-0.0901420310525723
 10
4.219999999999998
 20
-0.0800000000000019
 10
4.358038475772936
 20
-0.0800000000000019
 10
4.358038475772936
 20
-0.1099999999999994
 10
4.383038475772931
 20
-0.1099999999999994
 10
4.435000000000002
 20
-0.0800000000000019
 10
4.435000000000002
 20
0.0
 10
1.429957603986363
 20
0.0
  0
POLYLINE
  5
AA2
330
A9E
100
AcDbEntity
  8
Pel_CS-Weatherstrip
100
AcDb2dPolyline
 66
     1
 10
0.0
 20
0.0
 30
0.0
  0
VERTEX
  5
E03
330
AA2
100
AcDbEntity
  8
Pel_CS-Weatherstrip
100
AcDbVertex
100
AcDb2dVertex
 10
2.7764886823471
 20
-1.340260736308881
 30
0.0
  0
VERTEX
  5
E04
330
AA2
100
AcDbEntity
  8
Pel_CS-Weatherstrip
100
AcDbVertex
100
AcDb2dVertex
 10
2.7764886823471
 20
-1.294016146670504
 30
0.0
  0
VERTEX
  5
E05
330
AA2
100
AcDbEntity
  8
Pel_CS-Weatherstrip
100
AcDbVertex
100
AcDb2dVertex
 10
2.630719152085461
 20
-1.332749727833679
 30
0.0
  0
VERTEX
  5
E06
330
AA2
100
AcDbEntity
  8
Pel_CS-Weatherstrip
100
AcDbVertex
100
AcDb2dVertex
 10
2.630719152085461
 20
-1.304574491179799
 30
0.0
  0
VERTEX
  5
E07
330
AA2
100
AcDbEntity
  8
Pel_CS-Weatherstrip
100
AcDbVertex
100
AcDb2dVertex
 10
2.7764886823471
 20
-1.294016146670504
 30
0.0
  0
VERTEX
  5
E08
330
AA2
100
AcDbEntity
  8
Pel_CS-Weatherstrip
100
AcDbVertex
100
AcDb2dVertex
 10
2.630719152085461
 20
-1.283173405521687
 30
0.0
  0
VERTEX
  5
E09
330
AA2
100
AcDbEntity
  8
Pel_CS-Weatherstrip
100
AcDbVertex
100
AcDb2dVertex
 10
2.630719152085461
 20
-1.252787164418773
 30
0.0
  0
VERTEX
  5
E0A
330
AA2
100
AcDbEntity
  8
Pel_CS-Weatherstrip
100
AcDbVertex
100
AcDb2dVertex
 10
2.7764886823471
 20
-1.294016146670504
 30
0.0
  0
VERTEX
  5
E0B
330
AA2
100
AcDbEntity
  8
Pel_CS-Weatherstrip
100
AcDbVertex
100
AcDb2dVertex
 10
2.7764886823471
 20
-1.211558182167042
 30
0.0
  0
VERTEX
  5
E0C
330
AA2
100
AcDbEntity
  8
Pel_CS-Weatherstrip
100
AcDbVertex
100
AcDb2dVertex
 10
2.630719152085461
 20
-1.252787164418773
 30
0.0
  0
VERTEX
  5
E0D
330
AA2
100
AcDbEntity
  8
Pel_CS-Weatherstrip
100
AcDbVertex
100
AcDb2dVertex
 10
2.630719152085461
 20
-1.222400923315852
 30
0.0
  0
VERTEX
  5
E0E
330
AA2
100
AcDbEntity
  8
Pel_CS-Weatherstrip
100
AcDbVertex
100
AcDb2dVertex
 10
2.7764886823471
 20
-1.211558182167042
 30
0.0
  0
VERTEX
  5
E0F
330
AA2
100
AcDbEntity
  8
Pel_CS-Weatherstrip
100
AcDbVertex
100
AcDb2dVertex
 10
2.630719152085461
 20
-1.193420405865495
 30
0.0
  0
VERTEX
  5
E10
330
AA2
100
AcDbEntity
  8
Pel_CS-Weatherstrip
100
AcDbVertex
100
AcDb2dVertex
 10
2.630719152085461
 20
-1.15195863569486
 30
0.0
  0
VERTEX
  5
E11
330
AA2
100
AcDbEntity
  8
Pel_CS-Weatherstrip
100
AcDbVertex
100
AcDb2dVertex
 10
2.7764886823471
 20
-1.211558182167042
 30
0.0
  0
VERTEX
  5
E12
330
AA2
100
AcDbEntity
  8
Pel_CS-Weatherstrip
100
AcDbVertex
100
AcDb2dVertex
 10
2.7764886823471
 20
-1.153483012622711
 30
0.0
  0
VERTEX
  5
E13
330
AA2
100
AcDbEntity
  8
Pel_CS-Weatherstrip
100
AcDbVertex
100
AcDb2dVertex
 10
2.811488668347095
 20
-1.153483012622711
 30
0.0
  0
VERTEX
  5
E14
330
AA2
100
AcDbEntity
  8
Pel_CS-Weatherstrip
100
AcDbVertex
100
AcDb2dVertex
 10
2.811488668347095
 20
-1.340260736308881
 30
0.0
  0
VERTEX
  5
E15
330
AA2
100
AcDbEntity
  8
0
100
AcDbVertex
100
AcDb2dVertex
 10
2.7764886823471
 20
-1.340260736308881
 30
0.0
  0
SEQEND
  5
E16
330
AA2
100
AcDbEntity
  8
Pel_CS-Weatherstrip
  0
LINE
  5
AB7
330
A9E
100
AcDbEntity
  8
0
100
AcDbLine
 10
2.637999441323476
 20
-1.408054524604224
 30
0.0
 11
2.637999441323476
 21
-1.408054524604224
 31
0.0
  0
LINE
  5
AB8
330
A9E
100
AcDbEntity
  8
0
100
AcDbLine
 10
2.637999441323476
 20
-1.408054524604224
 30
0.0
 11
2.637999441323476
 21
-1.408054524604224
 31
0.0
  0
LWPOLYLINE
  5
AB9
102
{ACAD_REACTORS
330
ABA
102
}
330
A9E
100
AcDbEntity
  8
Pel_CS-Reinforcement
100
AcDbPolyline
 90
       19
 70
     1
 43
0.0
 10
3.100280785676659
 20
-1.349755741607232
 42
0.121751485986151
 10
3.105807904473142
 20
-1.327393846287925
 10
3.105807904473145
 20
-1.221055938570749
 10
4.053564347943321
 20
-1.221055938570763
 10
4.053564347943328
 20
-2.578055938570749
 10
4.101564347943323
 20
-2.578055938570749
 10
4.101564347943323
 20
-1.221055938570763
 42
0.4142135623730789
 10
4.053564347943321
 20
-1.173055938570762
 10
3.105807904473142
 20
-1.173055938570747
 42
0.4142135623731005
 10
3.057807904473143
 20
-1.221055938570749
 10
3.057807904473143
 20
-1.327393846287929
 10
2.925091466739807
 20
-1.579467716284675
 42
0.1217514859861519
 10
2.919564347943321
 20
-1.601829611603996
 10
2.919564347943328
 20
-2.261592648131106
 42
0.2173021055735763
 10
2.936098543409471
 20
-2.297840450064988
 10
3.258899618310664
 20
-2.578055938570749
 10
3.290365422844519
 20
-2.54180813663688
 10
2.96756434794333
 20
-2.261592648131106
 10
2.967564347943323
 20
-1.601829611603999
  0
HATCH
  5
ABA
330
A9E
100
AcDbEntity
  8
Pel_CS-AM-Hatch
100
AcDbHatch
 10
0.0
 20
0.0
 30
0.0
210
0.0
220
0.0
230
1.0
  2
PLAST
 70
     0
 71
     1
 91
        1
 92
        1
 93
       19
 72
     2
 10
3.057807904473158
 20
-1.327393846287925
 40
0.0479999999999841
 50
332.2332759592252
 51
359.9999999999973
 73
     1
 72
     1
 10
3.105807904473142
 20
-1.327393846287925
 11
3.105807904473145
 21
-1.221055938570749
 72
     1
 10
3.105807904473145
 20
-1.221055938570749
 11
4.053564347943321
 21
-1.221055938570763
 72
     1
 10
4.053564347943321
 20
-1.221055938570763
 11
4.053564347943322
 21
-2.578055938570748
 72
     1
 10
4.053564347943328
 20
-2.578055938570749
 11
4.101564347943322
 21
-2.578055938570749
 72
     1
 10
4.101564347943323
 20
-2.578055938570749
 11
4.10156434794333
 21
-1.221055938570763
 72
     2
 10
4.053564347943321
 20
-1.221055938570767
 40
0.0480000000000027
 50
0.0000000000015903
 51
89.99999999999895
 73
     1
 72
     1
 10
4.053564347943321
 20
-1.173055938570762
 11
3.105807904473142
 21
-1.173055938570747
 72
     2
 10
3.105807904473142
 20
-1.221055938570749
 40
0.0479999999999996
 50
90.00000000000159
 51
180.0000000000026
 73
     1
 72
     1
 10
3.057807904473143
 20
-1.221055938570749
 11
3.057807904473142
 21
-1.327393846287927
 72
     1
 10
3.057807904473143
 20
-1.327393846287929
 11
2.925091466739808
 21
-1.579467716284677
 72
     2
 10
2.967564347943334
 20
-1.601829611603999
 40
0.0480000000000143
 50
152.233275959225
 51
179.9999999999973
 73
     1
 72
     1
 10
2.919564347943321
 20
-1.601829611603996
 11
2.919564347943321
 21
-2.261592648131106
 72
     2
 10
2.967564347943341
 20
-2.261592648131113
 40
0.0480000000000129
 50
179.9999999999926
 51
229.0395742083816
 73
     1
 72
     1
 10
2.936098543409471
 20
-2.297840450064988
 11
3.258899618310665
 21
-2.578055938570748
 72
     1
 10
3.258899618310664
 20
-2.578055938570749
 11
3.29036542284452
 21
-2.541808136636881
 72
     1
 10
3.290365422844519
 20
-2.54180813663688
 11
2.967564347943327
 21
-2.261592648131105
 72
     1
 10
2.96756434794333
 20
-2.261592648131106
 11
2.96756434794333
 21
-1.601829611604
 72
     1
 10
2.967564347943323
 20
-1.601829611603999
 11
3.10028078567666
 21
-1.349755741607233
 97
        1
330
AB9
 75
     0
 76
     1
 52
315.0
 41
1.0
 77
     0
 78
     3
 53
315.0
 43
10.0
 44
0.0
 45
0.1767766952966369
 46
0.1767766952966368
 79
     0
 53
315.0
 43
10.02209708691208
 44
0.0220970869120798
 45
0.1767766952966369
 46
0.1767766952966368
 79
     0
 53
315.0
 43
10.04419417382416
 44
0.0441941738241596
 45
0.1767766952966369
 46
0.1767766952966368
 79
     0
 98
        1
 10
10.0
 20
0.0
1001
ACAD
1010
0.0
1020
0.0
1030
0.0
  0
LWPOLYLINE
  5
ABB
330
A9E
100
AcDbEntity
  8
Pel_CS-AM-Hatch
 62
     4
100
AcDbPolyline
 90
       46
 70
     1
 43
0.0
 10
2.794451099289261
 20
-1.433055938570767
 10
2.814451099289268
 20
-1.433055938570767
 42
0.4142135623730823
 10
2.894451099289266
 20
-1.353055938570765
 10
2.894451099289266
 20
-1.143055938570768
 10
4.134451099289268
 20
-1.143055938570768
 10
4.134451099289272
 20
-2.608055938570764
 10
4.128992007408832
 20
-2.608055938570764
 10
4.128992007408832
 20
-2.658055938570768
 10
4.134451099289272
 20
-2.658055938570768
 10
4.134451099289275
 20
-3.253055938570767
 10
4.024451099289269
 20
-3.253055938570767
 10
4.024451099289276
 20
-2.658055938570768
 10
4.128992007408832
 20
-2.658055938570768
 10
4.128992007408832
 20
-2.608055938570764
 10
3.049451099289271
 20
-2.608055938570764
 10
3.049451099289274
 20
-2.438055938570762
 42
0.4142135623730835
 10
2.969451099289273
 20
-2.358055938570764
 10
2.801040949422606
 20
-2.358055938570764
 10
2.801040949422603
 20
-2.438055938570762
 10
2.969451099289269
 20
-2.438055938570762
 10
2.969451099289269
 20
-2.608055938570764
 42
0.4142135623730951
 10
3.049451099289274
 20
-2.688055938570762
 10
3.96445109928927
 20
-2.688055938570762
 10
3.964451099289274
 20
-3.313055938570762
 10
4.214451099289274
 20
-3.313055938570762
 10
4.214451099289266
 20
-1.143055938570768
 42
0.4142135623730951
 10
4.134451099289268
 20
-1.063055938570769
 10
2.794451099289265
 20
-1.063055938570769
 42
0.4142135623730951
 10
2.714451099289266
 20
-1.143055938570768
 10
2.71445109928927
 20
-1.185555938570765
 10
2.764451099289264
 20
-1.185555938570765
 10
2.764451099289264
 20
-1.143055938570768
 10
2.814451099289268
 20
-1.143055938570768
 10
2.814451099289268
 20
-1.353055938570761
 10
2.764451099289264
 20
-1.353055938570761
 10
2.764451099289264
 20
-1.310555938570765
 10
2.71445109928927
 20
-1.310555938570765
 10
2.714451099289266
 20
-1.353055938570761
 10
2.714451099289274
 20
-2.688055938570769
 10
2.80445109928927
 20
-2.688055938570769
 42
1.0
 10
2.80445109928927
 20
-2.628055938570767
 10
2.794451099289272
 20
-2.628055938570767
 10
2.794451099289272
 20
-2.438055938570762
 10
2.801040949422606
 20
-2.438055938570762
 10
2.801040949422603
 20
-2.358055938570764
 10
2.794451099289272
 20
-2.358055938570764
  0
LWPOLYLINE
  5
ABD
330
A9E
100
AcDbEntity
  8
Pel_CS-Cross Section
 62
     4
100
AcDbPolyline
 90
       15
 70
     1
 43
0.0
 10
2.860227951931506
 20
-2.686715228753659
 10
2.860227951931513
 20
-2.597965228753654
 10
2.961090020897021
 20
-2.492060056339866
 42
1.0
 10
2.939365882965986
 20
-2.471370401167455
 10
2.815227951931507
 20
-2.601715228753658
 10
2.830227951931508
 20
-2.616715228753658
 10
2.830227951931508
 20
-2.686715228753659
 10
2.766814276846726
 20
-2.686715228753659
 42
0.5343310138307086
 10
2.752952869042555
 20
-2.707447712830088
 42
0.2404623521578165
 10
3.12558655586627
 20
-3.29359561426336
 42
0.9781803082727828
 10
3.140843978715917
 20
-3.267732696675455
 10
3.139571537472914
 20
-3.267026654247931
 42
-0.0133516086578351
 10
3.140281025890249
 20
-3.267400369472831
 42
-0.2361122684030795
 10
2.784707987626767
 20
-2.716715228753656
 10
2.830227951931508
 20
-2.716715228753656
 42
0.414213562373108
  0
HATCH
  5
ABE
330
A9E
100
AcDbEntity
  8
Pel_CS-Sealant
100
AcDbHatch
 10
0.0
 20
0.0
 30
0.0
210
0.0
220
0.0
230
1.0
  2
DASH
 70
     0
 71
     0
 91
        1
 92
        1
 93
        4
 72
     1
 10
3.304226798513955
 20
-2.994906278542607
 11
3.740976798513958
 21
-2.994906278542607
 72
     1
 10
3.740976798513958
 20
-2.994906278542607
 11
3.740976798513958
 21
-2.945215228753767
 72
     1
 10
3.740976798513958
 20
-2.945215228753767
 11
3.304226798513955
 21
-2.945215228753777
 72
     1
 10
3.304226798513955
 20
-2.945215228753777
 11
3.304226798513955
 21
-2.994906278542607
 97
        0
 75
     0
 76
     1
 52
30.0
 41
0.15
 77
     0
 78
     1
 53
30.0
 43
-8.006629124252111
 44
0.1262847712462509
 45
0.0068629763209582
 46
0.0256129763209582
 79
     2
 49
0.01875
 49
-0.01875
 98
        1
 10
-8.006629124252111
 20
0.1262847712462509
1001
ACAD
1010
0.0
1020
0.0
1030
0.0
  0
LWPOLYLINE
  5
ABF
330
A9E
100
AcDbEntity
  8
Pel_CS-Sealant
100
AcDbPolyline
 90
        4
 70
     1
 43
0.0
 10
3.304226798513955
 20
-2.994906278542607
 10
3.740976798513958
 20
-2.994906278542607
 10
3.740976798513958
 20
-2.945215228753767
 10
3.304226798513955
 20
-2.945215228753777
  0
LWPOLYLINE
  5
AC0
330
A9E
100
AcDbEntity
  8
Pel_CS-IG
100
AcDbPolyline
 90
        4
 70
     0
 43
0.0
 10
3.147476798513952
 20
-4.5
 10
3.147476798513952
 20
-2.811715228753765
 10
3.276476798513964
 20
-2.811715228753765
 10
3.276476798513961
 20
-4.5
  0
LWPOLYLINE
  5
AC1
330
A9E
100
AcDbEntity
  8
Pel_CS-IG
100
AcDbPolyline
 90
        4
 70
     0
 43
0.0
 10
3.768726798513959
 20
-4.5
 10
3.768726798513959
 20
-2.811715228753762
 10
3.897726798513957
 20
-2.811715228753762
 10
3.897726798513957
 20
-4.5
  0
LWPOLYLINE
  5
AC2
330
A9E
100
AcDbEntity
  8
Pel_CS-IG
100
AcDbPolyline
 90
       16
 70
     1
 43
0.0
 10
3.747976798513956
 20
-2.93621522875377
 10
3.297226798513957
 20
-2.93621522875377
 42
0.4142135623730951
 10
3.288226798513957
 20
-2.94521522875377
 10
3.288226798513957
 20
-3.22721522875377
 42
0.4142135623730913
 10
3.297226798513957
 20
-3.236215228753771
 10
3.366351798513957
 20
-3.236215228753771
 10
3.366351798513957
 20
-3.22721522875377
 10
3.297226798513957
 20
-3.22721522875377
 10
3.297226798513957
 20
-2.94521522875377
 10
3.747976798513956
 20
-2.94521522875377
 10
3.747976798513956
 20
-3.22721522875377
 10
3.678851798513964
 20
-3.22721522875377
 10
3.678851798513953
 20
-3.236215228753771
 10
3.747976798513956
 20
-3.236215228753771
 42
0.4142135623730918
 10
3.756976798513957
 20
-3.22721522875377
 10
3.756976798513957
 20
-2.94521522875377
 42
0.4142135623730951
  0
LINE
  5
AC3
330
A9E
100
AcDbEntity
  8
Pel_CS-Weatherstrip
  6
Continuous
100
AcDbLine
 10
3.754014712747455
 20
-2.938541130184759
 30
0.0
 11
3.768726798513959
 21
-2.938541130184759
 31
0.0
  0
LINE
  5
AC4
330
A9E
100
AcDbEntity
  8
Pel_CS-Weatherstrip
  6
Continuous
100
AcDbLine
 10
3.754014712747455
 20
-3.233889327322785
 30
0.0
 11
3.768726798513959
 21
-3.233889327322785
 31
0.0
  0
LINE
  5
AC5
330
A9E
100
AcDbEntity
  8
Pel_CS-Weatherstrip
  6
Continuous
100
AcDbLine
 10
3.291188884280455
 20
-2.938541130184759
 30
0.0
 11
3.276476798513954
 21
-2.938541130184759
 31
0.0
  0
LINE
  5
AC6
330
A9E
100
AcDbEntity
  8
Pel_CS-Weatherstrip
  6
Continuous
100
AcDbLine
 10
3.291188884280455
 20
-3.233889327322785
 30
0.0
 11
3.276476798513954
 21
-3.233889327322785
 31
0.0
  0
ARC
  5
AC7
330
A9E
100
AcDbEntity
  8
Pel_CS-Sealant
100
AcDbCircle
 10
3.522601798513903
 20
-1.115278509127186
 30
0.0
 40
1.774198080538652
100
AcDbArc
 50
262.0259462884695
 51
277.9740537115325
  0
ARC
  5
AC8
330
A9E
100
AcDbEntity
  8
Pel_CS-Sealant
100
AcDbCircle
 10
3.522601798513903
 20
-1.115278509127186
 30
0.0
 40
1.714198080538652
100
AcDbArc
 50
261.7449263785127
 51
278.2550736214894
  0
ARC
  5
AC9
330
A9E
100
AcDbEntity
  8
Pel_CS-Sealant
100
AcDbCircle
 10
3.522601798513903
 20
-1.115278509127186
 30
0.0
 40
1.734198080538652
100
AcDbArc
 50
261.8407824200478
 51
278.1592175799544
  0
ARC
  5
ACA
330
A9E
100
AcDbEntity
  8
Pel_CS-Sealant
100
AcDbCircle
 10
3.522601798513903
 20
-1.115278509127186
 30
0.0
 40
1.754198080538652
100
AcDbArc
 50
261.9344305006224
 51
278.0655694993797
  0
LWPOLYLINE
  5
ACB
330
A9E
100
AcDbEntity
  8
Pel_CS-Weatherstrip
100
AcDbPolyline
 90
        4
 70
     1
 43
0.0
 10
3.897726798513957
 20
-2.936715228753755
 10
3.960227951931507
 20
-2.936715228753755
 10
3.960227951931507
 20
-3.311715228753755
 10
3.897726798513957
 20
-3.311715228753755
  0
POLYLINE
  5
ACD
330
A9E
100
AcDbEntity
  8
Pel_CS-Hardware
100
AcDb2dPolyline
 66
     1
 10
0.0
 20
0.0
 30
0.0
  0
VERTEX
  5
E2C
330
ACD
100
AcDbEntity
  8
Pel_Dim
100
AcDbVertex
100
AcDb2dVertex
 10
1.431951099289275
 20
-1.688055938570769
 30
0.0
 42
0.4142135623730951
  0
VERTEX
  5
E2D
330
ACD
100
AcDbEntity
  8
Pel_Dim
100
AcDbVertex
100
AcDb2dVertex
 10
1.401951099289274
 20
-1.718055938570767
 30
0.0
  0
VERTEX
  5
E2E
330
ACD
100
AcDbEntity
  8
Pel_Dim
100
AcDbVertex
100
AcDb2dVertex
 10
1.401951099289274
 20
-1.970555938570768
 30
0.0
 42
0.4142135623730999
  0
VERTEX
  5
E2F
330
ACD
100
AcDbEntity
  8
Pel_Dim
100
AcDbVertex
100
AcDb2dVertex
 10
1.431951099289275
 20
-2.000555938570769
 30
0.0
  0
VERTEX
  5
E30
330
ACD
100
AcDbEntity
  8
Pel_Dim
100
AcDbVertex
100
AcDb2dVertex
 10
2.246951099289269
 20
-2.000555938570769
 30
0.0
 42
-0.4142135623731114
  0
VERTEX
  5
E31
330
ACD
100
AcDbEntity
  8
Pel_Dim
100
AcDbVertex
100
AcDb2dVertex
 10
2.27695109928927
 20
-2.030555938570767
 30
0.0
  0
VERTEX
  5
E32
330
ACD
100
AcDbEntity
  8
Pel_Dim
100
AcDbVertex
100
AcDb2dVertex
 10
2.276951099289266
 20
-2.658055938570768
 30
0.0
 42
0.4142135623730822
  0
VERTEX
  5
E33
330
ACD
100
AcDbEntity
  8
Pel_Dim
100
AcDbVertex
100
AcDb2dVertex
 10
2.306951099289268
 20
-2.688055938570769
 30
0.0
  0
VERTEX
  5
E34
330
ACD
100
AcDbEntity
  8
Pel_Dim
100
AcDbVertex
100
AcDb2dVertex
 10
2.714451099289274
 20
-2.688055938570769
 30
0.0
  0
SEQEND
  5
E35
330
ACD
100
AcDbEntity
  8
Pel_CS-Hardware
  0
POLYLINE
  5
AD8
330
A9E
100
AcDbEntity
  8
Pel_CS-Hardware
100
AcDb2dPolyline
 66
     1
 10
0.0
 20
0.0
 30
0.0
 70
     1
  0
VERTEX
  5
E37
330
AD8
100
AcDbEntity
  8
Pel_CS-Hardware
100
AcDbVertex
100
AcDb2dVertex
 10
2.714451099289274
 20
-2.688055938570769
 30
0.0
  0
VERTEX
  5
E38
330
AD8
100
AcDbEntity
  8
Pel_CS-Hardware
100
AcDbVertex
100
AcDb2dVertex
 10
1.431951099289275
 20
-2.688055938570769
 30
0.0
 42
-0.4142135623730951
  0
VERTEX
  5
E39
330
AD8
100
AcDbEntity
  8
Pel_Dim
100
AcDbVertex
100
AcDb2dVertex
 10
1.401951099289274
 20
-2.658055938570768
 30
0.0
  0
VERTEX
  5
E3A
330
AD8
100
AcDbEntity
  8
Pel_Dim
100
AcDbVertex
100
AcDb2dVertex
 10
1.401951099289274
 20
-1.718055938570767
 30
0.0
 42
-0.4142135623730947
  0
VERTEX
  5
E3B
330
AD8
100
AcDbEntity
  8
Pel_Dim
100
AcDbVertex
100
AcDb2dVertex
 10
1.431951099289275
 20
-1.688055938570769
 30
0.0
  0
VERTEX
  5
E3C
330
AD8
100
AcDbEntity
  8
Pel_Dim
100
AcDbVertex
100
AcDb2dVertex
 10
2.714451099289274
 20
-1.688055938570769
 30
0.0
  0
SEQEND
  5
E3D
330
AD8
100
AcDbEntity
  8
Pel_CS-Hardware
  0
POLYLINE
  5
AE0
330
A9E
100
AcDbEntity
  8
Pel_CS-Hardware
100
AcDb2dPolyline
 66
     1
 10
0.0
 20
0.0
 30
0.0
  0
VERTEX
  5
E3F
330
AE0
100
AcDbEntity
  8
Pel_CS-Hardware
100
AcDbVertex
100
AcDb2dVertex
 10
4.544451099287378
 20
-2.530555938570763
 30
0.0
  0
VERTEX
  5
E40
330
AE0
100
AcDbEntity
  8
Pel_CS-Hardware
100
AcDbVertex
100
AcDb2dVertex
 10
4.634042395784
 20
-2.530555938570753
 30
0.0
  0
VERTEX
  5
E41
330
AE0
100
AcDbEntity
  8
Pel_CS-Hardware
100
AcDbVertex
100
AcDb2dVertex
 10
4.621286101044368
 20
-2.498175622033407
 30
0.0
 42
-0.1929243954116725
  0
VERTEX
  5
E42
330
AE0
100
AcDbEntity
  8
Pel_CS-Hardware
100
AcDbVertex
100
AcDb2dVertex
 10
4.627660284451891
 20
-2.468010477334363
 30
0.0
 42
-0.2134052525537633
  0
VERTEX
  5
E43
330
AE0
100
AcDbEntity
  8
Pel_CS-Hardware
100
AcDbVertex
100
AcDb2dVertex
 10
5.028972678717675
 20
-2.282325879711006
 30
0.0
  0
VERTEX
  5
E44
330
AE0
100
AcDbEntity
  8
Pel_CS-Hardware
100
AcDbVertex
100
AcDb2dVertex
 10
5.028972678717671
 20
-2.482575762385561
 30
0.0
 42
0.0389241934479455
  0
VERTEX
  5
E45
330
AE0
100
AcDbEntity
  8
Pel_CS-Hardware
100
AcDbVertex
100
AcDb2dVertex
 10
5.149245572209409
 20
-3.339852822456141
 30
0.0
 42
0.0568184929927288
  0
VERTEX
  5
E46
330
AE0
100
AcDbEntity
  8
Pel_CS-Hardware
100
AcDbVertex
100
AcDb2dVertex
 10
5.284566185095254
 20
-3.758485913318253
 30
0.0
 42
0.2088693116806593
  0
VERTEX
  5
E47
330
AE0
100
AcDbEntity
  8
Pel_CS-Hardware
100
AcDbVertex
100
AcDb2dVertex
 10
5.396602576741479
 20
-3.867091617426186
 30
0.0
  0
VERTEX
  5
E48
330
AE0
100
AcDbEntity
  8
Pel_CS-Hardware
100
AcDbVertex
100
AcDb2dVertex
 10
5.651451099287353
 20
-3.938055938570748
 30
0.0
  0
VERTEX
  5
E49
330
AE0
100
AcDbEntity
  8
Pel_CS-Hardware
100
AcDbVertex
100
AcDb2dVertex
 10
5.902451099287556
 20
-3.938055938570748
 30
0.0
 42
0.4142135623649719
  0
VERTEX
  5
E4A
330
AE0
100
AcDbEntity
  8
Pel_CS-Hardware
100
AcDbVertex
100
AcDb2dVertex
 10
5.964451099289274
 20
-3.87605593857075
 30
0.0
  0
VERTEX
  5
E4B
330
AE0
100
AcDbEntity
  8
Pel_CS-Hardware
100
AcDbVertex
100
AcDb2dVertex
 10
5.964451099289274
 20
-3.585055938570761
 30
0.0
 42
0.342199069409983
  0
VERTEX
  5
E4C
330
AE0
100
AcDbEntity
  8
Pel_CS-Hardware
100
AcDbVertex
100
AcDb2dVertex
 10
5.91790802530912
 20
-3.52501359153166
 30
0.0
  0
VERTEX
  5
E4D
330
AE0
100
AcDbEntity
  8
Pel_CS-Hardware
100
AcDbVertex
100
AcDb2dVertex
 10
5.660033858497076
 20
-3.473617474721237
 30
0.0
 42
-0.2251488468182649
  0
VERTEX
  5
E4E
330
AE0
100
AcDbEntity
  8
Pel_CS-Hardware
100
AcDbVertex
100
AcDb2dVertex
 10
5.576337279347676
 20
-3.414050125035196
 30
0.0
 42
-0.0943073718455852
  0
VERTEX
  5
E4F
330
AE0
100
AcDbEntity
  8
Pel_CS-Hardware
100
AcDbVertex
100
AcDb2dVertex
 10
5.364587087775269
 20
-2.75280975185997
 30
0.0
 42
-0.0176815309151857
  0
VERTEX
  5
E50
330
AE0
100
AcDbEntity
  8
Pel_CS-Hardware
100
AcDbVertex
100
AcDb2dVertex
 10
5.338117472007503
 20
-2.433063623675302
 30
0.0
  0
VERTEX
  5
E51
330
AE0
100
AcDbEntity
  8
Pel_CS-Hardware
100
AcDbVertex
100
AcDb2dVertex
 10
5.334451099288081
 20
-1.907577899721633
 30
0.0
 42
0.4100545840880817
  0
VERTEX
  5
E52
330
AE0
100
AcDbEntity
  8
Pel_CS-Hardware
100
AcDbVertex
100
AcDb2dVertex
 10
5.272451099286538
 20
-1.845561374958833
 30
0.0
  0
VERTEX
  5
E53
330
AE0
100
AcDbEntity
  8
Pel_CS-Hardware
100
AcDbVertex
100
AcDb2dVertex
 10
4.544451099287382
 20
-1.845555938570761
 30
0.0
  0
VERTEX
  5
E54
330
AE0
100
AcDbEntity
  8
Pel_CS-Hardware
100
AcDbVertex
100
AcDb2dVertex
 10
4.544451099287382
 20
-1.699579792503037
 30
0.0
  0
VERTEX
  5
E55
330
AE0
100
AcDbEntity
  8
Pel_CS-Hardware
100
AcDbVertex
100
AcDb2dVertex
 10
4.214451099289274
 20
-1.688055938570762
 30
0.0
  0
VERTEX
  5
E56
330
AE0
100
AcDbEntity
  8
Pel_CS-Hardware
100
AcDbVertex
100
AcDb2dVertex
 10
4.21445109928927
 20
-2.688055938570762
 30
0.0
  0
VERTEX
  5
E57
330
AE0
100
AcDbEntity
  8
Pel_CS-Hardware
100
AcDbVertex
100
AcDb2dVertex
 10
4.544451099287378
 20
-2.676532084638488
 30
0.0
  0
VERTEX
  5
E58
330
AE0
100
AcDbEntity
  8
Pel_CS-Hardware
100
AcDbVertex
100
AcDb2dVertex
 10
4.544451099287382
 20
-1.845555938570761
 30
0.0
  0
VERTEX
  5
E59
330
AE0
100
AcDbEntity
  8
Pel_CS-Hardware
100
AcDbVertex
100
AcDb2dVertex
 10
4.544451099287378
 20
-2.530555938570763
 30
0.0
  0
VERTEX
  5
E5A
330
AE0
100
AcDbEntity
  8
Pel_CS-Hardware
100
AcDbVertex
100
AcDb2dVertex
 10
4.634042395784398
 20
-2.530555938570756
 30
0.0
 42
-0.1520611077537554
  0
VERTEX
  5
E5B
330
AE0
100
AcDbEntity
  8
Pel_CS-Hardware
100
AcDbVertex
100
AcDb2dVertex
 10
4.634042395784
 20
-2.530555938570753
 30
0.0
 42
-0.3324162429900435
  0
VERTEX
  5
E5C
330
AE0
100
AcDbEntity
  8
Pel_CS-Hardware
100
AcDbVertex
100
AcDb2dVertex
 10
4.995800571620748
 20
-2.806580702470924
 30
0.0
 42
0.0658036633061896
  0
VERTEX
  5
E5D
330
AE0
100
AcDbEntity
  8
Pel_CS-Hardware
100
AcDbVertex
100
AcDb2dVertex
 10
5.214522693958375
 20
-3.701896513553169
 30
0.0
 42
0.2374320703742827
  0
VERTEX
  5
E5E
330
AE0
100
AcDbEntity
  8
Pel_CS-Hardware
100
AcDbVertex
100
AcDb2dVertex
 10
5.381442674365878
 20
-3.865884805540868
 30
0.0
 42
0.0027673006930218
  0
VERTEX
  5
E5F
330
AE0
100
AcDbEntity
  8
Pel_CS-Hardware
100
AcDbVertex
100
AcDb2dVertex
 10
5.634887144962952
 20
-3.935802344701833
 30
0.0
  0
SEQEND
  5
E60
330
AE0
100
AcDbEntity
  8
Pel_CS-Hardware
  0
POLYLINE
  5
B03
330
A9E
100
AcDbEntity
  8
Pel_CS-Hardware
100
AcDb2dPolyline
 66
     1
 10
0.0
 20
0.0
 30
0.0
  0
VERTEX
  5
E62
330
B03
100
AcDbEntity
  8
Pel_CS-Hardware
100
AcDbVertex
100
AcDb2dVertex
 10
5.964451099287558
 20
-3.585055938570764
 30
0.0
  0
VERTEX
  5
E63
330
B03
100
AcDbEntity
  8
Pel_CS-Hardware
100
AcDbVertex
100
AcDb2dVertex
 10
5.739006609323247
 20
-3.539845230690215
 30
0.0
 42
-0.274590404111051
  0
VERTEX
  5
E64
330
B03
100
AcDbEntity
  8
Pel_CS-Hardware
100
AcDbVertex
100
AcDb2dVertex
 10
5.598739747069387
 20
-3.460886545079688
 30
0.0
 42
-0.070804990768595
  0
VERTEX
  5
E65
330
B03
100
AcDbEntity
  8
Pel_CS-Hardware
100
AcDbVertex
100
AcDb2dVertex
 10
5.439570744024635
 20
-3.0950339192572
 30
0.0
 42
-2.90611279212422
  0
SEQEND
  5
E66
330
B03
100
AcDbEntity
  8
Pel_CS-Hardware
  0
POLYLINE
  5
B09
330
A9E
100
AcDbEntity
  8
Pel_CS-Hardware
100
AcDb2dPolyline
 66
     1
 10
0.0
 20
0.0
 30
0.0
  0
VERTEX
  5
E68
330
B09
100
AcDbEntity
  8
Pel_CS-Hardware
100
AcDbVertex
100
AcDb2dVertex
 10
5.964451099289274
 20
-3.87605593857075
 30
0.0
  0
VERTEX
  5
E69
330
B09
100
AcDbEntity
  8
Pel_CS-Hardware
100
AcDbVertex
100
AcDb2dVertex
 10
5.710504670298185
 20
-3.80703220839327
 30
0.0
 42
-0.2222038087413962
  0
VERTEX
  5
E6A
330
B09
100
AcDbEntity
  8
Pel_CS-Hardware
100
AcDbVertex
100
AcDb2dVertex
 10
5.571412695866108
 20
-3.654759881078465
 30
0.0
 42
-0.0644903735774232
  0
VERTEX
  5
E6B
330
B09
100
AcDbEntity
  8
Pel_CS-Hardware
100
AcDbVertex
100
AcDb2dVertex
 10
5.364587087775269
 20
-2.75280975185997
 30
0.0
 42
-2.269458251818386
  0
SEQEND
  5
E6C
330
B09
100
AcDbEntity
  8
Pel_CS-Hardware
  0
POLYLINE
  5
B0F
330
A9E
100
AcDbEntity
  8
Pel_CS-Hardware
100
AcDb2dPolyline
 66
     1
 10
0.0
 20
0.0
 30
0.0
  0
VERTEX
  5
E6E
330
B0F
100
AcDbEntity
  8
Pel_CS-Hardware
100
AcDbVertex
100
AcDb2dVertex
 10
5.902451099287556
 20
-3.938055938570748
 30
0.0
  0
VERTEX
  5
E6F
330
B0F
100
AcDbEntity
  8
Pel_CS-Hardware
100
AcDbVertex
100
AcDb2dVertex
 10
5.617996447424417
 20
-3.857240911039195
 30
0.0
 42
-0.1661794684168699
  0
VERTEX
  5
E70
330
B0F
100
AcDbEntity
  8
Pel_CS-Hardware
100
AcDbVertex
100
AcDb2dVertex
 10
5.484100948610461
 20
-3.647316622623652
 30
0.0
 42
-0.0709824801836189
  0
VERTEX
  5
E71
330
B0F
100
AcDbEntity
  8
Pel_CS-Hardware
100
AcDbVertex
100
AcDb2dVertex
 10
5.273800150401321
 20
-2.282300852546185
 30
0.0
  0
VERTEX
  5
E72
330
B0F
100
AcDbEntity
  8
Pel_CS-Hardware
100
AcDbVertex
100
AcDb2dVertex
 10
5.272451099286538
 20
-1.845561374958833
 30
0.0
  0
SEQEND
  5
E73
330
B0F
100
AcDbEntity
  8
Pel_CS-Hardware
  0
POLYLINE
  5
B16
330
A9E
100
AcDbEntity
  8
Pel_CS-Clad
100
AcDb2dPolyline
 66
     1
 10
0.0
 20
0.0
 30
0.0
 70
     1
  0
VERTEX
  5
E75
330
B16
100
AcDbEntity
  8
Pel_CS-Clad
100
AcDbVertex
100
AcDb2dVertex
 10
0.7503933982822062
 20
-2.08496852363821
 30
0.0
 42
-0.4142135623730885
  0
VERTEX
  5
E76
330
B16
100
AcDbEntity
  8
Pel_CS-Clad
100
AcDbVertex
100
AcDb2dVertex
 10
0.7103933982822071
 20
-2.124968523638209
 30
0.0
  0
VERTEX
  5
E77
330
B16
100
AcDbEntity
  8
Pel_CS-Clad
100
AcDbVertex
100
AcDb2dVertex
 10
0.6783933982822071
 20
-2.124968523638209
 30
0.0
 42
0.4142135623731344
  0
VERTEX
  5
E78
330
B16
100
AcDbEntity
  8
Pel_CS-Clad
100
AcDbVertex
100
AcDb2dVertex
 10
0.6583933982822075
 20
-2.144968523638212
 30
0.0
  0
VERTEX
  5
E79
330
B16
100
AcDbEntity
  8
Pel_CS-Clad
100
AcDbVertex
100
AcDb2dVertex
 10
0.6583933982822075
 20
-2.28596852363821
 30
0.0
 42
-0.4142135623730889
  0
VERTEX
  5
E7A
330
B16
100
AcDbEntity
  8
Pel_CS-Clad
100
AcDbVertex
100
AcDb2dVertex
 10
0.6183933982822083
 20
-2.325968523638209
 30
0.0
  0
VERTEX
  5
E7B
330
B16
100
AcDbEntity
  8
Pel_CS-Clad
100
AcDbVertex
100
AcDb2dVertex
 10
0.365893398282207
 20
-2.325968523638209
 30
0.0
 42
-1.0
  0
VERTEX
  5
E7C
330
B16
100
AcDbEntity
  8
Pel_CS-Clad
100
AcDbVertex
100
AcDb2dVertex
 10
0.365893398282207
 20
-2.268968523638211
 30
0.0
  0
VERTEX
  5
E7D
330
B16
100
AcDbEntity
  8
Pel_CS-Clad
100
AcDbVertex
100
AcDb2dVertex
 10
0.4953933982822072
 20
-2.268968523638211
 30
0.0
  0
VERTEX
  5
E7E
330
B16
100
AcDbEntity
  8
Pel_CS-Clad
100
AcDbVertex
100
AcDb2dVertex
 10
0.4953933982822072
 20
-2.287968523638213
 30
0.0
  0
VERTEX
  5
E7F
330
B16
100
AcDbEntity
  8
Pel_CS-Clad
100
AcDbVertex
100
AcDb2dVertex
 10
0.365893398282207
 20
-2.287968523638213
 30
0.0
 42
1.0
  0
VERTEX
  5
E80
330
B16
100
AcDbEntity
  8
Pel_CS-Clad
100
AcDbVertex
100
AcDb2dVertex
 10
0.365893398282207
 20
-2.306968523638211
 30
0.0
  0
VERTEX
  5
E81
330
B16
100
AcDbEntity
  8
Pel_CS-Clad
100
AcDbVertex
100
AcDb2dVertex
 10
0.619393398282206
 20
-2.306968523638211
 30
0.0
 42
0.4142135623730864
  0
VERTEX
  5
E82
330
B16
100
AcDbEntity
  8
Pel_CS-Clad
100
AcDbVertex
100
AcDb2dVertex
 10
0.6393933982822056
 20
-2.286968523638211
 30
0.0
  0
VERTEX
  5
E83
330
B16
100
AcDbEntity
  8
Pel_CS-Clad
100
AcDbVertex
100
AcDb2dVertex
 10
0.6393933982822091
 20
-2.14596852363821
 30
0.0
 42
-0.4142135623730826
  0
VERTEX
  5
E84
330
B16
100
AcDbEntity
  8
Pel_CS-Clad
100
AcDbVertex
100
AcDb2dVertex
 10
0.6793933982822083
 20
-2.10596852363821
 30
0.0
  0
VERTEX
  5
E85
330
B16
100
AcDbEntity
  8
Pel_CS-Clad
100
AcDbVertex
100
AcDb2dVertex
 10
0.7113933982822083
 20
-2.10596852363821
 30
0.0
 42
0.4142135623730822
  0
VERTEX
  5
E86
330
B16
100
AcDbEntity
  8
Pel_CS-Clad
100
AcDbVertex
100
AcDb2dVertex
 10
0.7313933982822079
 20
-2.085968523638211
 30
0.0
  0
VERTEX
  5
E87
330
B16
100
AcDbEntity
  8
Pel_CS-Clad
100
AcDbVertex
100
AcDb2dVertex
 10
0.7313933982822008
 20
-1.035639426056857
 30
0.0
  0
VERTEX
  5
E88
330
B16
100
AcDbEntity
  8
Pel_CS-Clad
100
AcDbVertex
100
AcDb2dVertex
 10
0.7313933982822008
 20
-0.7649685236382063
 30
0.0
  0
VERTEX
  5
E89
330
B16
100
AcDbEntity
  8
Pel_CS-Clad
100
AcDbVertex
100
AcDb2dVertex
 10
0.7313933982822008
 20
-1.035639426056857
 30
0.0
 42
-0.3868658026623807
  0
VERTEX
  5
E8A
330
B16
100
AcDbEntity
  8
Pel_CS-Clad
100
AcDbVertex
100
AcDb2dVertex
 10
0.6925665457773605
 20
-1.070968523638207
 30
0.0
  0
VERTEX
  5
E8B
330
B16
100
AcDbEntity
  8
Pel_CS-Clad
100
AcDbVertex
100
AcDb2dVertex
 10
0.3082202507870448
 20
-1.070968523638207
 30
0.0
 42
-0.3868658026623525
  0
VERTEX
  5
E8C
330
B16
100
AcDbEntity
  8
Pel_CS-Clad
100
AcDbVertex
100
AcDb2dVertex
 10
0.269393398282201
 20
-1.035639426056857
 30
0.0
  0
VERTEX
  5
E8D
330
B16
100
AcDbEntity
  8
Pel_CS-Clad
100
AcDbVertex
100
AcDb2dVertex
 10
0.269393398282201
 20
-0.7649685236382098
 30
0.0
  0
VERTEX
  5
E8E
330
B16
100
AcDbEntity
  8
Pel_CS-Clad
100
AcDbVertex
100
AcDb2dVertex
 10
0.269393398282201
 20
-1.035639426056857
 30
0.0
  0
VERTEX
  5
E8F
330
B16
100
AcDbEntity
  8
Pel_CS-Clad
100
AcDbVertex
100
AcDb2dVertex
 10
0.2693933982822081
 20
-2.085968523638211
 30
0.0
 42
0.4142135623730822
  0
VERTEX
  5
E90
330
B16
100
AcDbEntity
  8
Pel_CS-Clad
100
AcDbVertex
100
AcDb2dVertex
 10
0.2893933982822077
 20
-2.10596852363821
 30
0.0
  0
VERTEX
  5
E91
330
B16
100
AcDbEntity
  8
Pel_CS-Clad
100
AcDbVertex
100
AcDb2dVertex
 10
0.5993933982822064
 20
-2.10596852363821
 30
0.0
 42
-0.4142135623730948
  0
VERTEX
  5
E92
330
B16
100
AcDbEntity
  8
Pel_CS-Clad
100
AcDbVertex
100
AcDb2dVertex
 10
0.6393933982822091
 20
-2.14596852363821
 30
0.0
  0
VERTEX
  5
E93
330
B16
100
AcDbEntity
  8
Pel_CS-Clad
100
AcDbVertex
100
AcDb2dVertex
 10
0.6393933982822056
 20
-2.266968523638212
 30
0.0
 42
-0.4142135623730854
  0
VERTEX
  5
E94
330
B16
100
AcDbEntity
  8
Pel_CS-Clad
100
AcDbVertex
100
AcDb2dVertex
 10
0.5993933982822064
 20
-2.306968523638211
 30
0.0
  0
VERTEX
  5
E95
330
B16
100
AcDbEntity
  8
Pel_CS-Clad
100
AcDbVertex
100
AcDb2dVertex
 10
0.365893398282207
 20
-2.306968523638211
 30
0.0
  0
VERTEX
  5
E96
330
B16
100
AcDbEntity
  8
Pel_CS-Clad
100
AcDbVertex
100
AcDb2dVertex
 10
0.365893398282207
 20
-2.287968523638213
 30
0.0
  0
VERTEX
  5
E97
330
B16
100
AcDbEntity
  8
Pel_CS-Clad
100
AcDbVertex
100
AcDb2dVertex
 10
0.6003933982822077
 20
-2.287968523638213
 30
0.0
 42
0.4142135623730847
  0
VERTEX
  5
E98
330
B16
100
AcDbEntity
  8
Pel_CS-Clad
100
AcDbVertex
100
AcDb2dVertex
 10
0.6203933982822072
 20
-2.267968523638213
 30
0.0
  0
VERTEX
  5
E99
330
B16
100
AcDbEntity
  8
Pel_CS-Clad
100
AcDbVertex
100
AcDb2dVertex
 10
0.6203933982822072
 20
-2.144968523638212
 30
0.0
 42
0.4142135623731412
  0
VERTEX
  5
E9A
330
B16
100
AcDbEntity
  8
Pel_CS-Clad
100
AcDbVertex
100
AcDb2dVertex
 10
0.6003933982822077
 20
-2.124968523638209
 30
0.0
  0
VERTEX
  5
E9B
330
B16
100
AcDbEntity
  8
Pel_CS-Clad
100
AcDbVertex
100
AcDb2dVertex
 10
0.2903933982822053
 20
-2.124968523638209
 30
0.0
 42
-0.4142135623730891
  0
VERTEX
  5
E9C
330
B16
100
AcDbEntity
  8
Pel_CS-Clad
100
AcDbVertex
100
AcDb2dVertex
 10
0.2503933982822062
 20
-2.08496852363821
 30
0.0
  0
VERTEX
  5
E9D
330
B16
100
AcDbEntity
  8
Pel_CS-Clad
100
AcDbVertex
100
AcDb2dVertex
 10
0.2503933982822026
 20
-0.7644685236382145
 30
0.0
 42
-0.417485751266966
  0
VERTEX
  5
E9E
330
B16
100
AcDbEntity
  8
Pel_CS-Clad
100
AcDbVertex
100
AcDb2dVertex
 10
0.2690998357369203
 20
-0.7459696754692829
 30
0.0
 42
-0.4174423589703049
  0
VERTEX
  5
E9F
330
B16
100
AcDbEntity
  8
Pel_CS-Clad
100
AcDbVertex
100
AcDb2dVertex
 10
0.288309044374305
 20
-0.7649685236382098
 30
0.0
  0
VERTEX
  5
EA0
330
B16
100
AcDbEntity
  8
Pel_CS-Clad
100
AcDbVertex
100
AcDb2dVertex
 10
0.288309044374305
 20
-1.030086009577367
 30
0.0
 42
0.4421005955735554
  0
VERTEX
  5
EA1
330
B16
100
AcDbEntity
  8
Pel_CS-Clad
100
AcDbVertex
100
AcDb2dVertex
 10
0.3082202507870448
 20
-1.051968523638212
 30
0.0
  0
VERTEX
  5
EA2
330
B16
100
AcDbEntity
  8
Pel_CS-Clad
100
AcDbVertex
100
AcDb2dVertex
 10
0.6925665457773605
 20
-1.051968523638205
 30
0.0
 42
0.4421005955734904
  0
VERTEX
  5
EA3
330
B16
100
AcDbEntity
  8
Pel_CS-Clad
100
AcDbVertex
100
AcDb2dVertex
 10
0.7124777521900967
 20
-1.030086009577367
 30
0.0
  0
VERTEX
  5
EA4
330
B16
100
AcDbEntity
  8
Pel_CS-Clad
100
AcDbVertex
100
AcDb2dVertex
 10
0.7124777521900967
 20
-0.7649685236382027
 30
0.0
 42
-0.4174423589703208
  0
VERTEX
  5
EA5
330
B16
100
AcDbEntity
  8
Pel_CS-Clad
100
AcDbVertex
100
AcDb2dVertex
 10
0.7316869608274815
 20
-0.7459696754692758
 30
0.0
 42
-0.4174857512669492
  0
VERTEX
  5
EA6
330
B16
100
AcDbEntity
  8
Pel_CS-Clad
100
AcDbVertex
100
AcDb2dVertex
 10
0.7503933982821991
 20
-0.7644685236382074
 30
0.0
  0
SEQEND
  5
EA7
330
B16
100
AcDbEntity
  8
Pel_CS-Clad
  0
HATCH
  5
B4A
330
A9E
100
AcDbEntity
  8
Pel_CS-Fill
100
AcDbHatch
 10
0.0
 20
0.0
 30
0.0
210
0.0
220
0.0
230
1.0
  2
SOLID
 70
     1
 71
     0
 91
        1
 92
        1
 93
       50
 72
     2
 10
0.7103933982822071
 20
-2.08496852363821
 40
0.04
 50
0.0000000000012722
 51
90.0
 73
     0
 72
     1
 10
0.7103933982822071
 20
-2.124968523638209
 11
0.6783933982822079
 21
-2.124968523638209
 72
     2
 10
0.6783933982822106
 20
-2.144968523638208
 40
0.02
 50
90.00000000000127
 51
180.0000000000089
 73
     1
 72
     1
 10
0.6583933982822075
 20
-2.144968523638212
 11
0.6583933982822075
 21
-2.28596852363821
 72
     2
 10
0.6183933982822083
 20
-2.28596852363821
 40
0.04
 50
0.0000000000012722
 51
90.0
 73
     0
 72
     1
 10
0.6183933982822083
 20
-2.325968523638209
 11
0.3658933982822079
 21
-2.325968523638209
 72
     2
 10
0.365893398282207
 20
-2.297468523638212
 40
0.0284999999999993
 50
90.0
 51
270.0
 73
     0
 72
     1
 10
0.365893398282207
 20
-2.268968523638211
 11
0.4953933982822073
 21
-2.268968523638211
 72
     1
 10
0.4953933982822072
 20
-2.268968523638211
 11
0.4953933982822069
 21
-2.287968523638213
 72
     1
 10
0.4953933982822072
 20
-2.287968523638213
 11
0.3658933982822072
 21
-2.287968523638213
 72
     2
 10
0.365893398282207
 20
-2.297468523638212
 40
0.0094999999999992
 50
90.00000000000001
 51
270.0
 73
     1
 72
     1
 10
0.365893398282207
 20
-2.306968523638211
 11
0.619393398282206
 21
-2.306968523638211
 72
     2
 10
0.619393398282206
 20
-2.286968523638211
 40
0.02
 50
270.0000000000013
 51
359.9999999999994
 73
     1
 72
     1
 10
0.6393933982822056
 20
-2.286968523638211
 11
0.6393933982822074
 21
-2.14596852363821
 72
     2
 10
0.6793933982822083
 20
-2.145968523638213
 40
0.04
 50
180.0000000000013
 51
269.9999999999988
 73
     0
 72
     1
 10
0.6793933982822083
 20
-2.10596852363821
 11
0.7113933982822083
 21
-2.10596852363821
 72
     2
 10
0.7113933982822083
 20
-2.085968523638211
 40
0.02
 50
270.0000000000013
 51
359.9999999999988
 73
     1
 72
     1
 10
0.7313933982822079
 20
-2.085968523638211
 11
0.7313933982822079
 21
-1.035639426056853
 72
     1
 10
0.7313933982822008
 20
-1.035639426056857
 11
0.7313933982822008
 21
-0.7649685236382094
 72
     1
 10
0.7313933982822008
 20
-0.7649685236382063
 11
0.7313933982822008
 21
-1.035639426056853
 72
     2
 10
0.6925665457773605
 20
-1.031968523638209
 40
0.039
 50
5.401000800184829
 51
89.99999999999984
 73
     0
 72
     1
 10
0.6925665457773605
 20
-1.070968523638207
 11
0.3082202507870448
 21
-1.070968523638207
 72
     2
 10
0.3082202507870413
 20
-1.031968523638209
 40
0.039
 50
89.99999999999969
 51
174.598999199809
 73
     0
 72
     1
 10
0.269393398282201
 20
-1.035639426056857
 11
0.269393398282201
 21
-0.7649685236382088
 72
     1
 10
0.269393398282201
 20
-0.7649685236382098
 11
0.269393398282201
 21
-1.035639426056854
 72
     1
 10
0.269393398282201
 20
-1.035639426056857
 11
0.269393398282201
 21
-2.085968523638213
 72
     2
 10
0.2893933982822077
 20
-2.085968523638211
 40
0.02
 50
180.0000000000013
 51
269.9999999999988
 73
     1
 72
     1
 10
0.2893933982822077
 20
-2.10596852363821
 11
0.5993933982822082
 21
-2.10596852363821
 72
     2
 10
0.59939339828221
 20
-2.145968523638213
 40
0.04
 50
269.9999999999988
 51
359.9999999999988
 73
     0
 72
     1
 10
0.6393933982822091
 20
-2.14596852363821
 11
0.6393933982822075
 21
-2.266968523638212
 72
     2
 10
0.5993933982822064
 20
-2.266968523638212
 40
0.04
 50
0.0000000000019083
 51
89.99999999999984
 73
     0
 72
     1
 10
0.5993933982822064
 20
-2.306968523638211
 11
0.3658933982822075
 21
-2.306968523638211
 72
     1
 10
0.365893398282207
 20
-2.306968523638211
 11
0.365893398282207
 21
-2.287968523638213
 72
     1
 10
0.365893398282207
 20
-2.287968523638213
 11
0.6003933982822059
 21
-2.287968523638212
 72
     2
 10
0.6003933982822077
 20
-2.267968523638213
 40
0.02
 50
270.0000000000013
 51
359.9999999999994
 73
     1
 72
     1
 10
0.6203933982822072
 20
-2.267968523638213
 11
0.620393398282209
 21
-2.144968523638212
 72
     2
 10
0.6003933982822077
 20
-2.144968523638208
 40
0.02
 50
359.9999999999911
 51
450.0
 73
     1
 72
     1
 10
0.6003933982822077
 20
-2.124968523638209
 11
0.2903933982822058
 21
-2.124968523638209
 72
     2
 10
0.2903933982822089
 20
-2.08496852363821
 40
0.04
 50
90.00000000000127
 51
180.0
 73
     0
 72
     1
 10
0.2503933982822062
 20
-2.08496852363821
 11
0.2503933982822062
 21
-0.7644685236382154
 72
     2
 10
0.2688933982822022
 20
-0.7644685236382145
 40
0.0185
 50
180.0
 51
270.6393643443107
 73
     0
 72
     2
 10
0.2693090443743031
 20
-0.7649685236382098
 40
0.019
 50
269.3691045163644
 51
360.0
 73
     0
 72
     1
 10
0.288309044374305
 20
-0.7649685236382098
 11
0.288309044374305
 21
-1.030086009577367
 72
     2
 10
0.3082202507870413
 20
-1.031968523638212
 40
0.02
 50
174.5989991998133
 51
270.0000000000006
 73
     1
 72
     1
 10
0.3082202507870448
 20
-1.051968523638212
 11
0.6925665457773605
 21
-1.051968523638205
 72
     2
 10
0.6925665457773605
 20
-1.031968523638205
 40
0.02
 50
270.0000000000003
 51
365.4010008001751
 73
     1
 72
     1
 10
0.7124777521900967
 20
-1.030086009577367
 11
0.7124777521900967
 21
-0.7649685236382057
 72
     2
 10
0.7314777521900986
 20
-0.7649685236382027
 40
0.019
 50
180.0
 51
270.6308954836386
 73
     0
 72
     2
 10
0.7318933982821996
 20
-0.7644685236382074
 40
0.0185000000000001
 50
269.3606356556927
 51
360.0
 73
     0
 72
     1
 10
0.7503933982821991
 20
-0.7644685236382074
 11
0.7503933982821991
 21
-2.08496852363821
 97
        0
 75
     0
 76
     1
 98
        1
 10
1.389980685030344
 20
-1.035853719922876
  0
CIRCLE
  5
B4B
330
A9E
100
AcDbEntity
  8
Pel_CS-Sealant
100
AcDbCircle
 10
0.4953933982822108
 20
-2.196968523638211
 30
0.0
 40
0.0575
  0
CIRCLE
  5
B4C
330
A9E
100
AcDbEntity
  8
Pel_CS-Weatherstrip
100
AcDbCircle
 10
0.3193933982822088
 20
-2.422468523638212
 30
0.0
 40
0.018
  0
CIRCLE
  5
B4D
102
{ACAD_REACTORS
330
B50
102
}
330
A9E
100
AcDbEntity
  8
Pel_CS-Weatherstrip
100
AcDbCircle
 10
0.3193933982822088
 20
-2.297468523638212
 30
0.0
 40
0.018
  0
CIRCLE
  5
B4E
330
A9E
100
AcDbEntity
  8
Pel_CS-Weatherstrip
100
AcDbCircle
 10
0.3193933982822088
 20
-2.672468523638212
 30
0.0
 40
0.018
  0
CIRCLE
  5
B4F
330
A9E
100
AcDbEntity
  8
Pel_CS-Weatherstrip
100
AcDbCircle
 10
0.3193933982822088
 20
-2.547468523638212
 30
0.0
 40
0.018
  0
HATCH
  5
B50
330
A9E
100
AcDbEntity
  8
Pel_CS-Weatherstrip
100
AcDbHatch
 10
0.0
 20
0.0
 30
0.0
210
0.0
220
0.0
230
1.0
  2
SOLID
 70
     1
 71
     1
 91
        1
 92
        1
 93
        1
 72
     2
 10
0.3193933982822088
 20
-2.297468523638212
 40
0.018
 50
0.0
 51
360.0
 73
     1
 97
        1
330
B4D
 75
     0
 76
     1
 98
        1
 10
-0.3626066017177969
 20
-0.8124685236381949
  0
HATCH
  5
B51
330
A9E
100
AcDbEntity
  8
Pel_CS-Weatherstrip
100
AcDbHatch
 10
0.0
 20
0.0
 30
0.0
210
0.0
220
0.0
230
1.0
  2
SOLID
 70
     1
 71
     0
 91
        1
 92
        1
 93
        1
 72
     2
 10
0.3193933982822088
 20
-2.422468523638212
 40
0.018
 50
0.0
 51
360.0
 73
     1
 97
        0
 75
     0
 76
     1
 98
        1
 10
-0.3626066017177969
 20
-0.9374685236381949
  0
HATCH
  5
B52
330
A9E
100
AcDbEntity
  8
Pel_CS-Weatherstrip
100
AcDbHatch
 10
0.0
 20
0.0
 30
0.0
210
0.0
220
0.0
230
1.0
  2
SOLID
 70
     1
 71
     0
 91
        1
 92
        1
 93
        1
 72
     2
 10
0.3193933982822088
 20
-2.547468523638212
 40
0.018
 50
0.0
 51
360.0
 73
     1
 97
        0
 75
     0
 76
     1
 98
        1
 10
-0.3626066017177969
 20
-1.062468523638194
  0
HATCH
  5
B53
330
A9E
100
AcDbEntity
  8
Pel_CS-Weatherstrip
100
AcDbHatch
 10
0.0
 20
0.0
 30
0.0
210
0.0
220
0.0
230
1.0
  2
SOLID
 70
     1
 71
     0
 91
        1
 92
        1
 93
        1
 72
     2
 10
0.3193933982822088
 20
-2.672468523638212
 40
0.018
 50
0.0
 51
360.0
 73
     1
 97
        0
 75
     0
 76
     1
 98
        1
 10
-0.3626066017177969
 20
-1.187468523638194
  0
CIRCLE
  5
B54
330
A9E
100
AcDbEntity
  8
Pel_CS-Weatherstrip
100
AcDbCircle
 10
0.3193933982822088
 20
-2.922468523638212
 30
0.0
 40
0.018
  0
CIRCLE
  5
B55
330
A9E
100
AcDbEntity
  8
Pel_CS-Weatherstrip
100
AcDbCircle
 10
0.3193933982822088
 20
-2.797468523638212
 30
0.0
 40
0.018
  0
HATCH
  5
B56
330
A9E
100
AcDbEntity
  8
Pel_CS-Weatherstrip
100
AcDbHatch
 10
0.0
 20
0.0
 30
0.0
210
0.0
220
0.0
230
1.0
  2
SOLID
 70
     1
 71
     0
 91
        1
 92
        1
 93
        1
 72
     2
 10
0.3193933982822088
 20
-2.797468523638212
 40
0.018
 50
0.0
 51
360.0
 73
     1
 97
        0
 75
     0
 76
     1
 98
        1
 10
-0.3626066017177969
 20
-1.312468523638194
  0
HATCH
  5
B57
330
A9E
100
AcDbEntity
  8
Pel_CS-Weatherstrip
100
AcDbHatch
 10
0.0
 20
0.0
 30
0.0
210
0.0
220
0.0
230
1.0
  2
SOLID
 70
     1
 71
     0
 91
        1
 92
        1
 93
        1
 72
     2
 10
0.3193933982822088
 20
-2.922468523638212
 40
0.018
 50
0.0
 51
360.0
 73
     1
 97
        0
 75
     0
 76
     1
 98
        1
 10
-0.3626066017177969
 20
-1.437468523638194
  0
CIRCLE
  5
B58
330
A9E
100
AcDbEntity
  8
Pel_CS-Weatherstrip
100
AcDbCircle
 10
0.3193933982822088
 20
-3.172468523638212
 30
0.0
 40
0.018
  0
CIRCLE
  5
B59
330
A9E
100
AcDbEntity
  8
Pel_CS-Weatherstrip
100
AcDbCircle
 10
0.3193933982822088
 20
-3.047468523638212
 30
0.0
 40
0.018
  0
HATCH
  5
B5A
330
A9E
100
AcDbEntity
  8
Pel_CS-Weatherstrip
100
AcDbHatch
 10
0.0
 20
0.0
 30
0.0
210
0.0
220
0.0
230
1.0
  2
SOLID
 70
     1
 71
     0
 91
        1
 92
        1
 93
        1
 72
     2
 10
0.3193933982822088
 20
-3.047468523638212
 40
0.018
 50
0.0
 51
360.0
 73
     1
 97
        0
 75
     0
 76
     1
 98
        1
 10
-0.3626066017177969
 20
-1.562468523638194
  0
HATCH
  5
B5B
330
A9E
100
AcDbEntity
  8
Pel_CS-Weatherstrip
100
AcDbHatch
 10
0.0
 20
0.0
 30
0.0
210
0.0
220
0.0
230
1.0
  2
SOLID
 70
     1
 71
     0
 91
        1
 92
        1
 93
        1
 72
     2
 10
0.3193933982822088
 20
-3.172468523638212
 40
0.018
 50
0.0
 51
360.0
 73
     1
 97
        0
 75
     0
 76
     1
 98
        1
 10
-0.3626066017177898
 20
-1.687468523638194
  0
CIRCLE
  5
B5C
330
A9E
100
AcDbEntity
  8
Pel_CS-Weatherstrip
100
AcDbCircle
 10
0.3193933982822088
 20
-3.422468523638212
 30
0.0
 40
0.018
  0
CIRCLE
  5
B5D
330
A9E
100
AcDbEntity
  8
Pel_CS-Weatherstrip
100
AcDbCircle
 10
0.3193933982822088
 20
-3.297468523638212
 30
0.0
 40
0.018
  0
HATCH
  5
B5E
330
A9E
100
AcDbEntity
  8
Pel_CS-Weatherstrip
100
AcDbHatch
 10
0.0
 20
0.0
 30
0.0
210
0.0
220
0.0
230
1.0
  2
SOLID
 70
     1
 71
     0
 91
        1
 92
        1
 93
        1
 72
     2
 10
0.3193933982822088
 20
-3.297468523638212
 40
0.018
 50
0.0
 51
360.0
 73
     1
 97
        0
 75
     0
 76
     1
 98
        1
 10
-0.3626066017177898
 20
-1.812468523638194
  0
HATCH
  5
B5F
330
A9E
100
AcDbEntity
  8
Pel_CS-Weatherstrip
100
AcDbHatch
 10
0.0
 20
0.0
 30
0.0
210
0.0
220
0.0
230
1.0
  2
SOLID
 70
     1
 71
     0
 91
        1
 92
        1
 93
        1
 72
     2
 10
0.3193933982822088
 20
-3.422468523638212
 40
0.018
 50
0.0
 51
360.0
 73
     1
 97
        0
 75
     0
 76
     1
 98
        1
 10
-0.3626066017177898
 20
-1.937468523638194
  0
CIRCLE
  5
B60
330
A9E
100
AcDbEntity
  8
Pel_CS-Weatherstrip
100
AcDbCircle
 10
0.3193933982822088
 20
-3.672468523638212
 30
0.0
 40
0.018
  0
CIRCLE
  5
B61
330
A9E
100
AcDbEntity
  8
Pel_CS-Weatherstrip
100
AcDbCircle
 10
0.3193933982822088
 20
-3.547468523638212
 30
0.0
 40
0.018
  0
HATCH
  5
B62
330
A9E
100
AcDbEntity
  8
Pel_CS-Weatherstrip
100
AcDbHatch
 10
0.0
 20
0.0
 30
0.0
210
0.0
220
0.0
230
1.0
  2
SOLID
 70
     1
 71
     0
 91
        1
 92
        1
 93
        1
 72
     2
 10
0.3193933982822088
 20
-3.547468523638212
 40
0.018
 50
0.0
 51
360.0
 73
     1
 97
        0
 75
     0
 76
     1
 98
        1
 10
-0.3626066017177898
 20
-2.062468523638194
  0
HATCH
  5
B63
330
A9E
100
AcDbEntity
  8
Pel_CS-Weatherstrip
100
AcDbHatch
 10
0.0
 20
0.0
 30
0.0
210
0.0
220
0.0
230
1.0
  2
SOLID
 70
     1
 71
     0
 91
        1
 92
        1
 93
        1
 72
     2
 10
0.3193933982822088
 20
-3.672468523638212
 40
0.018
 50
0.0
 51
360.0
 73
     1
 97
        0
 75
     0
 76
     1
 98
        1
 10
-0.3626066017177898
 20
-2.187468523638194
  0
CIRCLE
  5
B64
330
A9E
100
AcDbEntity
  8
Pel_CS-Weatherstrip
100
AcDbCircle
 10
0.3193933982822088
 20
-3.922468523638212
 30
0.0
 40
0.018
  0
CIRCLE
  5
B65
330
A9E
100
AcDbEntity
  8
Pel_CS-Weatherstrip
100
AcDbCircle
 10
0.3193933982822088
 20
-3.797468523638212
 30
0.0
 40
0.018
  0
HATCH
  5
B66
330
A9E
100
AcDbEntity
  8
Pel_CS-Weatherstrip
100
AcDbHatch
 10
0.0
 20
0.0
 30
0.0
210
0.0
220
0.0
230
1.0
  2
SOLID
 70
     1
 71
     0
 91
        1
 92
        1
 93
        1
 72
     2
 10
0.3193933982822088
 20
-3.797468523638212
 40
0.018
 50
0.0
 51
360.0
 73
     1
 97
        0
 75
     0
 76
     1
 98
        1
 10
-0.3626066017177898
 20
-2.312468523638194
  0
HATCH
  5
B67
330
A9E
100
AcDbEntity
  8
Pel_CS-Weatherstrip
100
AcDbHatch
 10
0.0
 20
0.0
 30
0.0
210
0.0
220
0.0
230
1.0
  2
SOLID
 70
     1
 71
     0
 91
        1
 92
        1
 93
        1
 72
     2
 10
0.3193933982822088
 20
-3.922468523638212
 40
0.018
 50
0.0
 51
360.0
 73
     1
 97
        0
 75
     0
 76
     1
 98
        1
 10
-0.3626066017177898
 20
-2.437468523638194
  0
CIRCLE
  5
D0B
330
A9E
100
AcDbEntity
  8
Pel_CS-Weatherstrip
100
AcDbCircle
 10
0.3193933982822088
 20
-4.172468523638212
 30
0.0
 40
0.018
  0
CIRCLE
  5
D0C
330
A9E
100
AcDbEntity
  8
Pel_CS-Weatherstrip
100
AcDbCircle
 10
0.3193933982822088
 20
-4.047468523638212
 30
0.0
 40
0.018
  0
HATCH
  5
D0D
330
A9E
100
AcDbEntity
  8
Pel_CS-Weatherstrip
100
AcDbHatch
 10
0.0
 20
0.0
 30
0.0
210
0.0
220
0.0
230
1.0
  2
SOLID
 70
     1
 71
     0
 91
        1
 92
        1
 93
        1
 72
     2
 10
0.3193933982822088
 20
-4.047468523638212
 40
0.018
 50
0.0
 51
360.0
 73
     1
 97
        0
 75
     0
 76
     1
 98
        1
 10
-0.3626066017177898
 20
-2.562468523638194
  0
HATCH
  5
D0E
330
A9E
100
AcDbEntity
  8
Pel_CS-Weatherstrip
100
AcDbHatch
 10
0.0
 20
0.0
 30
0.0
210
0.0
220
0.0
230
1.0
  2
SOLID
 70
     1
 71
     0
 91
        1
 92
        1
 93
        1
 72
     2
 10
0.3193933982822088
 20
-4.172468523638212
 40
0.018
 50
0.0
 51
360.0
 73
     1
 97
        0
 75
     0
 76
     1
 98
        1
 10
-0.3626066017177898
 20
-2.687468523638194
  0
CIRCLE
  5
D0F
330
A9E
100
AcDbEntity
  8
Pel_CS-Weatherstrip
100
AcDbCircle
 10
0.3193933982822088
 20
-4.440468523638212
 30
0.0
 40
0.018
  0
CIRCLE
  5
D10
330
A9E
100
AcDbEntity
  8
Pel_CS-Weatherstrip
100
AcDbCircle
 10
0.3193933982822088
 20
-4.315468523638212
 30
0.0
 40
0.018
  0
HATCH
  5
D11
330
A9E
100
AcDbEntity
  8
Pel_CS-Weatherstrip
100
AcDbHatch
 10
0.0
 20
0.0
 30
0.0
210
0.0
220
0.0
230
1.0
  2
SOLID
 70
     1
 71
     0
 91
        1
 92
        1
 93
        1
 72
     2
 10
0.3193933982822088
 20
-4.315468523638212
 40
0.018
 50
0.0
 51
360.0
 73
     1
 97
        0
 75
     0
 76
     1
 98
        1
 10
-0.3626066017177898
 20
-2.830468523638195
  0
HATCH
  5
D12
330
A9E
100
AcDbEntity
  8
Pel_CS-Weatherstrip
100
AcDbHatch
 10
0.0
 20
0.0
 30
0.0
210
0.0
220
0.0
230
1.0
  2
SOLID
 70
     1
 71
     0
 91
        1
 92
        1
 93
        1
 72
     2
 10
0.3193933982822088
 20
-4.440468523638212
 40
0.018
 50
0.0
 51
360.0
 73
     1
 97
        0
 75
     0
 76
     1
 98
        1
 10
-0.3626066017177898
 20
-2.955468523638195
  0
ENDBLK
  5
B6B
330
A9E
100
AcDbEntity
  8
0
100
AcDbBlockEnd
  0
BLOCK
  5
FC2
330
FBA
100
AcDbEntity
  8
0
100
AcDbBlockBegin
  2
*D22
 70
     1
 10
0.0
 20
0.0
 30
0.0
  3
*D22
  1

  0
LINE
  5
FC4
330
FBA
100
AcDbEntity
  8
0
100
AcDbLine
 10
22.36618287962695
 20
18.24597005338557
 30
0.0
 11
22.36618287962695
 21
14.62240635655291
 31
0.0
  0
LINE
  5
FC5
330
FBA
100
AcDbEntity
  8
0
100
AcDbLine
 10
26.86618287962696
 20
14.87240635655291
 30
0.0
 11
22.86618287962695
 21
14.87240635655291
 31
0.0
  0
MTEXT
  5
FC6
330
FBA
100
AcDbEntity
  8
0
 62
   255
100
AcDbMText
 10
26.01483143093294
 20
14.60740635655291
 30
0.0
 40
0.28
 41
0.0
 71
     5
 72
     1
  1
\A1;FRAME
 73
     1
 44
1.0
1001
ACAD
1000
MTEXTBEGIN
1070
    73
1070
     1
1070
    44
1040
1.0
1070
    74
1070
     0
1000
MTEXTEND
  0
SOLID
  5
FC7
330
FBA
100
AcDbEntity
  8
0
100
AcDbTrace
 10
22.86618287962695
 20
14.95573968988624
 30
0.0
 11
22.86618287962695
 21
14.78907302321958
 31
0.0
 12
22.36618287962695
 22
14.87240635655291
 32
0.0
 13
22.36618287962695
 23
14.87240635655291
 33
0.0
  0
POINT
  5
FC8
330
FBA
100
AcDbEntity
  8
Defpoints
 62
     0
100
AcDbPoint
 10
26.86618287962696
 20
17.10051646341267
 30
0.0
  0
POINT
  5
FC9
330
FBA
100
AcDbEntity
  8
Defpoints
 62
     0
100
AcDbPoint
 10
22.36618287962695
 20
18.74597005338557
 30
0.0
  0
POINT
  5
FCA
330
FBA
100
AcDbEntity
  8
Defpoints
 62
     0
100
AcDbPoint
 10
22.36618287962695
 20
14.87240635655291
 30
0.0
  0
ENDBLK
  5
FC3
330
FBA
100
AcDbEntity
  8
0
100
AcDbBlockEnd
  0
BLOCK
  5
FD3
330
FCB
100
AcDbEntity
  8
0
100
AcDbBlockBegin
  2
*D23
 70
     1
 10
0.0
 20
0.0
 30
0.0
  3
*D23
  1

  0
LINE
  5
FD5
330
FCB
100
AcDbEntity
  8
0
100
AcDbLine
 10
22.11618287962695
 20
18.24597005338557
 30
0.0
 11
22.11618287962695
 21
13.62240635655291
 31
0.0
  0
LINE
  5
FD6
330
FCB
100
AcDbEntity
  8
0
100
AcDbLine
 10
26.86618287962696
 20
13.87240635655291
 30
0.0
 11
22.61618287962695
 21
13.87240635655291
 31
0.0
  0
MTEXT
  5
FD7
330
FCB
100
AcDbEntity
  8
0
 62
   255
100
AcDbMText
 10
25.01778038016794
 20
13.60253596091853
 30
0.0
 40
0.28
 41
0.0
 71
     5
 72
     1
  1
\A1;ROUGH OPENING
 73
     1
 44
1.0
1001
ACAD
1000
MTEXTBEGIN
1070
    73
1070
     1
1070
    44
1040
1.0
1070
    74
1070
     0
1000
MTEXTEND
  0
SOLID
  5
FD8
330
FCB
100
AcDbEntity
  8
0
100
AcDbTrace
 10
22.61618287962695
 20
13.95573968988624
 30
0.0
 11
22.61618287962695
 21
13.78907302321958
 31
0.0
 12
22.11618287962695
 22
13.87240635655291
 32
0.0
 13
22.11618287962695
 23
13.87240635655291
 33
0.0
  0
POINT
  5
FD9
330
FCB
100
AcDbEntity
  8
Defpoints
 62
     0
100
AcDbPoint
 10
26.86618287962696
 20
17.10051646341267
 30
0.0
  0
POINT
  5
FDA
330
FCB
100
AcDbEntity
  8
Defpoints
 62
     0
100
AcDbPoint
 10
22.11618287962695
 20
18.74597005338557
 30
0.0
  0
POINT
  5
FDB
330
FCB
100
AcDbEntity
  8
Defpoints
 62
     0
100
AcDbPoint
 10
22.11618287962695
 20
13.87240635655291
 30
0.0
  0
ENDBLK
  5
FD4
330
FCB
100
AcDbEntity
  8
0
100
AcDbBlockEnd
  0
BLOCK
  5
FE7
330
FDC
100
AcDbEntity
  8
0
100
AcDbBlockBegin
  2
*D24
 70
     1
 10
0.0
 20
0.0
 30
0.0
  3
*D24
  1

  0
LINE
  5
FE9
330
FDC
100
AcDbEntity
  8
0
100
AcDbLine
 10
22.36618287962695
 20
18.24597005338557
 30
0.0
 11
22.36618287962695
 21
14.62240635655291
 31
0.0
  0
LINE
  5
FEA
330
FDC
100
AcDbEntity
  8
0
100
AcDbLine
 10
22.11618287962695
 20
18.24597005338557
 30
0.0
 11
22.11618287962695
 21
14.62240635655291
 31
0.0
  0
LINE
  5
FEB
330
FDC
100
AcDbEntity
  8
0
100
AcDbLine
 10
22.86618287962695
 20
14.87240635655291
 30
0.0
 11
23.36618287962695
 21
14.87240635655291
 31
0.0
  0
LINE
  5
FEC
330
FDC
100
AcDbEntity
  8
0
100
AcDbLine
 10
21.61618287962695
 20
14.87240635655291
 30
0.0
 11
21.11618287962695
 21
14.87240635655291
 31
0.0
  0
MTEXT
  5
FED
330
FDC
100
AcDbEntity
  8
0
 62
   255
100
AcDbMText
 10
21.08178870396525
 20
14.87240635655293
 30
0.0
 40
0.28
 41
0.0
 71
     5
 72
     1
  1
\A1;1/4"\P [6]
 73
     1
 44
1.0
1001
ACAD
1000
MTEXTBEGIN
1070
    73
1070
     1
1070
    44
1040
1.0
1070
    74
1070
     0
1000
MTEXTEND
  0
SOLID
  5
FEE
330
FDC
100
AcDbEntity
  8
0
100
AcDbTrace
 10
22.86618287962695
 20
14.95573968988624
 30
0.0
 11
22.86618287962695
 21
14.78907302321958
 31
0.0
 12
22.36618287962695
 22
14.87240635655291
 32
0.0
 13
22.36618287962695
 23
14.87240635655291
 33
0.0
  0
SOLID
  5
FEF
330
FDC
100
AcDbEntity
  8
0
100
AcDbTrace
 10
21.61618287962695
 20
14.95573968988624
 30
0.0
 11
21.61618287962695
 21
14.78907302321958
 31
0.0
 12
22.11618287962695
 22
14.87240635655291
 32
0.0
 13
22.11618287962695
 23
14.87240635655291
 33
0.0
  0
POINT
  5
FF0
330
FDC
100
AcDbEntity
  8
Defpoints
 62
     0
100
AcDbPoint
 10
22.36618287962695
 20
18.74597005338557
 30
0.0
  0
POINT
  5
FF1
330
FDC
100
AcDbEntity
  8
Defpoints
 62
     0
100
AcDbPoint
 10
22.11618287962695
 20
18.74597005338557
 30
0.0
  0
POINT
  5
FF2
330
FDC
100
AcDbEntity
  8
Defpoints
 62
     0
100
AcDbPoint
 10
22.11618287962695
 20
14.87240635655291
 30
0.0
  0
ENDBLK
  5
FE8
330
FDC
100
AcDbEntity
  8
0
100
AcDbBlockEnd
  0
BLOCK
  5
FFE
330
FF3
100
AcDbEntity
  8
0
100
AcDbBlockBegin
  2
*D25
 70
     1
 10
0.0
 20
0.0
 30
0.0
  3
*D25
  1

  0
LINE
  5
1000
330
FF3
100
AcDbEntity
  8
0
100
AcDbLine
 10
6.116182879626945
 20
26.6849063565529
 30
0.0
 11
2.366182879626946
 21
26.6849063565529
 31
0.0
  0
LINE
  5
1001
330
FF3
100
AcDbEntity
  8
0
100
AcDbLine
 10
6.116182879626945
 20
26.93490635655294
 30
0.0
 11
2.366182879626946
 21
26.93490635655294
 31
0.0
  0
LINE
  5
1002
330
FF3
100
AcDbEntity
  8
0
100
AcDbLine
 10
2.616182879626946
 20
26.1849063565529
 30
0.0
 11
2.616182879626946
 21
25.6849063565529
 31
0.0
  0
LINE
  5
1003
330
FF3
100
AcDbEntity
  8
0
100
AcDbLine
 10
2.616182879626946
 20
27.43490635655294
 30
0.0
 11
2.616182879626946
 21
27.93490635655294
 31
0.0
  0
MTEXT
  5
1004
330
FF3
100
AcDbEntity
  8
0
 62
   255
100
AcDbMText
 10
2.616182879626948
 20
27.93490635655294
 30
0.0
 40
0.28
 41
0.0
 71
     5
 72
     1
  1
\A1;1/4"\P [6]
 11
0.0000000000000001
 21
1.0
 31
0.0
 73
     1
 44
1.0
1001
ACAD
1000
MTEXTBEGIN
1070
    73
1070
     1
1070
    44
1040
1.0
1070
    74
1070
     0
1000
MTEXTEND
  0
SOLID
  5
1005
330
FF3
100
AcDbEntity
  8
0
100
AcDbTrace
 10
2.532849546293612
 20
26.1849063565529
 30
0.0
 11
2.699516212960279
 21
26.1849063565529
 31
0.0
 12
2.616182879626946
 22
26.6849063565529
 32
0.0
 13
2.616182879626946
 23
26.6849063565529
 33
0.0
  0
SOLID
  5
1006
330
FF3
100
AcDbEntity
  8
0
100
AcDbTrace
 10
2.532849546293613
 20
27.43490635655294
 30
0.0
 11
2.69951621296028
 21
27.43490635655294
 31
0.0
 12
2.616182879626946
 22
26.93490635655294
 32
0.0
 13
2.616182879626946
 23
26.93490635655294
 33
0.0
  0
POINT
  5
1007
330
FF3
100
AcDbEntity
  8
Defpoints
 62
     0
100
AcDbPoint
 10
6.616182879626945
 20
26.6849063565529
 30
0.0
  0
POINT
  5
1008
330
FF3
100
AcDbEntity
  8
Defpoints
 62
     0
100
AcDbPoint
 10
6.616182879626945
 20
26.93490635655294
 30
0.0
  0
POINT
  5
1009
330
FF3
100
AcDbEntity
  8
Defpoints
 62
     0
100
AcDbPoint
 10
2.616182879626946
 20
26.93490635655294
 30
0.0
  0
ENDBLK
  5
FFF
330
FF3
100
AcDbEntity
  8
0
100
AcDbBlockEnd
  0
BLOCK
  5
1012
330
100A
100
AcDbEntity
  8
0
100
AcDbBlockBegin
  2
*D26
 70
     1
 10
0.0
 20
0.0
 30
0.0
  3
*D26
  1

  0
LINE
  5
1014
330
100A
100
AcDbEntity
  8
0
100
AcDbLine
 10
6.116182879626945
 20
26.93490635655294
 30
0.0
 11
1.366182879626944
 21
26.93490635655294
 31
0.0
  0
LINE
  5
1015
330
100A
100
AcDbEntity
  8
0
100
AcDbLine
 10
1.616182879626943
 20
22.18490635655292
 30
0.0
 11
1.616182879626944
 21
26.43490635655294
 31
0.0
  0
MTEXT
  5
1016
330
100A
100
AcDbEntity
  8
0
 62
   255
100
AcDbMText
 10
1.346312483992547
 20
24.03262920595495
 30
0.0
 40
0.28
 41
0.0
 71
     5
 72
     1
  1
\A1;ROUGH OPENING
 11
0.0000000000000001
 21
1.0
 31
0.0
 73
     1
 44
1.0
1001
ACAD
1000
MTEXTBEGIN
1070
    73
1070
     1
1070
    44
1040
1.0
1070
    74
1070
     0
1000
MTEXTEND
  0
SOLID
  5
1017
330
100A
100
AcDbEntity
  8
0
100
AcDbTrace
 10
1.532849546293611
 20
26.43490635655294
 30
0.0
 11
1.699516212960277
 21
26.43490635655294
 31
0.0
 12
1.616182879626944
 22
26.93490635655294
 32
0.0
 13
1.616182879626944
 23
26.93490635655294
 33
0.0
  0
POINT
  5
1018
330
100A
100
AcDbEntity
  8
Defpoints
 62
     0
100
AcDbPoint
 10
4.952187995604544
 20
22.18490635655292
 30
0.0
  0
POINT
  5
1019
330
100A
100
AcDbEntity
  8
Defpoints
 62
     0
100
AcDbPoint
 10
6.616182879626945
 20
26.93490635655294
 30
0.0
  0
POINT
  5
101A
330
100A
100
AcDbEntity
  8
Defpoints
 62
     0
100
AcDbPoint
 10
1.616182879626944
 20
26.93490635655294
 30
0.0
  0
ENDBLK
  5
1013
330
100A
100
AcDbEntity
  8
0
100
AcDbBlockEnd
  0
BLOCK
  5
1023
330
101B
100
AcDbEntity
  8
0
100
AcDbBlockBegin
  2
*D27
 70
     1
 10
0.0
 20
0.0
 30
0.0
  3
*D27
  1

  0
LINE
  5
1025
330
101B
100
AcDbEntity
  8
0
100
AcDbLine
 10
6.116182879626945
 20
26.68490635655292
 30
0.0
 11
2.366182879626947
 21
26.68490635655292
 31
0.0
  0
LINE
  5
1026
330
101B
100
AcDbEntity
  8
0
100
AcDbLine
 10
2.616182879626946
 20
22.18490635655292
 30
0.0
 11
2.616182879626947
 21
26.18490635655292
 31
0.0
  0
MTEXT
  5
1027
330
101B
100
AcDbEntity
  8
0
 62
   255
100
AcDbMText
 10
2.351182879626933
 20
23.03349891299048
 30
0.0
 40
0.28
 41
0.0
 71
     5
 72
     1
  1
\A1;FRAME
 11
0.0000000000000001
 21
1.0
 31
0.0
 73
     1
 44
1.0
1001
ACAD
1000
MTEXTBEGIN
1070
    73
1070
     1
1070
    44
1040
1.0
1070
    74
1070
     0
1000
MTEXTEND
  0
SOLID
  5
1028
330
101B
100
AcDbEntity
  8
0
100
AcDbTrace
 10
2.532849546293613
 20
26.18490635655292
 30
0.0
 11
2.69951621296028
 21
26.18490635655292
 31
0.0
 12
2.616182879626947
 22
26.68490635655292
 32
0.0
 13
2.616182879626947
 23
26.68490635655292
 33
0.0
  0
POINT
  5
1029
330
101B
100
AcDbEntity
  8
Defpoints
 62
     0
100
AcDbPoint
 10
4.952187995604544
 20
22.18490635655292
 30
0.0
  0
POINT
  5
102A
330
101B
100
AcDbEntity
  8
Defpoints
 62
     0
100
AcDbPoint
 10
6.616182879626945
 20
26.68490635655292
 30
0.0
  0
POINT
  5
102B
330
101B
100
AcDbEntity
  8
Defpoints
 62
     0
100
AcDbPoint
 10
2.616182879626947
 20
26.68490635655292
 30
0.0
  0
ENDBLK
  5
1024
330
101B
100
AcDbEntity
  8
0
100
AcDbBlockEnd
  0
BLOCK
  5
1034
330
102C
100
AcDbEntity
  8
0
100
AcDbBlockBegin
  2
*D28
 70
     1
 10
0.0
 20
0.0
 30
0.0
  3
*D28
  1

  0
LINE
  5
1036
330
102C
100
AcDbEntity
  8
0
100
AcDbLine
 10
6.116182879626946
 20
16.56010635655286
 30
0.0
 11
2.366182879626943
 21
16.56010635655286
 31
0.0
  0
LINE
  5
1037
330
102C
100
AcDbEntity
  8
0
100
AcDbLine
 10
2.616182879626943
 20
17.06010635655285
 30
0.0
 11
2.616182879626943
 21
21.06010635655286
 31
0.0
  0
MTEXT
  5
1038
330
102C
100
AcDbEntity
  8
0
 62
   255
100
AcDbMText
 10
2.351182879626931
 20
20.21166886284945
 30
0.0
 40
0.28
 41
0.0
 71
     5
 72
     1
  1
\A1;FRAME
 11
0.0000000000000001
 21
1.0
 31
0.0
 73
     1
 44
1.0
1001
ACAD
1000
MTEXTBEGIN
1070
    73
1070
     1
1070
    44
1040
1.0
1070
    74
1070
     0
1000
MTEXTEND
  0
SOLID
  5
1039
330
102C
100
AcDbEntity
  8
0
100
AcDbTrace
 10
2.53284954629361
 20
17.06010635655285
 30
0.0
 11
2.699516212960276
 21
17.06010635655285
 31
0.0
 12
2.616182879626943
 22
16.56010635655286
 32
0.0
 13
2.616182879626943
 23
16.56010635655286
 33
0.0
  0
POINT
  5
103A
330
102C
100
AcDbEntity
  8
Defpoints
 62
     0
100
AcDbPoint
 10
6.616182879626946
 20
16.56010635655286
 30
0.0
  0
POINT
  5
103B
330
102C
100
AcDbEntity
  8
Defpoints
 62
     0
100
AcDbPoint
 10
4.84944460193398
 20
21.06010635655286
 30
0.0
  0
POINT
  5
103C
330
102C
100
AcDbEntity
  8
Defpoints
 62
     0
100
AcDbPoint
 10
2.616182879626943
 20
21.06010635655286
 30
0.0
  0
ENDBLK
  5
1035
330
102C
100
AcDbEntity
  8
0
100
AcDbBlockEnd
  0
BLOCK
  5
1045
330
103D
100
AcDbEntity
  8
0
100
AcDbBlockBegin
  2
*D29
 70
     1
 10
0.0
 20
0.0
 30
0.0
  3
*D29
  1

  0
LINE
  5
1047
330
103D
100
AcDbEntity
  8
0
100
AcDbLine
 10
6.116182879626946
 20
16.31010635655286
 30
0.0
 11
1.366182879626945
 21
16.31010635655286
 31
0.0
  0
LINE
  5
1048
330
103D
100
AcDbEntity
  8
0
100
AcDbLine
 10
1.616182879626946
 20
21.06010635655286
 30
0.0
 11
1.616182879626945
 21
16.81010635655286
 31
0.0
  0
MTEXT
  5
1049
330
103D
100
AcDbEntity
  8
0
 62
   255
100
AcDbMText
 10
1.346312483992561
 20
19.18899184190376
 30
0.0
 40
0.28
 41
0.0
 71
     5
 72
     1
  1
\A1;ROUGH OPENING
 11
0.0000000000000001
 21
1.0
 31
0.0
 73
     1
 44
1.0
1001
ACAD
1000
MTEXTBEGIN
1070
    73
1070
     1
1070
    44
1040
1.0
1070
    74
1070
     0
1000
MTEXTEND
  0
SOLID
  5
104A
330
103D
100
AcDbEntity
  8
0
100
AcDbTrace
 10
1.532849546293612
 20
16.81010635655286
 30
0.0
 11
1.699516212960278
 21
16.81010635655286
 31
0.0
 12
1.616182879626945
 22
16.31010635655286
 32
0.0
 13
1.616182879626945
 23
16.31010635655286
 33
0.0
  0
POINT
  5
104B
330
103D
100
AcDbEntity
  8
Defpoints
 62
     0
100
AcDbPoint
 10
4.84944460193398
 20
21.06010635655286
 30
0.0
  0
POINT
  5
104C
330
103D
100
AcDbEntity
  8
Defpoints
 62
     0
100
AcDbPoint
 10
6.616182879626946
 20
16.31010635655286
 30
0.0
  0
POINT
  5
104D
330
103D
100
AcDbEntity
  8
Defpoints
 62
     0
100
AcDbPoint
 10
1.616182879626945
 20
16.31010635655286
 30
0.0
  0
ENDBLK
  5
1046
330
103D
100
AcDbEntity
  8
0
100
AcDbBlockEnd
  0
ENDSEC
  0
SECTION
  2
ENTITIES
  0
POLYLINE
  5
2F
330
2
100
AcDbEntity
  8
0
100
AcDb2dPolyline
 66
     1
 10
0.0
 20
0.0
 30
0.0
  0
VERTEX
  5
31
330
2F
100
AcDbEntity
  8
0
100
AcDbVertex
100
AcDb2dVertex
 10
5.241182879626946
 20
11.28510635655285
 30
0.0
  0
VERTEX
  5
32
330
2F
100
AcDbEntity
  8
0
100
AcDbVertex
100
AcDb2dVertex
 10
5.991182879626947
 20
11.28510635655285
 30
0.0
  0
VERTEX
  5
33
330
2F
100
AcDbEntity
  8
0
100
AcDbVertex
100
AcDb2dVertex
 10
6.053682879626947
 20
11.53510635655285
 30
0.0
  0
VERTEX
  5
34
330
2F
100
AcDbEntity
  8
0
100
AcDbVertex
100
AcDb2dVertex
 10
6.178682879626947
 20
11.03510635655285
 30
0.0
  0
VERTEX
  5
35
330
2F
100
AcDbEntity
  8
0
100
AcDbVertex
100
AcDb2dVertex
 10
6.241182879626947
 20
11.28510635655285
 30
0.0
  0
VERTEX
  5
36
330
2F
100
AcDbEntity
  8
0
100
AcDbVertex
100
AcDb2dVertex
 10
10.42969316745568
 20
11.28510635655285
 30
0.0
  0
VERTEX
  5
37
330
2F
100
AcDbEntity
  8
0
100
AcDbVertex
100
AcDb2dVertex
 10
10.49219316745568
 20
11.53510635655285
 30
0.0
  0
VERTEX
  5
38
330
2F
100
AcDbEntity
  8
0
100
AcDbVertex
100
AcDb2dVertex
 10
10.61719316745568
 20
11.03510635655285
 30
0.0
  0
VERTEX
  5
39
330
2F
100
AcDbEntity
  8
0
100
AcDbVertex
100
AcDb2dVertex
 10
10.67969316745568
 20
11.28510635655285
 30
0.0
  0
VERTEX
  5
3A
330
2F
100
AcDbEntity
  8
0
100
AcDbVertex
100
AcDb2dVertex
 10
14.64954691733004
 20
11.28510635655285
 30
0.0
  0
SEQEND
  5
3B
330
2F
100
AcDbEntity
  8
0
  0
POLYLINE
  5
3C
330
2
100
AcDbEntity
  8
0
100
AcDb2dPolyline
 66
     1
 10
0.0
 20
0.0
 30
0.0
  0
VERTEX
  5
3D
330
3C
100
AcDbEntity
  8
0
100
AcDbVertex
100
AcDb2dVertex
 10
1.241182879626947
 20
22.18490635655294
 30
0.0
  0
VERTEX
  5
3E
330
3C
100
AcDbEntity
  8
0
100
AcDbVertex
100
AcDb2dVertex
 10
5.991182879626947
 20
22.18490635655291
 30
0.0
  0
VERTEX
  5
3F
330
3C
100
AcDbEntity
  8
0
100
AcDbVertex
100
AcDb2dVertex
 10
6.053682879626947
 20
22.43490635655291
 30
0.0
  0
VERTEX
  5
40
330
3C
100
AcDbEntity
  8
0
100
AcDbVertex
100
AcDb2dVertex
 10
6.178682879626947
 20
21.93490635655291
 30
0.0
  0
VERTEX
  5
41
330
3C
100
AcDbEntity
  8
0
100
AcDbVertex
100
AcDb2dVertex
 10
6.241182879626947
 20
22.18490635655291
 30
0.0
  0
VERTEX
  5
42
330
3C
100
AcDbEntity
  8
0
100
AcDbVertex
100
AcDb2dVertex
 10
11.17868287962695
 20
22.18490635655291
 30
0.0
  0
VERTEX
  5
43
330
3C
100
AcDbEntity
  8
0
100
AcDbVertex
100
AcDb2dVertex
 10
11.24118287962694
 20
22.43490635655291
 30
0.0
  0
VERTEX
  5
44
330
3C
100
AcDbEntity
  8
0
100
AcDbVertex
100
AcDb2dVertex
 10
11.36618287962694
 20
21.93490635655291
 30
0.0
  0
VERTEX
  5
45
330
3C
100
AcDbEntity
  8
0
100
AcDbVertex
100
AcDb2dVertex
 10
11.42868287962695
 20
22.18490635655291
 30
0.0
  0
VERTEX
  5
46
330
3C
100
AcDbEntity
  8
0
100
AcDbVertex
100
AcDb2dVertex
 10
13.55368287962695
 20
22.18490635655292
 30
0.0
  0
SEQEND
  5
47
330
3C
100
AcDbEntity
  8
0
  0
POLYLINE
  5
48
330
2
100
AcDbEntity
  8
0
100
AcDb2dPolyline
 66
     1
 10
0.0
 20
0.0
 30
0.0
  0
VERTEX
  5
49
330
48
100
AcDbEntity
  8
0
100
AcDbVertex
100
AcDb2dVertex
 10
1.241182879626947
 20
21.06010635655286
 30
0.0
  0
VERTEX
  5
4A
330
48
100
AcDbEntity
  8
0
100
AcDbVertex
100
AcDb2dVertex
 10
5.991182879626947
 20
21.06010635655286
 30
0.0
  0
VERTEX
  5
4B
330
48
100
AcDbEntity
  8
0
100
AcDbVertex
100
AcDb2dVertex
 10
6.053682879626947
 20
21.31010635655286
 30
0.0
  0
VERTEX
  5
4C
330
48
100
AcDbEntity
  8
0
100
AcDbVertex
100
AcDb2dVertex
 10
6.178682879626947
 20
20.81010635655286
 30
0.0
  0
VERTEX
  5
4D
330
48
100
AcDbEntity
  8
0
100
AcDbVertex
100
AcDb2dVertex
 10
6.241182879626947
 20
21.06010635655286
 30
0.0
  0
VERTEX
  5
4E
330
48
100
AcDbEntity
  8
0
100
AcDbVertex
100
AcDb2dVertex
 10
11.17868287962695
 20
21.06010635655286
 30
0.0
  0
VERTEX
  5
4F
330
48
100
AcDbEntity
  8
0
100
AcDbVertex
100
AcDb2dVertex
 10
11.24118287962694
 20
21.31010635655286
 30
0.0
  0
VERTEX
  5
50
330
48
100
AcDbEntity
  8
0
100
AcDbVertex
100
AcDb2dVertex
 10
11.36618287962694
 20
20.81010635655286
 30
0.0
  0
VERTEX
  5
51
330
48
100
AcDbEntity
  8
0
100
AcDbVertex
100
AcDb2dVertex
 10
11.42868287962695
 20
21.06010635655286
 30
0.0
  0
VERTEX
  5
52
330
48
100
AcDbEntity
  8
0
100
AcDbVertex
100
AcDb2dVertex
 10
13.55368287962695
 20
21.06010635655286
 30
0.0
  0
SEQEND
  5
53
330
48
100
AcDbEntity
  8
0
  0
DIMENSION
  5
54
330
2
100
AcDbEntity
  8
0
100
AcDbDimension
  2
*D29
 10
1.616182879626945
 20
16.31010635655286
 30
0.0
 11
1.346312483992561
 21
19.18899184190376
 31
0.0
 70
   160
  1
ROUGH OPENING
 71
     5
 42
4.75
  3
3 inch Scale
100
AcDbAlignedDimension
 13
4.84944460193398
 23
21.06010635655286
 33
0.0
 14
6.616182879626947
 24
16.31010635655286
 34
0.0
 50
90.0
100
AcDbRotatedDimension
1001
ACAD
1000
DSTYLE
1002
{
1070
    75
1070
     1
1070
   343
1005
56
1070
   173
1070
     1
1070
   344
1005
0
1002
}
  0
DIMENSION
  5
64
330
2
100
AcDbEntity
  8
0
100
AcDbDimension
  2
*D28
 10
2.616182879626943
 20
21.06010635655286
 30
0.0
 11
2.351182879626931
 21
20.21166886284945
 31
0.0
 70
   160
  1
FRAME
 71
     5
 42
4.5
  3
3 inch Scale
100
AcDbAlignedDimension
 13
6.616182879626947
 23
16.56010635655286
 33
0.0
 14
4.84944460193398
 24
21.06010635655286
 34
0.0
 50
90.0
100
AcDbRotatedDimension
1001
ACAD
1000
DSTYLE
1002
{
1070
    76
1070
     1
1070
    75
1070
     0
1070
   343
1005
0
1070
   173
1070
     1
1070
   344
1005
56
1002
}
  0
DIMENSION
  5
6F
330
2
100
AcDbEntity
  8
0
100
AcDbDimension
  2
*D27
 10
2.616182879626947
 20
26.68490635655292
 30
0.0
 11
2.351182879626933
 21
23.03349891299048
 31
0.0
 70
   160
  1
FRAME
 71
     5
 42
4.5
  3
3 inch Scale
100
AcDbAlignedDimension
 13
4.952187995604545
 23
22.18490635655292
 33
0.0
 14
6.616182879626947
 24
26.68490635655292
 34
0.0
 50
90.0
100
AcDbRotatedDimension
1001
ACAD
1000
DSTYLE
1002
{
1070
    75
1070
     1
1070
   343
1005
56
1070
   173
1070
     1
1070
   344
1005
0
1002
}
  0
DIMENSION
  5
7A
330
2
100
AcDbEntity
  8
0
100
AcDbDimension
  2
*D26
 10
1.616182879626944
 20
26.93490635655294
 30
0.0
 11
1.346312483992547
 21
24.03262920595495
 31
0.0
 70
   160
  1
ROUGH OPENING
 71
     5
 42
4.750000000000017
  3
3 inch Scale
100
AcDbAlignedDimension
 13
4.952187995604545
 23
22.18490635655292
 33
0.0
 14
6.616182879626947
 24
26.93490635655294
 34
0.0
 50
90.0
100
AcDbRotatedDimension
1001
ACAD
1000
DSTYLE
1002
{
1070
    75
1070
     1
1070
   343
1005
56
1070
   173
1070
     1
1070
   344
1005
0
1002
}
  0
DIMENSION
  5
85
330
2
100
AcDbEntity
  8
0
100
AcDbDimension
  2
*D25
 10
2.616182879626946
 20
26.93490635655294
 30
0.0
 11
2.616182879626948
 21
27.93490635655294
 31
0.0
 70
   160
 71
     5
 42
0.2500000000000426
  3
3 inch Scale
100
AcDbAlignedDimension
 13
6.616182879626947
 23
26.6849063565529
 33
0.0
 14
6.616182879626947
 24
26.93490635655294
 34
0.0
 50
90.0
100
AcDbRotatedDimension
  0
DIMENSION
  5
93
330
2
100
AcDbEntity
  8
0
100
AcDbDimension
  2
*D24
 10
22.11618287962695
 20
14.87240635655291
 30
0.0
 11
21.08178870396525
 21
14.87240635655293
 31
0.0
 70
   160
 71
     5
 42
0.25
  3
3 inch Scale
100
AcDbAlignedDimension
 13
22.36618287962695
 23
18.74597005338557
 33
0.0
 14
22.11618287962695
 24
18.74597005338557
 34
0.0
 50
180.0
100
AcDbRotatedDimension
  0
DIMENSION
  5
A1
330
2
100
AcDbEntity
  8
0
100
AcDbDimension
  2
*D23
 10
22.11618287962695
 20
13.87240635655291
 30
0.0
 11
25.01778038016794
 21
13.60253596091853
 31
0.0
 70
   160
  1
ROUGH OPENING
 71
     5
 42
4.75000000000001
  3
3 inch Scale
100
AcDbAlignedDimension
 13
26.86618287962696
 23
17.10051646341267
 33
0.0
 14
22.11618287962695
 24
18.74597005338557
 34
0.0
 50
180.0
100
AcDbRotatedDimension
1001
ACAD
1000
DSTYLE
1002
{
1070
    75
1070
     1
1070
   173
1070
     1
1070
   343
1005
56
1002
}
  0
DIMENSION
  5
AC
330
2
100
AcDbEntity
  8
0
100
AcDbDimension
  2
*D22
 10
22.36618287962695
 20
14.87240635655291
 30
0.0
 11
26.01483143093294
 21
14.60740635655291
 31
0.0
 70
   160
  1
FRAME
 71
     5
 42
4.50000000000001
  3
3 inch Scale
100
AcDbAlignedDimension
 13
26.86618287962696
 23
17.10051646341267
 33
0.0
 14
22.36618287962695
 24
18.74597005338557
 34
0.0
 50
180.0
100
AcDbRotatedDimension
1001
ACAD
1000
DSTYLE
1002
{
1070
    75
1070
     1
1070
   173
1070
     1
1070
   343
1005
56
1002
}
  0
POLYLINE
  5
B7
330
2
100
AcDbEntity
  8
0
100
AcDb2dPolyline
 66
     1
 10
0.0
 20
0.0
 30
0.0
  0
VERTEX
  5
B8
330
B7
100
AcDbEntity
  8
0
100
AcDbVertex
100
AcDb2dVertex
 10
26.86618287962696
 20
13.49740635655293
 30
0.0
  0
VERTEX
  5
B9
330
B7
100
AcDbEntity
  8
0
100
AcDbVertex
100
AcDb2dVertex
 10
26.86618287962696
 20
18.24740635655291
 30
0.0
  0
VERTEX
  5
BA
330
B7
100
AcDbEntity
  8
0
100
AcDbVertex
100
AcDb2dVertex
 10
26.61618287962696
 20
18.30990635655291
 30
0.0
  0
VERTEX
  5
BB
330
B7
100
AcDbEntity
  8
0
100
AcDbVertex
100
AcDb2dVertex
 10
27.11618287962696
 20
18.43490635655291
 30
0.0
  0
VERTEX
  5
BC
330
B7
100
AcDbEntity
  8
0
100
AcDbVertex
100
AcDb2dVertex
 10
26.86618287962696
 20
18.49740635655291
 30
0.0
  0
VERTEX
  5
BD
330
B7
100
AcDbEntity
  8
0
100
AcDbVertex
100
AcDb2dVertex
 10
26.86618287962696
 20
23.32553135655292
 30
0.0
  0
VERTEX
  5
BE
330
B7
100
AcDbEntity
  8
0
100
AcDbVertex
100
AcDb2dVertex
 10
26.61618287962696
 20
23.38803135655291
 30
0.0
  0
VERTEX
  5
BF
330
B7
100
AcDbEntity
  8
0
100
AcDbVertex
100
AcDb2dVertex
 10
27.11618287962696
 20
23.51303135655292
 30
0.0
  0
VERTEX
  5
C0
330
B7
100
AcDbEntity
  8
0
100
AcDbVertex
100
AcDb2dVertex
 10
26.86618287962696
 20
23.57553135655292
 30
0.0
  0
VERTEX
  5
C1
330
B7
100
AcDbEntity
  8
0
100
AcDbVertex
100
AcDb2dVertex
 10
26.86618287962696
 20
25.80990635655292
 30
0.0
  0
SEQEND
  5
C2
330
B7
100
AcDbEntity
  8
0
  0
MTEXT
  5
C3
330
2
100
AcDbEntity
  8
0
100
AcDbMText
 10
19.61618287962695
 20
17.49740635655291
 30
0.0
 40
0.28
 41
1.403697539477959
 71
     5
 72
     5
  1
JAMB
  7
Arial
 73
     1
 44
1.0
1001
ACAD
1000
MTEXTBEGIN
1070
    73
1070
     1
1070
    44
1040
1.0
1070
    74
1070
     0
1000
MTEXTEND
  0
MTEXT
  5
C6
330
2
100
AcDbEntity
  8
0
100
AcDbMText
 10
9.298924262802444
 20
10.53510635655285
 30
0.0
 40
0.28
 41
1.403697539477959
 71
     2
 72
     5
  1
SILL
  7
Arial
 73
     1
 44
1.0
1001
ACAD
1000
MTEXTBEGIN
1070
    73
1070
     1
1070
    44
1040
1.0
1070
    74
1070
     0
1000
MTEXTEND
  0
MTEXT
  5
C7
330
2
100
AcDbEntity
  8
0
100
AcDbMText
 10
9.298924262802444
 20
21.68490635655291
 30
0.0
 40
0.28
 41
1.403697539477959
 71
     5
 72
     5
  1
HEAD
  7
Arial
 73
     1
 44
1.0
1001
ACAD
1000
MTEXTBEGIN
1070
    73
1070
     1
1070
    44
1040
1.0
1070
    74
1070
     0
1000
MTEXTEND
  0
POLYLINE
  5
C8
330
2
100
AcDbEntity
  8
0
100
AcDb2dPolyline
 66
     1
 10
0.0
 20
0.0
 30
0.0
  0
VERTEX
  5
C9
330
C8
100
AcDbEntity
  8
0
100
AcDbVertex
100
AcDb2dVertex
 10
5.615696493621669
 20
30.8971186245104
 30
0.0
  0
VERTEX
  5
CA
330
C8
100
AcDbEntity
  8
0
100
AcDbVertex
100
AcDb2dVertex
 10
6.112230398644747
 20
30.8971186245104
 30
0.0
  0
VERTEX
  5
CB
330
C8
100
AcDbEntity
  8
0
100
AcDbVertex
100
AcDb2dVertex
 10
6.174730398644747
 20
31.1471186245104
 30
0.0
  0
VERTEX
  5
CC
330
C8
100
AcDbEntity
  8
0
100
AcDbVertex
100
AcDb2dVertex
 10
6.299730398644747
 20
30.64711862451039
 30
0.0
  0
VERTEX
  5
CD
330
C8
100
AcDbEntity
  8
0
100
AcDbVertex
100
AcDb2dVertex
 10
6.362230398644747
 20
30.8971186245104
 30
0.0
  0
VERTEX
  5
CE
330
C8
100
AcDbEntity
  8
0
100
AcDbVertex
100
AcDb2dVertex
 10
11.13884160443859
 20
30.8971186245104
 30
0.0
  0
VERTEX
  5
CF
330
C8
100
AcDbEntity
  8
0
100
AcDbVertex
100
AcDb2dVertex
 10
11.20134160443858
 20
31.1471186245104
 30
0.0
  0
VERTEX
  5
D0
330
C8
100
AcDbEntity
  8
0
100
AcDbVertex
100
AcDb2dVertex
 10
11.32634160443859
 20
30.64711862451039
 30
0.0
  0
VERTEX
  5
D1
330
C8
100
AcDbEntity
  8
0
100
AcDbVertex
100
AcDb2dVertex
 10
11.38884160443858
 20
30.8971186245104
 30
0.0
  0
VERTEX
  5
D2
330
C8
100
AcDbEntity
  8
0
100
AcDbVertex
100
AcDb2dVertex
 10
14.26280820772378
 20
30.89711862451041
 30
0.0
  0
SEQEND
  5
D3
330
C8
100
AcDbEntity
  8
0
  0
POLYLINE
  5
D4
330
2
100
AcDbEntity
  8
0
100
AcDb2dPolyline
 66
     1
 10
0.0
 20
0.0
 30
0.0
  0
VERTEX
  5
D5
330
D4
100
AcDbEntity
  8
0
100
AcDbVertex
100
AcDb2dVertex
 10
17.11618287962694
 20
17.74597005338558
 30
0.0
  0
VERTEX
  5
D6
330
D4
100
AcDbEntity
  8
0
100
AcDbVertex
100
AcDb2dVertex
 10
17.11618287962694
 20
18.24250395840866
 30
0.0
  0
VERTEX
  5
D7
330
D4
100
AcDbEntity
  8
0
100
AcDbVertex
100
AcDb2dVertex
 10
16.86618287962694
 20
18.30500395840866
 30
0.0
  0
VERTEX
  5
D8
330
D4
100
AcDbEntity
  8
0
100
AcDbVertex
100
AcDb2dVertex
 10
17.36618287962694
 20
18.43000395840866
 30
0.0
  0
VERTEX
  5
D9
330
D4
100
AcDbEntity
  8
0
100
AcDbVertex
100
AcDb2dVertex
 10
17.11618287962694
 20
18.49250395840866
 30
0.0
  0
VERTEX
  5
DA
330
D4
100
AcDbEntity
  8
0
100
AcDbVertex
100
AcDb2dVertex
 10
17.11618287962695
 20
23.40333882318684
 30
0.0
  0
VERTEX
  5
DB
330
D4
100
AcDbEntity
  8
0
100
AcDbVertex
100
AcDb2dVertex
 10
16.86618287962694
 20
23.46583882318684
 30
0.0
  0
VERTEX
  5
DC
330
D4
100
AcDbEntity
  8
0
100
AcDbVertex
100
AcDb2dVertex
 10
17.36618287962695
 20
23.59083882318684
 30
0.0
  0
VERTEX
  5
DD
330
D4
100
AcDbEntity
  8
0
100
AcDbVertex
100
AcDb2dVertex
 10
17.11618287962695
 20
23.65333882318684
 30
0.0
  0
VERTEX
  5
DE
330
D4
100
AcDbEntity
  8
0
100
AcDbVertex
100
AcDb2dVertex
 10
17.11618287962695
 20
26.3930817674877
 30
0.0
  0
SEQEND
  5
DF
330
D4
100
AcDbEntity
  8
0
  0
INSERT
  5
105
330
2
100
AcDbEntity
  8
0
100
AcDbBlockReference
  2
10headvinylsiding2
 10
6.912191050921506
 20
26.68335053363684
 30
0.0
  0
INSERT
  5
1D9
330
2
100
AcDbEntity
  8
0
100
AcDbBlockReference
  2
10jambvinylsiding
 10
22.36618287962696
 20
18.74597005338557
 30
0.0
 50
90.0
  0
INSERT
  5
237
330
2
100
AcDbEntity
  8
0
100
AcDbBlockReference
  2
ACC31D0 Colonial
 10
12.71287844763689
 20
25.99841899895924
 30
0.0
  0
POLYLINE
  5
25C
102
{ACAD_REACTORS
330
262
102
}
330
2
100
AcDbEntity
  8
0
100
AcDb2dPolyline
 66
     1
 10
0.0
 20
0.0
 30
0.0
 70
     1
  0
VERTEX
  5
25D
330
25C
100
AcDbEntity
  8
0
100
AcDbVertex
100
AcDb2dVertex
 10
12.71287844763689
 20
26.68935053702962
 30
0.0
  0
VERTEX
  5
25E
330
25C
100
AcDbEntity
  8
0
100
AcDbVertex
100
AcDb2dVertex
 10
12.71287844763689
 20
25.84015920322761
 30
0.0
  0
VERTEX
  5
25F
330
25C
100
AcDbEntity
  8
0
100
AcDbVertex
100
AcDb2dVertex
 10
11.1157700551263
 20
25.8401592032276
 30
0.0
  0
VERTEX
  5
260
330
25C
100
AcDbEntity
  8
0
100
AcDbVertex
100
AcDb2dVertex
 10
11.11562293211702
 20
26.68935053702962
 30
0.0
  0
SEQEND
  5
261
330
25C
100
AcDbEntity
  8
0
  0
HATCH
  5
262
330
2
100
AcDbEntity
  8
0
100
AcDbHatch
 10
0.0
 20
0.0
 30
0.0
210
0.0
220
0.0
230
1.0
  2
WOOD
 70
     0
 71
     1
 91
        1
 92
        1
 93
        4
 72
     1
 10
12.71287844763689
 20
26.68935053702962
 11
12.71287844763689
 21
25.84015920322761
 72
     1
 10
12.71287844763689
 20
25.84015920322761
 11
11.1157700551263
 21
25.8401592032276
 72
     1
 10
11.1157700551263
 20
25.8401592032276
 11
11.11562293211702
 21
26.68935053702962
 72
     1
 10
11.11562293211702
 20
26.68935053702962
 11
12.71287844763689
 21
26.68935053702962
 97
        1
330
25C
 75
     0
 76
     1
 52
135.0
 41
0.14
 77
     0
 78
    12
 53
225.0
 43
-10.55019055470993
 44
2.808545331503667
 45
-0.7919595949289332
 46
0.0000000000000001
 79
     2
 49
0.5600000000000001
 49
-5.04
 53
225.0
 43
-11.83712489646945
 44
1.719600888476384
 45
-0.7919595949289332
 46
0.0000000000000001
 79
     2
 49
0.5600000000000001
 49
-2.24
 53
198.43494882
 43
-10.15421075724546
 44
2.4125655340392
 45
-0.7919595586260602
 46
-0.0000000442314982
 79
     2
 49
1.25219808
 49
-11.26978258
 53
239.03624347
 43
-8.768281466119843
 44
4.194474622629299
 45
-0.7919596908495017
 46
-0.0000000240384627
 79
     2
 49
0.5772348400000002
 49
-4.04064346
 53
239.03624347
 43
-9.461246111682655
 44
3.30352007833425
 45
-0.7919596908495017
 46
-0.0000000240384627
 79
     2
 49
0.5772348400000002
 49
-4.04064346
 53
239.03624347
 43
-9.065266314218192
 44
5.283419065656584
 45
-0.7919596908495017
 46
-0.0000000240384627
 79
     2
 49
0.5772348400000002
 49
-4.04064346
 53
210.96375653
 43
-11.34215014963888
 44
2.016585736574734
 45
-0.7919596908495016
 46
0.0000000240384629
 79
     2
 49
0.5772348400000002
 49
-22.51215666
 53
210.96375653
 43
-18.46978650399927
 44
-1.94321223806993
 45
-0.7919596908495016
 46
0.0000000240384629
 79
     2
 49
0.5772348400000002
 49
-22.51215666
 53
210.96375653
 43
-24.80546326343074
 44
-5.903010212714598
 45
-0.7919596908495016
 46
0.0000000240384629
 79
     2
 49
0.5772348400000002
 49
-22.51215666
 53
251.56505118
 43
-12.53008954203227
 44
0.8286463441813346
 45
-0.7919595586260602
 46
0.0000000442314984
 79
     2
 49
0.6260990400000001
 49
-11.89588162
 53
251.56505118
 43
-10.15421075724546
 44
8.748242293470665
 45
-0.7919595586260602
 46
0.0000000442314984
 79
     2
 49
0.6260990400000001
 49
-11.89588162
 53
251.56505118
 43
-11.73812994710335
 44
4.788444318826
 45
-0.7919595586260602
 46
0.0000000442314984
 79
     2
 49
0.6260990400000001
 49
-11.89588162
 98
        1
 10
38.86874547289283
 20
6.314350537029615
  0
HATCH
  5
263
330
2
100
AcDbEntity
  8
0
100
AcDbHatch
 10
0.0
 20
0.0
 30
0.0
210
0.0
220
0.0
230
1.0
  2
WOOD
 70
     0
 71
     1
 91
        1
 92
        1
 93
        4
 72
     1
 10
22.36018287962711
 20
24.90149193614644
 11
23.20937421342912
 21
24.90149193614644
 72
     1
 10
23.20937421342912
 20
24.90149193614644
 11
23.20937421342914
 21
23.24604361489022
 72
     1
 10
23.20937421342914
 20
23.24604361489022
 11
22.36018287962712
 21
23.24589649188094
 72
     1
 10
22.36018287962712
 20
23.24589649188094
 11
22.36018287962711
 21
24.90149193614644
 97
        1
330
264
 75
     0
 76
     1
 52
225.0
 41
0.14
 77
     0
 78
    12
 53
315.0
 43
46.24098808515306
 44
1.580083005053978
 45
-0.0000000000000002
 46
-0.7919595949289332
 79
     2
 49
0.5600000000000001
 49
-5.04
 53
315.0
 43
47.32993252818034
 44
0.2931486632944598
 45
-0.0000000000000002
 46
-0.7919595949289332
 79
     2
 49
0.5600000000000001
 49
-2.24
 53
288.4349488200001
 43
46.63696788261753
 44
1.97606280251844
 45
0.0000000442314982
 46
-0.7919595586260602
 79
     2
 49
1.25219808
 49
-11.26978258
 53
329.03624347
 43
44.85505879402743
 44
3.361992093644075
 45
0.0000000240384626
 46
-0.7919596908495017
 79
     2
 49
0.5772348400000002
 49
-4.04064346
 53
329.03624347
 43
45.74601333832247
 44
2.669027448081251
 45
0.0000000240384626
 46
-0.7919596908495017
 79
     2
 49
0.5772348400000002
 49
-4.04064346
 53
329.03624347
 43
43.76611435100015
 44
3.065007245545721
 45
0.0000000240384626
 46
-0.7919596908495017
 79
     2
 49
0.5772348400000002
 49
-4.04064346
 53
300.96375653
 43
47.03294768008199
 44
0.7881234101250385
 45
-0.0000000240384629
 46
-0.7919596908495016
 79
     2
 49
0.5772348400000002
 49
-22.51215666
 53
300.96375653
 43
50.99274565472665
 44
-6.339512944235358
 45
-0.0000000240384629
 46
-0.7919596908495016
 79
     2
 49
0.5772348400000002
 49
-22.51215666
 53
300.96375653
 43
54.95254362937131
 44
-12.67518970366682
 45
-0.0000000240384629
 46
-0.7919596908495016
 79
     2
 49
0.5772348400000002
 49
-22.51215666
 53
341.56505118
 43
48.22088707247539
 44
-0.3998159822683647
 45
-0.0000000442314984
 46
-0.7919595586260602
 79
     2
 49
0.6260990400000001
 49
-11.89588162
 53
341.56505118
 43
40.30129112318606
 44
1.97606280251844
 45
-0.0000000442314984
 46
-0.7919595586260602
 79
     2
 49
0.6260990400000001
 49
-11.89588162
 53
341.56505118
 43
44.26108909783073
 44
0.3921436126605755
 45
-0.0000000442314984
 46
-0.7919595586260602
 79
     2
 49
0.6260990400000001
 49
-11.89588162
 98
        1
 10
42.73518287962711
 20
50.99901903265678
  0
POLYLINE
  5
264
102
{ACAD_REACTORS
330
263
102
}
330
2
100
AcDbEntity
  8
0
100
AcDb2dPolyline
 66
     1
 10
0.0
 20
0.0
 30
0.0
 70
     1
  0
VERTEX
  5
265
330
264
100
AcDbEntity
  8
0
100
AcDbVertex
100
AcDb2dVertex
 10
22.36018287962711
 20
24.90149193614644
 30
0.0
  0
VERTEX
  5
266
330
264
100
AcDbEntity
  8
0
100
AcDbVertex
100
AcDb2dVertex
 10
23.20937421342912
 20
24.90149193614644
 30
0.0
  0
VERTEX
  5
267
330
264
100
AcDbEntity
  8
0
100
AcDbVertex
100
AcDb2dVertex
 10
23.20937421342914
 20
23.24604361489022
 30
0.0
  0
VERTEX
  5
268
330
264
100
AcDbEntity
  8
0
100
AcDbVertex
100
AcDb2dVertex
 10
22.36018287962712
 20
23.24589649188094
 30
0.0
  0
SEQEND
  5
269
330
264
100
AcDbEntity
  8
0
  0
INSERT
  5
26A
330
2
100
AcDbEntity
  8
0
100
AcDbBlockReference
  2
ACC31D0 Colonial
 10
23.05111441769749
 20
24.90149193614643
 30
0.0
 50
90.0
  0
INSERT
  5
26B
330
2
100
AcDbEntity
  8
0
100
AcDbBlockReference
  2
TSE10SDHV
 10
6.615696493621669
 20
26.68335053702977
 30
0.0
  0
INSERT
  5
3B3
330
2
100
AcDbEntity
  8
0
100
AcDbBlockReference
  2
TSE10SDSV
 10
6.616182879626947
 20
16.56010635655285
 30
0.0
  0
INSERT
  5
413
330
2
100
AcDbEntity
  8
0
100
AcDbBlockReference
  2
A$C5EDA733A
 10
6.616182879626947
 20
16.56010635655286
 30
0.0
  0
POLYLINE
  5
4BE
330
2
100
AcDbEntity
  8
0
  6
Continuous
100
AcDb2dPolyline
 66
     1
 10
0.0
 20
0.0
 30
0.0
  0
VERTEX
  5
4BF
330
4BE
100
AcDbEntity
  8
0
  6
Continuous
100
AcDbVertex
100
AcDb2dVertex
 10
14.01100144635084
 20
11.03510635655285
 30
0.0
  0
VERTEX
  5
4C0
330
4BE
100
AcDbEntity
  8
0
  6
Continuous
100
AcDbVertex
100
AcDb2dVertex
 10
14.01100144635084
 20
14.43828865669736
 30
0.0
  0
VERTEX
  5
4C1
330
4BE
100
AcDbEntity
  8
0
  6
Continuous
100
AcDbVertex
100
AcDb2dVertex
 10
13.76100144635084
 20
14.53828865669735
 30
0.0
  0
VERTEX
  5
4C2
330
4BE
100
AcDbEntity
  8
0
  6
Continuous
100
AcDbVertex
100
AcDb2dVertex
 10
14.26100144635084
 20
14.63828865669736
 30
0.0
  0
VERTEX
  5
4C3
330
4BE
100
AcDbEntity
  8
0
  6
Continuous
100
AcDbVertex
100
AcDb2dVertex
 10
14.01100144635084
 20
14.73828865669736
 30
0.0
  0
VERTEX
  5
4C4
330
4BE
100
AcDbEntity
  8
0
  6
Continuous
100
AcDbVertex
100
AcDb2dVertex
 10
14.01100144635084
 20
17.63950076664535
 30
0.0
  0
SEQEND
  5
4C5
330
4BE
100
AcDbEntity
  8
0
  6
Continuous
  0
INSERT
  5
B6D
330
2
100
AcDbEntity
  8
0
100
AcDbBlockReference
  2
TSE10SDLJ
 10
22.36618287962696
 20
18.74597005338557
 30
0.0
 50
90.0
  0
ENDSEC
  0
SECTION
  2
OBJECTS
  0
DICTIONARY
  5
9
330
0
100
AcDbDictionary
281
     1
  3
ACAD_COLOR
350
2B
  3
ACAD_GROUP
350
27
  3
ACAD_LAYOUT
350
E
  3
ACAD_MATERIAL
350
2A
  3
ACAD_MLINESTYLE
350
28
  3
ACAD_PLOTSETTINGS
350
29
  3
ACAD_PLOTSTYLENAME
350
8
  3
ACDBHEADERROUNDTRIPXREC
350
1050
  3
AcDbVariableDictionary
350
68A
  3
AVAT_FILE_STORE
350
829
  3
DWGPROPS
350
104F
1001
ADE
1000
ADE02C004
1000
[Query]
1000
CaseSensitiveMatch=0
1000
SaveCurrQueryInSession=1
1000
MkSelSetWithQryObj=0
1000
ShowBlockAsInsPt=0
1000
CreateAssociativeHatchObjects=0
1000
ReferenceBoundaryForAreaLocation=1
1000
ShowImageAsBoundary=1
1000
DefaultJoinOperator=2
1000
ColorForAdd=red
1000
ColorForRemove=red
1000
BlockLocnForQuery=1
1000
TextLocnForQuery=1
1000
[Save Back]
1000
RedefineBlockDefinitions=1
1000
RedefineLayerDefinitions=1
1000
RedefineTextStyleDefinitions=1
1000
RemoveUnusedGroups=1
1000
EraseSavedBackObjects=1
1000
RemoveLockAfterSave=1
1000
CreateHistoryFileOfChanges=0
1000
CreateBackupFileOfSourceDwg=1
1000
DontAddObjectsToSaveSet=0
1000
MarkObjectsForEditingWithoutPrompting=0
1000
[Coordinate Transformation]
1000
RestoreLastActiveDwgsOnStartup=1
1000
ActivateDwgsOnAttach=1
1000
AdjustSizesAndScalesForChangesInUnits=1
1000
AdjustRotationsForMapDistortions=1
1000
AdjustSizesAndScalesForMapDistortions=1
1000
AdjustElevations=1
1000
AdjustZeroRotationObjects=1
1000
ReconnectDbOnWSOpen=1
1000
NoOfSQLConditionsInHistory=10
  0
DICTIONARY
  5
15
330
14
100
AcDbDictionary
280
     1
281
     1
  3
ACAD_LAYERFILTERS
360
16
  3
ACAD_LAYERSTATES
360
17
  0
DICTIONARY
  5
3
330
2
100
AcDbDictionary
280
     1
281
     1
  3
ACAD_SORTENTS
360
4
  0
DICTIONARY
  5
10
330
F
100
AcDbDictionary
280
     1
281
     1
  0
DICTIONARY
  5
1F1
330
1F0
100
AcDbDictionary
280
     1
281
     1
  3
ACAD_SORTENTS
360
1F2
  0
DICTIONARY
  5
200
330
1FF
100
AcDbDictionary
280
     1
281
     1
  3
ACAD_SORTENTS
360
201
  0
DICTIONARY
  5
146
330
145
100
AcDbDictionary
280
     1
281
     1
  3
ACAD_SORTENTS
360
147
  0
DICTIONARY
  5
F61
330
23D
100
AcDbDictionary
280
     1
281
     1
  3
ACAD_SORTENTS
360
F62
  0
DICTIONARY
  5
239
330
238
100
AcDbDictionary
280
     1
281
     1
  3
ACAD_SORTENTS
360
F91
  0
DICTIONARY
  5
122
330
121
100
AcDbDictionary
280
     1
281
     1
  3
ACAD_SORTENTS
360
123
  0
DICTIONARY
  5
1DB
330
1DA
100
AcDbDictionary
280
     1
281
     1
  3
ACAD_SORTENTS
360
1DC
  0
DICTIONARY
  5
15A
330
159
100
AcDbDictionary
280
     1
281
     1
  3
ACAD_SORTENTS
360
15B
  0
DICTIONARY
  5
26D
330
26C
100
AcDbDictionary
280
     1
281
     1
  3
ACAD_SORTENTS
360
806
  0
DICTIONARY
  5
3B5
330
3B4
100
AcDbDictionary
280
     1
281
     1
  3
ACAD_SORTENTS
360
3B6
  0
DICTIONARY
  5
415
330
414
100
AcDbDictionary
280
     1
281
     1
  3
ACAD_SORTENTS
360
416
  0
DICTIONARY
  5
107
330
106
100
AcDbDictionary
280
     1
281
     1
  3
ACAD_SORTENTS
360
108
  0
DICTIONARY
  5
B68
330
A9E
100
AcDbDictionary
280
     1
281
     1
  3
ACAD_SORTENTS
360
ECE
  0
DICTIONARY
  5
2B
102
{ACAD_REACTORS
330
9
102
}
330
9
100
AcDbDictionary
281
     1
  0
DICTIONARY
  5
27
102
{ACAD_REACTORS
330
9
102
}
330
9
100
AcDbDictionary
281
     1
  3
*A1
350
A9C
  3
*A2
350
A9D
  0
DICTIONARY
  5
E
102
{ACAD_REACTORS
330
9
102
}
330
9
100
AcDbDictionary
281
     1
  3
E(01)
350
13
  3
Model
350
D
  0
DICTIONARY
  5
2A
102
{ACAD_REACTORS
330
9
102
}
330
9
100
AcDbDictionary
281
     1
  0
DICTIONARY
  5
28
102
{ACAD_REACTORS
330
9
102
}
330
9
100
AcDbDictionary
281
     1
  3
Standard
350
2D
  0
DICTIONARY
  5
29
102
{ACAD_REACTORS
330
9
102
}
330
9
100
AcDbDictionary
281
     1
  0
ACDBDICTIONARYWDFLT
  5
8
102
{ACAD_REACTORS
330
9
102
}
330
9
100
AcDbDictionary
281
     1
  3
Normal
350
7
100
AcDbDictionaryWithDefault
340
7
  0
DICTIONARY
  5
1050
102
{ACAD_REACTORS
330
9
102
}
330
9
100
AcDbDictionary
281
     1
  3
COLORDICT
350
1052
  3
MATERIALDICT
350
1051
  0
DICTIONARY
  5
68A
102
{ACAD_REACTORS
330
9
102
}
330
9
100
AcDbDictionary
281
     1
  3
DIMASSOC
350
68C
  3
HIDETEXT
350
68B
  3
PROJECTNAME
350
68D
  0
DICTIONARY
  5
829
102
{ACAD_REACTORS
330
9
102
}
330
9
100
AcDbDictionary
281
     1
  0
XRECORD
  5
104F
102
{ACAD_REACTORS
330
9
102
}
330
9
100
AcDbXrecord
280
     1
  1
DWGPROPS COOKIE
  2

  3

  4

  6

  7

  8

  9

300
=
301
=
302
=
303
=
304
=
305
=
306
=
307
=
308
=
309
=
 40
4.202587175925925
 41
2453963.430150475
 42
2454183.556161088
  1

 90
        0
  0
DICTIONARY
  5
16
102
{ACAD_REACTORS
330
15
102
}
330
15
100
AcDbDictionary
281
     1
  0
DICTIONARY
  5
17
102
{ACAD_REACTORS
330
15
102
}
330
15
100
AcDbDictionary
281
     1
  0
SORTENTSTABLE
  5
4
102
{ACAD_REACTORS
330
3
102
}
330
3
100
AcDbSortentsTable
330
2
  0
SORTENTSTABLE
  5
1F2
102
{ACAD_REACTORS
330
1F1
102
}
330
1F1
100
AcDbSortentsTable
330
1F0
  0
SORTENTSTABLE
  5
201
102
{ACAD_REACTORS
330
200
102
}
330
200
100
AcDbSortentsTable
330
1FF
  0
SORTENTSTABLE
  5
147
102
{ACAD_REACTORS
330
146
102
}
330
146
100
AcDbSortentsTable
330
145
  0
SORTENTSTABLE
  5
F62
102
{ACAD_REACTORS
330
F61
102
}
330
F61
100
AcDbSortentsTable
330
23D
  0
SORTENTSTABLE
  5
F91
102
{ACAD_REACTORS
330
239
102
}
330
239
100
AcDbSortentsTable
330
238
  0
SORTENTSTABLE
  5
123
102
{ACAD_REACTORS
330
122
102
}
330
122
100
AcDbSortentsTable
330
121
  0
SORTENTSTABLE
  5
1DC
102
{ACAD_REACTORS
330
1DB
102
}
330
1DB
100
AcDbSortentsTable
330
1DA
  0
SORTENTSTABLE
  5
15B
102
{ACAD_REACTORS
330
15A
102
}
330
15A
100
AcDbSortentsTable
330
159
  0
SORTENTSTABLE
  5
806
102
{ACAD_REACTORS
330
26D
102
}
330
26D
100
AcDbSortentsTable
330
26C
  0
SORTENTSTABLE
  5
3B6
102
{ACAD_REACTORS
330
3B5
102
}
330
3B5
100
AcDbSortentsTable
330
3B4
  0
SORTENTSTABLE
  5
416
102
{ACAD_REACTORS
330
415
102
}
330
415
100
AcDbSortentsTable
330
414
  0
SORTENTSTABLE
  5
108
102
{ACAD_REACTORS
330
107
102
}
330
107
100
AcDbSortentsTable
330
106
  0
SORTENTSTABLE
  5
ECE
102
{ACAD_REACTORS
330
B68
102
}
330
B68
100
AcDbSortentsTable
330
A9E
331
ABA
  5
AB9
331
ACA
  5
ACB
331
AB8
  5
AB8
331
AC9
  5
ACA
331
AB7
  5
AB7
331
AC8
  5
AC9
331
AC7
  5
AC8
331
AC6
  5
AC7
331
AC5
  5
AC6
331
AC4
  5
AC5
331
AC3
  5
AC4
331
AC2
  5
AC3
331
AC1
  5
AC2
331
AC0
  5
AC1
331
ABF
  5
AC0
331
ABE
  5
ABF
331
AA2
  5
AA2
331
ABD
  5
ABE
331
AA1
  5
AA1
  0
GROUP
  5
A9C
102
{ACAD_REACTORS
330
27
102
}
330
27
100
AcDbGroup
300

 70
     1
 71
     1
  0
GROUP
  5
A9D
102
{ACAD_REACTORS
330
27
102
}
330
27
100
AcDbGroup
300

 70
     1
 71
     1
  0
LAYOUT
  5
13
102
{ACAD_XDICTIONARY
360
1055
102
}
102
{ACAD_REACTORS
330
E
102
}
330
E
100
AcDbPlotSettings
  1

  2
pdfFactory Pro
  4
Letter
  6

 40
7.143749713897705
 41
7.143756389617919
 42
7.14373779296875
 43
7.14373779296875
 44
215.8999938964844
 45
279.3999938964844
 46
2.254410674808914
 47
1.460709406948821
 48
0.0
 49
0.0
140
0.0
141
0.0
142
1.0
143
1.0
 70
  2740
 72
     0
 73
     0
 74
     1
  7
PellaCAD 2000.ctb
 75
    16
147
1.0
148
-4.161233276140636
149
-3.625204639702189
100
AcDbLayout
  1
E(01)
 70
     1
 71
     1
 10
-0.2061786625248921
 20
-0.1960345847423638
 11
8.293821097179217
 21
10.80396517496174
 12
0.0
 22
0.0
 32
0.0
 14
0.1638280817378204
 24
0.1427245921142595
 34
0.0
 15
7.923815681737822
 25
10.46520809211426
 35
0.0
146
0.0
 13
0.0
 23
0.0
 33
0.0
 16
1.0
 26
0.0
 36
0.0
 17
0.0
 27
1.0
 37
0.0
 76
     0
330
F
  0
LAYOUT
  5
D
102
{ACAD_XDICTIONARY
360
1053
102
}
102
{ACAD_REACTORS
330
E
102
}
330
E
100
AcDbPlotSettings
  1

  2
pdfFactory Pro
  4
Letter
  6

 40
7.143749713897705
 41
7.143756389617919
 42
7.14373779296875
 43
7.14373779296875
 44
215.8999938964844
 45
279.3999938964844
 46
-4172.303552225297
 47
-3362.883336105818
 48
0.0
 49
0.0
140
0.0
141
0.0
142
1.0
143
1.0
 70
 11956
 72
     0
 73
     0
 74
     1
  7
PellaCAD 2000.ctb
 75
    16
147
1.0
148
0.260774110343357
149
4383.221787653484
100
AcDbLayout
  1
Model
 70
     1
 71
     0
 10
0.0
 20
0.0
 11
12.0
 21
9.0
 12
0.0
 22
0.0
 32
0.0
 14
0.0
 24
0.0
 34
0.0
 15
0.0
 25
0.0
 35
0.0
146
0.0
 13
0.0
 23
0.0
 33
0.0
 16
1.0
 26
0.0
 36
0.0
 17
0.0
 27
1.0
 37
0.0
 76
     0
330
2
  0
MLINESTYLE
  5
2D
102
{ACAD_REACTORS
330
28
102
}
330
28
100
AcDbMlineStyle
  2
STANDARD
 70
     0
  3

 62
   256
 51
90.0
 52
90.0
 71
     2
 49
0.5
 62
   256
  6
BYLAYER
 49
-0.5
 62
   256
  6
BYLAYER
  0
ACDBPLACEHOLDER
  5
7
102
{ACAD_REACTORS
330
8
102
}
330
8
  0
XRECORD
  5
1052
102
{ACAD_REACTORS
330
1050
102
}
330
1050
100
AcDbXrecord
280
     1
340
2B
  0
XRECORD
  5
1051
102
{ACAD_REACTORS
330
1050
102
}
330
1050
100
AcDbXrecord
280
     1
340
2A
  0
DICTIONARYVAR
  5
68C
102
{ACAD_REACTORS
330
68A
102
}
330
68A
100
DictionaryVariables
280
     0
  1
2
  0
DICTIONARYVAR
  5
68B
102
{ACAD_REACTORS
330
68A
102
}
330
68A
100
DictionaryVariables
280
     0
  1
1
  0
DICTIONARYVAR
  5
68D
102
{ACAD_REACTORS
330
68A
102
}
330
68A
100
DictionaryVariables
280
     0
  1

  0
DICTIONARY
  5
1055
330
13
100
AcDbDictionary
280
     1
281
     1
  3
ACAD_XREC_ROUNDTRIP
360
1056
  0
DICTIONARY
  5
1053
330
D
100
AcDbDictionary
280
     1
281
     1
  3
ACAD_XREC_ROUNDTRIP
360
1054
  0
XRECORD
  5
1056
102
{ACAD_REACTORS
330
1055
102
}
330
1055
100
AcDbXrecord
280
     1
102
SHADEPLOT
 70
     1
102
SHADEPLOTRESLEVEL
 70
     2
102
SHADEPLOTCUSTOMDPI
 70
   300
  0
XRECORD
  5
1054
102
{ACAD_REACTORS
330
1053
102
}
330
1053
100
AcDbXrecord
280
     1
102
SHADEPLOT
 70
     0
102
SHADEPLOTRESLEVEL
 70
     2
102
SHADEPLOTCUSTOMDPI
 70
   300
  0
ENDSEC
  0
EOF
