  0
SECTION
  2
HEADER
  9
$ACADVER
  1
AC1015
  9
$ACADMAINTVER
 70
    18
  9
$DWGCODEPAGE
  3
ANSI_1252
  9
$INSBASE
 10
0.0
 20
0.0
 30
0.0
  9
$EXTMIN
 10
3.568664623620765
 20
11.24340830003308
 30
-0.0015258207003612
  9
$EXTMAX
 10
26.37696844883842
 20
32.00207527447734
 30
0.0000000349246008
  9
$LIMMIN
 10
0.0
 20
0.0
  9
$LIMMAX
 10
12.0
 20
9.0
  9
$ORTHOMODE
 70
     1
  9
$REGENMODE
 70
     1
  9
$FILLMODE
 70
     1
  9
$QTEXTMODE
 70
     0
  9
$MIRRTEXT
 70
     0
  9
$LTSCALE
 40
0.5
  9
$ATTMODE
 70
     1
  9
$TEXTSIZE
 40
1.9375
  9
$TRACEWID
 40
0.05
  9
$TEXTSTYLE
  7
ARCHQUIK
  9
$CLAYER
  8
0
  9
$CELTYPE
  6
ByLayer
  9
$CECOLOR
 62
   256
  9
$CELTSCALE
 40
1.0
  9
$DISPSILH
 70
     0
  9
$DIMSCALE
 40
1.0
  9
$DIMASZ
 40
2.0
  9
$DIMEXO
 40
0.0625
  9
$DIMDLI
 40
0.0625
  9
$DIMRND
 40
0.0
  9
$DIMDLE
 40
0.0
  9
$DIMEXE
 40
0.0625
  9
$DIMTP
 40
0.0
  9
$DIMTM
 40
0.0
  9
$DIMTXT
 40
1.919999999999999
  9
$DIMCEN
 40
0.09
  9
$DIMTSZ
 40
0.0
  9
$DIMTOL
 70
     0
  9
$DIMLIM
 70
     0
  9
$DIMTIH
 70
     0
  9
$DIMTOH
 70
     0
  9
$DIMSE1
 70
     0
  9
$DIMSE2
 70
     0
  9
$DIMTAD
 70
     1
  9
$DIMZIN
 70
     2
  9
$DIMBLK
  1

  9
$DIMASO
 70
     1
  9
$DIMSHO
 70
     1
  9
$DIMPOST
  1

  9
$DIMAPOST
  1

  9
$DIMALT
 70
     0
  9
$DIMALTD
 70
     2
  9
$DIMALTF
 40
25.4
  9
$DIMLFAC
 40
1.0
  9
$DIMTOFL
 70
     0
  9
$DIMTVP
 40
0.0
  9
$DIMTIX
 70
     0
  9
$DIMSOXD
 70
     0
  9
$DIMSAH
 70
     0
  9
$DIMBLK1
  1

  9
$DIMBLK2
  1

  9
$DIMSTYLE
  2
Standard
  9
$DIMCLRD
 70
   256
  9
$DIMCLRE
 70
   256
  9
$DIMCLRT
 70
     7
  9
$DIMTFAC
 40
0.75
  9
$DIMGAP
 40
0.0625
  9
$DIMJUST
 70
     0
  9
$DIMSD1
 70
     0
  9
$DIMSD2
 70
     0
  9
$DIMTOLJ
 70
     1
  9
$DIMTZIN
 70
     0
  9
$DIMALTZ
 70
     0
  9
$DIMALTTZ
 70
     0
  9
$DIMUPT
 70
     0
  9
$DIMDEC
 70
     4
  9
$DIMTDEC
 70
     4
  9
$DIMALTU
 70
     2
  9
$DIMALTTD
 70
     2
  9
$DIMTXSTY
  7
Standard
  9
$DIMAUNIT
 70
     0
  9
$DIMADEC
 70
     3
  9
$DIMALTRND
 40
0.0
  9
$DIMAZIN
 70
     0
  9
$DIMDSEP
 70
    46
  9
$DIMATFIT
 70
     3
  9
$DIMFRAC
 70
     1
  9
$DIMLDRBLK
  1

  9
$DIMLUNIT
 70
     5
  9
$DIMLWD
 70
    -2
  9
$DIMLWE
 70
    -2
  9
$DIMTMOVE
 70
     0
  9
$LUNITS
 70
     2
  9
$LUPREC
 70
     4
  9
$SKETCHINC
 40
0.1
  9
$FILLETRAD
 40
0.0
  9
$AUNITS
 70
     0
  9
$AUPREC
 70
     3
  9
$MENU
  1
.
  9
$ELEVATION
 40
0.0
  9
$PELEVATION
 40
0.0
  9
$THICKNESS
 40
0.0
  9
$LIMCHECK
 70
     0
  9
$CHAMFERA
 40
0.5
  9
$CHAMFERB
 40
0.5
  9
$CHAMFERC
 40
1.0
  9
$CHAMFERD
 40
0.0
  9
$SKPOLY
 70
     0
  9
$TDCREATE
 40
2453963.430150475
  9
$TDUCREATE
 40
2453963.638483808
  9
$TDUPDATE
 40
2455447.478778206
  9
$TDUUPDATE
 40
2455447.687111540
  9
$TDINDWG
 40
4.2135216551
  9
$TDUSRTIMER
 40
4.2135214699
  9
$USRTIMER
 70
     1
  9
$ANGBASE
 50
0.0
  9
$ANGDIR
 70
     0
  9
$PDMODE
 70
    33
  9
$PDSIZE
 40
0.016
  9
$PLINEWID
 40
0.0
  9
$SPLFRAME
 70
     0
  9
$SPLINETYPE
 70
     6
  9
$SPLINESEGS
 70
     8
  9
$HANDSEED
  5
2BE2
  9
$SURFTAB1
 70
     6
  9
$SURFTAB2
 70
     6
  9
$SURFTYPE
 70
     6
  9
$SURFU
 70
     6
  9
$SURFV
 70
     6
  9
$UCSBASE
  2

  9
$UCSNAME
  2

  9
$UCSORG
 10
0.0
 20
0.0
 30
0.0
  9
$UCSXDIR
 10
1.0
 20
0.0
 30
0.0
  9
$UCSYDIR
 10
0.0
 20
1.0
 30
0.0
  9
$UCSORTHOREF
  2

  9
$UCSORTHOVIEW
 70
     0
  9
$UCSORGTOP
 10
0.0
 20
0.0
 30
0.0
  9
$UCSORGBOTTOM
 10
0.0
 20
0.0
 30
0.0
  9
$UCSORGLEFT
 10
0.0
 20
0.0
 30
0.0
  9
$UCSORGRIGHT
 10
0.0
 20
0.0
 30
0.0
  9
$UCSORGFRONT
 10
0.0
 20
0.0
 30
0.0
  9
$UCSORGBACK
 10
0.0
 20
0.0
 30
0.0
  9
$PUCSBASE
  2

  9
$PUCSNAME
  2

  9
$PUCSORG
 10
0.0
 20
0.0
 30
0.0
  9
$PUCSXDIR
 10
1.0
 20
0.0
 30
0.0
  9
$PUCSYDIR
 10
0.0
 20
1.0
 30
0.0
  9
$PUCSORTHOREF
  2

  9
$PUCSORTHOVIEW
 70
     0
  9
$PUCSORGTOP
 10
0.0
 20
0.0
 30
0.0
  9
$PUCSORGBOTTOM
 10
0.0
 20
0.0
 30
0.0
  9
$PUCSORGLEFT
 10
0.0
 20
0.0
 30
0.0
  9
$PUCSORGRIGHT
 10
0.0
 20
0.0
 30
0.0
  9
$PUCSORGFRONT
 10
0.0
 20
0.0
 30
0.0
  9
$PUCSORGBACK
 10
0.0
 20
0.0
 30
0.0
  9
$USERI1
 70
     0
  9
$USERI2
 70
     0
  9
$USERI3
 70
     0
  9
$USERI4
 70
     0
  9
$USERI5
 70
     0
  9
$USERR1
 40
24.0
  9
$USERR2
 40
0.0
  9
$USERR3
 40
22.0
  9
$USERR4
 40
0.0
  9
$USERR5
 40
0.0
  9
$WORLDVIEW
 70
     1
  9
$SHADEDGE
 70
     3
  9
$SHADEDIF
 70
    70
  9
$TILEMODE
 70
     1
  9
$MAXACTVP
 70
    64
  9
$PINSBASE
 10
0.0
 20
0.0
 30
0.0
  9
$PLIMCHECK
 70
     0
  9
$PEXTMIN
 10
0.0
 20
0.0
 30
0.0
  9
$PEXTMAX
 10
0.0
 20
0.0
 30
0.0
  9
$PLIMMIN
 10
0.0
 20
0.0
  9
$PLIMMAX
 10
12.0
 20
9.0
  9
$UNITMODE
 70
     0
  9
$VISRETAIN
 70
     1
  9
$PLINEGEN
 70
     0
  9
$PSLTSCALE
 70
     1
  9
$TREEDEPTH
 70
  3020
  9
$CMLSTYLE
  2
Standard
  9
$CMLJUST
 70
     0
  9
$CMLSCALE
 40
1.0
  9
$PROXYGRAPHICS
 70
     1
  9
$MEASUREMENT
 70
     0
  9
$CELWEIGHT
370
    -1
  9
$ENDCAPS
280
     0
  9
$JOINSTYLE
280
     0
  9
$LWDISPLAY
290
     0
  9
$INSUNITS
 70
     1
  9
$HYPERLINKBASE
  1

  9
$STYLESHEET
  1

  9
$XEDIT
290
     1
  9
$CEPSNTYPE
380
     0
  9
$PSTYLEMODE
290
     1
  9
$FINGERPRINTGUID
  2
{FDEAD576-A652-11D2-9A35-0060089B3A3F}
  9
$VERSIONGUID
  2
{07AB4292-78B2-47BC-B6E2-50AF3A6B2DD2}
  9
$EXTNAMES
290
     1
  9
$PSVPSCALE
 40
0.0
  9
$OLESTARTUP
290
     0
  0
ENDSEC
  0
SECTION
  2
CLASSES
  0
CLASS
  1
ACDBDICTIONARYWDFLT
  2
AcDbDictionaryWithDefault
  3
ObjectDBX Classes
 90
        0
280
     0
281
     0
  0
CLASS
  1
ACDBPLACEHOLDER
  2
AcDbPlaceHolder
  3
ObjectDBX Classes
 90
        0
280
     0
281
     0
  0
CLASS
  1
LAYOUT
  2
AcDbLayout
  3
ObjectDBX Classes
 90
        0
280
     0
281
     0
  0
CLASS
  1
PLOTSETTINGS
  2
AcDbPlotSettings
  3
ObjectDBX Classes
 90
    32768
280
     0
281
     0
  0
CLASS
  1
AMLOADER
  2
AMLoader
  3
AMAcad
 90
    32768
280
     1
281
     0
  0
CLASS
  1
DICTIONARYVAR
  2
AcDbDictionaryVar
  3
ObjectDBX Classes
 90
        0
280
     0
281
     0
  0
CLASS
  1
SORTENTSTABLE
  2
AcDbSortentsTable
  3
ObjectDBX Classes
 90
        0
280
     0
281
     0
  0
CLASS
  1
DIMASSOC
  2
AcDbDimAssoc
  3
"AcDbDimAssoc|Product Desc:     AcDim ARX App For Dimension|Company:          Autodesk, Inc.|WEB Address:      www.autodesk.com"
 90
    32768
280
     0
281
     0
  0
CLASS
  1
MATERIAL
  2
AcDbMaterial
  3
ObjectDBX Classes
 90
     1153
280
     0
281
     0
  0
CLASS
  1
VISUALSTYLE
  2
AcDbVisualStyle
  3
ObjectDBX Classes
 90
     4095
280
     0
281
     0
  0
CLASS
  1
TABLESTYLE
  2
AcDbTableStyle
  3
ObjectDBX Classes
 90
     4095
280
     0
281
     0
  0
CLASS
  1
SCALE
  2
AcDbScale
  3
ObjectDBX Classes
 90
     1153
280
     0
281
     0
  0
CLASS
  1
MLEADERSTYLE
  2
AcDbMLeaderStyle
  3
ACDB_MLEADERSTYLE_CLASS
 90
     4095
280
     0
281
     0
  0
CLASS
  1
CELLSTYLEMAP
  2
AcDbCellStyleMap
  3
ObjectDBX Classes
 90
     1152
280
     0
281
     0
  0
CLASS
  1
AEC_REFEDIT_STATUS_TRACKER
  2
AecDbRefEditStatusTracker
  3
AecArchBase50|Product Desc: Autodesk Architectural Desktop 2007 |Company: Autodesk,Inc. |WEB Address: www.autodesk.com
 90
    32897
280
     0
281
     0
  0
CLASS
  1
NPOCOLLECTION
  2
AcDbImpNonPersistentObjectsCollection
  3
ObjectDBX Classes
 90
    33921
280
     0
281
     0
  0
ENDSEC
  0
SECTION
  2
TABLES
  0
TABLE
  2
VPORT
  5
20
102
{ACAD_XDICTIONARY
360
2862
102
}
330
0
100
AcDbSymbolTable
 70
     1
  0
VPORT
  5
2330
330
20
100
AcDbSymbolTableRecord
100
AcDbViewportTableRecord
  2
*Active
 70
     0
 10
0.0
 20
0.0
 11
1.0
 21
1.0
 12
14.97281653622959
 22
21.62274178725521
 13
0.0
 23
0.0
 14
0.03125
 24
0.03125
 15
0.5
 25
0.5
 16
0.0
 26
0.0
 36
1.0
 17
0.0
 27
0.0
 37
0.0
 40
20.92928615505613
 41
1.495198902606309
 42
50.0
 43
0.0
 44
0.0
 50
0.0
 51
0.0
 71
     0
 72
  8000
 73
     1
 74
     0
 75
     0
 76
     0
 77
     0
 78
     0
281
     0
 65
     1
110
0.0
120
0.0
130
0.0
111
1.0
121
0.0
131
0.0
112
0.0
122
1.0
132
0.0
 79
     0
146
0.0
  0
ENDTAB
  0
TABLE
  2
LTYPE
  5
1B
330
0
100
AcDbSymbolTable
 70
     1
  0
LTYPE
  5
1C
330
1B
100
AcDbSymbolTableRecord
100
AcDbLinetypeTableRecord
  2
ByBlock
 70
     0
  3

 72
    65
 73
     0
 40
0.0
  0
LTYPE
  5
1D
330
1B
100
AcDbSymbolTableRecord
100
AcDbLinetypeTableRecord
  2
ByLayer
 70
     0
  3

 72
    65
 73
     0
 40
0.0
  0
LTYPE
  5
A
330
1B
100
AcDbSymbolTableRecord
100
AcDbLinetypeTableRecord
  2
Continuous
 70
     0
  3
Solid line
 72
    65
 73
     0
 40
0.0
  0
ENDTAB
  0
TABLE
  2
LAYER
  5
13
102
{ACAD_XDICTIONARY
360
14
102
}
330
0
100
AcDbSymbolTable
 70
    15
  0
LAYER
  5
5
102
{ACAD_XDICTIONARY
360
2831
102
}
330
13
100
AcDbSymbolTableRecord
100
AcDbLayerTableRecord
  2
0
 70
     0
 62
     7
  6
Continuous
370
    -3
390
6
  0
LAYER
  5
154
102
{ACAD_XDICTIONARY
360
2839
102
}
330
13
100
AcDbSymbolTableRecord
100
AcDbLayerTableRecord
  2
Pel_Wall
 70
     0
 62
     9
  6
Continuous
370
    -3
390
6
  0
LAYER
  5
63
102
{ACAD_XDICTIONARY
360
283D
102
}
330
13
100
AcDbSymbolTableRecord
100
AcDbLayerTableRecord
  2
Pel_CS-IG
 70
     0
 62
     2
  6
Continuous
370
    -3
390
6
  0
LAYER
  5
71
102
{ACAD_XDICTIONARY
360
283F
102
}
330
13
100
AcDbSymbolTableRecord
100
AcDbLayerTableRecord
  2
Pel_CS-Hardware
 70
     0
 62
    53
  6
Continuous
370
    -3
390
6
  0
LAYER
  5
60
102
{ACAD_XDICTIONARY
360
2841
102
}
330
13
100
AcDbSymbolTableRecord
100
AcDbLayerTableRecord
  2
Pel_CS-Sealant
 70
     0
 62
    40
  6
Continuous
370
    -3
390
6
  0
LAYER
  5
41
102
{ACAD_XDICTIONARY
360
2843
102
}
330
13
100
AcDbSymbolTableRecord
100
AcDbLayerTableRecord
  2
Pel_CS-Cross Section
 70
     0
 62
     7
  6
Continuous
370
    -3
390
6
  0
LAYER
  5
1C1
102
{ACAD_XDICTIONARY
360
2845
102
}
330
13
100
AcDbSymbolTableRecord
100
AcDbLayerTableRecord
  2
Pel_Points
 70
     0
 62
     7
  6
Continuous
290
     0
370
    -3
390
6
  0
LAYER
  5
35
102
{ACAD_XDICTIONARY
360
2847
102
}
330
13
100
AcDbSymbolTableRecord
100
AcDbLayerTableRecord
  2
Pel_CS-Weatherstrip
 70
     0
 62
     8
  6
Continuous
370
    -3
390
6
  0
LAYER
  5
5A
102
{ACAD_XDICTIONARY
360
2849
102
}
330
13
100
AcDbSymbolTableRecord
100
AcDbLayerTableRecord
  2
Pel_CS-Reinforcement
 70
     0
 62
   150
  6
Continuous
370
    -3
390
6
  0
LAYER
  5
24BB
102
{ACAD_XDICTIONARY
360
24BC
102
}
330
13
100
AcDbSymbolTableRecord
100
AcDbLayerTableRecord
  2
Pel_Hatch
 70
     0
 62
     9
  6
Continuous
370
    -3
390
6
  0
LAYER
  5
24BD
102
{ACAD_XDICTIONARY
360
24BE
102
}
330
13
100
AcDbSymbolTableRecord
100
AcDbLayerTableRecord
  2
Pel_Clad
 70
     0
 62
    63
  6
Continuous
370
    -3
390
6
  0
LAYER
  5
2B59
330
13
100
AcDbSymbolTableRecord
100
AcDbLayerTableRecord
  2
Defpoints
 70
     0
 62
     7
  6
Continuous
290
     0
370
    -3
390
6
  0
ENDTAB
  0
TABLE
  2
STYLE
  5
17
330
0
100
AcDbSymbolTable
 70
     2
  0
STYLE
  5
18
330
17
100
AcDbSymbolTableRecord
100
AcDbTextStyleTableRecord
  2
Standard
 70
     0
 40
0.0
 41
1.0
 50
0.0
 71
     0
 42
1.9375
  3
ARIAL.TTF
  4

1001
ACAD
1000
Arial
1071
       34
  0
STYLE
  5
25
330
17
100
AcDbSymbolTableRecord
100
AcDbTextStyleTableRecord
  2
ARCHQUIK
 70
     0
 40
0.0
 41
1.0
 50
0.0
 71
     0
 42
1.9375
  3
archquik.shx
  4

  0
ENDTAB
  0
TABLE
  2
VIEW
  5
1E
330
0
100
AcDbSymbolTable
 70
     0
  0
ENDTAB
  0
TABLE
  2
UCS
  5
1F
330
0
100
AcDbSymbolTable
 70
     0
  0
ENDTAB
  0
TABLE
  2
APPID
  5
22
330
0
100
AcDbSymbolTable
 70
     7
  0
APPID
  5
19
330
22
100
AcDbSymbolTableRecord
100
AcDbRegAppTableRecord
  2
ACAD
 70
     0
  0
APPID
  5
9
330
22
100
AcDbSymbolTableRecord
100
AcDbRegAppTableRecord
  2
ADE
 70
     0
  0
APPID
  5
2388
330
22
100
AcDbSymbolTableRecord
100
AcDbRegAppTableRecord
  2
ACAD_MLEADERVER
 70
     0
  0
APPID
  5
24BF
330
22
100
AcDbSymbolTableRecord
100
AcDbRegAppTableRecord
  2
AcDbBlockRepETag
 70
     0
  0
APPID
  5
24C0
330
22
100
AcDbSymbolTableRecord
100
AcDbRegAppTableRecord
  2
ACAD_DSTYLE_DIMJAG
 70
     0
  0
APPID
  5
24C1
330
22
100
AcDbSymbolTableRecord
100
AcDbRegAppTableRecord
  2
ACAD_DSTYLE_DIMTALN
 70
     0
  0
APPID
  5
2685
330
22
100
AcDbSymbolTableRecord
100
AcDbRegAppTableRecord
  2
ACAD_EXEMPT_FROM_CAD_STANDARDS
 70
     0
  0
ENDTAB
  0
TABLE
  2
DIMSTYLE
  5
23
330
0
100
AcDbSymbolTable
 70
     2
100
AcDbDimStyleTable
 71
     2
340
2B36
340
2B
  0
DIMSTYLE
105
2B
102
{ACAD_REACTORS
330
40C
330
41A
330
425
330
430
330
43B
330
446
330
25D
330
26C
102
}
330
23
100
AcDbSymbolTableRecord
100
AcDbDimStyleTableRecord
  2
3 inch Scale
 70
     0
  3
"\X
 41
0.21875
 42
0.5
 43
0.2
 44
0.25
 73
     0
 74
     0
 77
     1
 78
    10
140
0.28
146
0.75
147
0.125
170
     1
171
     0
176
   256
177
   256
178
   255
179
     3
274
     0
276
     2
277
     5
279
     2
340
18
371
    -1
372
    -1
1001
ACAD_DSTYLE_DIMJAG
1070
   388
1040
1.5
1001
ACAD_DSTYLE_DIMTALN
1070
   392
1070
     0
  0
DIMSTYLE
105
2B36
330
23
100
AcDbSymbolTableRecord
100
AcDbDimStyleTableRecord
  2
Standard
 70
     0
 41
0.125
 43
0.0625
 44
0.0625
 73
     0
 74
     0
 77
     1
 78
     2
140
0.09375
146
0.75
147
0.0625
176
   256
177
   256
178
     7
179
     3
276
     1
277
     5
279
     2
340
18
1001
ACAD_DSTYLE_DIMJAG
1070
   388
1040
1.5
1001
ACAD_DSTYLE_DIMTALN
1070
   392
1070
     0
  0
ENDTAB
  0
TABLE
  2
BLOCK_RECORD
  5
1
330
0
100
AcDbSymbolTable
 70
    20
  0
BLOCK_RECORD
  5
2
102
{ACAD_XDICTIONARY
360
3
102
}
330
1
100
AcDbSymbolTableRecord
100
AcDbBlockTableRecord
  2
*Model_Space
340
C
  0
BLOCK_RECORD
  5
2AEC
330
1
100
AcDbSymbolTableRecord
100
AcDbBlockTableRecord
  2
*Paper_Space
340
2AED
  0
BLOCK_RECORD
  5
25E
330
1
100
AcDbSymbolTableRecord
100
AcDbBlockTableRecord
  2
_None
340
0
  0
BLOCK_RECORD
  5
3A5
102
{ACAD_XDICTIONARY
360
3A6
102
}
330
1
100
AcDbSymbolTableRecord
100
AcDbBlockTableRecord
  2
Rodseal
340
0
102
{BLKREFS
331
55D
331
19DC
102
}
  0
BLOCK_RECORD
  5
455
102
{ACAD_XDICTIONARY
360
456
102
}
330
1
100
AcDbSymbolTableRecord
100
AcDbBlockTableRecord
  2
10DRjambwoodsiding
340
0
102
{BLKREFS
331
454
102
}
  0
BLOCK_RECORD
  5
55F
102
{ACAD_XDICTIONARY
360
560
102
}
330
1
100
AcDbSymbolTableRecord
100
AcDbBlockTableRecord
  2
FOAM
340
0
102
{BLKREFS
331
55E
102
}
  0
BLOCK_RECORD
  5
304
102
{ACAD_XDICTIONARY
360
17F4
102
}
330
1
100
AcDbSymbolTableRecord
100
AcDbBlockTableRecord
  2
*X4
340
0
102
{BLKREFS
331
303
102
}
  0
BLOCK_RECORD
  5
2FF
102
{ACAD_XDICTIONARY
360
300
102
}
330
1
100
AcDbSymbolTableRecord
100
AcDbBlockTableRecord
  2
ACC31D0 Colonial
340
0
102
{BLKREFS
331
323
331
2FE
102
}
  0
BLOCK_RECORD
  5
B95
102
{ACAD_XDICTIONARY
360
10B4
102
}
330
1
100
AcDbSymbolTableRecord
100
AcDbBlockTableRecord
  2
TSE10SDWDH
340
0
310
2800000020000000200000000100080000000000000400000000000000000000000000000000000000000000000080000080000000808000800000008000800080800000C0C0C000C0DCC000F0CAA6000020400000206000002080000020A0000020C0000020E00000400000004020000040400000406000004080000040A0
310
000040C0000040E00000600000006020000060400000606000006080000060A0000060C0000060E00000800000008020000080400000806000008080000080A0000080C0000080E00000A0000000A0200000A0400000A0600000A0800000A0A00000A0C00000A0E00000C0000000C0200000C0400000C0600000C0800000C0
310
A00000C0C00000C0E00000E0000000E0200000E0400000E0600000E0800000E0A00000E0C00000E0E00040000000400020004000400040006000400080004000A0004000C0004000E00040200000402020004020400040206000402080004020A0004020C0004020E000404000004040200040404000404060004040800040
310
40A0004040C0004040E00040600000406020004060400040606000406080004060A0004060C0004060E00040800000408020004080400040806000408080004080A0004080C0004080E00040A0000040A0200040A0400040A0600040A0800040A0A00040A0C00040A0E00040C0000040C0200040C0400040C0600040C08000
310
40C0A00040C0C00040C0E00040E0000040E0200040E0400040E0600040E0800040E0A00040E0C00040E0E00080000000800020008000400080006000800080008000A0008000C0008000E00080200000802020008020400080206000802080008020A0008020C0008020E00080400000804020008040400080406000804080
310
008040A0008040C0008040E00080600000806020008060400080606000806080008060A0008060C0008060E00080800000808020008080400080806000808080008080A0008080C0008080E00080A0000080A0200080A0400080A0600080A0800080A0A00080A0C00080A0E00080C0000080C0200080C0400080C0600080C0
310
800080C0A00080C0C00080C0E00080E0000080E0200080E0400080E0600080E0800080E0A00080E0C00080E0E000C0000000C0002000C0004000C0006000C0008000C000A000C000C000C000E000C0200000C0202000C0204000C0206000C0208000C020A000C020C000C020E000C0400000C0402000C0404000C0406000C0
310
408000C040A000C040C000C040E000C0600000C0602000C0604000C0606000C0608000C060A000C060C000C060E000C0800000C0802000C0804000C0806000C0808000C080A000C080C000C080E000C0A00000C0A02000C0A04000C0A06000C0A08000C0A0A000C0A0C000C0A0E000C0C00000C0C02000C0C04000C0C06000
310
C0C08000C0C0A000F0FBFF00A4A0A000808080000000FF0000FF000000FFFF00FF000000FF00FF00FFFF0000FFFFFF0000000000000000000000000000000000000000000000000000000000000000000000000000000000000000000000000000000000000000000000000000000000000000000000000000000000000000
310
00000000000000000000000000000000000000000000000000000000000000000000000000000000000000000000000000000000000000000000000000000000000000000000000000000000000000000000000000000000000000000000000000000000000000000000000000000000000000000000000000000000000000
310
00000000000000000000000000000000000000000000000000000000000000000000000000000000000000000000000000000000000000070707070707070707070707070707070707070707000000000000000000000007000007070707000000000707070000000007000700000000000000000000000700000707070700
310
00000007070700000000070707000000000000000000000007000007070707070707070707070700000707070700000000000000000000000707000707070707000007070707070000070707070000000000000000000000070007070707070700000707070707000007070707000000000000000000000007000007070707
310
07000007070707070000070707070000000000000000000000070700070707070700000707070707000007070707000000000000000000000007070707070707000707000707070007070007070700000000000000000000000700070707070700070700070707000707000707070000000000000000000000070000070707
310
07000707000707070007070007070700000000000000000000000700000707070700070700070707000707000707070000000000000000000007070000070707070007070007070700070700070707000000000000000000000707070707070707000707000707070007070007070700000000000000000000000700000707
310
07070007070007070700070700070707000000000000000707070707070707070707070707070707070707070707070707070707070000000000000000000000000000000000000000000000000000000000000000000000000000000000000000000000000000000000000000000000000000000000000000000000000000
310
00000000000000000000000000000000000000000000000000000000000000000000000000000000000000000000000000000000000000000000000000000000000000000000000000000000000000000000000000000000000000000000000000000000000000000000000000000000000000000000000000000000000000
310
0000000000000000000000000000000000000000000000000000000000000000000000000000000000000000000000000000000000000000
102
{BLKREFS
331
C17
102
}
1001
ACAD
1000
DesignCenter Data
1002
{
1070
     1
1070
     1
1002
}
  0
BLOCK_RECORD
  5
C18
102
{ACAD_XDICTIONARY
360
1210
102
}
330
1
100
AcDbSymbolTableRecord
100
AcDbBlockTableRecord
  2
TSE10SDWDS
340
0
310
2800000020000000200000000100080000000000000400000000000000000000000000000000000000000000000080000080000000808000800000008000800080800000C0C0C000C0DCC000F0CAA6000020400000206000002080000020A0000020C0000020E00000400000004020000040400000406000004080000040A0
310
000040C0000040E00000600000006020000060400000606000006080000060A0000060C0000060E00000800000008020000080400000806000008080000080A0000080C0000080E00000A0000000A0200000A0400000A0600000A0800000A0A00000A0C00000A0E00000C0000000C0200000C0400000C0600000C0800000C0
310
A00000C0C00000C0E00000E0000000E0200000E0400000E0600000E0800000E0A00000E0C00000E0E00040000000400020004000400040006000400080004000A0004000C0004000E00040200000402020004020400040206000402080004020A0004020C0004020E000404000004040200040404000404060004040800040
310
40A0004040C0004040E00040600000406020004060400040606000406080004060A0004060C0004060E00040800000408020004080400040806000408080004080A0004080C0004080E00040A0000040A0200040A0400040A0600040A0800040A0A00040A0C00040A0E00040C0000040C0200040C0400040C0600040C08000
310
40C0A00040C0C00040C0E00040E0000040E0200040E0400040E0600040E0800040E0A00040E0C00040E0E00080000000800020008000400080006000800080008000A0008000C0008000E00080200000802020008020400080206000802080008020A0008020C0008020E00080400000804020008040400080406000804080
310
008040A0008040C0008040E00080600000806020008060400080606000806080008060A0008060C0008060E00080800000808020008080400080806000808080008080A0008080C0008080E00080A0000080A0200080A0400080A0600080A0800080A0A00080A0C00080A0E00080C0000080C0200080C0400080C0600080C0
310
800080C0A00080C0C00080C0E00080E0000080E0200080E0400080E0600080E0800080E0A00080E0C00080E0E000C0000000C0002000C0004000C0006000C0008000C000A000C000C000C000E000C0200000C0202000C0204000C0206000C0208000C020A000C020C000C020E000C0400000C0402000C0404000C0406000C0
310
408000C040A000C040C000C040E000C0600000C0602000C0604000C0606000C0608000C060A000C060C000C060E000C0800000C0802000C0804000C0806000C0808000C080A000C080C000C080E000C0A00000C0A02000C0A04000C0A06000C0A08000C0A0A000C0A0C000C0A0E000C0C00000C0C02000C0C04000C0C06000
310
C0C08000C0C0A000F0FBFF00A4A0A000808080000000FF0000FF000000FFFF00FF000000FF00FF00FFFF0000FFFFFF0000000000000000000000000000000000000000000000000000000000000000000000000000000000000000000000000000000000000000000000000000000000000000000000000000000000000000
310
00000000000000000000000000000000000000000000000000000000000000000000000000000000000000000000000000000000000000000000000000000000000000000000000000000000000000000000000000070000000000000000000000000000000007000000000000000700000007070707070707070707070707
310
07070707070707070707070707070707000000000000070700070707070007000700070000000700000000000000000700000000000000070007070707000007000007000000000000000000000000070000000007000007070707070700000700000700000000000000000000000007000000000007070707070707070000
310
07000007000000000000000000000000070000000000070000000707070700070007000700000000000000000000000007000000000007070007070707070007000700070000000000000000000000000700000000000707000707070707000700070007000000000000000000000000070000000000070700070707070700
310
07000700070000000000000000000000000700000000000700070007070707070000000707000000000000000000000000070000000000070007000707070707000000070700000000000000000000000007000000000007070007070707070700000007070000000000000000000000000700000000000707000707070707
310
00000000000700000000000000000000000707070000000007070007070707070707070707070707070707070707070707070700000000000700000007070707070707070707070707070707070707070707070000000000070707070707070707070707070707070707070707070707070707000000000007070707070707
310
07070707070707070707070707070707070707070000000000000000000000000000000000000000000707070707070707070707000000000000000000000000000000000000000000000000000000000000000700000000000000000000000000000000000000000000000000000000000000070000000000000000000000
310
00000000000000000000000000000000000000000700000000000000000000000000000000000000000000000000000000000000000000000000000000000000000000000000000000000000000000000000000000000000000000000000000000000000000000000000000000000000000000000000000000000000000000
310
0000000000000000000000000000000000000000000000000000000000000000000000000000000000000000000000000000000000000000
102
{BLKREFS
331
CCD
102
}
1001
ACAD
1000
DesignCenter Data
1002
{
1070
     1
1070
     1
1002
}
  0
BLOCK_RECORD
  5
F7D
330
1
100
AcDbSymbolTableRecord
100
AcDbBlockTableRecord
  2
*D8
340
0
  0
BLOCK_RECORD
  5
F87
330
1
100
AcDbSymbolTableRecord
100
AcDbBlockTableRecord
  2
*D9
340
0
  0
BLOCK_RECORD
  5
1899
102
{ACAD_XDICTIONARY
360
189A
102
}
330
1
100
AcDbSymbolTableRecord
100
AcDbBlockTableRecord
  2
FOAMB
340
0
102
{BLKREFS
331
196A
102
}
  0
BLOCK_RECORD
  5
18DC
330
1
100
AcDbSymbolTableRecord
100
AcDbBlockTableRecord
  2
*D11
340
0
  0
BLOCK_RECORD
  5
18E6
330
1
100
AcDbSymbolTableRecord
100
AcDbBlockTableRecord
  2
*D12
340
0
  0
BLOCK_RECORD
  5
238D
102
{ACAD_XDICTIONARY
360
238E
102
}
330
1
100
AcDbSymbolTableRecord
100
AcDbBlockTableRecord
  2
TSE 10 SD HV
340
0
102
{BLKREFS
331
24D0
102
}
  0
BLOCK_RECORD
  5
23DD
102
{ACAD_XDICTIONARY
360
23DE
102
}
330
1
100
AcDbSymbolTableRecord
100
AcDbBlockTableRecord
  2
TSE 10 SD SV
340
0
102
{BLKREFS
331
24CF
102
}
  0
BLOCK_RECORD
  5
2432
102
{ACAD_XDICTIONARY
360
2433
102
}
330
1
100
AcDbSymbolTableRecord
100
AcDbBlockTableRecord
  2
TSE 10 SD JV
340
0
102
{BLKREFS
331
24CE
102
}
  0
BLOCK_RECORD
  5
25AC
330
1
100
AcDbSymbolTableRecord
100
AcDbBlockTableRecord
  2
*D16
340
0
  0
BLOCK_RECORD
  5
25B6
330
1
100
AcDbSymbolTableRecord
100
AcDbBlockTableRecord
  2
*D17
340
0
  0
BLOCK_RECORD
  5
25C0
330
1
100
AcDbSymbolTableRecord
100
AcDbBlockTableRecord
  2
*D18
340
0
  0
BLOCK_RECORD
  5
25CA
330
1
100
AcDbSymbolTableRecord
100
AcDbBlockTableRecord
  2
*D19
340
0
  0
ENDTAB
  0
ENDSEC
  0
SECTION
  2
BLOCKS
  0
BLOCK
  5
4
330
2
100
AcDbEntity
  8
0
100
AcDbBlockBegin
  2
*Model_Space
 70
     0
 10
0.0
 20
0.0
 30
0.0
  3
*Model_Space
  1

  0
ENDBLK
  5
B
330
2
100
AcDbEntity
  8
0
100
AcDbBlockEnd
  0
BLOCK
  5
2AEE
330
2AEC
100
AcDbEntity
 67
     1
  8
0
100
AcDbBlockBegin
  2
*Paper_Space
 70
     0
 10
0.0
 20
0.0
 30
0.0
  3
*Paper_Space
  1

  0
ENDBLK
  5
2AEF
330
2AEC
100
AcDbEntity
 67
     1
  8
0
100
AcDbBlockEnd
  0
BLOCK
  5
25F
330
25E
100
AcDbEntity
  8
0
100
AcDbBlockBegin
  2
_None
 70
     0
 10
0.0
 20
0.0
 30
0.0
  3
_None
  1

  0
ENDBLK
  5
260
330
25E
100
AcDbEntity
  8
0
100
AcDbBlockEnd
  0
BLOCK
  5
3A8
330
3A5
100
AcDbEntity
  8
0
100
AcDbBlockBegin
  2
Rodseal
 70
     0
 10
0.0
 20
0.0
 30
0.0
  3
Rodseal
  1

  0
ARC
  5
3A9
330
3A5
100
AcDbEntity
  8
Pel_Wall
100
AcDbCircle
 10
-0.5625
 20
0.5
 30
0.0
 40
1.0625
100
AcDbArc
 50
17.99029647599064
 51
28.07248693585238
  0
ARC
  5
3AA
330
3A5
100
AcDbEntity
  8
Pel_Wall
100
AcDbCircle
 10
-0.5625
 20
0.5
 30
0.0
 40
1.0625
100
AcDbArc
 50
331.9275130641474
 51
340.7928957547761
  0
ARC
  5
3AB
330
3A5
100
AcDbEntity
  8
Pel_Wall
100
AcDbCircle
 10
-0.9375
 20
0.5
 30
0.0
 40
1.0625
100
AcDbArc
 50
331.9275130641474
 51
28.07248693585238
  0
ARC
  5
3AC
330
3A5
100
AcDbEntity
  8
Pel_Wall
100
AcDbCircle
 10
-0.8125
 20
0.5
 30
0.0
 40
1.0625
100
AcDbArc
 50
331.9275130641474
 51
28.07248693585238
  0
ARC
  5
3AD
330
3A5
100
AcDbEntity
  8
Pel_Wall
100
AcDbCircle
 10
-0.6875
 20
0.5
 30
0.0
 40
1.0625
100
AcDbArc
 50
331.9275130641474
 51
28.07248693585238
  0
CIRCLE
  5
3AE
330
3A5
100
AcDbEntity
  8
Pel_Wall
100
AcDbCircle
 10
0.7708146583002531
 20
0.2987804878048763
 30
0.0
 40
0.0182801895249072
  0
ARC
  5
3AF
330
3A5
100
AcDbEntity
  8
Pel_Wall
100
AcDbCircle
 10
-0.4375
 20
0.5
 30
0.0
 40
1.0625
100
AcDbArc
 50
331.9275130641474
 51
335.4550269558483
  0
CIRCLE
  5
3B0
330
3A5
100
AcDbEntity
  8
Pel_Wall
100
AcDbCircle
 10
0.5880127630511823
 20
0.189024390243901
 30
0.0
 40
0.0182926829268291
  0
ARC
  5
3B1
330
3A5
100
AcDbEntity
  8
Pel_Wall
100
AcDbCircle
 10
-0.4375
 20
0.5
 30
0.0
 40
1.0625
100
AcDbArc
 50
24.7733403565269
 51
28.07248693585238
  0
CIRCLE
  5
3B2
330
3A5
100
AcDbEntity
  8
Pel_Wall
100
AcDbCircle
 10
0.8165151321125279
 20
0.4939024390243958
 30
0.0
 40
0.027420284287361
  0
CIRCLE
  5
3B3
330
3A5
100
AcDbEntity
  8
Pel_Wall
100
AcDbCircle
 10
0.560592478763823
 20
0.4969512195121979
 30
0.0
 40
0.0274390243902443
  0
CIRCLE
  5
3B4
330
3A5
100
AcDbEntity
  8
Pel_Wall
100
AcDbCircle
 10
0.6855071071840087
 20
0.7835365853658516
 30
0.0
 40
0.0243735860332097
  0
ELLIPSE
  5
3B5
330
3A5
100
AcDbEntity
  8
Pel_Wall
100
AcDbEllipse
 10
0.6875
 20
0.5
 30
0.0
 11
0.0
 21
0.5
 31
0.0
210
0.0
220
0.0
230
1.0
 40
0.625
 41
4.712388980384689
 42
10.99557428756427
  0
ENDBLK
  5
3B6
330
3A5
100
AcDbEntity
  8
0
100
AcDbBlockEnd
  0
BLOCK
  5
458
330
455
100
AcDbEntity
  8
0
100
AcDbBlockBegin
  2
10DRjambwoodsiding
 70
     0
 10
0.0
 20
0.0
 30
0.0
  3
10DRjambwoodsiding
  1

  0
LINE
  5
459
330
455
100
AcDbEntity
  8
Pel_Wall
  6
Continuous
100
AcDbLine
 10
5.778472502815127
 20
4.187450000002066
 30
0.0
 11
5.778472502815127
 21
4.187450000002066
 31
0.0
  0
LINE
  5
45A
330
455
100
AcDbEntity
  8
Pel_Wall
  6
Continuous
100
AcDbLine
 10
5.928472502815132
 20
4.187450000002066
 30
0.0
 11
5.928472502815132
 21
4.187450000002066
 31
0.0
  0
LINE
  5
45B
330
455
100
AcDbEntity
  8
Pel_Wall
  6
Continuous
100
AcDbLine
 10
5.768468801852371
 20
4.2052993020381
 30
0.0
 11
5.768468801852371
 21
4.2052993020381
 31
0.0
  0
LINE
  5
45C
330
455
100
AcDbEntity
  8
Pel_Wall
  6
Continuous
100
AcDbLine
 10
5.854370887677376
 20
4.14240671297754
 30
0.0
 11
5.854370887677376
 21
4.14240671297754
 31
0.0
  0
LINE
  5
45D
330
455
100
AcDbEntity
  8
Pel_Wall
  6
Continuous
100
AcDbLine
 10
5.628472502815128
 20
4.187450000002066
 30
0.0
 11
5.628472502815128
 21
4.187450000002066
 31
0.0
  0
LINE
  5
45E
330
455
100
AcDbEntity
  8
Pel_Wall
  6
Continuous
100
AcDbLine
 10
5.638564991284702
 20
4.130299302038097
 30
0.0
 11
5.638564991284702
 21
4.130299302038097
 31
0.0
  0
LINE
  5
45F
330
455
100
AcDbEntity
  8
Pel_Wall
  6
Continuous
100
AcDbLine
 10
5.60786453673127
 20
4.21544518875048
 30
0.0
 11
5.60786453673127
 21
4.21544518875048
 31
0.0
  0
LINE
  5
460
330
455
100
AcDbEntity
  8
Pel_Wall
  6
Continuous
100
AcDbLine
 10
5.988472502815135
 20
3.812450000002066
 30
0.0
 11
5.988472502815135
 21
3.812450000002066
 31
0.0
  0
LINE
  5
461
330
455
100
AcDbEntity
  8
Pel_Wall
  6
Continuous
100
AcDbLine
 10
5.945430326079438
 20
3.893792951091989
 30
0.0
 11
5.945430326079438
 21
3.893792951091989
 31
0.0
  0
LINE
  5
462
330
455
100
AcDbEntity
  8
Pel_Wall
  6
Continuous
100
AcDbLine
 10
5.992488039738838
 20
3.632286600145875
 30
0.0
 11
5.992488039738838
 21
3.632286600145875
 31
0.0
  0
LINE
  5
463
330
455
100
AcDbEntity
  8
Pel_Wall
  6
Continuous
100
AcDbLine
 10
5.950877238623484
 20
3.684560616069277
 30
0.0
 11
5.950877238623484
 21
3.684560616069277
 31
0.0
  0
LINE
  5
464
330
455
100
AcDbEntity
  8
Pel_Wall
  6
Continuous
100
AcDbLine
 10
5.958472502815134
 20
3.312450000002066
 30
0.0
 11
5.958472502815134
 21
3.312450000002066
 31
0.0
  0
LINE
  5
465
330
455
100
AcDbEntity
  8
Pel_Wall
  6
Continuous
100
AcDbLine
 10
5.956699656489974
 20
3.034273898253659
 30
0.0
 11
5.956699656489974
 21
3.034273898253659
 31
0.0
  0
LINE
  5
466
330
455
100
AcDbEntity
  8
Pel_Wall
  6
Continuous
100
AcDbLine
 10
5.972383589569596
 20
3.221810708593346
 30
0.0
 11
5.972383589569596
 21
3.221810708593346
 31
0.0
  0
LINE
  5
467
330
455
100
AcDbEntity
  8
Pel_Wall
  6
Continuous
100
AcDbLine
 10
5.988472502815128
 20
2.562450000002066
 30
0.0
 11
5.988472502815128
 21
2.562450000002066
 31
0.0
  0
LINE
  5
468
330
455
100
AcDbEntity
  8
Pel_Wall
  6
Continuous
100
AcDbLine
 10
5.958472502815134
 20
2.062450000002066
 30
0.0
 11
5.958472502815134
 21
2.062450000002066
 31
0.0
  0
LINE
  5
469
330
455
100
AcDbEntity
  8
Pel_Wall
  6
Continuous
100
AcDbLine
 10
5.967968986900509
 20
2.174754845415329
 30
0.0
 11
5.967968986900509
 21
2.174754845415329
 31
0.0
  0
LINE
  5
46A
330
455
100
AcDbEntity
  8
Pel_Wall
  6
Continuous
100
AcDbLine
 10
5.940396291461817
 20
2.166407083073822
 30
0.0
 11
5.940396291461817
 21
2.166407083073822
 31
0.0
  0
LINE
  5
46B
330
455
100
AcDbEntity
  8
Pel_Wall
  6
Continuous
100
AcDbLine
 10
5.961902642407928
 20
1.703657175597883
 30
0.0
 11
5.961902642407928
 21
1.703657175597883
 31
0.0
  0
LINE
  5
46C
330
455
100
AcDbEntity
  8
Pel_Wall
  6
Continuous
100
AcDbLine
 10
5.838472502815129
 20
3.937450000002066
 30
0.0
 11
5.838472502815129
 21
3.937450000002066
 31
0.0
  0
LINE
  5
46D
330
455
100
AcDbEntity
  8
Pel_Wall
  6
Continuous
100
AcDbLine
 10
5.748472502815133
 20
3.687450000002066
 30
0.0
 11
5.748472502815133
 21
3.687450000002066
 31
0.0
  0
LINE
  5
46E
330
455
100
AcDbEntity
  8
Pel_Wall
  6
Continuous
100
AcDbLine
 10
5.898472502815132
 20
3.687450000002066
 30
0.0
 11
5.898472502815132
 21
3.687450000002066
 31
0.0
  0
LINE
  5
46F
330
455
100
AcDbEntity
  8
Pel_Wall
  6
Continuous
100
AcDbLine
 10
5.81552651551177
 20
3.943792951091986
 30
0.0
 11
5.81552651551177
 21
3.943792951091986
 31
0.0
  0
LINE
  5
470
330
455
100
AcDbEntity
  8
Pel_Wall
  6
Continuous
100
AcDbLine
 10
5.732680418603508
 20
3.607286600145877
 30
0.0
 11
5.732680418603508
 21
3.607286600145877
 31
0.0
  0
LINE
  5
471
330
455
100
AcDbEntity
  8
Pel_Wall
  6
Continuous
100
AcDbLine
 10
5.862584229171177
 20
3.68228660014588
 30
0.0
 11
5.862584229171177
 21
3.68228660014588
 31
0.0
  0
LINE
  5
472
330
455
100
AcDbEntity
  8
Pel_Wall
  6
Continuous
100
AcDbLine
 10
5.77937088767738
 20
4.012502902409878
 30
0.0
 11
5.77937088767738
 21
4.012502902409878
 31
0.0
  0
LINE
  5
473
330
455
100
AcDbEntity
  8
Pel_Wall
  6
Continuous
100
AcDbLine
 10
5.800877238623486
 20
3.549752994933947
 30
0.0
 11
5.800877238623486
 21
3.549752994933947
 31
0.0
  0
LINE
  5
474
330
455
100
AcDbEntity
  8
Pel_Wall
  6
Continuous
100
AcDbLine
 10
5.875877238623488
 20
3.679656805501609
 30
0.0
 11
5.875877238623488
 21
3.679656805501609
 31
0.0
  0
LINE
  5
475
330
455
100
AcDbEntity
  8
Pel_Wall
  6
Continuous
100
AcDbLine
 10
5.538472502815132
 20
3.937450000002066
 30
0.0
 11
5.538472502815132
 21
3.937450000002066
 31
0.0
  0
LINE
  5
476
330
455
100
AcDbEntity
  8
Pel_Wall
  6
Continuous
100
AcDbLine
 10
5.68847250281513
 20
3.937450000002066
 30
0.0
 11
5.68847250281513
 21
3.937450000002066
 31
0.0
  0
LINE
  5
477
330
455
100
AcDbEntity
  8
Pel_Wall
  6
Continuous
100
AcDbLine
 10
5.598472502815128
 20
3.687450000002066
 30
0.0
 11
5.598472502815128
 21
3.687450000002066
 31
0.0
  0
LINE
  5
478
330
455
100
AcDbEntity
  8
Pel_Wall
  6
Continuous
100
AcDbLine
 10
5.508661180717041
 20
4.055299302038084
 30
0.0
 11
5.508661180717041
 21
4.055299302038084
 31
0.0
  0
LINE
  5
479
330
455
100
AcDbEntity
  8
Pel_Wall
  6
Continuous
100
AcDbLine
 10
5.55571889437644
 20
3.793792951091988
 30
0.0
 11
5.55571889437644
 21
3.793792951091988
 31
0.0
  0
LINE
  5
47A
330
455
100
AcDbEntity
  8
Pel_Wall
  6
Continuous
100
AcDbLine
 10
5.685622704944108
 20
3.86879295109199
 30
0.0
 11
5.685622704944108
 21
3.86879295109199
 31
0.0
  0
LINE
  5
47B
330
455
100
AcDbEntity
  8
Pel_Wall
  6
Continuous
100
AcDbLine
 10
5.602776608035839
 20
3.532286600145881
 30
0.0
 11
5.602776608035839
 21
3.532286600145881
 31
0.0
  0
LINE
  5
47C
330
455
100
AcDbEntity
  8
Pel_Wall
  6
Continuous
100
AcDbLine
 10
5.532864536731267
 20
4.085541378182811
 30
0.0
 11
5.532864536731267
 21
4.085541378182811
 31
0.0
  0
LINE
  5
47D
330
455
100
AcDbEntity
  8
Pel_Wall
  6
Continuous
100
AcDbLine
 10
5.55437088767738
 20
3.62279147070688
 30
0.0
 11
5.55437088767738
 21
3.62279147070688
 31
0.0
  0
LINE
  5
47E
330
455
100
AcDbEntity
  8
Pel_Wall
  6
Continuous
100
AcDbLine
 10
5.629370887677374
 20
3.752695281274548
 30
0.0
 11
5.629370887677374
 21
3.752695281274548
 31
0.0
  0
LINE
  5
47F
330
455
100
AcDbEntity
  8
Pel_Wall
  6
Continuous
100
AcDbLine
 10
5.704370887677377
 20
3.88259909184221
 30
0.0
 11
5.704370887677377
 21
3.88259909184221
 31
0.0
  0
LINE
  5
480
330
455
100
AcDbEntity
  8
Pel_Wall
  6
Continuous
100
AcDbLine
 10
5.808472502815129
 20
3.437450000002066
 30
0.0
 11
5.808472502815129
 21
3.437450000002066
 31
0.0
  0
LINE
  5
481
330
455
100
AcDbEntity
  8
Pel_Wall
  6
Continuous
100
AcDbLine
 10
5.718472502815132
 20
3.187450000002066
 30
0.0
 11
5.718472502815132
 21
3.187450000002066
 31
0.0
  0
LINE
  5
482
330
455
100
AcDbEntity
  8
Pel_Wall
  6
Continuous
100
AcDbLine
 10
5.868472502815131
 20
3.187450000002066
 30
0.0
 11
5.868472502815131
 21
3.187450000002066
 31
0.0
  0
LINE
  5
483
330
455
100
AcDbEntity
  8
Pel_Wall
  6
Continuous
100
AcDbLine
 10
5.778472502815128
 20
2.937450000002066
 30
0.0
 11
5.778472502815128
 21
2.937450000002066
 31
0.0
  0
LINE
  5
484
330
455
100
AcDbEntity
  8
Pel_Wall
  6
Continuous
100
AcDbLine
 10
5.928472502815133
 20
2.937450000002066
 30
0.0
 11
5.928472502815133
 21
2.937450000002066
 31
0.0
  0
LINE
  5
485
330
455
100
AcDbEntity
  8
Pel_Wall
  6
Continuous
100
AcDbLine
 10
5.779738132262914
 20
3.34578024919977
 30
0.0
 11
5.779738132262914
 21
3.34578024919977
 31
0.0
  0
LINE
  5
486
330
455
100
AcDbEntity
  8
Pel_Wall
  6
Continuous
100
AcDbLine
 10
5.909641942830575
 20
3.420780249199766
 30
0.0
 11
5.909641942830575
 21
3.420780249199766
 31
0.0
  0
LINE
  5
487
330
455
100
AcDbEntity
  8
Pel_Wall
  6
Continuous
100
AcDbLine
 10
5.826795845922313
 20
3.084273898253656
 30
0.0
 11
5.826795845922313
 21
3.084273898253656
 31
0.0
  0
LINE
  5
488
330
455
100
AcDbEntity
  8
Pel_Wall
  6
Continuous
100
AcDbLine
 10
5.72587723862349
 20
3.419849184366278
 30
0.0
 11
5.72587723862349
 21
3.419849184366278
 31
0.0
  0
LINE
  5
489
330
455
100
AcDbEntity
  8
Pel_Wall
  6
Continuous
100
AcDbLine
 10
5.747383589569602
 20
2.957099276890347
 30
0.0
 11
5.747383589569602
 21
2.957099276890347
 31
0.0
  0
LINE
  5
48A
330
455
100
AcDbEntity
  8
Pel_Wall
  6
Continuous
100
AcDbLine
 10
5.822383589569597
 20
3.087003087458016
 30
0.0
 11
5.822383589569597
 21
3.087003087458016
 31
0.0
  0
LINE
  5
48B
330
455
100
AcDbEntity
  8
Pel_Wall
  6
Continuous
100
AcDbLine
 10
5.8973835895696
 20
3.216906898025677
 30
0.0
 11
5.8973835895696
 21
3.216906898025677
 31
0.0
  0
LINE
  5
48C
330
455
100
AcDbEntity
  8
Pel_Wall
  6
Continuous
100
AcDbLine
 10
5.508472502815132
 20
3.437450000002049
 30
0.0
 11
5.508472502815132
 21
3.437450000002049
 31
0.0
  0
LINE
  5
48D
330
455
100
AcDbEntity
  8
Pel_Wall
  6
Continuous
100
AcDbLine
 10
5.65847250281513
 20
3.437450000002066
 30
0.0
 11
5.65847250281513
 21
3.437450000002066
 31
0.0
  0
LINE
  5
48E
330
455
100
AcDbEntity
  8
Pel_Wall
  6
Continuous
100
AcDbLine
 10
5.568472502815134
 20
3.187450000002066
 30
0.0
 11
5.568472502815134
 21
3.187450000002066
 31
0.0
  0
LINE
  5
48F
330
455
100
AcDbEntity
  8
Pel_Wall
  6
Continuous
100
AcDbLine
 10
5.628472502815129
 20
2.937450000002066
 30
0.0
 11
5.628472502815129
 21
2.937450000002066
 31
0.0
  0
LINE
  5
490
330
455
100
AcDbEntity
  8
Pel_Wall
  6
Continuous
100
AcDbLine
 10
5.519930511127577
 20
3.195780249199771
 30
0.0
 11
5.519930511127577
 21
3.195780249199771
 31
0.0
  0
LINE
  5
491
330
455
100
AcDbEntity
  8
Pel_Wall
  6
Continuous
100
AcDbLine
 10
5.649834321695245
 20
3.270780249199767
 30
0.0
 11
5.649834321695245
 21
3.270780249199767
 31
0.0
  0
LINE
  5
492
330
455
100
AcDbEntity
  8
Pel_Wall
  6
Continuous
100
AcDbLine
 10
5.566988224786975
 20
2.934273898253658
 30
0.0
 11
5.566988224786975
 21
2.934273898253658
 31
0.0
  0
LINE
  5
493
330
455
100
AcDbEntity
  8
Pel_Wall
  6
Continuous
100
AcDbLine
 10
5.696892035354644
 20
3.009273898253661
 30
0.0
 11
5.696892035354644
 21
3.009273898253661
 31
0.0
  0
LINE
  5
494
330
455
100
AcDbEntity
  8
Pel_Wall
  6
Continuous
100
AcDbLine
 10
5.500877238623488
 20
3.030137752663269
 30
0.0
 11
5.500877238623488
 21
3.030137752663269
 31
0.0
  0
LINE
  5
495
330
455
100
AcDbEntity
  8
Pel_Wall
  6
Continuous
100
AcDbLine
 10
5.575877238623484
 20
3.160041563230948
 30
0.0
 11
5.575877238623484
 21
3.160041563230948
 31
0.0
  0
LINE
  5
496
330
455
100
AcDbEntity
  8
Pel_Wall
  6
Continuous
100
AcDbLine
 10
5.650877238623487
 20
3.289945373798617
 30
0.0
 11
5.650877238623487
 21
3.289945373798617
 31
0.0
  0
LINE
  5
497
330
455
100
AcDbEntity
  8
Pel_Wall
  6
Continuous
100
AcDbLine
 10
5.83847250281513
 20
2.687450000002066
 30
0.0
 11
5.83847250281513
 21
2.687450000002066
 31
0.0
  0
LINE
  5
498
330
455
100
AcDbEntity
  8
Pel_Wall
  6
Continuous
100
AcDbLine
 10
5.748472502815133
 20
2.437450000002066
 30
0.0
 11
5.748472502815133
 21
2.437450000002066
 31
0.0
  0
LINE
  5
499
330
455
100
AcDbEntity
  8
Pel_Wall
  6
Continuous
100
AcDbLine
 10
5.898472502815132
 20
2.437450000002066
 30
0.0
 11
5.898472502815132
 21
2.437450000002066
 31
0.0
  0
LINE
  5
49A
330
455
100
AcDbEntity
  8
Pel_Wall
  6
Continuous
100
AcDbLine
 10
5.743949749014043
 20
2.747767547307547
 30
0.0
 11
5.743949749014043
 21
2.747767547307547
 31
0.0
  0
LINE
  5
49B
330
455
100
AcDbEntity
  8
Pel_Wall
  6
Continuous
100
AcDbLine
 10
5.873853559581712
 20
2.82276754730755
 30
0.0
 11
5.873853559581712
 21
2.82276754730755
 31
0.0
  0
LINE
  5
49C
330
455
100
AcDbEntity
  8
Pel_Wall
  6
Continuous
100
AcDbLine
 10
5.791007462673449
 20
2.48626119636144
 30
0.0
 11
5.791007462673449
 21
2.48626119636144
 31
0.0
  0
LINE
  5
49D
330
455
100
AcDbEntity
  8
Pel_Wall
  6
Continuous
100
AcDbLine
 10
5.92091127324111
 20
2.561261196361436
 30
0.0
 11
5.92091127324111
 21
2.561261196361436
 31
0.0
  0
LINE
  5
49E
330
455
100
AcDbEntity
  8
Pel_Wall
  6
Continuous
100
AcDbLine
 10
5.768889940515706
 20
2.494349369414416
 30
0.0
 11
5.768889940515706
 21
2.494349369414416
 31
0.0
  0
LINE
  5
49F
330
455
100
AcDbEntity
  8
Pel_Wall
  6
Continuous
100
AcDbLine
 10
5.843889940515709
 20
2.624253179982084
 30
0.0
 11
5.843889940515709
 21
2.624253179982084
 31
0.0
  0
LINE
  5
4A0
330
455
100
AcDbEntity
  8
Pel_Wall
  6
Continuous
100
AcDbLine
 10
5.918889940515705
 20
2.754156990549746
 30
0.0
 11
5.918889940515705
 21
2.754156990549746
 31
0.0
  0
LINE
  5
4A1
330
455
100
AcDbEntity
  8
Pel_Wall
  6
Continuous
100
AcDbLine
 10
5.538472502815133
 20
2.687450000002066
 30
0.0
 11
5.538472502815133
 21
2.687450000002066
 31
0.0
  0
LINE
  5
4A2
330
455
100
AcDbEntity
  8
Pel_Wall
  6
Continuous
100
AcDbLine
 10
5.688472502815131
 20
2.687450000002066
 30
0.0
 11
5.688472502815131
 21
2.687450000002066
 31
0.0
  0
LINE
  5
4A3
330
455
100
AcDbEntity
  8
Pel_Wall
  6
Continuous
100
AcDbLine
 10
5.598472502815128
 20
2.437450000002066
 30
0.0
 11
5.598472502815128
 21
2.437450000002066
 31
0.0
  0
LINE
  5
4A4
330
455
100
AcDbEntity
  8
Pel_Wall
  6
Continuous
100
AcDbLine
 10
5.614045938446381
 20
2.672767547307551
 30
0.0
 11
5.614045938446381
 21
2.672767547307551
 31
0.0
  0
LINE
  5
4A5
330
455
100
AcDbEntity
  8
Pel_Wall
  6
Continuous
100
AcDbLine
 10
5.531199841538119
 20
2.336261196361442
 30
0.0
 11
5.531199841538119
 21
2.336261196361442
 31
0.0
  0
LINE
  5
4A6
330
455
100
AcDbEntity
  8
Pel_Wall
  6
Continuous
100
AcDbLine
 10
5.66110365210578
 20
2.411261196361437
 30
0.0
 11
5.66110365210578
 21
2.411261196361437
 31
0.0
  0
LINE
  5
4A7
330
455
100
AcDbEntity
  8
Pel_Wall
  6
Continuous
100
AcDbLine
 10
5.5223835895696
 20
2.567387845187355
 30
0.0
 11
5.5223835895696
 21
2.567387845187355
 31
0.0
  0
LINE
  5
4A8
330
455
100
AcDbEntity
  8
Pel_Wall
  6
Continuous
100
AcDbLine
 10
5.597383589569596
 20
2.697291655755017
 30
0.0
 11
5.597383589569596
 21
2.697291655755017
 31
0.0
  0
LINE
  5
4A9
330
455
100
AcDbEntity
  8
Pel_Wall
  6
Continuous
100
AcDbLine
 10
5.672383589569599
 20
2.827195466322685
 30
0.0
 11
5.672383589569599
 21
2.827195466322685
 31
0.0
  0
LINE
  5
4AA
330
455
100
AcDbEntity
  8
Pel_Wall
  6
Continuous
100
AcDbLine
 10
5.693889940515703
 20
2.364445558846754
 30
0.0
 11
5.693889940515703
 21
2.364445558846754
 31
0.0
  0
LINE
  5
4AB
330
455
100
AcDbEntity
  8
Pel_Wall
  6
Continuous
100
AcDbLine
 10
5.808472502815129
 20
2.187450000002066
 30
0.0
 11
5.808472502815129
 21
2.187450000002066
 31
0.0
  0
LINE
  5
4AC
330
455
100
AcDbEntity
  8
Pel_Wall
  6
Continuous
100
AcDbLine
 10
5.718472502815132
 20
1.937450000002066
 30
0.0
 11
5.718472502815132
 21
1.937450000002066
 31
0.0
  0
LINE
  5
4AD
330
455
100
AcDbEntity
  8
Pel_Wall
  6
Continuous
100
AcDbLine
 10
5.868472502815131
 20
1.937450000002066
 30
0.0
 11
5.868472502815131
 21
1.937450000002066
 31
0.0
  0
LINE
  5
4AE
330
455
100
AcDbEntity
  8
Pel_Wall
  6
Continuous
100
AcDbLine
 10
5.778472502815128
 20
1.687450000002066
 30
0.0
 11
5.778472502815128
 21
1.687450000002066
 31
0.0
  0
LINE
  5
4AF
330
455
100
AcDbEntity
  8
Pel_Wall
  6
Continuous
100
AcDbLine
 10
5.928472502815133
 20
1.687450000002066
 30
0.0
 11
5.928472502815133
 21
1.687450000002066
 31
0.0
  0
LINE
  5
4B0
330
455
100
AcDbEntity
  8
Pel_Wall
  6
Continuous
100
AcDbLine
 10
5.708161365765179
 20
2.149754845415331
 30
0.0
 11
5.708161365765179
 21
2.149754845415331
 31
0.0
  0
LINE
  5
4B1
330
455
100
AcDbEntity
  8
Pel_Wall
  6
Continuous
100
AcDbLine
 10
5.838065176332848
 20
2.224754845415334
 30
0.0
 11
5.838065176332848
 21
2.224754845415334
 31
0.0
  0
LINE
  5
4B2
330
455
100
AcDbEntity
  8
Pel_Wall
  6
Continuous
100
AcDbLine
 10
5.755219079424585
 20
1.888248494469217
 30
0.0
 11
5.755219079424585
 21
1.888248494469217
 31
0.0
  0
LINE
  5
4B3
330
455
100
AcDbEntity
  8
Pel_Wall
  6
Continuous
100
AcDbLine
 10
5.885122889992246
 20
1.96324849446922
 30
0.0
 11
5.885122889992246
 21
1.96324849446922
 31
0.0
  0
LINE
  5
4B4
330
455
100
AcDbEntity
  8
Pel_Wall
  6
Continuous
100
AcDbLine
 10
5.932180603651652
 20
1.701742143523106
 30
0.0
 11
5.932180603651652
 21
1.701742143523106
 31
0.0
  0
LINE
  5
4B5
330
455
100
AcDbEntity
  8
Pel_Wall
  6
Continuous
100
AcDbLine
 10
5.715396291461815
 20
1.901695651370823
 30
0.0
 11
5.715396291461815
 21
1.901695651370823
 31
0.0
  0
LINE
  5
4B6
330
455
100
AcDbEntity
  8
Pel_Wall
  6
Continuous
100
AcDbLine
 10
5.790396291461818
 20
2.031599461938491
 30
0.0
 11
5.790396291461818
 21
2.031599461938491
 31
0.0
  0
LINE
  5
4B7
330
455
100
AcDbEntity
  8
Pel_Wall
  6
Continuous
100
AcDbLine
 10
5.865396291461821
 20
2.161503272506153
 30
0.0
 11
5.865396291461821
 21
2.161503272506153
 31
0.0
  0
LINE
  5
4B8
330
455
100
AcDbEntity
  8
Pel_Wall
  6
Continuous
100
AcDbLine
 10
5.886902642407926
 20
1.698753365030222
 30
0.0
 11
5.886902642407926
 21
1.698753365030222
 31
0.0
  0
LINE
  5
4B9
330
455
100
AcDbEntity
  8
Pel_Wall
  6
Continuous
100
AcDbLine
 10
5.508472502815132
 20
2.187450000002049
 30
0.0
 11
5.508472502815132
 21
2.187450000002049
 31
0.0
  0
LINE
  5
4BA
330
455
100
AcDbEntity
  8
Pel_Wall
  6
Continuous
100
AcDbLine
 10
5.65847250281513
 20
2.187450000002066
 30
0.0
 11
5.65847250281513
 21
2.187450000002066
 31
0.0
  0
LINE
  5
4BB
330
455
100
AcDbEntity
  8
Pel_Wall
  6
Continuous
100
AcDbLine
 10
5.568472502815134
 20
1.937450000002066
 30
0.0
 11
5.568472502815134
 21
1.937450000002066
 31
0.0
  0
LINE
  5
4BC
330
455
100
AcDbEntity
  8
Pel_Wall
  6
Continuous
100
AcDbLine
 10
5.628472502815129
 20
1.687450000002066
 30
0.0
 11
5.628472502815129
 21
1.687450000002066
 31
0.0
  0
LINE
  5
4BD
330
455
100
AcDbEntity
  8
Pel_Wall
  6
Continuous
100
AcDbLine
 10
5.57825755519751
 20
2.074754845415335
 30
0.0
 11
5.57825755519751
 21
2.074754845415335
 31
0.0
  0
LINE
  5
4BE
330
455
100
AcDbEntity
  8
Pel_Wall
  6
Continuous
100
AcDbLine
 10
5.495411458289248
 20
1.7382484944692
 30
0.0
 11
5.495411458289248
 21
1.7382484944692
 31
0.0
  0
LINE
  5
4BF
330
455
100
AcDbEntity
  8
Pel_Wall
  6
Continuous
100
AcDbLine
 10
5.625315268856916
 20
1.813248494469221
 30
0.0
 11
5.625315268856916
 21
1.813248494469221
 31
0.0
  0
LINE
  5
4C0
330
455
100
AcDbEntity
  8
Pel_Wall
  6
Continuous
100
AcDbLine
 10
5.543889940515705
 20
2.104637937711424
 30
0.0
 11
5.543889940515705
 21
2.104637937711424
 31
0.0
  0
LINE
  5
4C1
330
455
100
AcDbEntity
  8
Pel_Wall
  6
Continuous
100
AcDbLine
 10
5.618889940515708
 20
2.234541748279085
 30
0.0
 11
5.618889940515708
 21
2.234541748279085
 31
0.0
  0
LINE
  5
4C2
330
455
100
AcDbEntity
  8
Pel_Wall
  6
Continuous
100
AcDbLine
 10
5.565396291461817
 20
1.641888030235492
 30
0.0
 11
5.565396291461817
 21
1.641888030235492
 31
0.0
  0
LINE
  5
4C3
330
455
100
AcDbEntity
  8
Pel_Wall
  6
Continuous
100
AcDbLine
 10
5.640396291461819
 20
1.771791840803161
 30
0.0
 11
5.640396291461819
 21
1.771791840803161
 31
0.0
  0
LINE
  5
4C4
330
455
100
AcDbEntity
  8
Pel_Wall
  6
Continuous
100
AcDbLine
 10
5.973472502815135
 20
1.355868639161017
 30
0.0
 11
5.973472502815135
 21
1.355868639161017
 31
0.0
  0
LINE
  5
4C5
330
455
100
AcDbEntity
  8
Pel_Wall
  6
Continuous
100
AcDbLine
 10
5.982510608491794
 20
1.573213070636044
 30
0.0
 11
5.982510608491794
 21
1.573213070636044
 31
0.0
  0
LINE
  5
4C6
330
455
100
AcDbEntity
  8
Pel_Wall
  6
Continuous
100
AcDbLine
 10
5.988472502815135
 20
1.312450000002066
 30
0.0
 11
5.988472502815135
 21
1.312450000002066
 31
0.0
  0
LINE
  5
4C7
330
455
100
AcDbEntity
  8
Pel_Wall
  6
Continuous
100
AcDbLine
 10
5.979238317311051
 20
1.315235792576999
 30
0.0
 11
5.979238317311051
 21
1.315235792576999
 31
0.0
  0
LINE
  5
4C8
330
455
100
AcDbEntity
  8
Pel_Wall
  6
Continuous
100
AcDbLine
 10
5.98340899335404
 20
1.365907268121952
 30
0.0
 11
5.98340899335404
 21
1.365907268121952
 31
0.0
  0
LINE
  5
4C9
330
455
100
AcDbEntity
  8
Pel_Wall
  6
Continuous
100
AcDbLine
 10
5.958472502815134
 20
0.9374500000020669
 30
0.0
 11
5.958472502815134
 21
0.9374500000020669
 31
0.0
  0
LINE
  5
4CA
330
455
100
AcDbEntity
  8
Pel_Wall
  6
Continuous
100
AcDbLine
 10
5.94344993406218
 20
0.8422230906847838
 30
0.0
 11
5.94344993406218
 21
0.8422230906847838
 31
0.0
  0
LINE
  5
4CB
330
455
100
AcDbEntity
  8
Pel_Wall
  6
Continuous
100
AcDbLine
 10
5.990507647721579
 20
0.5807167397386701
 30
0.0
 11
5.990507647721579
 21
0.5807167397386701
 31
0.0
  0
LINE
  5
4CC
330
455
100
AcDbEntity
  8
Pel_Wall
  6
Continuous
100
AcDbLine
 10
5.83847250281513
 20
1.437450000002066
 30
0.0
 11
5.83847250281513
 21
1.437450000002066
 31
0.0
  0
LINE
  5
4CD
330
455
100
AcDbEntity
  8
Pel_Wall
  6
Continuous
100
AcDbLine
 10
5.748472502815133
 20
1.187450000002066
 30
0.0
 11
5.748472502815133
 21
1.187450000002066
 31
0.0
  0
LINE
  5
4CE
330
455
100
AcDbEntity
  8
Pel_Wall
  6
Continuous
100
AcDbLine
 10
5.898472502815132
 20
1.187450000002066
 30
0.0
 11
5.898472502815132
 21
1.187450000002066
 31
0.0
  0
LINE
  5
4CF
330
455
100
AcDbEntity
  8
Pel_Wall
  6
Continuous
100
AcDbLine
 10
5.802276793083984
 20
1.62674214352311
 30
0.0
 11
5.802276793083984
 21
1.62674214352311
 31
0.0
  0
LINE
  5
4D0
330
455
100
AcDbEntity
  8
Pel_Wall
  6
Continuous
100
AcDbLine
 10
5.719430696175714
 20
1.290235792577001
 30
0.0
 11
5.719430696175714
 21
1.290235792577001
 31
0.0
  0
LINE
  5
4D1
330
455
100
AcDbEntity
  8
Pel_Wall
  6
Continuous
100
AcDbLine
 10
5.849334506743383
 20
1.365235792576997
 30
0.0
 11
5.849334506743383
 21
1.365235792576997
 31
0.0
  0
LINE
  5
4D2
330
455
100
AcDbEntity
  8
Pel_Wall
  6
Continuous
100
AcDbLine
 10
5.766488409835113
 20
1.028729441630894
 30
0.0
 11
5.766488409835113
 21
1.028729441630894
 31
0.0
  0
LINE
  5
4D3
330
455
100
AcDbEntity
  8
Pel_Wall
  6
Continuous
100
AcDbLine
 10
5.896392220402781
 20
1.10372944163089
 30
0.0
 11
5.896392220402781
 21
1.10372944163089
 31
0.0
  0
LINE
  5
4D4
330
455
100
AcDbEntity
  8
Pel_Wall
  6
Continuous
100
AcDbLine
 10
5.736902642407927
 20
1.438945743894891
 30
0.0
 11
5.736902642407927
 21
1.438945743894891
 31
0.0
  0
LINE
  5
4D5
330
455
100
AcDbEntity
  8
Pel_Wall
  6
Continuous
100
AcDbLine
 10
5.81190264240793
 20
1.568849554462553
 30
0.0
 11
5.81190264240793
 21
1.568849554462553
 31
0.0
  0
LINE
  5
4D6
330
455
100
AcDbEntity
  8
Pel_Wall
  6
Continuous
100
AcDbLine
 10
5.833408993354034
 20
1.106099646986621
 30
0.0
 11
5.833408993354034
 21
1.106099646986621
 31
0.0
  0
LINE
  5
4D7
330
455
100
AcDbEntity
  8
Pel_Wall
  6
Continuous
100
AcDbLine
 10
5.908408993354037
 20
1.23600345755429
 30
0.0
 11
5.908408993354037
 21
1.23600345755429
 31
0.0
  0
LINE
  5
4D8
330
455
100
AcDbEntity
  8
Pel_Wall
  6
Continuous
100
AcDbLine
 10
5.538472502815133
 20
1.437450000002066
 30
0.0
 11
5.538472502815133
 21
1.437450000002066
 31
0.0
  0
LINE
  5
4D9
330
455
100
AcDbEntity
  8
Pel_Wall
  6
Continuous
100
AcDbLine
 10
5.688472502815131
 20
1.437450000002066
 30
0.0
 11
5.688472502815131
 21
1.437450000002066
 31
0.0
  0
LINE
  5
4DA
330
455
100
AcDbEntity
  8
Pel_Wall
  6
Continuous
100
AcDbLine
 10
5.598472502815128
 20
1.187450000002066
 30
0.0
 11
5.598472502815128
 21
1.187450000002066
 31
0.0
  0
LINE
  5
4DB
330
455
100
AcDbEntity
  8
Pel_Wall
  6
Continuous
100
AcDbLine
 10
5.542469171948654
 20
1.476742143523112
 30
0.0
 11
5.542469171948654
 21
1.476742143523112
 31
0.0
  0
LINE
  5
4DC
330
455
100
AcDbEntity
  8
Pel_Wall
  6
Continuous
100
AcDbLine
 10
5.672372982516315
 20
1.551742143523108
 30
0.0
 11
5.672372982516315
 21
1.551742143523108
 31
0.0
  0
LINE
  5
4DD
330
455
100
AcDbEntity
  8
Pel_Wall
  6
Continuous
100
AcDbLine
 10
5.589526885608052
 20
1.215235792576998
 30
0.0
 11
5.589526885608052
 21
1.215235792576998
 31
0.0
  0
LINE
  5
4DE
330
455
100
AcDbEntity
  8
Pel_Wall
  6
Continuous
100
AcDbLine
 10
5.511902642407926
 20
1.049234312191875
 30
0.0
 11
5.511902642407926
 21
1.049234312191875
 31
0.0
  0
LINE
  5
4DF
330
455
100
AcDbEntity
  8
Pel_Wall
  6
Continuous
100
AcDbLine
 10
5.586902642407928
 20
1.179138122759561
 30
0.0
 11
5.586902642407928
 21
1.179138122759561
 31
0.0
  0
LINE
  5
4E0
330
455
100
AcDbEntity
  8
Pel_Wall
  6
Continuous
100
AcDbLine
 10
5.661902642407924
 20
1.309041933327223
 30
0.0
 11
5.661902642407924
 21
1.309041933327223
 31
0.0
  0
LINE
  5
4E1
330
455
100
AcDbEntity
  8
Pel_Wall
  6
Continuous
100
AcDbLine
 10
5.808472502815129
 20
0.9374500000020667
 30
0.0
 11
5.808472502815129
 21
0.9374500000020667
 31
0.0
  0
LINE
  5
4E2
330
455
100
AcDbEntity
  8
Pel_Wall
  6
Continuous
100
AcDbLine
 10
5.718472502815132
 20
0.6874500000020669
 30
0.0
 11
5.718472502815132
 21
0.6874500000020669
 31
0.0
  0
LINE
  5
4E3
330
455
100
AcDbEntity
  8
Pel_Wall
  6
Continuous
100
AcDbLine
 10
5.868472502815131
 20
0.6874500000020669
 30
0.0
 11
5.868472502815131
 21
0.6874500000020669
 31
0.0
  0
LINE
  5
4E4
330
455
100
AcDbEntity
  8
Pel_Wall
  6
Continuous
100
AcDbLine
 10
5.813546123494519
 20
0.767223090684781
 30
0.0
 11
5.813546123494519
 21
0.767223090684781
 31
0.0
  0
LINE
  5
4E5
330
455
100
AcDbEntity
  8
Pel_Wall
  6
Continuous
100
AcDbLine
 10
5.860603837153917
 20
0.5057167397386743
 30
0.0
 11
5.860603837153917
 21
0.5057167397386743
 31
0.0
  0
LINE
  5
4E6
330
455
100
AcDbEntity
  8
Pel_Wall
  6
Continuous
100
AcDbLine
 10
5.758408993354039
 20
0.9761958364189602
 30
0.0
 11
5.758408993354039
 21
0.9761958364189602
 31
0.0
  0
LINE
  5
4E7
330
455
100
AcDbEntity
  8
Pel_Wall
  6
Continuous
100
AcDbLine
 10
5.779915344300143
 20
0.513445928943029
 30
0.0
 11
5.779915344300143
 21
0.513445928943029
 31
0.0
  0
LINE
  5
4E8
330
455
100
AcDbEntity
  8
Pel_Wall
  6
Continuous
100
AcDbLine
 10
5.854915344300146
 20
0.6433497395106977
 30
0.0
 11
5.854915344300146
 21
0.6433497395106977
 31
0.0
  0
LINE
  5
4E9
330
455
100
AcDbEntity
  8
Pel_Wall
  6
Continuous
100
AcDbLine
 10
5.929915344300149
 20
0.7732535500783592
 30
0.0
 11
5.929915344300149
 21
0.7732535500783592
 31
0.0
  0
LINE
  5
4EA
330
455
100
AcDbEntity
  8
Pel_Wall
  6
Continuous
100
AcDbLine
 10
5.508472502815132
 20
0.9374500000020489
 30
0.0
 11
5.508472502815132
 21
0.9374500000020489
 31
0.0
  0
LINE
  5
4EB
330
455
100
AcDbEntity
  8
Pel_Wall
  6
Continuous
100
AcDbLine
 10
5.65847250281513
 20
0.9374500000020667
 30
0.0
 11
5.65847250281513
 21
0.9374500000020667
 31
0.0
  0
LINE
  5
4EC
330
455
100
AcDbEntity
  8
Pel_Wall
  6
Continuous
100
AcDbLine
 10
5.568472502815134
 20
0.6874500000020669
 30
0.0
 11
5.568472502815134
 21
0.6874500000020669
 31
0.0
  0
LINE
  5
4ED
330
455
100
AcDbEntity
  8
Pel_Wall
  6
Continuous
100
AcDbLine
 10
5.506680788699783
 20
0.8787294416308782
 30
0.0
 11
5.506680788699783
 21
0.8787294416308782
 31
0.0
  0
LINE
  5
4EE
330
455
100
AcDbEntity
  8
Pel_Wall
  6
Continuous
100
AcDbLine
 10
5.636584599267451
 20
0.9537294416308917
 30
0.0
 11
5.636584599267451
 21
0.9537294416308917
 31
0.0
  0
LINE
  5
4EF
330
455
100
AcDbEntity
  8
Pel_Wall
  6
Continuous
100
AcDbLine
 10
5.553738502359188
 20
0.6172230906847824
 30
0.0
 11
5.553738502359188
 21
0.6172230906847824
 31
0.0
  0
LINE
  5
4F0
330
455
100
AcDbEntity
  8
Pel_Wall
  6
Continuous
100
AcDbLine
 10
5.68364231292685
 20
0.6922230906847852
 30
0.0
 11
5.68364231292685
 21
0.6922230906847852
 31
0.0
  0
LINE
  5
4F1
330
455
100
AcDbEntity
  8
Pel_Wall
  6
Continuous
100
AcDbLine
 10
5.533408993354037
 20
0.5864844047159616
 30
0.0
 11
5.533408993354037
 21
0.5864844047159616
 31
0.0
  0
LINE
  5
4F2
330
455
100
AcDbEntity
  8
Pel_Wall
  6
Continuous
100
AcDbLine
 10
5.60840899335404
 20
0.7163882152836302
 30
0.0
 11
5.60840899335404
 21
0.7163882152836302
 31
0.0
  0
LINE
  5
4F3
330
455
100
AcDbEntity
  8
Pel_Wall
  6
Continuous
100
AcDbLine
 10
5.683408993354036
 20
0.8462920258512916
 30
0.0
 11
5.683408993354036
 21
0.8462920258512916
 31
0.0
  0
POLYLINE
  5
4F4
330
455
100
AcDbEntity
  8
Pel_Wall
  6
Continuous
100
AcDb2dPolyline
 66
     1
 10
0.0
 20
0.0
 30
0.0
  0
VERTEX
  5
1FFD
330
4F4
100
AcDbEntity
  8
Pel_Wall
  6
Continuous
100
AcDbVertex
100
AcDb2dVertex
 10
5.49347250281513
 20
4.250150000002048
 30
0.0
  0
VERTEX
  5
1FFE
330
4F4
100
AcDbEntity
  8
Pel_Wall
  6
Continuous
100
AcDbVertex
100
AcDb2dVertex
 10
5.493472502815131
 20
0.312450000002049
 30
0.0
  0
VERTEX
  5
1FFF
330
4F4
100
AcDbEntity
  8
Pel_Wall
  6
Continuous
100
AcDbVertex
100
AcDb2dVertex
 10
5.993472502815131
 20
0.3124500000020669
 30
0.0
  0
VERTEX
  5
2000
330
4F4
100
AcDbEntity
  8
Pel_Wall
  6
Continuous
100
AcDbVertex
100
AcDb2dVertex
 10
5.99347250281513
 20
4.250150000002066
 30
0.0
  0
SEQEND
  5
2001
330
4F4
100
AcDbEntity
  8
Pel_Wall
  6
Continuous
  0
LINE
  5
4FB
330
455
100
AcDbEntity
  8
Pel_Wall
  6
Continuous
100
AcDbLine
 10
1.142503222739847
 20
4.25015000000203
 30
0.0
 11
1.103252633451994
 21
4.184732351183569
 31
0.0
  0
LINE
  5
4FC
330
455
100
AcDbEntity
  8
Pel_Wall
  6
Continuous
100
AcDbLine
 10
2.11847250281513
 20
3.339361934583223
 30
0.0
 11
1.61847250281513
 21
3.839361934583223
 31
0.0
  0
LINE
  5
4FD
330
455
100
AcDbEntity
  8
Pel_Wall
  6
Continuous
100
AcDbLine
 10
2.118472502815131
 20
1.925148372210124
 30
0.0
 11
1.618472502815131
 21
2.425148372210124
 31
0.0
  0
LINE
  5
4FE
330
455
100
AcDbEntity
  8
Pel_Wall
  6
Continuous
100
AcDbLine
 10
2.118472502815131
 20
2.63225515339667
 30
0.0
 11
1.618472502815131
 21
3.13225515339667
 31
0.0
  0
LINE
  5
4FF
330
455
100
AcDbEntity
  8
Pel_Wall
  6
Continuous
100
AcDbLine
 10
2.290105615746598
 20
0.8846820337353877
 30
0.0
 11
2.540105615746598
 21
0.8846820337353877
 31
0.0
  0
LINE
  5
500
330
455
100
AcDbEntity
  8
Pel_Wall
  6
Continuous
100
AcDbLine
 10
1.326208275996781
 20
0.7596820337353876
 30
0.0
 11
1.326208275996781
 21
1.009682033735387
 31
0.0
  0
LINE
  5
501
330
455
100
AcDbEntity
  8
Pel_Wall
  6
Continuous
100
AcDbLine
 10
1.305972502815131
 20
0.8846820337353875
 30
0.0
 11
2.165105615746598
 21
0.8846820337353877
 31
0.0
  0
LINE
  5
502
330
455
100
AcDbEntity
  8
Pel_Wall
  6
Continuous
100
AcDbLine
 10
2.118472502815131
 20
0.5109348098370249
 30
0.0
 11
1.618472502815131
 21
1.010934809837031
 31
0.0
  0
LINE
  5
503
330
455
100
AcDbEntity
  8
Pel_Wall
  6
Continuous
100
AcDbLine
 10
2.118472502815131
 20
1.218041591023578
 30
0.0
 11
1.618472502815131
 21
1.71804159102357
 31
0.0
  0
POLYLINE
  5
504
330
455
100
AcDbEntity
  8
Pel_Wall
  6
Continuous
100
AcDb2dPolyline
 66
     1
 10
0.0
 20
0.0
 30
0.0
  0
VERTEX
  5
200C
330
504
100
AcDbEntity
  8
Pel_Wall
  6
Continuous
100
AcDbVertex
100
AcDb2dVertex
 10
1.305972502815131
 20
-0.0000499999979695
 30
0.0
  0
VERTEX
  5
200D
330
504
100
AcDbEntity
  8
Pel_Wall
  6
Continuous
100
AcDbVertex
100
AcDb2dVertex
 10
1.305972502815131
 20
1.18745000000203
 30
0.0
  0
VERTEX
  5
200E
330
504
100
AcDbEntity
  8
Pel_Wall
  6
Continuous
100
AcDbVertex
100
AcDb2dVertex
 10
1.368472502815131
 20
1.31245000000203
 30
0.0
  0
VERTEX
  5
200F
330
504
100
AcDbEntity
  8
Pel_Wall
  6
Continuous
100
AcDbVertex
100
AcDb2dVertex
 10
1.368472502815131
 20
2.99995000000203
 30
0.0
  0
SEQEND
  5
2010
330
504
100
AcDbEntity
  8
Pel_Wall
  6
Continuous
  0
POLYLINE
  5
50A
330
455
100
AcDbEntity
  8
Pel_Wall
  6
Continuous
100
AcDb2dPolyline
 66
     1
 10
0.0
 20
0.0
 30
0.0
  0
VERTEX
  5
2012
330
50A
100
AcDbEntity
  8
Pel_Wall
  6
Continuous
100
AcDbVertex
100
AcDb2dVertex
 10
1.285972502815128
 20
-0.0000499999979695
 30
0.0
  0
VERTEX
  5
2013
330
50A
100
AcDbEntity
  8
Pel_Wall
  6
Continuous
100
AcDbVertex
100
AcDb2dVertex
 10
1.285972502815128
 20
1.192171359552027
 30
0.0
  0
VERTEX
  5
2014
330
50A
100
AcDbEntity
  8
Pel_Wall
  6
Continuous
100
AcDbVertex
100
AcDb2dVertex
 10
1.348472502815128
 20
1.317171359552027
 30
0.0
  0
VERTEX
  5
2015
330
50A
100
AcDbEntity
  8
Pel_Wall
  6
Continuous
100
AcDbVertex
100
AcDb2dVertex
 10
1.348472502815128
 20
2.99995000000203
 30
0.0
  0
SEQEND
  5
2016
330
50A
100
AcDbEntity
  8
Pel_Wall
  6
Continuous
  0
LINE
  5
510
330
455
100
AcDbEntity
  8
Pel_Wall
  6
Continuous
100
AcDbLine
 10
1.014864255012625
 20
3.919567317576351
 30
0.0
 11
0.941306286698094
 21
3.796970703708737
 31
0.0
  0
LINE
  5
511
330
455
100
AcDbEntity
  8
Pel_Wall
  6
Continuous
100
AcDbLine
 10
1.212222502815131
 20
2.628328505750097
 30
0.0
 11
0.9777007356574721
 21
2.769041566033152
 31
0.0
  0
LINE
  5
512
330
455
100
AcDbEntity
  8
Pel_Wall
  6
Continuous
100
AcDbLine
 10
0.9777009775583216
 20
2.76904086209447
 30
0.0
 11
0.2981886554411984
 21
3.448553184211593
 31
0.0
  0
LINE
  5
513
330
455
100
AcDbEntity
  8
Pel_Wall
  6
Continuous
100
AcDbLine
 10
1.212222502815131
 20
1.270683346161945
 30
0.0
 11
0.9777007768662652
 21
1.411396381719718
 31
0.0
  0
LINE
  5
514
330
455
100
AcDbEntity
  8
Pel_Wall
  6
Continuous
100
AcDbLine
 10
0.7813017998944231
 20
0.25015000000203
 30
0.0
 11
0.298188655441199
 21
0.7332631444552432
 31
0.0
  0
POLYLINE
  5
515
330
455
100
AcDbEntity
  8
Pel_Wall
  6
Continuous
100
AcDb2dPolyline
 66
     1
 10
0.0
 20
0.0
 30
0.0
  0
VERTEX
  5
201D
330
515
100
AcDbEntity
  8
Pel_Wall
  6
Continuous
100
AcDbVertex
100
AcDb2dVertex
 10
0.2981886554411991
 20
0.2501500000020334
 30
0.0
  0
VERTEX
  5
201E
330
515
100
AcDbEntity
  8
Pel_Wall
  6
Continuous
100
AcDbVertex
100
AcDb2dVertex
 10
1.212222502815131
 20
0.25015000000203
 30
0.0
  0
VERTEX
  5
201F
330
515
100
AcDbEntity
  8
Pel_Wall
  6
Continuous
100
AcDbVertex
100
AcDb2dVertex
 10
1.21222250281513
 20
3.75015000000203
 30
0.0
  0
SEQEND
  5
2020
330
515
100
AcDbEntity
  8
Pel_Wall
  6
Continuous
  0
POLYLINE
  5
51A
330
455
100
AcDbEntity
  8
Pel_Wall
  6
Continuous
100
AcDb2dPolyline
 66
     1
 10
0.0
 20
0.0
 30
0.0
  0
VERTEX
  5
2022
330
51A
100
AcDbEntity
  8
Pel_Wall
  6
Continuous
100
AcDbVertex
100
AcDb2dVertex
 10
0.2981886554411991
 20
0.2501500000020334
 30
0.0
  0
VERTEX
  5
2023
330
51A
100
AcDbEntity
  8
Pel_Wall
  6
Continuous
100
AcDbVertex
100
AcDb2dVertex
 10
0.2981886554411983
 20
3.750150000002033
 30
0.0
  0
VERTEX
  5
2024
330
51A
100
AcDbEntity
  8
Pel_Wall
  6
Continuous
100
AcDbVertex
100
AcDb2dVertex
 10
1.21222250281513
 20
3.75015000000203
 30
0.0
  0
SEQEND
  5
2025
330
51A
100
AcDbEntity
  8
Pel_Wall
  6
Continuous
  0
LINE
  5
51F
330
455
100
AcDbEntity
  8
Pel_Wall
  6
Continuous
100
AcDbLine
 10
0.977700977558322
 20
1.4113958422163
 30
0.0
 11
0.2981886554411987
 21
2.090908164333423
 31
0.0
  0
LINE
  5
520
330
455
100
AcDbEntity
  8
Pel_Wall
  6
Continuous
100
AcDbLine
 10
1.103252857790046
 20
4.184732419524294
 30
0.0
 11
1.014864509265855
 21
3.91956737390663
 31
0.0
  0
LINE
  5
521
330
455
100
AcDbEntity
  8
Pel_Wall
  6
Continuous
100
AcDbLine
 10
1.743472502815131
 20
0.3124500000020306
 30
0.0
 11
1.74347250281513
 21
4.24995000000203
 31
0.0
  0
LINE
  5
522
330
455
100
AcDbEntity
  8
Pel_Wall
  6
Continuous
100
AcDbLine
 10
1.868472502815131
 20
0.3124500000020306
 30
0.0
 11
1.86847250281513
 21
4.25015000000203
 31
0.0
  0
LINE
  5
523
330
455
100
AcDbEntity
  8
Pel_Wall
  6
Continuous
100
AcDbLine
 10
1.993472502815131
 20
0.3124500000020306
 30
0.0
 11
1.99347250281513
 21
4.25015000000203
 31
0.0
  0
LINE
  5
524
330
455
100
AcDbEntity
  8
Pel_Wall
  6
Continuous
100
AcDbLine
 10
2.11847250281513
 20
4.046468715769769
 30
0.0
 11
1.953215945415437
 21
4.211725273169463
 31
0.0
  0
POLYLINE
  5
525
330
455
100
AcDbEntity
  8
Pel_Wall
  6
Continuous
100
AcDb2dPolyline
 66
     1
 10
0.0
 20
0.0
 30
0.0
  0
VERTEX
  5
202D
330
525
100
AcDbEntity
  8
Pel_Wall
  6
Continuous
100
AcDbVertex
100
AcDb2dVertex
 10
0.941306286698094
 20
3.750150000002037
 30
0.0
  0
VERTEX
  5
202E
330
525
100
AcDbEntity
  8
Pel_Wall
  6
Continuous
100
AcDbVertex
100
AcDb2dVertex
 10
0.6627367894783736
 20
3.750150000002037
 30
0.0
  0
VERTEX
  5
202F
330
525
100
AcDbEntity
  8
Pel_Wall
  6
Continuous
100
AcDbVertex
100
AcDb2dVertex
 10
0.6627367894783735
 20
4.25015000000203
 30
0.0
  0
SEQEND
  5
2030
330
525
100
AcDbEntity
  8
Pel_Wall
  6
Continuous
  0
POLYLINE
  5
52A
330
455
100
AcDbEntity
  8
Pel_Wall
  6
Continuous
100
AcDb2dPolyline
 66
     1
 10
0.0
 20
0.0
 30
0.0
  0
VERTEX
  5
2032
330
52A
100
AcDbEntity
  8
Pel_Wall
  6
Continuous
100
AcDbVertex
100
AcDb2dVertex
 10
1.21222250281513
 20
4.25015000000203
 30
0.0
  0
VERTEX
  5
2033
330
52A
100
AcDbEntity
  8
Pel_Wall
  6
Continuous
100
AcDbVertex
100
AcDb2dVertex
 10
1.21222250281513
 20
3.75015000000203
 30
0.0
  0
VERTEX
  5
2034
330
52A
100
AcDbEntity
  8
Pel_Wall
  6
Continuous
100
AcDbVertex
100
AcDb2dVertex
 10
0.941306286698094
 20
3.750150000002037
 30
0.0
  0
VERTEX
  5
2035
330
52A
100
AcDbEntity
  8
Pel_Wall
  6
Continuous
100
AcDbVertex
100
AcDb2dVertex
 10
0.941306286698094
 20
4.25015000000203
 30
0.0
  0
SEQEND
  5
2036
330
52A
100
AcDbEntity
  8
Pel_Wall
  6
Continuous
  0
POLYLINE
  5
530
330
455
100
AcDbEntity
  8
Pel_Wall
  6
Continuous
100
AcDb2dPolyline
 66
     1
 10
0.0
 20
0.0
 30
0.0
  0
VERTEX
  5
2038
330
530
100
AcDbEntity
  8
Pel_Wall
  6
Continuous
100
AcDbVertex
100
AcDb2dVertex
 10
1.61847250281513
 20
4.25015000000203
 30
0.0
  0
VERTEX
  5
2039
330
530
100
AcDbEntity
  8
Pel_Wall
  6
Continuous
100
AcDbVertex
100
AcDb2dVertex
 10
1.618472502815131
 20
0.3124500000020305
 30
0.0
  0
VERTEX
  5
203A
330
530
100
AcDbEntity
  8
Pel_Wall
  6
Continuous
100
AcDbVertex
100
AcDb2dVertex
 10
2.118472502815131
 20
0.3124500000020307
 30
0.0
  0
VERTEX
  5
203B
330
530
100
AcDbEntity
  8
Pel_Wall
  6
Continuous
100
AcDbVertex
100
AcDb2dVertex
 10
2.11847250281513
 20
4.25015000000203
 30
0.0
  0
SEQEND
  5
203C
330
530
100
AcDbEntity
  8
Pel_Wall
  6
Continuous
  0
LINE
  5
536
330
455
100
AcDbEntity
  8
Pel_Wall
  6
Continuous
100
AcDbLine
 10
2.665105615746598
 20
0.8846820337353877
 30
0.0
 11
3.415105615746598
 21
0.8846820337353879
 31
0.0
  0
POLYLINE
  5
537
330
455
100
AcDbEntity
  8
Pel_Wall
  6
Continuous
100
AcDb2dPolyline
 66
     1
 10
0.0
 20
0.0
 30
0.0
  0
VERTEX
  5
203F
330
537
100
AcDbEntity
  8
Pel_Wall
  6
Continuous
100
AcDbVertex
100
AcDb2dVertex
 10
2.118472502815131
 20
0.3124500000020307
 30
0.0
  0
VERTEX
  5
2040
330
537
100
AcDbEntity
  8
Pel_Wall
  6
Continuous
100
AcDbVertex
100
AcDb2dVertex
 10
5.493472502815131
 20
0.312450000002049
 30
0.0
  0
VERTEX
  5
2041
330
537
100
AcDbEntity
  8
Pel_Wall
  6
Continuous
100
AcDbVertex
100
AcDb2dVertex
 10
5.493472502815131
 20
1.812450000002048
 30
0.0
  0
VERTEX
  5
2042
330
537
100
AcDbEntity
  8
Pel_Wall
  6
Continuous
100
AcDbVertex
100
AcDb2dVertex
 10
2.118472502815131
 20
1.81245000000203
 30
0.0
  0
VERTEX
  5
2043
330
537
100
AcDbEntity
  8
Pel_Wall
  6
Continuous
100
AcDbVertex
100
AcDb2dVertex
 10
2.118472502815131
 20
0.3124500000020307
 30
0.0
  0
SEQEND
  5
2044
330
537
100
AcDbEntity
  8
Pel_Wall
  6
Continuous
  0
LINE
  5
53E
330
455
100
AcDbEntity
  8
Pel_Wall
  6
Continuous
100
AcDbLine
 10
2.118472502815131
 20
0.3124500000020307
 30
0.0
 11
5.493472502815131
 21
1.812450000002048
 31
0.0
  0
LINE
  5
53F
330
455
100
AcDbEntity
  8
Pel_Wall
  6
Continuous
100
AcDbLine
 10
2.118472502815131
 20
1.81245000000203
 30
0.0
 11
5.493472502815131
 21
0.312450000002049
 31
0.0
  0
LINE
  5
540
330
455
100
AcDbEntity
  8
Pel_Wall
  6
Continuous
100
AcDbLine
 10
2.11847250281513
 20
3.31245000000203
 30
0.0
 11
5.493472502815131
 21
1.812450000002048
 31
0.0
  0
LINE
  5
541
330
455
100
AcDbEntity
  8
Pel_Wall
  6
Continuous
100
AcDbLine
 10
2.118472502815131
 20
1.81245000000203
 30
0.0
 11
5.493472502815131
 21
3.312450000002049
 31
0.0
  0
POLYLINE
  5
542
330
455
100
AcDbEntity
  8
Pel_Wall
  6
Continuous
100
AcDb2dPolyline
 66
     1
 10
0.0
 20
0.0
 30
0.0
  0
VERTEX
  5
204A
330
542
100
AcDbEntity
  8
Pel_Wall
  6
Continuous
100
AcDbVertex
100
AcDb2dVertex
 10
2.118472502815131
 20
1.81245000000203
 30
0.0
  0
VERTEX
  5
204B
330
542
100
AcDbEntity
  8
Pel_Wall
  6
Continuous
100
AcDbVertex
100
AcDb2dVertex
 10
5.493472502815131
 20
1.812450000002048
 30
0.0
  0
VERTEX
  5
204C
330
542
100
AcDbEntity
  8
Pel_Wall
  6
Continuous
100
AcDbVertex
100
AcDb2dVertex
 10
5.493472502815131
 20
3.312450000002049
 30
0.0
  0
VERTEX
  5
204D
330
542
100
AcDbEntity
  8
Pel_Wall
  6
Continuous
100
AcDbVertex
100
AcDb2dVertex
 10
2.11847250281513
 20
3.31245000000203
 30
0.0
  0
VERTEX
  5
204E
330
542
100
AcDbEntity
  8
Pel_Wall
  6
Continuous
100
AcDbVertex
100
AcDb2dVertex
 10
2.118472502815131
 20
1.81245000000203
 30
0.0
  0
SEQEND
  5
204F
330
542
100
AcDbEntity
  8
Pel_Wall
  6
Continuous
  0
POLYLINE
  5
549
330
455
100
AcDbEntity
  8
Pel_Wall
  6
Continuous
100
AcDb2dPolyline
 66
     1
 10
0.0
 20
0.0
 30
0.0
  0
VERTEX
  5
2051
330
549
100
AcDbEntity
  8
Pel_Wall
  6
Continuous
100
AcDbVertex
100
AcDb2dVertex
 10
1.49347250281513
 20
4.25015000000203
 30
0.0
  0
VERTEX
  5
2052
330
549
100
AcDbEntity
  8
Pel_Wall
  6
Continuous
100
AcDbVertex
100
AcDb2dVertex
 10
1.493472502815131
 20
0.2499500000020305
 30
0.0
  0
VERTEX
  5
2053
330
549
100
AcDbEntity
  8
Pel_Wall
  6
Continuous
100
AcDbVertex
100
AcDb2dVertex
 10
4.40262756930531
 20
0.2499500000020417
 30
0.0
  0
SEQEND
  5
2054
330
549
100
AcDbEntity
  8
Pel_Wall
  6
Continuous
  0
POLYLINE
  5
54E
330
455
100
AcDbEntity
  8
Pel_Wall
  6
Continuous
100
AcDb2dPolyline
 66
     1
 10
0.0
 20
0.0
 30
0.0
  0
VERTEX
  5
2056
330
54E
100
AcDbEntity
  8
Pel_Wall
  6
Continuous
100
AcDbVertex
100
AcDb2dVertex
 10
1.473472502815127
 20
4.25015000000203
 30
0.0
  0
VERTEX
  5
2057
330
54E
100
AcDbEntity
  8
Pel_Wall
  6
Continuous
100
AcDbVertex
100
AcDb2dVertex
 10
1.473472502815128
 20
0.2299500000020274
 30
0.0
  0
VERTEX
  5
2058
330
54E
100
AcDbEntity
  8
Pel_Wall
  6
Continuous
100
AcDbVertex
100
AcDb2dVertex
 10
4.40262756930531
 20
0.2299500000020386
 30
0.0
  0
SEQEND
  5
2059
330
54E
100
AcDbEntity
  8
Pel_Wall
  6
Continuous
  0
POLYLINE
  5
553
330
455
100
AcDbEntity
  8
Pel_Wall
  6
Continuous
100
AcDb2dPolyline
 66
     1
 10
0.0
 20
0.0
 30
0.0
  0
VERTEX
  5
205B
330
553
100
AcDbEntity
  8
Pel_Wall
  6
Continuous
100
AcDbVertex
100
AcDb2dVertex
 10
2.78063531021283
 20
4.25015000000203
 30
0.0
 42
0.1505968793853698
  0
VERTEX
  5
205C
330
553
100
AcDbEntity
  8
Pel_Wall
  6
Continuous
100
AcDbVertex
100
AcDb2dVertex
 10
3.281309695417434
 20
4.25015000000203
 30
0.0
  0
SEQEND
  5
205D
330
553
100
AcDbEntity
  8
Pel_Wall
  6
Continuous
  0
POLYLINE
  5
557
330
455
100
AcDbEntity
  8
Pel_Wall
  6
Continuous
100
AcDb2dPolyline
 66
     1
 10
0.0
 20
0.0
 30
0.0
  0
VERTEX
  5
205F
330
557
100
AcDbEntity
  8
Pel_Wall
  6
Continuous
100
AcDbVertex
100
AcDb2dVertex
 10
5.460613337856962
 20
4.250150000002048
 30
0.0
 42
-0.6732341392581576
  0
VERTEX
  5
2060
330
557
100
AcDbEntity
  8
Pel_Wall
  6
Continuous
100
AcDbVertex
100
AcDb2dVertex
 10
4.158962141726029
 20
3.53208304611401
 30
0.0
  0
VERTEX
  5
2061
330
557
100
AcDbEntity
  8
Pel_Wall
  6
Continuous
100
AcDbVertex
100
AcDb2dVertex
 10
3.480248012366211
 20
4.041114738900205
 30
0.0
 42
0.6394770868481389
  0
VERTEX
  5
2062
330
557
100
AcDbEntity
  8
Pel_Wall
  6
Continuous
100
AcDbVertex
100
AcDb2dVertex
 10
2.119944365391269
 20
3.31245000000203
 30
0.0
  0
SEQEND
  5
2063
330
557
100
AcDbEntity
  8
Pel_Wall
  6
Continuous
  0
INSERT
  5
55D
330
455
100
AcDbEntity
  8
Pel_Wall
100
AcDbBlockReference
  2
Rodseal
 10
0.3131886554411962
 20
-0.0000000000000002
 30
0.0
 41
0.75
 42
0.25
  0
INSERT
  5
55E
330
455
100
AcDbEntity
  8
Pel_Wall
100
AcDbBlockReference
  2
FOAM
 10
4.488362310953278
 20
0.0127904463912435
 30
0.0
 42
0.75
  0
LINE
  5
588
330
455
100
AcDbEntity
  8
Pel_Wall
  6
Continuous
100
AcDbLine
 10
5.948002467663848
 20
0.6919252534586216
 30
0.0
 11
5.948002467663848
 21
0.6919252534586216
 31
0.0
  0
LINE
  5
589
330
455
100
AcDbEntity
  8
Pel_Wall
  6
Continuous
100
AcDbLine
 10
5.771040943436781
 20
0.8784316044047322
 30
0.0
 11
5.771040943436781
 21
0.8784316044047322
 31
0.0
  0
LINE
  5
58A
330
455
100
AcDbEntity
  8
Pel_Wall
  6
Continuous
100
AcDbLine
 10
5.813025036416797
 20
0.7871521627759046
 30
0.0
 11
5.813025036416797
 21
0.7871521627759046
 31
0.0
  0
LINE
  5
58B
330
455
100
AcDbEntity
  8
Pel_Wall
  6
Continuous
100
AcDbLine
 10
5.7230250364168
 20
0.5371521627759046
 30
0.0
 11
5.7230250364168
 21
0.5371521627759046
 31
0.0
  0
LINE
  5
58C
330
455
100
AcDbEntity
  8
Pel_Wall
  6
Continuous
100
AcDbLine
 10
5.873025036416799
 20
0.5371521627759046
 30
0.0
 11
5.873025036416799
 21
0.5371521627759046
 31
0.0
  0
LINE
  5
58D
330
455
100
AcDbEntity
  8
Pel_Wall
  6
Continuous
100
AcDbLine
 10
5.818098657096187
 20
0.6169252534586187
 30
0.0
 11
5.818098657096187
 21
0.6169252534586187
 31
0.0
  0
LINE
  5
58E
330
455
100
AcDbEntity
  8
Pel_Wall
  6
Continuous
100
AcDbLine
 10
5.865156370755586
 20
0.355418902512512
 30
0.0
 11
5.865156370755586
 21
0.355418902512512
 31
0.0
  0
LINE
  5
58F
330
455
100
AcDbEntity
  8
Pel_Wall
  6
Continuous
100
AcDbLine
 10
5.762961526955707
 20
0.8258979991927979
 30
0.0
 11
5.762961526955707
 21
0.8258979991927979
 31
0.0
  0
LINE
  5
590
330
455
100
AcDbEntity
  8
Pel_Wall
  6
Continuous
100
AcDbLine
 10
5.784467877901811
 20
0.3631480917168667
 30
0.0
 11
5.784467877901811
 21
0.3631480917168667
 31
0.0
  0
LINE
  5
591
330
455
100
AcDbEntity
  8
Pel_Wall
  6
Continuous
100
AcDbLine
 10
5.859467877901814
 20
0.4930519022845354
 30
0.0
 11
5.859467877901814
 21
0.4930519022845354
 31
0.0
  0
LINE
  5
592
330
455
100
AcDbEntity
  8
Pel_Wall
  6
Continuous
100
AcDbLine
 10
5.934467877901817
 20
0.622955712852197
 30
0.0
 11
5.934467877901817
 21
0.622955712852197
 31
0.0
  0
LINE
  5
593
330
455
100
AcDbEntity
  8
Pel_Wall
  6
Continuous
100
AcDbLine
 10
5.663025036416798
 20
0.7871521627759046
 30
0.0
 11
5.663025036416798
 21
0.7871521627759046
 31
0.0
  0
LINE
  5
594
330
455
100
AcDbEntity
  8
Pel_Wall
  6
Continuous
100
AcDbLine
 10
5.573025036416802
 20
0.5371521627759046
 30
0.0
 11
5.573025036416802
 21
0.5371521627759046
 31
0.0
  0
LINE
  5
595
330
455
100
AcDbEntity
  8
Pel_Wall
  6
Continuous
100
AcDbLine
 10
5.641137132869119
 20
0.8034316044047294
 30
0.0
 11
5.641137132869119
 21
0.8034316044047294
 31
0.0
  0
LINE
  5
596
330
455
100
AcDbEntity
  8
Pel_Wall
  6
Continuous
100
AcDbLine
 10
5.558291035960857
 20
0.4669252534586201
 30
0.0
 11
5.558291035960857
 21
0.4669252534586201
 31
0.0
  0
LINE
  5
597
330
455
100
AcDbEntity
  8
Pel_Wall
  6
Continuous
100
AcDbLine
 10
5.688194846528518
 20
0.5419252534586229
 30
0.0
 11
5.688194846528518
 21
0.5419252534586229
 31
0.0
  0
LINE
  5
598
330
455
100
AcDbEntity
  8
Pel_Wall
  6
Continuous
100
AcDbLine
 10
5.537961526955705
 20
0.4361865674897993
 30
0.0
 11
5.537961526955705
 21
0.4361865674897993
 31
0.0
  0
LINE
  5
599
330
455
100
AcDbEntity
  8
Pel_Wall
  6
Continuous
100
AcDbLine
 10
5.612961526955708
 20
0.5660903780574679
 30
0.0
 11
5.612961526955708
 21
0.5660903780574679
 31
0.0
  0
LINE
  5
59A
330
455
100
AcDbEntity
  8
Pel_Wall
  6
Continuous
100
AcDbLine
 10
5.687961526955704
 20
0.6959941886251295
 30
0.0
 11
5.687961526955704
 21
0.6959941886251295
 31
0.0
  0
POINT
  5
59B
330
455
100
AcDbEntity
  8
Pel_Points
100
AcDbPoint
 10
0.0000000000000013
 20
-0.0000000000000002
 30
0.0
 50
270.0
  0
POLYLINE
  5
5A8
330
455
100
AcDbEntity
  8
Pel_Wall
100
AcDb2dPolyline
 66
     1
 10
0.0
 20
0.0
 30
0.0
  0
VERTEX
  5
207B
330
5A8
100
AcDbEntity
  8
Pel_Wall
100
AcDbVertex
100
AcDb2dVertex
 10
1.643008945651332
 20
0.2087000000020326
 30
0.0
  0
VERTEX
  5
207C
330
5A8
100
AcDbEntity
  8
Pel_Wall
100
AcDbVertex
100
AcDb2dVertex
 10
1.643008945651332
 20
0.0212000000020326
 30
0.0
  0
VERTEX
  5
207D
330
5A8
100
AcDbEntity
  8
Pel_Wall
100
AcDbVertex
100
AcDb2dVertex
 10
4.018008945651332
 20
0.021200000002033
 30
0.0
  0
VERTEX
  5
207E
330
5A8
100
AcDbEntity
  8
Pel_Wall
100
AcDbVertex
100
AcDb2dVertex
 10
4.018008945651332
 20
0.208700000002033
 30
0.0
  0
VERTEX
  5
207F
330
5A8
100
AcDbEntity
  8
Pel_Wall
100
AcDbVertex
100
AcDb2dVertex
 10
1.643008945651332
 20
0.2087000000020326
 30
0.0
  0
VERTEX
  5
2080
330
5A8
100
AcDbEntity
  8
Pel_Wall
100
AcDbVertex
100
AcDb2dVertex
 10
4.018008945651332
 20
0.021200000002033
 30
0.0
  0
SEQEND
  5
2081
330
5A8
100
AcDbEntity
  8
Pel_Wall
  0
ENDBLK
  5
5B0
330
455
100
AcDbEntity
  8
0
100
AcDbBlockEnd
  0
BLOCK
  5
562
330
55F
100
AcDbEntity
  8
0
100
AcDbBlockBegin
  2
FOAM
 70
     0
 10
0.0
 20
0.0
 30
0.0
  3
FOAM
  1

  0
SPLINE
  5
563
330
55F
100
AcDbEntity
  8
Pel_Wall
100
AcDbSpline
210
0.0
220
0.0
230
1.0
 70
    11
 71
     3
 72
    25
 73
    21
 74
    19
 42
0.0000000001
 43
0.0000000001
 44
0.0000000001
 12
0.4220843901239386
 22
-0.9065565440796856
 32
0.0
 13
0.4220843901239386
 23
-0.9065565440796856
 33
0.0
 40
0.0
 40
0.0
 40
0.0
 40
0.0
 40
0.0629554322876937
 40
0.158093302027984
 40
0.3666917292501777
 40
0.5784791336554056
 40
0.7355935303893651
 40
0.9201570010917098
 40
0.9998917151712303
 40
1.084210485759283
 40
1.245204378574754
 40
1.346067368760395
 40
1.446513748240751
 40
1.668548302641723
 40
1.887139835117507
 40
2.057949721674791
 40
2.201765940820533
 40
2.304272258507636
 40
2.449437818975007
 40
2.538774992955798
 40
2.538774992955798
 40
2.538774992955798
 40
2.538774992955798
 10
-1.007964339129893
 20
0.0856945399602856
 30
0.0
 10
-0.9991068373825138
 20
0.0666703202516941
 30
0.0
 10
-0.9616705264786151
 20
0.0254640949759943
 30
0.0
 10
-0.8410068982372918
 20
-0.0107869698935479
 30
0.0
 10
-0.6684684268314176
 20
-0.0038889630370606
 30
0.0
 10
-0.4768160621465834
 20
-0.0102992804642344
 30
0.0
 10
-0.2903897313963492
 20
-0.0117687352922805
 30
0.0
 10
-0.1561303299959726
 20
-0.0022918111705502
 30
0.0
 10
-0.0282486563816958
 20
-0.0028843488513255
 30
0.0
 10
0.0236445481164596
 20
0.1096048163837578
 30
0.0
 10
0.0196464443935374
 20
0.2199957824134399
 30
0.0
 10
-0.0178293069015066
 20
0.3504232556350264
 30
0.0
 10
-0.1726733612148288
 20
0.3757159807777968
 30
0.0
 10
-0.3457095074686416
 20
0.367716469321228
 30
0.0
 10
-0.5519617147784075
 20
0.3688853757842907
 30
0.0
 10
-0.7287131121943214
 20
0.3723247509791517
 30
0.0
 10
-0.869131776000106
 20
0.3770328770786792
 30
0.0
 10
-0.9941648478989177
 20
0.3124809801935388
 30
0.0
 10
-1.021193152175783
 20
0.1932921969641227
 30
0.0
 10
-1.020533614661586
 20
0.1126909398609091
 30
0.0
 10
-1.007964339129893
 20
0.0856945399602856
 30
0.0
 11
-1.007964339129893
 21
0.0856945399602856
 31
0.0
 11
-0.9669783072894185
 21
0.0379082276051568
 31
0.0
 11
-0.8781746009620926
 21
0.0037744320170523
 31
0.0
 11
-0.6698276644277664
 21
-0.0064655814758234
 31
0.0
 11
-0.4580677745979026
 21
-0.0098793365853007
 31
0.0
 11
-0.3009533778639431
 21
-0.0098793365853007
 31
0.0
 11
-0.1165162345822589
 21
-0.0030518263665735
 31
0.0
 11
-0.0379590362152792
 21
0.0106006904004508
 31
0.0
 11
0.0064418609391671
 21
0.0822820366863644
 31
0.0
 11
0.0098567262526833
 21
0.2432397088202824
 31
0.0
 11
-0.0311293055877921
 21
0.3353998302566188
 31
0.0
 11
-0.1267627425421504
 21
0.366119870735246
 31
0.0
 11
-0.3487710523507937
 21
0.3695336258447233
 31
0.0
 11
-0.5673625848265781
 21
0.3695336258447233
 31
0.0
 11
-0.7381383548344
 21
0.3729473809542005
 31
0.0
 11
-0.8815894662760635
 21
0.3627061156257687
 31
0.0
 11
-0.9703931726029347
 21
0.3115060481611627
 31
0.0
 11
-1.018210847089785
 21
0.1744421581227007
 31
0.0
 11
-1.007964339129893
 21
0.0856945399602856
 31
0.0
  0
CIRCLE
  5
564
330
55F
100
AcDbEntity
  8
Pel_Wall
100
AcDbCircle
 10
-0.8512992667791579
 20
0.2736805900069603
 30
0.0
 40
0.0339494177336776
  0
CIRCLE
  5
565
330
55F
100
AcDbEntity
  8
Pel_Wall
100
AcDbCircle
 10
-0.9361623026628578
 20
0.2259756469520644
 30
0.0
 40
0.0166728848683996
  0
CIRCLE
  5
566
330
55F
100
AcDbEntity
  8
Pel_Wall
100
AcDbCircle
 10
-0.9149446316736131
 20
0.1010833524137515
 30
0.0
 40
0.0339494177336776
  0
CIRCLE
  5
567
330
55F
100
AcDbEntity
  8
Pel_Wall
100
AcDbCircle
 10
-0.7130396714446433
 20
0.0622126117084454
 30
0.0
 40
0.0339494177336776
  0
CIRCLE
  5
568
330
55F
100
AcDbEntity
  8
Pel_Wall
100
AcDbCircle
 10
-0.7098615109792874
 20
0.1735233109461651
 30
0.0
 40
0.0339494177336776
  0
CIRCLE
  5
569
330
55F
100
AcDbEntity
  8
Pel_Wall
100
AcDbCircle
 10
-0.6090885678857987
 20
0.3054834680983722
 30
0.0
 40
0.0339494177336776
  0
CIRCLE
  5
56A
330
55F
100
AcDbEntity
  8
Pel_Wall
100
AcDbCircle
 10
-0.5914100434223358
 20
0.1364201618121106
 30
0.0
 40
0.0339494177336776
  0
CIRCLE
  5
56B
330
55F
100
AcDbEntity
  8
Pel_Wall
100
AcDbCircle
 10
-0.5047783902849617
 20
0.0516108177878314
 30
0.0
 40
0.0339494177336776
  0
CIRCLE
  5
56C
330
55F
100
AcDbEntity
  8
Pel_Wall
100
AcDbCircle
 10
-0.4422591863272701
 20
0.2398753905896527
 30
0.0
 40
0.0339494177336776
  0
CIRCLE
  5
56D
330
55F
100
AcDbEntity
  8
Pel_Wall
100
AcDbCircle
 10
-0.3368228477896693
 20
0.2984168573200341
 30
0.0
 40
0.0339494177336776
  0
CIRCLE
  5
56E
330
55F
100
AcDbEntity
  8
Pel_Wall
100
AcDbCircle
 10
-0.3403581702785843
 20
0.1470207038973958
 30
0.0
 40
0.0339494177336776
  0
CIRCLE
  5
56F
330
55F
100
AcDbEntity
  8
Pel_Wall
100
AcDbCircle
 10
-0.2961599471017209
 20
0.0516108177878314
 30
0.0
 40
0.0339494177336776
  0
CIRCLE
  5
570
330
55F
100
AcDbEntity
  8
Pel_Wall
100
AcDbCircle
 10
-0.1670986880411576
 20
0.0639789514443683
 30
0.0
 40
0.0339494177336776
  0
CIRCLE
  5
571
330
55F
100
AcDbEntity
  8
Pel_Wall
100
AcDbCircle
 10
-0.1847791245230539
 20
0.1777585508188775
 30
0.0
 40
0.0339494177336776
  0
CIRCLE
  5
572
330
55F
100
AcDbEntity
  8
Pel_Wall
100
AcDbCircle
 10
-0.089308209153721
 20
0.2984168573200341
 30
0.0
 40
0.0339494177336776
  0
CIRCLE
  5
573
330
55F
100
AcDbEntity
  8
Pel_Wall
100
AcDbCircle
 10
-0.0557178654620358
 20
0.1081499631920897
 30
0.0
 40
0.0339494177336776
  0
CIRCLE
  5
574
330
55F
100
AcDbEntity
  8
Pel_Wall
100
AcDbCircle
 10
-0.838924682058284
 20
0.04100902386699
 30
0.0
 40
0.0166728848683996
  0
CIRCLE
  5
575
330
55F
100
AcDbEntity
  8
Pel_Wall
100
AcDbCircle
 10
-0.8071010436018397
 20
0.1169841655416794
 30
0.0
 40
0.0166728848683996
  0
CIRCLE
  5
576
330
55F
100
AcDbEntity
  8
Pel_Wall
100
AcDbCircle
 10
-0.7971255242532785
 20
0.2120862824127005
 30
0.0
 40
0.0166728848683996
  0
CIRCLE
  5
577
330
55F
100
AcDbEntity
  8
Pel_Wall
100
AcDbCircle
 10
-0.7823499621421135
 20
0.3355200064540886
 30
0.0
 40
0.0166728848683996
  0
CIRCLE
  5
578
330
55F
100
AcDbEntity
  8
Pel_Wall
100
AcDbCircle
 10
-0.7120884285787117
 20
0.2725684641532169
 30
0.0
 40
0.0166728848683996
  0
CIRCLE
  5
579
330
55F
100
AcDbEntity
  8
Pel_Wall
100
AcDbCircle
 10
-0.6123333776764018
 20
0.0420822998821606
 30
0.0
 40
0.0166728848683996
  0
CIRCLE
  5
57A
330
55F
100
AcDbEntity
  8
Pel_Wall
100
AcDbCircle
 10
-0.5595883169843248
 20
0.2436440516512439
 30
0.0
 40
0.0166728848683996
  0
CIRCLE
  5
57B
330
55F
100
AcDbEntity
  8
Pel_Wall
100
AcDbCircle
 10
-0.478262515608428
 20
0.3284521438401944
 30
0.0
 40
0.0166728848683996
  0
CIRCLE
  5
57C
330
55F
100
AcDbEntity
  8
Pel_Wall
100
AcDbCircle
 10
-0.3951680969784022
 20
0.0321748215174003
 30
0.0
 40
0.0166728848683996
  0
CIRCLE
  5
57D
330
55F
100
AcDbEntity
  8
Pel_Wall
100
AcDbCircle
 10
-0.2431224616928986
 20
0.1046160318851426
 30
0.0
 40
0.0166728848683996
  0
CIRCLE
  5
57E
330
55F
100
AcDbEntity
  8
Pel_Wall
100
AcDbCircle
 10
-0.2705496708245736
 20
0.2088169750563438
 30
0.0
 40
0.0166728848683996
  0
CIRCLE
  5
57F
330
55F
100
AcDbEntity
  8
Pel_Wall
100
AcDbCircle
 10
-0.2231251316037639
 20
0.3085308450731397
 30
0.0
 40
0.0166728848683996
  0
CIRCLE
  5
580
330
55F
100
AcDbEntity
  8
Pel_Wall
100
AcDbCircle
 10
-0.1609826371552092
 20
0.2611258840538912
 30
0.0
 40
0.0166728848683996
  0
CIRCLE
  5
581
330
55F
100
AcDbEntity
  8
Pel_Wall
100
AcDbCircle
 10
-0.0309686960207429
 20
0.2348098493016542
 30
0.0
 40
0.0166728848683996
  0
CIRCLE
  5
582
330
55F
100
AcDbEntity
  8
Pel_Wall
100
AcDbCircle
 10
-0.0857747986832394
 20
0.0286421420460092
 30
0.0
 40
0.0166728848683996
  0
CIRCLE
  5
583
330
55F
100
AcDbEntity
  8
Pel_Wall
100
AcDbCircle
 10
-0.8772566348519283
 20
0.1777585508188775
 30
0.0
 40
0.0166728848683996
  0
CIRCLE
  5
584
330
55F
100
AcDbEntity
  8
Pel_Wall
100
AcDbCircle
 10
-0.424270570177173
 20
0.1172763690783594
 30
0.0
 40
0.0166728848683996
  0
CIRCLE
  5
585
330
55F
100
AcDbEntity
  8
Pel_Wall
100
AcDbCircle
 10
-0.51257832677409
 20
0.151604091968025
 30
0.0
 40
0.0166728848683996
  0
CIRCLE
  5
586
330
55F
100
AcDbEntity
  8
Pel_Wall
100
AcDbCircle
 10
-0.0837824010914052
 20
0.203125
 30
0.0
 40
0.0166728848683996
  0
ENDBLK
  5
587
330
55F
100
AcDbEntity
  8
0
100
AcDbBlockEnd
  0
BLOCK
  5
305
330
304
100
AcDbEntity
  8
0
100
AcDbBlockBegin
  2
*X4
 70
     1
 10
0.0
 20
0.0
 30
0.0
  3
*X4
  1

  0
LINE
  5
306
330
304
100
AcDbEntity
  8
0
 62
     0
100
AcDbLine
 10
0.4406854249492387
 20
0.125
 30
0.0
 11
0.2828427124746184
 21
0.2828427124746184
 31
0.0
  0
LINE
  5
307
330
304
100
AcDbEntity
  8
0
 62
     0
100
AcDbLine
 10
0.6830613898308702
 20
1.013994885016845
 30
0.0
 11
0.2828427124746184
 21
1.414213562373095
 31
0.0
  0
LINE
  5
308
330
304
100
AcDbEntity
  8
0
 62
     0
100
AcDbLine
 10
0.2828426492867653
 20
0.2828426606133689
 30
0.0
 11
0.0470007505934564
 21
0.9903683568135726
 31
0.0
  0
LINE
  5
309
330
304
100
AcDbEntity
  8
0
 62
     0
100
AcDbLine
 10
0.0027745262448633
 20
1.123047029881906
 30
0.0
 11
0.0000006036576732
 21
1.131368797644888
 31
0.0
  0
LINE
  5
30A
330
304
100
AcDbEntity
  8
0
 62
     0
100
AcDbLine
 10
0.2828425860989085
 20
1.4142134586506
 30
0.0
 11
0.2150840799441021
 21
1.617488977149577
 31
0.0
  0
LINE
  5
30B
330
304
100
AcDbEntity
  8
0
 62
     0
100
AcDbLine
 10
0.205936119654627
 20
-0.6178083589246591
 30
0.0
 11
0.0000000000379732
 21
0.0000000000303224
 31
0.0
  0
ENDBLK
  5
30C
330
304
100
AcDbEntity
  8
0
100
AcDbBlockEnd
  0
BLOCK
  5
302
330
2FF
100
AcDbEntity
  8
0
100
AcDbBlockBegin
  2
ACC31D0 Colonial
 70
     0
 10
0.0
 20
0.0
 30
0.0
  3
ACC31D0 Colonial
  1

  0
INSERT
  5
303
330
2FF
100
AcDbEntity
  8
Pel_Wall
 62
     2
100
AcDbBlockReference
  2
*X4
 10
0.0
 20
0.625
 30
0.0
1001
ACAD
1000
HATCH
1002
{
1070
    16
1000
WOOD
1040
0.2
1040
0.7853981633974483
1002
}
  0
POLYLINE
  5
30D
330
2FF
100
AcDbEntity
  8
Pel_Wall
  6
Continuous
 62
     3
100
AcDb2dPolyline
 66
     1
 10
0.0
 20
0.0
 30
0.0
 70
     1
  0
VERTEX
  5
186D
330
30D
100
AcDbEntity
  8
Pel_Wall
  6
Continuous
 62
     3
100
AcDbVertex
100
AcDb2dVertex
 10
0.75
 20
2.223808999999999
 30
0.0
  0
VERTEX
  5
186E
330
30D
100
AcDbEntity
  8
Pel_Wall
  6
Continuous
 62
     3
100
AcDbVertex
100
AcDb2dVertex
 10
0.75
 20
1.75
 30
0.0
  0
VERTEX
  5
186F
330
30D
100
AcDbEntity
  8
Pel_Wall
  6
Continuous
 62
     3
100
AcDbVertex
100
AcDb2dVertex
 10
0.6880000000000006
 20
1.75
 30
0.0
 42
-0.0714559852478829
  0
VERTEX
  5
1870
330
30D
100
AcDbEntity
  8
Pel_Wall
  6
Continuous
 62
     3
100
AcDbVertex
100
AcDb2dVertex
 10
0.6374578713513497
 20
1.398146600338595
 30
0.0
  0
VERTEX
  5
1871
330
30D
100
AcDbEntity
  8
Pel_Wall
  6
Continuous
 62
     3
100
AcDbVertex
100
AcDb2dVertex
 10
0.550542128648651
 20
1.101853399661404
 30
0.0
 42
0.0714559852478834
  0
VERTEX
  5
1872
330
30D
100
AcDbEntity
  8
Pel_Wall
  6
Continuous
 62
     3
100
AcDbVertex
100
AcDb2dVertex
 10
0.5
 20
0.75
 30
0.0
  0
VERTEX
  5
1873
330
30D
100
AcDbEntity
  8
Pel_Wall
  6
Continuous
 62
     3
100
AcDbVertex
100
AcDb2dVertex
 10
0.4369999999999994
 20
0.75
 30
0.0
  0
VERTEX
  5
1874
330
30D
100
AcDbEntity
  8
Pel_Wall
  6
Continuous
 62
     3
100
AcDbVertex
100
AcDb2dVertex
 10
0.4369999999999994
 20
0.3440000000000012
 30
0.0
  0
VERTEX
  5
1875
330
30D
100
AcDbEntity
  8
Pel_Wall
  6
Continuous
 62
     3
100
AcDbVertex
100
AcDb2dVertex
 10
0.375
 20
0.3440000000000012
 30
0.0
 42
-0.1399088654239762
  0
VERTEX
  5
1876
330
30D
100
AcDbEntity
  8
Pel_Wall
  6
Continuous
 62
     3
100
AcDbVertex
100
AcDb2dVertex
 10
0.3280000006036872
 20
0.1793214755818262
 30
0.0
 42
0.1399089885617641
  0
VERTEX
  5
1877
330
30D
100
AcDbEntity
  8
Pel_Wall
  6
Continuous
 62
     3
100
AcDbVertex
100
AcDb2dVertex
 10
0.2810000000000006
 20
0.0146429999999995
 30
0.0
  0
VERTEX
  5
1878
330
30D
100
AcDbEntity
  8
Pel_Wall
  6
Continuous
 62
     3
100
AcDbVertex
100
AcDb2dVertex
 10
0.2810000000000006
 20
0.0098130000000012
 30
0.0
  0
VERTEX
  5
1879
330
30D
100
AcDbEntity
  8
Pel_Wall
  6
Continuous
 62
     3
100
AcDbVertex
100
AcDb2dVertex
 10
0.0
 20
0.0
 30
0.0
  0
VERTEX
  5
187A
330
30D
100
AcDbEntity
  8
Pel_Wall
  6
Continuous
 62
     3
100
AcDbVertex
100
AcDb2dVertex
 10
0.0
 20
0.625
 30
0.0
 42
0.2280720461942016
  0
VERTEX
  5
187B
330
30D
100
AcDbEntity
  8
Pel_Wall
  6
Continuous
 62
     3
100
AcDbVertex
100
AcDb2dVertex
 10
0.0470000000000006
 20
0.7226779999999984
 30
0.0
  0
VERTEX
  5
187C
330
30D
100
AcDbEntity
  8
Pel_Wall
  6
Continuous
 62
     3
100
AcDbVertex
100
AcDb2dVertex
 10
0.0470007834883894
 20
1.654490721224878
 30
0.0
 42
0.2240766004830583
  0
VERTEX
  5
187D
330
30D
100
AcDbEntity
  8
Pel_Wall
  6
Continuous
 62
     3
100
AcDbVertex
100
AcDb2dVertex
 10
0.0000006110440669
 20
1.750328694738353
 30
0.0
  0
VERTEX
  5
187E
330
30D
100
AcDbEntity
  8
Pel_Wall
  6
Continuous
 62
     3
100
AcDbVertex
100
AcDb2dVertex
 10
0.0
 20
2.25
 30
0.0
  0
VERTEX
  5
187F
330
30D
100
AcDbEntity
  8
Pel_Wall
  6
Continuous
 62
     3
100
AcDbVertex
100
AcDb2dVertex
 10
0.75
 20
2.223808999999999
 30
0.0
  0
SEQEND
  5
1880
330
30D
100
AcDbEntity
  8
Pel_Wall
  6
Continuous
 62
     3
  0
ENDBLK
  5
322
330
2FF
100
AcDbEntity
  8
0
100
AcDbBlockEnd
  0
BLOCK
  5
B96
330
B95
100
AcDbEntity
  8
0
100
AcDbBlockBegin
  2
TSE10SDWDH
 70
     0
 10
0.0
 20
0.0
 30
0.0
  3
TSE10SDWDH
  1

  0
LINE
  5
B98
330
B95
100
AcDbEntity
  8
Pel_Wall
  6
Continuous
100
AcDbLine
 10
9.850529843066896
 20
27.75046209070628
 30
0.0
 11
10.72552984306689
 21
27.75046209070628
 31
0.0
  0
LINE
  5
B99
330
B95
100
AcDbEntity
  8
Pel_Wall
  6
Continuous
100
AcDbLine
 10
9.913029843066896
 20
27.62546209070628
 30
0.0
 11
9.913029843066896
 21
27.87546209070628
 31
0.0
  0
LINE
  5
B9A
330
B95
100
AcDbEntity
  8
Pel_Wall
  6
Continuous
100
AcDbLine
 10
11.22552984306689
 20
27.75046209070628
 30
0.0
 11
11.97552984306689
 21
27.75046209070628
 31
0.0
  0
LINE
  5
B9B
330
B95
100
AcDbEntity
  8
Pel_Wall
  6
Continuous
100
AcDbLine
 10
10.85052984306689
 20
27.75046209070628
 30
0.0
 11
11.10052984306689
 21
27.75046209070628
 31
0.0
  0
HATCH
  5
B9C
330
B95
100
AcDbEntity
  8
Pel_Wall
100
AcDbHatch
 10
0.0
 20
0.0
 30
0.0
210
0.0
220
0.0
230
1.0
  2
WOOD
 70
     0
 71
     1
 91
        1
 92
        7
 72
     0
 73
     1
 93
        4
 10
9.704397595407227
 20
30.99999999999999
 10
8.954397595407227
 20
30.99999999999999
 10
8.954397595407227
 20
27.49999999999999
 10
9.704397595407227
 20
27.5
 97
        1
330
BB5
 75
     0
 76
     1
 52
135.0
 41
0.25
 77
     0
 78
    12
 53
225.0
 43
9.089200986000497
 44
2.435660171779815
 45
-1.414213562373094
 46
0.0000000000000002
 79
     2
 49
1.0
 49
-9.0
 53
225.0
 43
6.79110394714422
 44
0.4911165235168085
 45
-1.414213562373094
 46
0.0000000000000002
 79
     2
 49
1.0
 49
-4.0
 53
198.43494882
 43
9.79630776718705
 44
1.728553390593265
 45
-1.414213497546535
 46
-0.0000000789848184
 79
     2
 49
2.236067999999999
 49
-20.12461175
 53
239.03624347
 43
12.27118150133996
 44
4.91053390593273
 45
-1.414213733659824
 46
-0.0000000429258262
 79
     2
 49
1.030776499999999
 49
-7.21543475
 53
239.03624347
 43
11.0337446342635
 44
3.319543648263
 45
-1.414213733659824
 46
-0.0000000429258262
 79
     2
 49
1.030776499999999
 49
-7.21543475
 53
239.03624347
 43
11.74085141545005
 44
6.855077554195737
 45
-1.414213733659824
 46
-0.0000000429258262
 79
     2
 49
1.030776499999999
 49
-7.21543475
 53
210.96375653
 43
7.674987423627404
 44
1.021446609406719
 45
-1.414213733659824
 46
0.0000000429258266
 79
     2
 49
1.030776499999999
 49
-40.20027975
 53
210.96375653
 43
-5.05293463773045
 44
-6.049621202458752
 45
-1.414213733659824
 46
0.0000000429258266
 79
     2
 49
1.030776499999999
 49
-40.20027975
 53
210.96375653
 43
-16.36664313671521
 44
-13.12068901432423
 45
-1.414213733659824
 46
0.0000000429258266
 79
     2
 49
1.030776499999999
 49
-40.20027975
 53
251.56505118
 43
5.553667080067766
 44
-1.099873734152922
 45
-1.414213497546535
 46
0.0000000789848185
 79
     2
 49
1.118033999999999
 49
-21.24264575
 53
251.56505118
 43
9.79630776718705
 44
13.04226188957803
 45
-1.414213497546535
 46
0.0000000789848185
 79
     2
 49
1.118033999999999
 49
-21.24264575
 53
251.56505118
 43
6.967880642440858
 44
5.971194077712553
 45
-1.414213497546535
 46
0.0000000789848185
 79
     2
 49
1.118033999999999
 49
-21.24264575
 47
0.0173535917977504
 98
        1
 10
9.348857686865029
 20
29.36853707203206
  0
POLYLINE
  5
B9D
330
B95
100
AcDbEntity
  8
Pel_Wall
  6
Continuous
100
AcDb2dPolyline
 66
     1
 10
0.0
 20
0.0
 30
0.0
  0
VERTEX
  5
2A72
330
B9D
100
AcDbEntity
  8
Pel_Wall
  6
Continuous
100
AcDbVertex
100
AcDb2dVertex
 10
9.704397595407227
 20
31.49999999999999
 30
0.0
  0
VERTEX
  5
2A73
330
B9D
100
AcDbEntity
  8
Pel_Wall
  6
Continuous
100
AcDbVertex
100
AcDb2dVertex
 10
9.704397595407227
 20
31.08023744596886
 30
0.0
  0
VERTEX
  5
2A74
330
B9D
100
AcDbEntity
  8
Pel_Wall
  6
Continuous
100
AcDbVertex
100
AcDb2dVertex
 10
9.079397595407227
 20
31.08023744596886
 30
0.0
  0
VERTEX
  5
2A75
330
B9D
100
AcDbEntity
  8
Pel_Wall
  6
Continuous
100
AcDbVertex
100
AcDb2dVertex
 10
9.10483775019699
 20
31.49999999999999
 30
0.0
  0
SEQEND
  5
2A76
330
B9D
100
AcDbEntity
  8
Pel_Wall
  6
Continuous
  0
POLYLINE
  5
BA3
330
B95
100
AcDbEntity
  8
Pel_Wall
  6
Continuous
100
AcDb2dPolyline
 66
     1
 10
0.0
 20
0.0
 30
0.0
  0
VERTEX
  5
2A78
330
BA3
100
AcDbEntity
  8
Pel_Wall
  6
Continuous
100
AcDbVertex
100
AcDb2dVertex
 10
9.723397595407226
 20
31.49999999999999
 30
0.0
  0
VERTEX
  5
2A79
330
BA3
100
AcDbEntity
  8
Pel_Wall
  6
Continuous
100
AcDbVertex
100
AcDb2dVertex
 10
9.723397595407226
 20
31.07623744596895
 30
0.0
 42
-0.4142135623730951
  0
VERTEX
  5
2A7A
330
BA3
100
AcDbEntity
  8
Pel_Wall
  6
Continuous
100
AcDbVertex
100
AcDb2dVertex
 10
9.708397595406898
 20
31.06123744596863
 30
0.0
  0
VERTEX
  5
2A7B
330
BA3
100
AcDbEntity
  8
Pel_Wall
  6
Continuous
100
AcDbVertex
100
AcDb2dVertex
 10
8.849232944561647
 20
31.06123744596863
 30
0.0
 42
0.4142135623730951
  0
VERTEX
  5
2A7C
330
BA3
100
AcDbEntity
  8
Pel_Wall
  6
Continuous
100
AcDbVertex
100
AcDb2dVertex
 10
8.834232944561774
 20
31.04623744596875
 30
0.0
  0
VERTEX
  5
2A7D
330
BA3
100
AcDbEntity
  8
Pel_Wall
  6
Continuous
100
AcDbVertex
100
AcDb2dVertex
 10
8.834232944561646
 20
30.83973744596853
 30
0.0
 42
1.0
  0
VERTEX
  5
2A7E
330
BA3
100
AcDbEntity
  8
Pel_Wall
  6
Continuous
100
AcDbVertex
100
AcDb2dVertex
 10
8.853232944562043
 20
30.83973744596853
 30
0.0
  0
VERTEX
  5
2A7F
330
BA3
100
AcDbEntity
  8
Pel_Wall
  6
Continuous
100
AcDbVertex
100
AcDb2dVertex
 10
8.853232944561645
 20
30.93623744596853
 30
0.0
  0
VERTEX
  5
2A80
330
BA3
100
AcDbEntity
  8
Pel_Wall
  6
Continuous
100
AcDbVertex
100
AcDb2dVertex
 10
8.872232944561742
 20
30.93623744596853
 30
0.0
  0
VERTEX
  5
2A81
330
BA3
100
AcDbEntity
  8
Pel_Wall
  6
Continuous
100
AcDbVertex
100
AcDb2dVertex
 10
8.872232944562041
 20
30.83973744596853
 30
0.0
 42
-1.0
  0
VERTEX
  5
2A82
330
BA3
100
AcDbEntity
  8
Pel_Wall
  6
Continuous
100
AcDbVertex
100
AcDb2dVertex
 10
8.815232944561641
 20
30.83973744596853
 30
0.0
  0
VERTEX
  5
2A83
330
BA3
100
AcDbEntity
  8
Pel_Wall
  6
Continuous
100
AcDbVertex
100
AcDb2dVertex
 10
8.815232944561421
 20
31.06523744596854
 30
0.0
 42
-0.4142135623730951
  0
VERTEX
  5
2A84
330
BA3
100
AcDbEntity
  8
Pel_Wall
  6
Continuous
100
AcDbVertex
100
AcDb2dVertex
 10
8.830232944561741
 20
31.08023744596885
 30
0.0
  0
VERTEX
  5
2A85
330
BA3
100
AcDbEntity
  8
Pel_Wall
  6
Continuous
100
AcDbVertex
100
AcDb2dVertex
 10
9.6893975954069
 20
31.08023744596886
 30
0.0
 42
0.4142135623730951
  0
VERTEX
  5
2A86
330
BA3
100
AcDbEntity
  8
Pel_Wall
  6
Continuous
100
AcDbVertex
100
AcDb2dVertex
 10
9.704397595407227
 20
31.09523744596919
 30
0.0
  0
VERTEX
  5
2A87
330
BA3
100
AcDbEntity
  8
Pel_Wall
  6
Continuous
100
AcDbVertex
100
AcDb2dVertex
 10
9.704397595407227
 20
31.49999999999999
 30
0.0
 42
-1.0
  0
SEQEND
  5
2A88
330
BA3
100
AcDbEntity
  8
Pel_Wall
  6
Continuous
  0
POLYLINE
  5
BB5
102
{ACAD_REACTORS
330
B9C
102
}
330
B95
100
AcDbEntity
  8
Pel_Wall
  6
Continuous
100
AcDb2dPolyline
 66
     1
 10
0.0
 20
0.0
 30
0.0
  0
VERTEX
  5
2A8A
330
BB5
100
AcDbEntity
  8
Pel_Wall
  6
Continuous
100
AcDbVertex
100
AcDb2dVertex
 10
9.704397595407227
 20
27.5
 30
0.0
  0
VERTEX
  5
2A8B
330
BB5
100
AcDbEntity
  8
Pel_Wall
  6
Continuous
100
AcDbVertex
100
AcDb2dVertex
 10
8.954397595407227
 20
27.5
 30
0.0
  0
VERTEX
  5
2A8C
330
BB5
100
AcDbEntity
  8
Pel_Wall
  6
Continuous
100
AcDbVertex
100
AcDb2dVertex
 10
8.954397595407227
 20
31.0
 30
0.0
  0
VERTEX
  5
2A8D
330
BB5
100
AcDbEntity
  8
Pel_Wall
  6
Continuous
100
AcDbVertex
100
AcDb2dVertex
 10
9.704397595407227
 20
31.0
 30
0.0
  0
VERTEX
  5
2A8E
330
BB5
100
AcDbEntity
  8
Pel_Wall
  6
Continuous
100
AcDbVertex
100
AcDb2dVertex
 10
9.704397595407227
 20
27.5
 30
0.0
  0
SEQEND
  5
2A8F
330
BB5
100
AcDbEntity
  8
Pel_Wall
  6
Continuous
  0
LINE
  5
BBC
330
B95
100
AcDbEntity
  8
Pel_Wall
  6
Continuous
100
AcDbLine
 10
9.704397595407227
 20
31.39906451404005
 30
0.0
 11
9.559852722748647
 21
31.48579143762809
 31
0.0
  0
LINE
  5
BBD
330
B95
100
AcDbEntity
  8
Pel_Wall
  6
Continuous
100
AcDbLine
 10
9.328977618809473
 20
31.08023744596885
 30
0.0
 11
9.242310021728583
 21
31.13223800421312
 31
0.0
  0
LINE
  5
BBE
330
B95
100
AcDbEntity
  8
Pel_Wall
  6
Continuous
100
AcDbLine
 10
9.242310202769614
 20
31.13223734985725
 30
0.0
 11
9.091678310335842
 21
31.28286924229102
 31
0.0
  0
LINE
  5
BBF
330
B95
100
AcDbEntity
  8
Pel_Wall
  6
Continuous
100
AcDbLine
 10
9.559852914521133
 20
31.48579074045053
 30
0.0
 11
9.545643654971666
 21
31.5
 31
0.0
  0
POLYLINE
  5
BC0
330
B95
100
AcDbEntity
  8
Pel_Wall
  6
Continuous
100
AcDb2dPolyline
 66
     1
 10
0.0
 20
0.0
 30
0.0
  0
VERTEX
  5
2A95
330
BC0
100
AcDbEntity
  8
Pel_Wall
  6
Continuous
100
AcDbVertex
100
AcDb2dVertex
 10
12.55573270317238
 20
31.49999999999999
 30
0.0
  0
VERTEX
  5
2A96
330
BC0
100
AcDbEntity
  8
Pel_Wall
  6
Continuous
100
AcDbVertex
100
AcDb2dVertex
 10
12.55573270317238
 20
27.5
 30
0.0
  0
VERTEX
  5
2A97
330
BC0
100
AcDbEntity
  8
Pel_Wall
  6
Continuous
100
AcDbVertex
100
AcDb2dVertex
 10
14.05573270317238
 20
27.5
 30
0.0
  0
VERTEX
  5
2A98
330
BC0
100
AcDbEntity
  8
Pel_Wall
  6
Continuous
100
AcDbVertex
100
AcDb2dVertex
 10
14.05573270317238
 20
31.49999999999999
 30
0.0
  0
SEQEND
  5
2A99
330
BC0
100
AcDbEntity
  8
Pel_Wall
  6
Continuous
  0
LINE
  5
BC6
330
B95
100
AcDbEntity
  8
Pel_Wall
  6
Continuous
100
AcDbLine
 10
12.55573270317238
 20
27.5
 30
0.0
 11
13.38331891006893
 21
31.49999999999999
 31
0.0
  0
POLYLINE
  5
BC7
330
B95
100
AcDbEntity
  8
Pel_Wall
  6
Continuous
100
AcDb2dPolyline
 66
     1
 10
0.0
 20
0.0
 30
0.0
  0
VERTEX
  5
2A9C
330
BC7
100
AcDbEntity
  8
Pel_Wall
  6
Continuous
100
AcDbVertex
100
AcDb2dVertex
 10
9.786897595407223
 20
27.5
 30
0.0
  0
VERTEX
  5
2A9D
330
BC7
100
AcDbEntity
  8
Pel_Wall
  6
Continuous
100
AcDbVertex
100
AcDb2dVertex
 10
9.786897595407223
 20
28.20118583796122
 30
0.0
  0
VERTEX
  5
2A9E
330
BC7
100
AcDbEntity
  8
Pel_Wall
  6
Continuous
100
AcDbVertex
100
AcDb2dVertex
 10
9.869397595407219
 20
28.39657330644288
 30
0.0
  0
VERTEX
  5
2A9F
330
BC7
100
AcDbEntity
  8
Pel_Wall
  6
Continuous
100
AcDbVertex
100
AcDb2dVertex
 10
9.869397595407219
 20
31.49999999999999
 30
0.0
  0
SEQEND
  5
2AA0
330
BC7
100
AcDbEntity
  8
Pel_Wall
  6
Continuous
  0
POLYLINE
  5
BCD
330
B95
100
AcDbEntity
  8
Pel_Wall
  6
Continuous
100
AcDb2dPolyline
 66
     1
 10
0.0
 20
0.0
 30
0.0
  0
VERTEX
  5
2AA2
330
BCD
100
AcDbEntity
  8
Pel_Wall
  6
Continuous
100
AcDbVertex
100
AcDb2dVertex
 10
9.766897595407227
 20
27.5
 30
0.0
  0
VERTEX
  5
2AA3
330
BCD
100
AcDbEntity
  8
Pel_Wall
  6
Continuous
100
AcDbVertex
100
AcDb2dVertex
 10
9.766897595407227
 20
28.20590719751121
 30
0.0
  0
VERTEX
  5
2AA4
330
BCD
100
AcDbEntity
  8
Pel_Wall
  6
Continuous
100
AcDbVertex
100
AcDb2dVertex
 10
9.849397595407223
 20
28.40129466599287
 30
0.0
  0
VERTEX
  5
2AA5
330
BCD
100
AcDbEntity
  8
Pel_Wall
  6
Continuous
100
AcDbVertex
100
AcDb2dVertex
 10
9.849397595407223
 20
31.49999999999999
 30
0.0
  0
SEQEND
  5
2AA6
330
BCD
100
AcDbEntity
  8
Pel_Wall
  6
Continuous
  0
POLYLINE
  5
BD3
330
B95
100
AcDbEntity
  8
Pel_Wall
  6
Continuous
100
AcDb2dPolyline
 66
     1
 10
0.0
 20
0.0
 30
0.0
  0
VERTEX
  5
2AA8
330
BD3
100
AcDbEntity
  8
Pel_Wall
  6
Continuous
100
AcDbVertex
100
AcDb2dVertex
 10
10.05573270317238
 20
31.49999999999999
 30
0.0
  0
VERTEX
  5
2AA9
330
BD3
100
AcDbEntity
  8
Pel_Wall
  6
Continuous
100
AcDbVertex
100
AcDb2dVertex
 10
10.05573270317238
 20
27.5
 30
0.0
  0
VERTEX
  5
2AAA
330
BD3
100
AcDbEntity
  8
Pel_Wall
  6
Continuous
100
AcDbVertex
100
AcDb2dVertex
 10
10.55573270317238
 20
27.5
 30
0.0
  0
VERTEX
  5
2AAB
330
BD3
100
AcDbEntity
  8
Pel_Wall
  6
Continuous
100
AcDbVertex
100
AcDb2dVertex
 10
10.55573270317238
 20
31.37491666666666
 30
0.0
  0
SEQEND
  5
2AAC
330
BD3
100
AcDbEntity
  8
Pel_Wall
  6
Continuous
  0
POLYLINE
  5
BD9
330
B95
100
AcDbEntity
  8
Pel_Wall
  6
Continuous
100
AcDb2dPolyline
 66
     1
 10
0.0
 20
0.0
 30
0.0
  0
VERTEX
  5
2AAE
330
BD9
100
AcDbEntity
  8
Pel_Wall
  6
Continuous
100
AcDbVertex
100
AcDb2dVertex
 10
10.55573270317238
 20
31.49999999999999
 30
0.0
  0
VERTEX
  5
2AAF
330
BD9
100
AcDbEntity
  8
Pel_Wall
  6
Continuous
100
AcDbVertex
100
AcDb2dVertex
 10
10.55573270317238
 20
27.5
 30
0.0
  0
VERTEX
  5
2AB0
330
BD9
100
AcDbEntity
  8
Pel_Wall
  6
Continuous
100
AcDbVertex
100
AcDb2dVertex
 10
12.05573270317238
 20
27.5
 30
0.0
  0
VERTEX
  5
2AB1
330
BD9
100
AcDbEntity
  8
Pel_Wall
  6
Continuous
100
AcDbVertex
100
AcDb2dVertex
 10
12.05573270317238
 20
31.49999999999999
 30
0.0
  0
SEQEND
  5
2AB2
330
BD9
100
AcDbEntity
  8
Pel_Wall
  6
Continuous
  0
POLYLINE
  5
BDF
330
B95
100
AcDbEntity
  8
Pel_Wall
  6
Continuous
100
AcDb2dPolyline
 66
     1
 10
0.0
 20
0.0
 30
0.0
  0
VERTEX
  5
2AB4
330
BDF
100
AcDbEntity
  8
Pel_Wall
  6
Continuous
100
AcDbVertex
100
AcDb2dVertex
 10
12.05573270317238
 20
31.49999999999999
 30
0.0
  0
VERTEX
  5
2AB5
330
BDF
100
AcDbEntity
  8
Pel_Wall
  6
Continuous
100
AcDbVertex
100
AcDb2dVertex
 10
12.05573270317238
 20
27.5
 30
0.0
  0
VERTEX
  5
2AB6
330
BDF
100
AcDbEntity
  8
Pel_Wall
  6
Continuous
100
AcDbVertex
100
AcDb2dVertex
 10
12.55573270317238
 20
27.5
 30
0.0
  0
VERTEX
  5
2AB7
330
BDF
100
AcDbEntity
  8
Pel_Wall
  6
Continuous
100
AcDbVertex
100
AcDb2dVertex
 10
12.55573270317238
 20
31.49999999999999
 30
0.0
  0
SEQEND
  5
2AB8
330
BDF
100
AcDbEntity
  8
Pel_Wall
  6
Continuous
  0
LINE
  5
BE5
330
B95
100
AcDbEntity
  8
Pel_Wall
  6
Continuous
100
AcDbLine
 10
12.18073270317238
 20
27.5
 30
0.0
 11
12.18073270317238
 21
31.49999999999999
 31
0.0
  0
LINE
  5
BE6
330
B95
100
AcDbEntity
  8
Pel_Wall
  6
Continuous
100
AcDbLine
 10
12.30573270317238
 20
27.5
 30
0.0
 11
12.30573270317238
 21
31.49999999999999
 31
0.0
  0
LINE
  5
BE7
330
B95
100
AcDbEntity
  8
Pel_Wall
  6
Continuous
100
AcDbLine
 10
12.43073270317238
 20
27.5
 30
0.0
 11
12.43073270317238
 21
31.49999999999999
 31
0.0
  0
LINE
  5
BE8
330
B95
100
AcDbEntity
  8
Pel_Wall
  6
Continuous
100
AcDbLine
 10
12.55573270317238
 20
30.52691193458119
 30
0.0
 11
12.05573270317238
 21
31.02691193458119
 31
0.0
  0
LINE
  5
BE9
330
B95
100
AcDbEntity
  8
Pel_Wall
  6
Continuous
100
AcDbLine
 10
10.55573270317238
 20
30.52691193458119
 30
0.0
 11
10.05573270317238
 21
31.02691193458119
 31
0.0
  0
LINE
  5
BEA
330
B95
100
AcDbEntity
  8
Pel_Wall
  6
Continuous
100
AcDbLine
 10
10.43073270317238
 20
27.5
 30
0.0
 11
10.43073270317238
 21
31.49999999999999
 31
0.0
  0
LINE
  5
BEB
330
B95
100
AcDbEntity
  8
Pel_Wall
  6
Continuous
100
AcDbLine
 10
10.30573270317238
 20
27.5
 30
0.0
 11
10.30573270317238
 21
31.49999999999999
 31
0.0
  0
LINE
  5
BEC
330
B95
100
AcDbEntity
  8
Pel_Wall
  6
Continuous
100
AcDbLine
 10
10.18073270317238
 20
27.5
 30
0.0
 11
10.18073270317238
 21
31.49999999999999
 31
0.0
  0
LINE
  5
BED
330
B95
100
AcDbEntity
  8
Pel_Wall
  6
Continuous
100
AcDbLine
 10
12.05573270317238
 20
27.5
 30
0.0
 11
11.22814649627582
 21
31.49999999999999
 31
0.0
  0
LINE
  5
BEE
330
B95
100
AcDbEntity
  8
Pel_Wall
  6
Continuous
100
AcDbLine
 10
10.55573270317238
 20
27.5
 30
0.0
 11
11.38331891006893
 21
31.49999999999999
 31
0.0
  0
LINE
  5
BFB
330
B95
100
AcDbEntity
  8
Pel_Wall
  6
Continuous
100
AcDbLine
 10
10.55573270317238
 20
29.81980515339464
 30
0.0
 11
10.05573270317238
 21
30.31980515339463
 31
0.0
  0
LINE
  5
BFC
330
B95
100
AcDbEntity
  8
Pel_Wall
  6
Continuous
100
AcDbLine
 10
10.55573270317238
 20
29.36269837220809
 30
0.0
 11
10.05573270317238
 21
29.86269837220809
 31
0.0
  0
LINE
  5
BFD
330
B95
100
AcDbEntity
  8
Pel_Wall
  6
Continuous
100
AcDbLine
 10
12.55573270317238
 20
29.81980515339464
 30
0.0
 11
12.05573270317238
 21
30.31980515339463
 31
0.0
  0
LINE
  5
BFE
330
B95
100
AcDbEntity
  8
Pel_Wall
  6
Continuous
100
AcDbLine
 10
12.55573270317238
 20
29.36269837220809
 30
0.0
 11
12.05573270317238
 21
29.86269837220809
 31
0.0
  0
LINE
  5
BFF
330
B95
100
AcDbEntity
  8
Pel_Wall
  6
Continuous
100
AcDbLine
 10
10.55573270317238
 20
31.23401871576773
 30
0.0
 11
10.30119043148697
 21
31.48856098745314
 31
0.0
  0
LINE
  5
C00
330
B95
100
AcDbEntity
  8
Pel_Wall
  6
Continuous
100
AcDbLine
 10
12.55573270317238
 20
31.23401871576773
 30
0.0
 11
12.28975141894012
 21
31.49999999999999
 31
0.0
  0
HATCH
  5
C01
330
B95
100
AcDbEntity
  8
Pel_Wall
100
AcDbHatch
 10
0.0
 20
0.0
 30
0.0
210
0.0
220
0.0
230
1.0
  2
GYP
 70
     0
 71
     0
 91
        1
 92
        7
 72
     0
 73
     1
 93
        6
 10
14.05573270317238
 20
27.5
 10
14.55573270317238
 20
27.5
 10
14.55573270317238
 20
31.49999999999999
 10
14.18073270317238
 20
31.49999999999999
 10
14.11823270317238
 20
31.25
 10
14.05573270317238
 20
31.49999999999999
 97
        0
 75
     0
 76
     1
 52
0.0
 41
1.0
 77
     0
 78
     3
 53
0.0
 43
8.680732703172379
 44
1.374999999999992
 45
0.18
 46
0.5
 79
     2
 49
0.0
 49
-0.3
 53
30.0
 43
8.71073270317238
 44
1.494999999999993
 45
-0.094115427318801
 46
0.5230127018922194
 79
     2
 49
0.0
 49
-0.3
 53
60.0
 43
8.740732703172382
 44
1.554999999999992
 45
-0.3430127018922193
 46
0.405884572681199
 79
     2
 49
0.0
 49
-0.3
 47
0.0173535917977504
 98
        1
 10
14.24353952250062
 20
30.13209514416339
  0
POLYLINE
  5
C02
330
B95
100
AcDbEntity
  8
Pel_Wall
  6
Continuous
100
AcDb2dPolyline
 66
     1
 10
0.0
 20
0.0
 30
0.0
  0
VERTEX
  5
2ACB
330
C02
100
AcDbEntity
  8
Pel_Wall
  6
Continuous
100
AcDbVertex
100
AcDb2dVertex
 10
14.05573270317238
 20
31.49999999999999
 30
0.0
  0
VERTEX
  5
2ACC
330
C02
100
AcDbEntity
  8
Pel_Wall
  6
Continuous
100
AcDbVertex
100
AcDb2dVertex
 10
14.05573270317238
 20
27.5
 30
0.0
  0
VERTEX
  5
2ACD
330
C02
100
AcDbEntity
  8
Pel_Wall
  6
Continuous
100
AcDbVertex
100
AcDb2dVertex
 10
14.55573270317238
 20
27.5
 30
0.0
  0
VERTEX
  5
2ACE
330
C02
100
AcDbEntity
  8
Pel_Wall
  6
Continuous
100
AcDbVertex
100
AcDb2dVertex
 10
14.55573270317238
 20
31.49999999999999
 30
0.0
  0
SEQEND
  5
2ACF
330
C02
100
AcDbEntity
  8
Pel_Wall
  6
Continuous
  0
LINE
  5
C08
330
B95
100
AcDbEntity
  8
Pel_Wall
  6
Continuous
100
AcDbLine
 10
14.05573270317238
 20
27.5
 30
0.0
 11
13.22814649627582
 21
31.49999999999999
 31
0.0
  0
INSERT
  5
196A
330
B95
100
AcDbEntity
  8
0
100
AcDbBlockReference
  2
FOAMB
 10
12.06806679859768
 20
27.0394291740547
 30
0.0
  0
INSERT
  5
19DC
330
B95
100
AcDbEntity
  8
Pel_Wall
100
AcDbBlockReference
  2
Rodseal
 10
8.959185353992021
 20
26.98800000000118
 30
0.0
 41
0.8389622414152064
 42
0.5119999999988103
 43
0.8389622414152064
  0
POLYLINE
  5
2AD3
330
B95
100
AcDbEntity
  8
Pel_Wall
  6
Continuous
100
AcDb2dPolyline
 66
     1
 10
0.0
 20
0.0
 30
0.0
  0
VERTEX
  5
2AD4
330
2AD3
100
AcDbEntity
  8
Pel_Wall
  6
Continuous
100
AcDbVertex
100
AcDb2dVertex
 10
9.869397595407219
 20
27.01801839146245
 30
0.0
  0
VERTEX
  5
2AD5
330
2AD3
100
AcDbEntity
  8
Pel_Wall
  6
Continuous
100
AcDbVertex
100
AcDb2dVertex
 10
9.869397595407219
 20
28.1843750299995
 30
0.0
  0
VERTEX
  5
2AD6
330
2AD3
100
AcDbEntity
  8
Pel_Wall
  6
Continuous
100
AcDbVertex
100
AcDb2dVertex
 10
9.956823059019525
 20
28.30937502999951
 30
0.0
  0
VERTEX
  5
2AD7
330
2AD3
100
AcDbEntity
  8
Pel_Wall
  6
Continuous
100
AcDbVertex
100
AcDb2dVertex
 10
9.956823059019525
 20
30.01801839146246
 30
0.0
  0
SEQEND
  5
2AD8
330
2AD3
100
AcDbEntity
  8
Pel_Wall
  6
Continuous
  0
POLYLINE
  5
2AD9
330
B95
100
AcDbEntity
  8
Pel_Wall
  6
Continuous
100
AcDb2dPolyline
 66
     1
 10
0.0
 20
0.0
 30
0.0
  0
VERTEX
  5
2ADA
330
2AD9
100
AcDbEntity
  8
Pel_Wall
  6
Continuous
100
AcDbVertex
100
AcDb2dVertex
 10
9.849397595407223
 20
27.01801839146245
 30
0.0
  0
VERTEX
  5
2ADB
330
2AD9
100
AcDbEntity
  8
Pel_Wall
  6
Continuous
100
AcDbVertex
100
AcDb2dVertex
 10
9.849397595407223
 20
28.1890963895495
 30
0.0
  0
VERTEX
  5
2ADC
330
2AD9
100
AcDbEntity
  8
Pel_Wall
  6
Continuous
100
AcDbVertex
100
AcDb2dVertex
 10
9.936823059019529
 20
28.3140963895495
 30
0.0
  0
VERTEX
  5
2ADD
330
2AD9
100
AcDbEntity
  8
Pel_Wall
  6
Continuous
100
AcDbVertex
100
AcDb2dVertex
 10
9.936823059019529
 20
30.01801839146246
 30
0.0
  0
SEQEND
  5
2ADE
330
2AD9
100
AcDbEntity
  8
Pel_Wall
  6
Continuous
  0
ENDBLK
  5
B97
330
B95
100
AcDbEntity
  8
0
100
AcDbBlockEnd
  0
BLOCK
  5
C19
330
C18
100
AcDbEntity
  8
0
100
AcDbBlockBegin
  2
TSE10SDWDS
 70
     0
 10
0.0
 20
0.0
 30
0.0
  3
TSE10SDWDS
  1

  0
HATCH
  5
C1B
330
C18
100
AcDbEntity
  8
Pel_Wall
100
AcDbHatch
 10
0.0
 20
0.0
 30
0.0
210
0.0
220
0.0
230
1.0
  2
PLY
 70
     0
 71
     0
 91
        1
 92
        7
 72
     0
 73
     1
 93
        4
 10
2.137457603986344
 20
-0.1479748679165453
 10
2.137457603986344
 20
-0.8979748679165435
 10
7.387457603986344
 20
-0.8979748679165435
 10
7.387457603986344
 20
-0.1479748679165453
 97
        0
 75
     0
 76
     1
 52
0.0
 41
1.0
 77
     0
 78
     2
 53
0.0
 43
-4.963328710863098
 44
-2.460272788046067
 45
0.0
 46
0.125
 79
     0
 53
45.0
 43
-4.963328710863098
 44
-2.585272788046067
 45
-0.3535533905932737
 46
0.3535533905932738
 79
     0
 47
0.0200949616831401
 98
        1
 10
3.510800818446281
 20
-0.3632022518315807
  0
POLYLINE
  5
C1C
330
C18
100
AcDbEntity
  8
Pel_Wall
  6
Continuous
100
AcDb2dPolyline
 66
     1
 10
0.0
 20
0.0
 30
0.0
  0
VERTEX
  5
29C8
330
C1C
100
AcDbEntity
  8
Pel_Wall
  6
Continuous
100
AcDbVertex
100
AcDb2dVertex
 10
7.387457603986344
 20
-0.1479748679165453
 30
0.0
  0
VERTEX
  5
29C9
330
C1C
100
AcDbEntity
  8
Pel_Wall
  6
Continuous
100
AcDbVertex
100
AcDb2dVertex
 10
2.137457603986344
 20
-0.1479748679165453
 30
0.0
  0
VERTEX
  5
29CA
330
C1C
100
AcDbEntity
  8
Pel_Wall
  6
Continuous
100
AcDbVertex
100
AcDb2dVertex
 10
2.137457603986344
 20
-0.8979748679165435
 30
0.0
  0
VERTEX
  5
29CB
330
C1C
100
AcDbEntity
  8
Pel_Wall
  6
Continuous
100
AcDbVertex
100
AcDb2dVertex
 10
7.387457603986344
 20
-0.8979748679165435
 30
0.0
  0
SEQEND
  5
29CC
330
C1C
100
AcDbEntity
  8
Pel_Wall
  6
Continuous
  0
LINE
  5
C22
330
C18
100
AcDbEntity
  8
Pel_Wall
  6
Continuous
100
AcDbLine
 10
4.492639037262453
 20
-0.0227727880460691
 30
0.0
 11
7.387457603986344
 21
-0.0227727880460691
 31
0.0
  0
LINE
  5
C23
330
C18
100
AcDbEntity
  8
Pel_Wall
  6
Continuous
100
AcDbLine
 10
7.387457603986344
 20
0.0397272119539309
 30
0.0
 11
4.492639037262453
 21
0.0397272119539309
 31
0.0
  0
POLYLINE
  5
C24
330
C18
100
AcDbEntity
  8
Pel_Wall
  6
Continuous
100
AcDb2dPolyline
 66
     1
 10
0.0
 20
0.0
 30
0.0
  0
VERTEX
  5
29D0
330
C24
100
AcDbEntity
  8
Pel_Wall
  6
Continuous
100
AcDbVertex
100
AcDb2dVertex
 10
7.387457603986344
 20
-4.772772788046067
 30
0.0
  0
VERTEX
  5
29D1
330
C24
100
AcDbEntity
  8
Pel_Wall
  6
Continuous
100
AcDbVertex
100
AcDb2dVertex
 10
7.387457603986344
 20
-1.369590487901559
 30
0.0
  0
VERTEX
  5
29D2
330
C24
100
AcDbEntity
  8
Pel_Wall
  6
Continuous
100
AcDbVertex
100
AcDb2dVertex
 10
7.137457603986344
 20
-1.269590487901565
 30
0.0
  0
VERTEX
  5
29D3
330
C24
100
AcDbEntity
  8
Pel_Wall
  6
Continuous
100
AcDbVertex
100
AcDb2dVertex
 10
7.637457603986346
 20
-1.169590487901556
 30
0.0
  0
VERTEX
  5
29D4
330
C24
100
AcDbEntity
  8
Pel_Wall
  6
Continuous
100
AcDbVertex
100
AcDb2dVertex
 10
7.387457603986344
 20
-1.069590487901562
 30
0.0
  0
VERTEX
  5
29D5
330
C24
100
AcDbEntity
  8
Pel_Wall
  6
Continuous
100
AcDbVertex
100
AcDb2dVertex
 10
7.387457603986344
 20
0.9886020636693473
 30
0.0
  0
SEQEND
  5
29D6
330
C24
100
AcDbEntity
  8
Pel_Wall
  6
Continuous
  0
LINE
  5
C2C
330
C18
100
AcDbEntity
  8
Pel_Wall
  6
Continuous
100
AcDbLine
 10
6.388393822432473
 20
0.0397272119539309
 30
0.0
 11
6.388393822432473
 21
0.3522272119539309
 31
0.0
  0
LINE
  5
C2D
330
C18
100
AcDbEntity
  8
Pel_Wall
  6
Continuous
100
AcDbLine
 10
6.388393822432473
 20
0.0397272119539309
 30
0.0
 11
6.388393822432473
 21
0.3522272119539309
 31
0.0
  0
LINE
  5
C2E
330
C18
100
AcDbEntity
  8
Pel_Wall
  6
Continuous
100
AcDbLine
 10
6.200893822432473
 20
0.0397272119539309
 30
0.0
 11
6.200893822432473
 21
0.3522272119539309
 31
0.0
  0
LINE
  5
C2F
330
C18
100
AcDbEntity
  8
Pel_Wall
  6
Continuous
100
AcDbLine
 10
6.200893822432473
 20
0.0397272119539309
 30
0.0
 11
6.200893822432473
 21
0.3522272119539309
 31
0.0
  0
LINE
  5
C30
330
C18
100
AcDbEntity
  8
Pel_Wall
  6
Continuous
100
AcDbLine
 10
6.325893822432473
 20
0.0397272119539309
 30
0.0
 11
6.325893822432473
 21
0.3522272119539309
 31
0.0
  0
LINE
  5
C31
330
C18
100
AcDbEntity
  8
Pel_Wall
  6
Continuous
100
AcDbLine
 10
6.325893822432473
 20
0.0397272119539309
 30
0.0
 11
6.325893822432473
 21
0.3522272119539309
 31
0.0
  0
LINE
  5
C32
330
C18
100
AcDbEntity
  8
Pel_Wall
  6
Continuous
100
AcDbLine
 10
6.263393822432473
 20
0.0397272119539309
 30
0.0
 11
6.263393822432473
 21
0.3522272119539309
 31
0.0
  0
LINE
  5
C33
330
C18
100
AcDbEntity
  8
Pel_Wall
  6
Continuous
100
AcDbLine
 10
6.263393822432473
 20
0.0397272119539309
 30
0.0
 11
6.263393822432473
 21
0.3522272119539309
 31
0.0
  0
LINE
  5
C34
330
C18
100
AcDbEntity
  8
Pel_Wall
  6
Continuous
100
AcDbLine
 10
6.638393822432473
 20
0.0397272119539309
 30
0.0
 11
6.638393822432473
 21
0.3522272119539309
 31
0.0
  0
LINE
  5
C35
330
C18
100
AcDbEntity
  8
Pel_Wall
  6
Continuous
100
AcDbLine
 10
6.638393822432473
 20
0.0397272119539309
 30
0.0
 11
6.638393822432473
 21
0.3522272119539309
 31
0.0
  0
LINE
  5
C36
330
C18
100
AcDbEntity
  8
Pel_Wall
  6
Continuous
100
AcDbLine
 10
6.575893822432473
 20
0.0397272119539309
 30
0.0
 11
6.575893822432473
 21
0.3522272119539309
 31
0.0
  0
LINE
  5
C37
330
C18
100
AcDbEntity
  8
Pel_Wall
  6
Continuous
100
AcDbLine
 10
6.575893822432473
 20
0.0397272119539309
 30
0.0
 11
6.575893822432473
 21
0.3522272119539309
 31
0.0
  0
LINE
  5
C38
330
C18
100
AcDbEntity
  8
Pel_Wall
  6
Continuous
100
AcDbLine
 10
6.513393822432473
 20
0.0397272119539309
 30
0.0
 11
6.513393822432473
 21
0.3522272119539309
 31
0.0
  0
LINE
  5
C39
330
C18
100
AcDbEntity
  8
Pel_Wall
  6
Continuous
100
AcDbLine
 10
6.513393822432473
 20
0.0397272119539309
 30
0.0
 11
6.513393822432473
 21
0.3522272119539309
 31
0.0
  0
LINE
  5
C3A
330
C18
100
AcDbEntity
  8
Pel_Wall
  6
Continuous
100
AcDbLine
 10
6.450893822432473
 20
0.0397272119539309
 30
0.0
 11
6.450893822432473
 21
0.3522272119539309
 31
0.0
  0
LINE
  5
C3B
330
C18
100
AcDbEntity
  8
Pel_Wall
  6
Continuous
100
AcDbLine
 10
6.450893822432473
 20
0.0397272119539309
 30
0.0
 11
6.450893822432473
 21
0.3522272119539309
 31
0.0
  0
LINE
  5
C3C
330
C18
100
AcDbEntity
  8
Pel_Wall
  6
Continuous
100
AcDbLine
 10
6.763393822432473
 20
0.0397272119539309
 30
0.0
 11
6.763393822432473
 21
0.3522272119539309
 31
0.0
  0
LINE
  5
C3D
330
C18
100
AcDbEntity
  8
Pel_Wall
  6
Continuous
100
AcDbLine
 10
6.763393822432473
 20
0.0397272119539309
 30
0.0
 11
6.763393822432473
 21
0.3522272119539309
 31
0.0
  0
LINE
  5
C3E
330
C18
100
AcDbEntity
  8
Pel_Wall
  6
Continuous
100
AcDbLine
 10
6.700893822432473
 20
0.0397272119539309
 30
0.0
 11
6.700893822432473
 21
0.3522272119539309
 31
0.0
  0
LINE
  5
C3F
330
C18
100
AcDbEntity
  8
Pel_Wall
  6
Continuous
100
AcDbLine
 10
6.700893822432473
 20
0.0397272119539309
 30
0.0
 11
6.700893822432473
 21
0.3522272119539309
 31
0.0
  0
LINE
  5
C40
330
C18
100
AcDbEntity
  8
Pel_Wall
  6
Continuous
100
AcDbLine
 10
6.825893822432473
 20
0.0397272119539309
 30
0.0
 11
6.825893822432473
 21
0.3522272119539309
 31
0.0
  0
LINE
  5
C41
330
C18
100
AcDbEntity
  8
Pel_Wall
  6
Continuous
100
AcDbLine
 10
6.825893822432473
 20
0.0397272119539309
 30
0.0
 11
6.825893822432473
 21
0.3522272119539309
 31
0.0
  0
LINE
  5
C42
330
C18
100
AcDbEntity
  8
Pel_Wall
  6
Continuous
100
AcDbLine
 10
6.888393822432473
 20
0.0397272119539309
 30
0.0
 11
6.888393822432473
 21
0.3522272119539309
 31
0.0
  0
LINE
  5
C43
330
C18
100
AcDbEntity
  8
Pel_Wall
  6
Continuous
100
AcDbLine
 10
6.888393822432473
 20
0.0397272119539309
 30
0.0
 11
6.888393822432473
 21
0.3522272119539309
 31
0.0
  0
LINE
  5
C44
330
C18
100
AcDbEntity
  8
Pel_Wall
  6
Continuous
100
AcDbLine
 10
7.138393822432473
 20
0.0397272119539309
 30
0.0
 11
7.138393822432473
 21
0.3522272119539309
 31
0.0
  0
LINE
  5
C45
330
C18
100
AcDbEntity
  8
Pel_Wall
  6
Continuous
100
AcDbLine
 10
7.138393822432473
 20
0.0397272119539309
 30
0.0
 11
7.138393822432473
 21
0.3522272119539309
 31
0.0
  0
LINE
  5
C46
330
C18
100
AcDbEntity
  8
Pel_Wall
  6
Continuous
100
AcDbLine
 10
7.075893822432473
 20
0.0397272119539309
 30
0.0
 11
7.075893822432473
 21
0.3522272119539309
 31
0.0
  0
LINE
  5
C47
330
C18
100
AcDbEntity
  8
Pel_Wall
  6
Continuous
100
AcDbLine
 10
7.075893822432473
 20
0.0397272119539309
 30
0.0
 11
7.075893822432473
 21
0.3522272119539309
 31
0.0
  0
LINE
  5
C48
330
C18
100
AcDbEntity
  8
Pel_Wall
  6
Continuous
100
AcDbLine
 10
7.013393822432473
 20
0.0397272119539309
 30
0.0
 11
7.013393822432473
 21
0.3522272119539309
 31
0.0
  0
LINE
  5
C49
330
C18
100
AcDbEntity
  8
Pel_Wall
  6
Continuous
100
AcDbLine
 10
7.013393822432473
 20
0.0397272119539309
 30
0.0
 11
7.013393822432473
 21
0.3522272119539309
 31
0.0
  0
LINE
  5
C4A
330
C18
100
AcDbEntity
  8
Pel_Wall
  6
Continuous
100
AcDbLine
 10
6.950893822432473
 20
0.0397272119539309
 30
0.0
 11
6.950893822432473
 21
0.3522272119539309
 31
0.0
  0
LINE
  5
C4B
330
C18
100
AcDbEntity
  8
Pel_Wall
  6
Continuous
100
AcDbLine
 10
6.950893822432473
 20
0.0397272119539309
 30
0.0
 11
6.950893822432473
 21
0.3522272119539309
 31
0.0
  0
LINE
  5
C4C
330
C18
100
AcDbEntity
  8
Pel_Wall
  6
Continuous
100
AcDbLine
 10
7.325893822432473
 20
0.0397272119539309
 30
0.0
 11
7.325893822432473
 21
0.3522272119539309
 31
0.0
  0
LINE
  5
C4D
330
C18
100
AcDbEntity
  8
Pel_Wall
  6
Continuous
100
AcDbLine
 10
7.325893822432473
 20
0.0397272119539309
 30
0.0
 11
7.325893822432473
 21
0.3522272119539309
 31
0.0
  0
LINE
  5
C4E
330
C18
100
AcDbEntity
  8
Pel_Wall
  6
Continuous
100
AcDbLine
 10
7.263393822432473
 20
0.0397272119539309
 30
0.0
 11
7.263393822432473
 21
0.3522272119539309
 31
0.0
  0
LINE
  5
C4F
330
C18
100
AcDbEntity
  8
Pel_Wall
  6
Continuous
100
AcDbLine
 10
7.263393822432473
 20
0.0397272119539309
 30
0.0
 11
7.263393822432473
 21
0.3522272119539309
 31
0.0
  0
LINE
  5
C50
330
C18
100
AcDbEntity
  8
Pel_Wall
  6
Continuous
100
AcDbLine
 10
7.200893822432473
 20
0.0397272119539309
 30
0.0
 11
7.200893822432473
 21
0.3522272119539309
 31
0.0
  0
LINE
  5
C51
330
C18
100
AcDbEntity
  8
Pel_Wall
  6
Continuous
100
AcDbLine
 10
7.200893822432473
 20
0.0397272119539309
 30
0.0
 11
7.200893822432473
 21
0.3522272119539309
 31
0.0
  0
LINE
  5
C52
330
C18
100
AcDbEntity
  8
Pel_Wall
  6
Continuous
100
AcDbLine
 10
6.138393822432473
 20
0.0397272119539309
 30
0.0
 11
6.138393822432473
 21
0.3522272119539309
 31
0.0
  0
LINE
  5
C53
330
C18
100
AcDbEntity
  8
Pel_Wall
  6
Continuous
100
AcDbLine
 10
6.138393822432473
 20
0.0397272119539309
 30
0.0
 11
6.138393822432473
 21
0.3522272119539309
 31
0.0
  0
LINE
  5
C64
330
C18
100
AcDbEntity
  8
Pel_Wall
  6
Continuous
100
AcDbLine
 10
3.131236893120449
 20
-4.500000000000003
 30
0.0
 11
2.137457603986344
 21
-0.8979748679165435
 31
0.0
  0
LINE
  5
C65
330
C18
100
AcDbEntity
  8
Pel_Wall
  6
Continuous
100
AcDbLine
 10
2.643678314852268
 20
-4.500000000000003
 30
0.0
 11
3.637457603986344
 21
-0.8979748679165435
 31
0.0
  0
POLYLINE
  5
C66
102
{ACAD_REACTORS
330
C6D
102
}
330
C18
100
AcDbEntity
  8
Pel_Wall
  6
Continuous
100
AcDb2dPolyline
 66
     1
 10
0.0
 20
0.0
 30
0.0
 70
     1
  0
VERTEX
  5
2958
330
C66
100
AcDbEntity
  8
Pel_Wall
  6
Continuous
100
AcDbVertex
100
AcDb2dVertex
 10
2.137457603986344
 20
-4.500000000000003
 30
0.0
  0
VERTEX
  5
2959
330
C66
100
AcDbEntity
  8
Pel_Wall
  6
Continuous
100
AcDbVertex
100
AcDb2dVertex
 10
2.137457603986344
 20
-0.1479748679165453
 30
0.0
  0
VERTEX
  5
295A
330
C66
100
AcDbEntity
  8
Pel_Wall
  6
Continuous
100
AcDbVertex
100
AcDb2dVertex
 10
1.637457603986344
 20
-0.1479748679165453
 30
0.0
  0
VERTEX
  5
295B
330
C66
100
AcDbEntity
  8
Pel_Wall
  6
Continuous
100
AcDbVertex
100
AcDb2dVertex
 10
1.637457603986344
 20
-4.500000000000003
 30
0.0
  0
VERTEX
  5
295C
330
C66
100
AcDbEntity
  8
0
100
AcDbVertex
100
AcDb2dVertex
 10
2.137457603986344
 20
-4.500000000000003
 30
0.0
  0
SEQEND
  5
295D
330
C66
100
AcDbEntity
  8
Pel_Wall
  6
Continuous
  0
HATCH
  5
C6D
330
C18
100
AcDbEntity
  8
Pel_Wall
100
AcDbHatch
 10
0.0
 20
0.0
 30
0.0
210
0.0
220
0.0
230
1.0
  2
PLY
 70
     0
 71
     1
 91
        1
 92
        1
 93
        4
 72
     1
 10
2.137457603986344
 20
-4.500000000000003
 11
2.137457603986344
 21
-0.1479748679165436
 72
     1
 10
2.137457603986344
 20
-0.1479748679165453
 11
1.637457603986344
 21
-0.1479748679165453
 72
     1
 10
1.637457603986344
 20
-0.1479748679165453
 11
1.637457603986344
 21
-4.500000000000005
 72
     1
 10
1.637457603986344
 20
-4.500000000000003
 11
2.137457603986344
 21
-4.500000000000003
 97
        1
330
C66
 75
     0
 76
     1
 52
90.0
 41
1.0
 77
     0
 78
     2
 53
90.0
 43
-7.889024917369457
 44
-10.64674647627296
 45
-0.125
 46
0.0
 79
     0
 53
135.0
 43
-7.764024917369457
 44
-10.64674647627296
 45
-0.3535533905932738
 46
-0.3535533905932737
 79
     0
 98
        1
 10
-7.764024917369457
 20
-10.64674647627296
  0
POLYLINE
  5
C6E
330
C18
100
AcDbEntity
  8
Pel_Wall
100
AcDb2dPolyline
 66
     1
 10
0.0
 20
0.0
 30
0.0
  0
VERTEX
  5
2960
330
C6E
100
AcDbEntity
  8
Pel_Wall
100
AcDbVertex
100
AcDb2dVertex
 10
1.579725082630542
 20
-0.1479748679165453
 30
0.0
  0
VERTEX
  5
2961
330
C6E
100
AcDbEntity
  8
Pel_Wall
100
AcDbVertex
100
AcDb2dVertex
 10
1.579725082630542
 20
-4.500000000000003
 30
0.0
  0
SEQEND
  5
2962
330
C6E
100
AcDbEntity
  8
Pel_Wall
  0
POLYLINE
  5
C72
330
C18
100
AcDbEntity
  8
Pel_Wall
100
AcDb2dPolyline
 66
     1
 10
0.0
 20
0.0
 30
0.0
  0
VERTEX
  5
2964
330
C72
100
AcDbEntity
  8
Pel_Wall
100
AcDbVertex
100
AcDb2dVertex
 10
1.55972508263056
 20
-0.1479748679165453
 30
0.0
  0
VERTEX
  5
2965
330
C72
100
AcDbEntity
  8
Pel_Wall
100
AcDbVertex
100
AcDb2dVertex
 10
1.55972508263056
 20
-4.500000000000003
 30
0.0
  0
SEQEND
  5
2966
330
C72
100
AcDbEntity
  8
Pel_Wall
  0
LINE
  5
C76
330
C18
100
AcDbEntity
  8
Pel_Wall
  6
Continuous
100
AcDbLine
 10
5.139330040878601
 20
0.0397272119539309
 30
0.0
 11
5.139330040878601
 21
0.3522272119539309
 31
0.0
  0
LINE
  5
C77
330
C18
100
AcDbEntity
  8
Pel_Wall
  6
Continuous
100
AcDbLine
 10
5.139330040878601
 20
0.0397272119539309
 30
0.0
 11
5.139330040878601
 21
0.3522272119539309
 31
0.0
  0
LINE
  5
C78
330
C18
100
AcDbEntity
  8
Pel_Wall
  6
Continuous
100
AcDbLine
 10
4.951830040878601
 20
0.0397272119539309
 30
0.0
 11
4.951830040878601
 21
0.3522272119539309
 31
0.0
  0
LINE
  5
C79
330
C18
100
AcDbEntity
  8
Pel_Wall
  6
Continuous
100
AcDbLine
 10
4.951830040878601
 20
0.0397272119539309
 30
0.0
 11
4.951830040878601
 21
0.3522272119539309
 31
0.0
  0
LINE
  5
C7A
330
C18
100
AcDbEntity
  8
Pel_Wall
  6
Continuous
100
AcDbLine
 10
5.076830040878601
 20
0.0397272119539309
 30
0.0
 11
5.076830040878601
 21
0.3522272119539309
 31
0.0
  0
LINE
  5
C7B
330
C18
100
AcDbEntity
  8
Pel_Wall
  6
Continuous
100
AcDbLine
 10
5.076830040878601
 20
0.0397272119539309
 30
0.0
 11
5.076830040878601
 21
0.3522272119539309
 31
0.0
  0
LINE
  5
C7C
330
C18
100
AcDbEntity
  8
Pel_Wall
  6
Continuous
100
AcDbLine
 10
5.014330040878601
 20
0.0397272119539309
 30
0.0
 11
5.014330040878601
 21
0.3522272119539309
 31
0.0
  0
LINE
  5
C7D
330
C18
100
AcDbEntity
  8
Pel_Wall
  6
Continuous
100
AcDbLine
 10
5.014330040878601
 20
0.0397272119539309
 30
0.0
 11
5.014330040878601
 21
0.3522272119539309
 31
0.0
  0
LINE
  5
C7E
330
C18
100
AcDbEntity
  8
Pel_Wall
  6
Continuous
100
AcDbLine
 10
5.389330040878601
 20
0.0397272119539309
 30
0.0
 11
5.389330040878601
 21
0.3522272119539309
 31
0.0
  0
LINE
  5
C7F
330
C18
100
AcDbEntity
  8
Pel_Wall
  6
Continuous
100
AcDbLine
 10
5.389330040878601
 20
0.0397272119539309
 30
0.0
 11
5.389330040878601
 21
0.3522272119539309
 31
0.0
  0
LINE
  5
C80
330
C18
100
AcDbEntity
  8
Pel_Wall
  6
Continuous
100
AcDbLine
 10
5.326830040878601
 20
0.0397272119539309
 30
0.0
 11
5.326830040878601
 21
0.3522272119539309
 31
0.0
  0
LINE
  5
C81
330
C18
100
AcDbEntity
  8
Pel_Wall
  6
Continuous
100
AcDbLine
 10
5.326830040878601
 20
0.0397272119539309
 30
0.0
 11
5.326830040878601
 21
0.3522272119539309
 31
0.0
  0
LINE
  5
C82
330
C18
100
AcDbEntity
  8
Pel_Wall
  6
Continuous
100
AcDbLine
 10
5.264330040878601
 20
0.0397272119539309
 30
0.0
 11
5.264330040878601
 21
0.3522272119539309
 31
0.0
  0
LINE
  5
C83
330
C18
100
AcDbEntity
  8
Pel_Wall
  6
Continuous
100
AcDbLine
 10
5.264330040878601
 20
0.0397272119539309
 30
0.0
 11
5.264330040878601
 21
0.3522272119539309
 31
0.0
  0
LINE
  5
C84
330
C18
100
AcDbEntity
  8
Pel_Wall
  6
Continuous
100
AcDbLine
 10
5.201830040878601
 20
0.0397272119539309
 30
0.0
 11
5.201830040878601
 21
0.3522272119539309
 31
0.0
  0
LINE
  5
C85
330
C18
100
AcDbEntity
  8
Pel_Wall
  6
Continuous
100
AcDbLine
 10
5.201830040878601
 20
0.0397272119539309
 30
0.0
 11
5.201830040878601
 21
0.3522272119539309
 31
0.0
  0
LINE
  5
C86
330
C18
100
AcDbEntity
  8
Pel_Wall
  6
Continuous
100
AcDbLine
 10
5.514330040878601
 20
0.0397272119539309
 30
0.0
 11
5.514330040878601
 21
0.3522272119539309
 31
0.0
  0
LINE
  5
C87
330
C18
100
AcDbEntity
  8
Pel_Wall
  6
Continuous
100
AcDbLine
 10
5.514330040878601
 20
0.0397272119539309
 30
0.0
 11
5.514330040878601
 21
0.3522272119539309
 31
0.0
  0
LINE
  5
C88
330
C18
100
AcDbEntity
  8
Pel_Wall
  6
Continuous
100
AcDbLine
 10
5.451830040878601
 20
0.0397272119539309
 30
0.0
 11
5.451830040878601
 21
0.3522272119539309
 31
0.0
  0
LINE
  5
C89
330
C18
100
AcDbEntity
  8
Pel_Wall
  6
Continuous
100
AcDbLine
 10
5.451830040878601
 20
0.0397272119539309
 30
0.0
 11
5.451830040878601
 21
0.3522272119539309
 31
0.0
  0
LINE
  5
C8A
330
C18
100
AcDbEntity
  8
Pel_Wall
  6
Continuous
100
AcDbLine
 10
5.576830040878601
 20
0.0397272119539309
 30
0.0
 11
5.576830040878601
 21
0.3522272119539309
 31
0.0
  0
LINE
  5
C8B
330
C18
100
AcDbEntity
  8
Pel_Wall
  6
Continuous
100
AcDbLine
 10
5.576830040878601
 20
0.0397272119539309
 30
0.0
 11
5.576830040878601
 21
0.3522272119539309
 31
0.0
  0
LINE
  5
C8C
330
C18
100
AcDbEntity
  8
Pel_Wall
  6
Continuous
100
AcDbLine
 10
5.639330040878601
 20
0.0397272119539309
 30
0.0
 11
5.639330040878601
 21
0.3522272119539309
 31
0.0
  0
LINE
  5
C8D
330
C18
100
AcDbEntity
  8
Pel_Wall
  6
Continuous
100
AcDbLine
 10
5.639330040878601
 20
0.0397272119539309
 30
0.0
 11
5.639330040878601
 21
0.3522272119539309
 31
0.0
  0
LINE
  5
C8E
330
C18
100
AcDbEntity
  8
Pel_Wall
  6
Continuous
100
AcDbLine
 10
5.889330040878601
 20
0.0397272119539309
 30
0.0
 11
5.889330040878601
 21
0.3522272119539309
 31
0.0
  0
LINE
  5
C8F
330
C18
100
AcDbEntity
  8
Pel_Wall
  6
Continuous
100
AcDbLine
 10
5.889330040878601
 20
0.0397272119539309
 30
0.0
 11
5.889330040878601
 21
0.3522272119539309
 31
0.0
  0
LINE
  5
C90
330
C18
100
AcDbEntity
  8
Pel_Wall
  6
Continuous
100
AcDbLine
 10
5.826830040878601
 20
0.0397272119539309
 30
0.0
 11
5.826830040878601
 21
0.3522272119539309
 31
0.0
  0
LINE
  5
C91
330
C18
100
AcDbEntity
  8
Pel_Wall
  6
Continuous
100
AcDbLine
 10
5.826830040878601
 20
0.0397272119539309
 30
0.0
 11
5.826830040878601
 21
0.3522272119539309
 31
0.0
  0
LINE
  5
C92
330
C18
100
AcDbEntity
  8
Pel_Wall
  6
Continuous
100
AcDbLine
 10
5.764330040878601
 20
0.0397272119539309
 30
0.0
 11
5.764330040878601
 21
0.3522272119539309
 31
0.0
  0
LINE
  5
C93
330
C18
100
AcDbEntity
  8
Pel_Wall
  6
Continuous
100
AcDbLine
 10
5.764330040878601
 20
0.0397272119539309
 30
0.0
 11
5.764330040878601
 21
0.3522272119539309
 31
0.0
  0
LINE
  5
C94
330
C18
100
AcDbEntity
  8
Pel_Wall
  6
Continuous
100
AcDbLine
 10
5.701830040878601
 20
0.0397272119539309
 30
0.0
 11
5.701830040878601
 21
0.3522272119539309
 31
0.0
  0
LINE
  5
C95
330
C18
100
AcDbEntity
  8
Pel_Wall
  6
Continuous
100
AcDbLine
 10
5.701830040878601
 20
0.0397272119539309
 30
0.0
 11
5.701830040878601
 21
0.3522272119539309
 31
0.0
  0
LINE
  5
C96
330
C18
100
AcDbEntity
  8
Pel_Wall
  6
Continuous
100
AcDbLine
 10
6.076830040878601
 20
0.0397272119539309
 30
0.0
 11
6.076830040878601
 21
0.3522272119539309
 31
0.0
  0
LINE
  5
C97
330
C18
100
AcDbEntity
  8
Pel_Wall
  6
Continuous
100
AcDbLine
 10
6.076830040878601
 20
0.0397272119539309
 30
0.0
 11
6.076830040878601
 21
0.3522272119539309
 31
0.0
  0
LINE
  5
C98
330
C18
100
AcDbEntity
  8
Pel_Wall
  6
Continuous
100
AcDbLine
 10
6.014330040878601
 20
0.0397272119539309
 30
0.0
 11
6.014330040878601
 21
0.3522272119539309
 31
0.0
  0
LINE
  5
C99
330
C18
100
AcDbEntity
  8
Pel_Wall
  6
Continuous
100
AcDbLine
 10
6.014330040878601
 20
0.0397272119539309
 30
0.0
 11
6.014330040878601
 21
0.3522272119539309
 31
0.0
  0
LINE
  5
C9A
330
C18
100
AcDbEntity
  8
Pel_Wall
  6
Continuous
100
AcDbLine
 10
5.951830040878601
 20
0.0397272119539309
 30
0.0
 11
5.951830040878601
 21
0.3522272119539309
 31
0.0
  0
LINE
  5
C9B
330
C18
100
AcDbEntity
  8
Pel_Wall
  6
Continuous
100
AcDbLine
 10
5.951830040878601
 20
0.0397272119539309
 30
0.0
 11
5.951830040878601
 21
0.3522272119539309
 31
0.0
  0
LINE
  5
C9C
330
C18
100
AcDbEntity
  8
Pel_Wall
  6
Continuous
100
AcDbLine
 10
4.889330040878601
 20
0.0397272119539309
 30
0.0
 11
4.889330040878601
 21
0.3522272119539309
 31
0.0
  0
LINE
  5
C9D
330
C18
100
AcDbEntity
  8
Pel_Wall
  6
Continuous
100
AcDbLine
 10
4.889330040878601
 20
0.0397272119539309
 30
0.0
 11
4.889330040878601
 21
0.3522272119539309
 31
0.0
  0
LINE
  5
C9E
330
C18
100
AcDbEntity
  8
Pel_Wall
  6
Continuous
100
AcDbLine
 10
4.701830040878601
 20
0.0397272119539309
 30
0.0
 11
4.701830040878601
 21
0.3522272119539309
 31
0.0
  0
LINE
  5
C9F
330
C18
100
AcDbEntity
  8
Pel_Wall
  6
Continuous
100
AcDbLine
 10
4.701830040878601
 20
0.0397272119539309
 30
0.0
 11
4.701830040878601
 21
0.3522272119539309
 31
0.0
  0
LINE
  5
CA0
330
C18
100
AcDbEntity
  8
Pel_Wall
  6
Continuous
100
AcDbLine
 10
4.514330040878601
 20
0.0397272119539309
 30
0.0
 11
4.514330040878601
 21
0.3522272119539309
 31
0.0
  0
LINE
  5
CA1
330
C18
100
AcDbEntity
  8
Pel_Wall
  6
Continuous
100
AcDbLine
 10
4.514330040878601
 20
0.0397272119539309
 30
0.0
 11
4.514330040878601
 21
0.3522272119539309
 31
0.0
  0
LINE
  5
CA2
330
C18
100
AcDbEntity
  8
Pel_Wall
  6
Continuous
100
AcDbLine
 10
4.639330040878601
 20
0.0397272119539309
 30
0.0
 11
4.639330040878601
 21
0.3522272119539309
 31
0.0
  0
LINE
  5
CA3
330
C18
100
AcDbEntity
  8
Pel_Wall
  6
Continuous
100
AcDbLine
 10
4.639330040878601
 20
0.0397272119539309
 30
0.0
 11
4.639330040878601
 21
0.3522272119539309
 31
0.0
  0
LINE
  5
CA4
330
C18
100
AcDbEntity
  8
Pel_Wall
  6
Continuous
100
AcDbLine
 10
4.576830040878601
 20
0.0397272119539309
 30
0.0
 11
4.576830040878601
 21
0.3522272119539309
 31
0.0
  0
LINE
  5
CA5
330
C18
100
AcDbEntity
  8
Pel_Wall
  6
Continuous
100
AcDbLine
 10
4.576830040878601
 20
0.0397272119539309
 30
0.0
 11
4.576830040878601
 21
0.3522272119539309
 31
0.0
  0
LINE
  5
CA6
330
C18
100
AcDbEntity
  8
Pel_Wall
  6
Continuous
100
AcDbLine
 10
4.826830040878601
 20
0.0397272119539309
 30
0.0
 11
4.826830040878601
 21
0.3522272119539309
 31
0.0
  0
LINE
  5
CA7
330
C18
100
AcDbEntity
  8
Pel_Wall
  6
Continuous
100
AcDbLine
 10
4.826830040878601
 20
0.0397272119539309
 30
0.0
 11
4.826830040878601
 21
0.3522272119539309
 31
0.0
  0
LINE
  5
CA8
330
C18
100
AcDbEntity
  8
Pel_Wall
  6
Continuous
100
AcDbLine
 10
4.764330040878601
 20
0.0397272119539309
 30
0.0
 11
4.764330040878601
 21
0.3522272119539309
 31
0.0
  0
LINE
  5
CA9
330
C18
100
AcDbEntity
  8
Pel_Wall
  6
Continuous
100
AcDbLine
 10
4.764330040878601
 20
0.0397272119539309
 30
0.0
 11
4.764330040878601
 21
0.3522272119539309
 31
0.0
  0
POLYLINE
  5
CAA
330
C18
100
AcDbEntity
  8
Pel_Wall
100
AcDb2dPolyline
 66
     1
 10
0.0
 20
0.0
 30
0.0
  0
VERTEX
  5
299C
330
CAA
100
AcDbEntity
  8
Pel_Wall
100
AcDbVertex
100
AcDb2dVertex
 10
1.244046900722191
 20
-3.502772788046074
 30
0.0
  0
VERTEX
  5
299D
330
CAA
100
AcDbEntity
  8
Pel_Wall
100
AcDbVertex
100
AcDb2dVertex
 10
1.244046900722191
 20
-0.1277727880460731
 30
0.0
  0
VERTEX
  5
299E
330
CAA
100
AcDbEntity
  8
Pel_Wall
100
AcDbVertex
100
AcDb2dVertex
 10
-0.005953099277809
 20
-0.1277727880460731
 30
0.0
  0
VERTEX
  5
299F
330
CAA
100
AcDbEntity
  8
Pel_Wall
100
AcDbVertex
100
AcDb2dVertex
 10
-0.005953099277809
 20
-3.502772788046074
 30
0.0
  0
VERTEX
  5
29A0
330
CAA
100
AcDbEntity
  8
Pel_Wall
100
AcDbVertex
100
AcDb2dVertex
 10
1.244046900722191
 20
-3.502772788046074
 30
0.0
  0
VERTEX
  5
29A1
330
CAA
100
AcDbEntity
  8
Pel_Wall
100
AcDbVertex
100
AcDb2dVertex
 10
-0.005953099277809
 20
-0.1277727880460731
 30
0.0
  0
VERTEX
  5
29A2
330
CAA
100
AcDbEntity
  8
Pel_Wall
100
AcDbVertex
100
AcDb2dVertex
 10
1.244046900722191
 20
-0.1277727880460731
 30
0.0
  0
VERTEX
  5
29A3
330
CAA
100
AcDbEntity
  8
Pel_Wall
100
AcDbVertex
100
AcDb2dVertex
 10
-0.005953099277809
 20
-3.502772788046074
 30
0.0
  0
SEQEND
  5
29A4
330
CAA
100
AcDbEntity
  8
Pel_Wall
  0
POLYLINE
  5
CB4
102
{ACAD_REACTORS
330
CBA
102
}
330
C18
100
AcDbEntity
  8
Pel_Wall
100
AcDb2dPolyline
 66
     1
 10
0.0
 20
0.0
 30
0.0
 70
     1
  0
VERTEX
  5
29A6
330
CB4
100
AcDbEntity
  8
Pel_Wall
100
AcDbVertex
100
AcDb2dVertex
 10
1.244046900722191
 20
-4.500000000000003
 30
0.0
  0
VERTEX
  5
29A7
330
CB4
100
AcDbEntity
  8
Pel_Wall
100
AcDbVertex
100
AcDb2dVertex
 10
1.244046900722191
 20
-3.502772788046074
 30
0.0
  0
VERTEX
  5
29A8
330
CB4
100
AcDbEntity
  8
Pel_Wall
100
AcDbVertex
100
AcDb2dVertex
 10
0.5863890372624656
 20
-3.502772788046074
 30
0.0
  0
VERTEX
  5
29A9
330
CB4
100
AcDbEntity
  8
Pel_Wall
100
AcDbVertex
100
AcDb2dVertex
 10
0.5863890372624656
 20
-4.500000000000003
 30
0.0
  0
SEQEND
  5
29AA
330
CB4
100
AcDbEntity
  8
Pel_Wall
  0
HATCH
  5
CBA
330
C18
100
AcDbEntity
  8
Pel_Wall
 62
     9
100
AcDbHatch
 10
0.0
 20
0.0
 30
0.0
210
0.0
220
0.0
230
1.0
  2
WOOD
 70
     0
 71
     1
 91
        1
 92
        1
 93
        4
 72
     1
 10
1.244046900722191
 20
-4.500000000000003
 11
1.244046900722191
 21
-3.502772788046074
 72
     1
 10
1.244046900722191
 20
-3.502772788046074
 11
0.5863890372624656
 21
-3.502772788046074
 72
     1
 10
0.5863890372624656
 20
-3.502772788046074
 11
0.5863890372624656
 21
-4.500000000000003
 72
     1
 10
0.5863890372624656
 20
-4.500000000000003
 11
1.244046900722191
 21
-4.500000000000003
 97
        1
330
CB4
 75
     0
 76
     1
 52
45.0
 41
0.125
 77
     0
 78
    12
 53
135.0
 43
-7.782763580020001
 44
-11.25952645490587
 45
0.0000000000000001
 46
0.7071067811865475
 79
     2
 49
0.5
 49
-4.5
 53
135.0
 43
-8.755035404151504
 44
-10.11047793547772
 45
0.0000000000000001
 46
0.7071067811865475
 79
     2
 49
0.5
 49
-2.0
 53
108.43494882
 43
-8.136316970613275
 44
-11.61307984549914
 45
-0.0000000394924092
 46
0.7071067487732679
 79
     2
 49
1.118033999999999
 49
-10.062305875
 53
149.03624347
 43
-6.545326712943543
 44
-12.8505167125756
 45
-0.0000000214629131
 46
0.7071068668299123
 79
     2
 49
0.51538825
 49
-3.607717375
 53
149.03624347
 43
-7.340821841778408
 44
-12.23179827903737
 45
-0.0000000214629131
 46
0.7071068668299123
 79
     2
 49
0.51538825
 49
-3.607717375
 53
149.03624347
 43
-5.573054888812039
 44
-12.58535166963064
 45
-0.0000000214629131
 46
0.7071068668299123
 79
     2
 49
0.51538825
 49
-3.607717375
 53
120.96375653
 43
-8.489870361206548
 44
-10.55241967371932
 45
0.0000000214629133
 46
0.7071068668299122
 79
     2
 49
0.51538825
 49
-20.100139875
 53
120.96375653
 43
-12.02540426713928
 44
-4.188458643040393
 45
0.0000000214629133
 46
0.7071068668299122
 79
     2
 49
0.51538825
 49
-20.100139875
 53
120.96375653
 43
-15.56093817307202
 44
1.468395606451991
 45
0.0000000214629133
 46
0.7071068668299122
 79
     2
 49
0.51538825
 49
-20.100139875
 53
161.56505118
 43
-9.550530532986369
 44
-9.491759501939499
 45
0.0000000394924092
 46
0.707106748773268
 79
     2
 49
0.559017
 49
-10.621322875
 53
161.56505118
 43
-2.479462721120894
 44
-11.61307984549914
 45
0.0000000394924092
 46
0.707106748773268
 79
     2
 49
0.559017
 49
-10.621322875
 53
161.56505118
 43
-6.014996627053632
 44
-10.19886628312604
 45
0.0000000394924092
 46
0.707106748773268
 79
     2
 49
0.559017
 49
-10.621322875
 98
        1
 10
-8.313093665909912
 20
-11.08274975960923
  0
POLYLINE
  5
CBB
330
C18
100
AcDbEntity
  8
Pel_Wall
100
AcDb2dPolyline
 66
     1
 10
0.0
 20
0.0
 30
0.0
  0
VERTEX
  5
29AD
330
CBB
100
AcDbEntity
  8
Pel_Wall
100
AcDbVertex
100
AcDb2dVertex
 10
1.244046900722191
 20
-0.0652727880460731
 30
0.0
  0
VERTEX
  5
29AE
330
CBB
100
AcDbEntity
  8
Pel_Wall
100
AcDbVertex
100
AcDb2dVertex
 10
-0.068453099277809
 20
-0.0652727880460731
 30
0.0
  0
VERTEX
  5
29AF
330
CBB
100
AcDbEntity
  8
Pel_Wall
100
AcDbVertex
100
AcDb2dVertex
 10
-0.068453099277809
 20
-3.502772788046074
 30
0.0
  0
VERTEX
  5
29B0
330
CBB
100
AcDbEntity
  8
Pel_Wall
100
AcDbVertex
100
AcDb2dVertex
 10
-0.2266831927605448
 20
-3.66100288152881
 30
0.0
  0
SEQEND
  5
29B1
330
CBB
100
AcDbEntity
  8
Pel_Wall
  0
POLYLINE
  5
16C2
330
C18
100
AcDbEntity
  8
Pel_Wall
  6
Continuous
100
AcDb2dPolyline
 66
     1
 10
0.0
 20
0.0
 30
0.0
  0
VERTEX
  5
29B3
330
16C2
100
AcDbEntity
  8
Pel_Wall
  6
Continuous
100
AcDbVertex
100
AcDb2dVertex
 10
3.637457603986344
 20
-4.500000000000003
 30
0.0
  0
VERTEX
  5
29B4
330
16C2
100
AcDbEntity
  8
Pel_Wall
  6
Continuous
100
AcDbVertex
100
AcDb2dVertex
 10
3.637457603986344
 20
-0.8979748679165435
 30
0.0
  0
VERTEX
  5
29B5
330
16C2
100
AcDbEntity
  8
Pel_Wall
  6
Continuous
100
AcDbVertex
100
AcDb2dVertex
 10
2.137457603986344
 20
-0.8979748679165435
 30
0.0
  0
VERTEX
  5
29B6
330
16C2
100
AcDbEntity
  8
Pel_Wall
  6
Continuous
100
AcDbVertex
100
AcDb2dVertex
 10
2.137457603986344
 20
-4.500000000000003
 30
0.0
  0
SEQEND
  5
29B7
330
16C2
100
AcDbEntity
  8
Pel_Wall
  6
Continuous
  0
LINE
  5
2321
330
C18
100
AcDbEntity
  8
Pel_Wall
  6
Continuous
100
AcDbLine
 10
2.271369628079408
 20
-0.77004342053284
 30
0.0
 11
2.521369628079408
 21
-0.77004342053284
 31
0.0
  0
LINE
  5
2322
330
C18
100
AcDbEntity
  8
Pel_Wall
  6
Continuous
100
AcDbLine
 10
1.307472288329591
 20
-0.8950434205328416
 30
0.0
 11
1.307472288329591
 21
-0.64504342053284
 31
0.0
  0
LINE
  5
2323
330
C18
100
AcDbEntity
  8
Pel_Wall
  6
Continuous
100
AcDbLine
 10
1.287236515147942
 20
-0.77004342053284
 30
0.0
 11
2.146369628079408
 21
-0.77004342053284
 31
0.0
  0
LINE
  5
2324
330
C18
100
AcDbEntity
  8
Pel_Wall
  6
Continuous
100
AcDbLine
 10
2.646369628079408
 20
-0.77004342053284
 30
0.0
 11
3.396369628079408
 21
-0.77004342053284
 31
0.0
  0
POLYLINE
  5
29BC
330
C18
100
AcDbEntity
  8
Pel_Wall
100
AcDb2dPolyline
 66
     1
 10
0.0
 20
0.0
 30
0.0
  0
VERTEX
  5
29BD
330
29BC
100
AcDbEntity
  8
Pel_Wall
100
AcDbVertex
100
AcDb2dVertex
 10
1.512457603986344
 20
-1.065272788046073
 30
0.0
  0
VERTEX
  5
29BE
330
29BC
100
AcDbEntity
  8
Pel_Wall
100
AcDbVertex
100
AcDb2dVertex
 10
1.512457603986344
 20
-0.0852727880460691
 30
0.0
  0
VERTEX
  5
29BF
330
29BC
100
AcDbEntity
  8
Pel_Wall
100
AcDbVertex
100
AcDb2dVertex
 10
3.492457603986363
 20
-0.0852727880460691
 30
0.0
  0
SEQEND
  5
29C0
330
29BC
100
AcDbEntity
  8
Pel_Wall
  0
POLYLINE
  5
29C1
330
C18
100
AcDbEntity
  8
Pel_Wall
100
AcDb2dPolyline
 66
     1
 10
0.0
 20
0.0
 30
0.0
  0
VERTEX
  5
29C2
330
29C1
100
AcDbEntity
  8
Pel_Wall
100
AcDbVertex
100
AcDb2dVertex
 10
1.492457603986363
 20
-1.065272788046073
 30
0.0
  0
VERTEX
  5
29C3
330
29C1
100
AcDbEntity
  8
Pel_Wall
100
AcDbVertex
100
AcDb2dVertex
 10
1.492457603986363
 20
-0.0652727880460731
 30
0.0
  0
VERTEX
  5
29C4
330
29C1
100
AcDbEntity
  8
Pel_Wall
100
AcDbVertex
100
AcDb2dVertex
 10
3.492457603986363
 20
-0.0652727880460731
 30
0.0
  0
SEQEND
  5
29C5
330
29C1
100
AcDbEntity
  8
Pel_Wall
  0
ENDBLK
  5
C1A
330
C18
100
AcDbEntity
  8
0
100
AcDbBlockEnd
  0
BLOCK
  5
F85
330
F7D
100
AcDbEntity
  8
0
100
AcDbBlockBegin
  2
*D8
 70
     1
 10
0.0
 20
0.0
 30
0.0
  3
*D8
  1

  0
LINE
  5
2BC1
330
F7D
100
AcDbEntity
  8
0
100
AcDbLine
 10
7.078175098280607
 20
16.86295000000322
 30
0.0
 11
3.806939991420854
 21
16.86295000000322
 31
0.0
  0
LINE
  5
2BC2
330
F7D
100
AcDbEntity
  8
0
100
AcDbLine
 10
4.056939991420854
 20
22.11300000000119
 30
0.0
 11
4.056939991420853
 21
17.08170000000322
 31
0.0
  0
MTEXT
  5
2BC3
330
F7D
100
AcDbEntity
  8
0
 62
   255
100
AcDbMText
 10
3.787069595786474
 20
20.31775009058876
 30
0.0
 40
0.28
 41
0.0
 71
     5
 72
     1
  1
\A1;ROUGH OPENING
 11
0.0000000000000001
 21
1.0
 31
0.0
 73
     1
 44
1.0
1001
ACAD
1000
MTEXTBEGIN
1070
    73
1070
     1
1070
    44
1040
1.0
1070
    74
1070
     0
1000
MTEXTEND
  0
SOLID
  5
2BC4
330
F7D
100
AcDbEntity
  8
0
100
AcDbTrace
 10
4.02048165808752
 20
17.08170000000322
 30
0.0
 11
4.093398324754186
 21
17.08170000000322
 31
0.0
 12
4.056939991420853
 22
16.86295000000322
 32
0.0
 13
4.056939991420853
 23
16.86295000000322
 33
0.0
  0
POINT
  5
2BC5
330
F7D
100
AcDbEntity
  8
Defpoints
 62
     0
100
AcDbPoint
 10
4.38367918859308
 20
22.11300000000119
 30
0.0
  0
POINT
  5
2BC6
330
F7D
100
AcDbEntity
  8
Defpoints
 62
     0
100
AcDbPoint
 10
7.578175098280607
 20
16.86295000000322
 30
0.0
  0
POINT
  5
2BC7
330
F7D
100
AcDbEntity
  8
Defpoints
 62
     0
100
AcDbPoint
 10
4.056939991420853
 20
16.86295000000322
 30
0.0
  0
ENDBLK
  5
F86
330
F7D
100
AcDbEntity
  8
0
100
AcDbBlockEnd
  0
BLOCK
  5
F8F
330
F87
100
AcDbEntity
  8
0
100
AcDbBlockBegin
  2
*D9
 70
     1
 10
0.0
 20
0.0
 30
0.0
  3
*D9
  1

  0
LINE
  5
2BCF
330
F87
100
AcDbEntity
  8
0
100
AcDbLine
 10
7.013175098280606
 20
16.86295000000322
 30
0.0
 11
4.806939991420848
 21
16.86295000000322
 31
0.0
  0
LINE
  5
2BD0
330
F87
100
AcDbEntity
  8
0
100
AcDbLine
 10
5.056939991420848
 20
17.08170000000322
 30
0.0
 11
5.056939991420849
 21
22.11300000000119
 31
0.0
  0
MTEXT
  5
2BD1
330
F87
100
AcDbEntity
  8
0
 62
   255
100
AcDbMText
 10
4.791939991420852
 20
21.2481058424669
 30
0.0
 40
0.28
 41
0.0
 71
     5
 72
     1
  1
\A1;FRAME
 11
0.0000000000000001
 21
1.0
 31
0.0
 73
     1
 44
1.0
1001
ACAD
1000
MTEXTBEGIN
1070
    73
1070
     1
1070
    44
1040
1.0
1070
    74
1070
     0
1000
MTEXTEND
  0
SOLID
  5
2BD2
330
F87
100
AcDbEntity
  8
0
100
AcDbTrace
 10
5.020481658087515
 20
17.08170000000322
 30
0.0
 11
5.093398324754181
 21
17.08170000000322
 31
0.0
 12
5.056939991420848
 22
16.86295000000322
 32
0.0
 13
5.056939991420848
 23
16.86295000000322
 33
0.0
  0
POINT
  5
2BD3
330
F87
100
AcDbEntity
  8
Defpoints
 62
     0
100
AcDbPoint
 10
7.513175098280606
 20
16.86295000000322
 30
0.0
  0
POINT
  5
2BD4
330
F87
100
AcDbEntity
  8
Defpoints
 62
     0
100
AcDbPoint
 10
4.38367918859308
 20
22.11300000000119
 30
0.0
  0
POINT
  5
2BD5
330
F87
100
AcDbEntity
  8
Defpoints
 62
     0
100
AcDbPoint
 10
5.056939991420849
 20
22.11300000000119
 30
0.0
  0
ENDBLK
  5
F90
330
F87
100
AcDbEntity
  8
0
100
AcDbBlockEnd
  0
BLOCK
  5
189C
330
1899
100
AcDbEntity
  8
0
100
AcDbBlockBegin
  2
FOAMB
 70
     0
 10
0.0
 20
0.0
 30
0.0
  3
FOAMB
  1

  0
ELLIPSE
  5
189D
330
1899
100
AcDbEntity
  8
Pel_Wall
100
AcDbEllipse
 10
0.1837685085597371
 20
0.2996849448613901
 30
0.0
 11
0.0166728848683988
 21
0.0000000000000105
 31
0.0
210
0.0
220
0.0
230
1.0
 40
0.7500000000000001
 41
-0.0000000000008402
 42
6.283185307178746
  0
ELLIPSE
  5
189E
330
1899
100
AcDbEntity
  8
Pel_Wall
100
AcDbEllipse
 10
0.7090476999514586
 20
0.1155187419938102
 30
0.0
 11
0.0166728848683988
 21
0.0000000000000105
 31
0.0
210
0.0
220
0.0
230
1.0
 40
0.7500000000000001
 41
-0.0000000000008402
 42
6.283185307178746
  0
ELLIPSE
  5
189F
330
1899
100
AcDbEntity
  8
Pel_Wall
100
AcDbEllipse
 10
0.6319286441588475
 20
0.1799214037677927
 30
0.0
 11
-0.0339494177336768
 21
0.0000000000000027
 31
0.0
210
0.0
220
0.0
230
1.0
 40
0.7499999999999738
 41
3.141592653589897
 42
9.424777960769482
  0
ELLIPSE
  5
18A1
330
1899
100
AcDbEntity
  8
Pel_Wall
100
AcDbEllipse
 10
0.2861391793277441
 20
0.235941409372785
 30
0.0
 11
-0.0339494177336768
 21
0.0000000000000027
 31
0.0
210
0.0
220
0.0
230
1.0
 40
0.7499999999999738
 41
3.141592653589897
 42
9.424777960769482
  0
ELLIPSE
  5
18A2
330
1899
100
AcDbEntity
  8
Pel_Wall
100
AcDbEllipse
 10
0.0686723798887101
 20
0.2351069745543555
 30
0.0
 11
0.0166728848683988
 21
0.0000000000000105
 31
0.0
210
0.0
220
0.0
230
1.0
 40
0.7500000000000001
 41
-0.0000000000008402
 42
6.283185307178746
  0
ELLIPSE
  5
18A3
330
1899
100
AcDbEntity
  8
Pel_Wall
100
AcDbEllipse
 10
0.5244179461958538
 20
0.3653710469755111
 30
0.0
 11
0.0166728848683988
 21
0.0000000000000105
 31
0.0
210
0.0
220
0.0
230
1.0
 40
0.7500000000000001
 41
-0.0000000000008402
 42
6.283185307178746
  0
ELLIPSE
  5
18A4
330
1899
100
AcDbEntity
  8
Pel_Wall
100
AcDbEllipse
 10
0.443092144819957
 20
0.3017649778337983
 30
0.0
 11
0.0166728848683988
 21
0.0000000000000105
 31
0.0
210
0.0
220
0.0
230
1.0
 40
0.7500000000000001
 41
-0.0000000000008402
 42
6.283185307178746
  0
ELLIPSE
  5
18A6
330
1899
100
AcDbEntity
  8
Pel_Wall
100
AcDbEllipse
 10
0.2203304996621682
 20
0.3706719439359318
 30
0.0
 11
0.0166728848683988
 21
0.0000000000000105
 31
0.0
210
0.0
220
0.0
230
1.0
 40
0.7500000000000001
 41
-0.0000000000008402
 42
6.283185307178746
  0
ELLIPSE
  5
18A7
330
1899
100
AcDbEntity
  8
Pel_Wall
100
AcDbEllipse
 10
0.2827827822916173
 20
0.3248469152915945
 30
0.0
 11
0.0166728848683988
 21
0.0000000000000105
 31
0.0
210
0.0
220
0.0
230
1.0
 40
0.7500000000000001
 41
-0.0000000000008402
 42
6.283185307178746
  0
ELLIPSE
  5
18A8
330
1899
100
AcDbEntity
  8
Pel_Wall
100
AcDbEllipse
 10
0.393591893918483
 20
0.3481445401691445
 30
0.0
 11
-0.0339494177336768
 21
0.0000000000000027
 31
0.0
210
0.0
220
0.0
230
1.0
 40
0.7499999999999738
 41
3.141592653589897
 42
9.424777960769482
  0
ELLIPSE
  5
18A9
330
1899
100
AcDbEntity
  8
Pel_Wall
100
AcDbEllipse
 10
0.0992632881884959
 20
0.3228451760410564
 30
0.0
 11
-0.0339494177336768
 21
0.0000000000000027
 31
0.0
210
0.0
220
0.0
230
1.0
 40
0.7499999999999738
 41
3.141592653589897
 42
9.424777960769482
  0
POINT
  5
18AA
330
1899
100
AcDbEntity
  8
Pel_Points
100
AcDbPoint
 10
0.0
 20
0.0
 30
0.0
  0
ELLIPSE
  5
18AB
330
1899
100
AcDbEntity
  8
Pel_Wall
100
AcDbEllipse
 10
0.9461088197712115
 20
0.3100611506513218
 30
0.0
 11
0.0166728848683988
 21
0.0000000000000105
 31
0.0
210
0.0
220
0.0
230
1.0
 40
0.7500000000000001
 41
-0.0000000000008402
 42
6.283185307178746
  0
ELLIPSE
  5
18AC
330
1899
100
AcDbEntity
  8
Pel_Wall
100
AcDbEllipse
 10
0.8246615450770775
 20
0.27830765291489
 30
0.0
 11
0.0166728848683988
 21
0.0000000000000105
 31
0.0
210
0.0
220
0.0
230
1.0
 40
0.7500000000000001
 41
-0.0000000000008402
 42
6.283185307178746
  0
ELLIPSE
  5
18AE
330
1899
100
AcDbEntity
  8
Pel_Wall
100
AcDbEllipse
 10
0.867090083466536
 20
0.3351540320522588
 30
0.0
 11
0.0166728848683988
 21
0.0000000000000105
 31
0.0
210
0.0
220
0.0
230
1.0
 40
0.7500000000000001
 41
-0.0000000000008402
 42
6.283185307178746
  0
ELLIPSE
  5
18B0
330
1899
100
AcDbEntity
  8
Pel_Wall
100
AcDbEllipse
 10
0.5385630601888352
 20
0.1025930004340125
 30
0.0
 11
0.0166728848683988
 21
0.0000000000000105
 31
0.0
210
0.0
220
0.0
230
1.0
 40
0.7500000000000001
 41
-0.0000000000008402
 42
6.283185307178746
  0
ELLIPSE
  5
18B1
330
1899
100
AcDbEntity
  8
Pel_Wall
100
AcDbEllipse
 10
0.5244179461958538
 20
0.2298060775939348
 30
0.0
 11
0.0166728848683988
 21
0.0000000000000105
 31
0.0
210
0.0
220
0.0
230
1.0
 40
0.7500000000000001
 41
-0.0000000000008402
 42
6.283185307178746
  0
ELLIPSE
  5
18B2
330
1899
100
AcDbEntity
  8
Pel_Wall
100
AcDbEllipse
 10
0.443092144819957
 20
0.1662000084522219
 30
0.0
 11
0.0166728848683988
 21
0.0000000000000105
 31
0.0
210
0.0
220
0.0
230
1.0
 40
0.7500000000000001
 41
-0.0000000000008402
 42
6.283185307178746
  0
ELLIPSE
  5
18B3
330
1899
100
AcDbEntity
  8
Pel_Wall
100
AcDbEllipse
 10
0.3458545242153832
 20
0.0257356277680856
 30
0.0
 11
0.0166728848683988
 21
0.0000000000000105
 31
0.0
210
0.0
220
0.0
230
1.0
 40
0.7500000000000001
 41
-0.0000000000008402
 42
6.283185307178746
  0
ELLIPSE
  5
18B4
330
1899
100
AcDbEntity
  8
Pel_Wall
100
AcDbEllipse
 10
0.3918663718354658
 20
0.2218556710299708
 30
0.0
 11
0.0166728848683988
 21
0.0000000000000105
 31
0.0
210
0.0
220
0.0
230
1.0
 40
0.7500000000000001
 41
-0.0000000000008402
 42
6.283185307178746
  0
ELLIPSE
  5
18B6
330
1899
100
AcDbEntity
  8
Pel_Wall
100
AcDbEllipse
 10
0.2415462586329795
 20
0.1768008634963962
 30
0.0
 11
0.0166728848683988
 21
0.0000000000000105
 31
0.0
210
0.0
220
0.0
230
1.0
 40
0.7500000000000001
 41
-0.0000000000008402
 42
6.283185307178746
  0
ELLIPSE
  5
18B7
330
1899
100
AcDbEntity
  8
Pel_Wall
100
AcDbEllipse
 10
0.195579418202442
 20
0.0946425938700486
 30
0.0
 11
0.0166728848683988
 21
0.0000000000000105
 31
0.0
210
0.0
220
0.0
230
1.0
 40
0.7500000000000001
 41
-0.0000000000008402
 42
6.283185307178746
  0
ELLIPSE
  5
18B8
330
1899
100
AcDbEntity
  8
Pel_Wall
100
AcDbEllipse
 10
0.1637557797459976
 20
0.0376612376140315
 30
0.0
 11
0.0166728848683988
 21
0.0000000000000105
 31
0.0
210
0.0
220
0.0
230
1.0
 40
0.7500000000000001
 41
-0.0000000000008402
 42
6.283185307178746
  0
ELLIPSE
  5
18B9
330
1899
100
AcDbEntity
  8
Pel_Wall
100
AcDbEllipse
 10
0.9148304327217999
 20
0.2597563913067518
 30
0.0
 11
-0.0339494177336768
 21
0.0000000000000027
 31
0.0
210
0.0
220
0.0
230
1.0
 40
0.7499999999999738
 41
3.141592653589897
 42
9.424777960769482
  0
ELLIPSE
  5
18BA
330
1899
100
AcDbEntity
  8
Pel_Wall
100
AcDbEllipse
 10
0.7861537422052436
 20
0.3647389566220198
 30
0.0
 11
-0.0339494177336768
 21
0.0000000000000027
 31
0.0
210
0.0
220
0.0
230
1.0
 40
0.7499999999999738
 41
3.141592653589897
 42
9.424777960769482
  0
ELLIPSE
  5
18BC
330
1899
100
AcDbEntity
  8
Pel_Wall
100
AcDbEllipse
 10
0.6872309321612545
 20
0.2946526178305753
 30
0.0
 11
-0.0339494177336768
 21
0.0000000000000027
 31
0.0
210
0.0
220
0.0
230
1.0
 40
0.7499999999999738
 41
3.141592653589897
 42
9.424777960769482
  0
ELLIPSE
  5
18BD
330
1899
100
AcDbEntity
  8
Pel_Wall
100
AcDbEllipse
 10
0.5544117481142905
 20
0.2950078071328619
 30
0.0
 11
-0.0339494177336768
 21
0.0000000000000027
 31
0.0
210
0.0
220
0.0
230
1.0
 40
0.7499999999999738
 41
3.141592653589897
 42
9.424777960769482
  0
ELLIPSE
  5
18C0
330
1899
100
AcDbEntity
  8
Pel_Wall
100
AcDbEllipse
 10
0.4979020715193201
 20
0.0456125830546625
 30
0.0
 11
-0.0339494177336768
 21
0.0000000000000027
 31
0.0
210
0.0
220
0.0
230
1.0
 40
0.7499999999999738
 41
3.141592653589897
 42
9.424777960769482
  0
ELLIPSE
  5
18C1
330
1899
100
AcDbEntity
  8
Pel_Wall
100
AcDbEllipse
 10
0.411270418381946
 20
0.1092195910728719
 30
0.0
 11
-0.0339494177336768
 21
0.0000000000000027
 31
0.0
210
0.0
220
0.0
230
1.0
 40
0.7499999999999738
 41
3.141592653589897
 42
9.424777960769482
  0
ELLIPSE
  5
18C4
330
1899
100
AcDbEntity
  8
Pel_Wall
100
AcDbEllipse
 10
0.2556913726259609
 20
0.053563928495123
 30
0.0
 11
-0.0339494177336768
 21
0.0000000000000027
 31
0.0
210
0.0
220
0.0
230
1.0
 40
0.7499999999999738
 41
3.141592653589897
 42
9.424777960769482
  0
ELLIPSE
  5
18C5
330
1899
100
AcDbEntity
  8
Pel_Wall
100
AcDbEllipse
 10
0.0877358301306686
 20
0.0827169840241027
 30
0.0
 11
-0.0339494177336768
 21
0.0000000000000027
 31
0.0
210
0.0
220
0.0
230
1.0
 40
0.7499999999999738
 41
3.141592653589897
 42
9.424777960769482
  0
ELLIPSE
  5
18C6
330
1899
100
AcDbEntity
  8
Pel_Wall
100
AcDbEllipse
 10
0.0665181591414239
 20
0.1529487049278373
 30
0.0
 11
0.0166728848683988
 21
0.0000000000000105
 31
0.0
210
0.0
220
0.0
230
1.0
 40
0.7500000000000001
 41
-0.0000000000008402
 42
6.283185307178746
  0
ELLIPSE
  5
18C7
330
1899
100
AcDbEntity
  8
Pel_Wall
100
AcDbEllipse
 10
0.1513811950251238
 20
0.1887274122190092
 30
0.0
 11
-0.0339494177336768
 21
0.0000000000000027
 31
0.0
210
0.0
220
0.0
230
1.0
 40
0.7499999999999738
 41
3.141592653589897
 42
9.424777960769482
  0
SPLINE
  5
18C8
330
1899
100
AcDbEntity
  8
Pel_Wall
100
AcDbSpline
210
0.0
220
0.0
230
1.0
 70
    11
 71
     3
 72
    25
 73
    21
 74
     0
 42
0.0000000001
 43
0.0000000001
 40
0.0
 40
0.0
 40
0.0
 40
0.0
 40
0.0629554322876937
 40
0.158093302027984
 40
0.3666917292501777
 40
0.5784791336554056
 40
0.7355935303893651
 40
0.92015700109171
 40
0.9998917151712305
 40
1.084210485759284
 40
1.213963102362994
 40
1.314826092548635
 40
1.415272472028991
 40
1.637307026429963
 40
1.855898558905747
 40
2.026708445463031
 40
2.170524664608772
 40
2.273030982295876
 40
2.389147774011812
 40
2.478484947992602
 40
2.478484947992602
 40
2.478484947992602
 40
2.478484947992602
 10
-0.0052838773256099
 20
0.0711753746840032
 30
0.0
 10
0.0184102185775288
 20
0.0231837198322964
 30
0.0
 10
0.0590329991169227
 20
-0.0099011697010738
 30
0.0
 10
0.1553598528092976
 20
-0.0213253623965741
 30
0.0
 10
0.3333194245357873
 20
-0.0245893886460138
 30
0.0
 10
0.6631161272075162
 20
-0.0245893886460138
 30
0.0
 10
0.7991824609399992
 20
-0.0212551195905704
 30
0.0
 10
0.9621064328112645
 20
-0.0250871712736327
 30
0.0
 10
0.9805153362134255
 20
0.1224457286346663
 30
0.0
 10
0.9791875781003902
 20
0.1786333080021407
 30
0.0
 10
0.9826933765831959
 20
0.3265783001552762
 30
0.0
 10
0.9368672059903282
 20
0.3869083041413219
 30
0.0
 10
0.8301470276118081
 20
0.4146492949009897
 30
0.0
 10
0.656947986136558
 20
0.4125586404156465
 30
0.0
 10
0.4506428829072249
 20
0.4146492949009897
 30
0.0
 10
0.2741929830495238
 20
0.4083771298000514
 30
0.0
 10
0.1329265682900029
 20
0.4083771298000514
 30
0.0
 10
0.0194821735985187
 20
0.358199909815049
 30
0.0
 10
-0.0056683059825815
 20
0.2741917141088166
 30
0.0
 10
-0.0240139796483021
 20
0.1779146351554814
 30
0.0
 10
-0.0052838773256099
 20
0.0711753746840032
 30
0.0
  0
ELLIPSE
  5
18C9
330
1899
100
AcDbEntity
  8
Pel_Wall
100
AcDbEllipse
 10
0.9461088197712115
 20
0.0874951395292954
 30
0.0
 11
0.0166728848683988
 21
0.0000000000000105
 31
0.0
210
0.0
220
0.0
230
1.0
 40
0.7500000000000001
 41
-0.0000000000008402
 42
6.283185307178746
  0
ELLIPSE
  5
18CB
330
1899
100
AcDbEntity
  8
Pel_Wall
100
AcDbEllipse
 10
0.6318500693061946
 20
0.0212263865790803
 30
0.0
 11
0.0166728848683988
 21
0.0000000000000105
 31
0.0
210
0.0
220
0.0
230
1.0
 40
0.7500000000000001
 41
-0.0000000000008402
 42
6.283185307178746
  0
ELLIPSE
  5
18CC
330
1899
100
AcDbEntity
  8
Pel_Wall
100
AcDbEllipse
 10
0.867090083466536
 20
0.1125880209302323
 30
0.0
 11
0.0166728848683988
 21
0.0000000000000105
 31
0.0
210
0.0
220
0.0
230
1.0
 40
0.7500000000000001
 41
-0.0000000000008402
 42
6.283185307178746
  0
ELLIPSE
  5
18CE
330
1899
100
AcDbEntity
  8
Pel_Wall
100
AcDbEllipse
 10
0.9148304327217999
 20
0.0371903801847253
 30
0.0
 11
-0.0339494177336768
 21
0.0000000000000027
 31
0.0
210
0.0
220
0.0
230
1.0
 40
0.7499999999999738
 41
3.141592653589897
 42
9.424777960769482
  0
ELLIPSE
  5
18D0
330
1899
100
AcDbEntity
  8
Pel_Wall
100
AcDbEllipse
 10
0.7608213453451072
 20
0.0319479123384099
 30
0.0
 11
-0.0339494177336768
 21
0.0000000000000027
 31
0.0
210
0.0
220
0.0
230
1.0
 40
0.7499999999999738
 41
3.141592653589897
 42
9.424777960769482
  0
ELLIPSE
  5
18D1
330
1899
100
AcDbEntity
  8
Pel_Wall
100
AcDbEllipse
 10
0.7112659881772175
 20
0.2066911777876044
 30
0.0
 11
0.0166728848683988
 21
0.0000000000000105
 31
0.0
210
0.0
220
0.0
230
1.0
 40
0.7500000000000001
 41
-0.0000000000008402
 42
6.283185307178746
  0
ELLIPSE
  5
18D2
330
1899
100
AcDbEntity
  8
Pel_Wall
100
AcDbEllipse
 10
0.8121477058295738
 20
0.1984087565110002
 30
0.0
 11
-0.0339494177336768
 21
0.0000000000000027
 31
0.0
210
0.0
220
0.0
230
1.0
 40
0.7499999999999738
 41
3.141592653589897
 42
9.424777960769482
  0
ELLIPSE
  5
18D3
330
1899
100
AcDbEntity
  8
Pel_Wall
100
AcDbEllipse
 10
0.9052888475744218
 20
0.2066911777876044
 30
0.0
 11
0.0166728848683988
 21
0.0000000000000105
 31
0.0
210
0.0
220
0.0
230
1.0
 40
0.7500000000000001
 41
-0.0000000000008402
 42
6.283185307178746
  0
ELLIPSE
  5
1B37
330
1899
100
AcDbEntity
  8
Pel_Wall
100
AcDbEllipse
 10
0.6587013702987968
 20
0.3751707723329751
 30
0.0
 11
0.0166728848683988
 21
0.0000000000000105
 31
0.0
210
0.0
220
0.0
230
1.0
 40
0.7500000000000001
 41
-0.0000000000008402
 42
6.283185307178746
  0
ELLIPSE
  5
1B38
330
1899
100
AcDbEntity
  8
Pel_Wall
100
AcDbEllipse
 10
0.3096340832842195
 20
0.1185191600952713
 30
0.0
 11
0.0166728848683988
 21
0.0000000000000105
 31
0.0
210
0.0
220
0.0
230
1.0
 40
0.7500000000000001
 41
-0.0000000000008402
 42
6.283185307178746
  0
ENDBLK
  5
18D4
330
1899
100
AcDbEntity
  8
0
100
AcDbBlockEnd
  0
BLOCK
  5
18E4
330
18DC
100
AcDbEntity
  8
0
100
AcDbBlockBegin
  2
*D11
 70
     1
 10
0.0
 20
0.0
 30
0.0
  3
*D11
  1

  0
LINE
  5
2B9F
330
18DC
100
AcDbEntity
  8
0
100
AcDbLine
 10
7.080503688253522
 20
27.7380000000012
 30
0.0
 11
3.806939991420854
 21
27.7380000000012
 31
0.0
  0
LINE
  5
2BA0
330
18DC
100
AcDbEntity
  8
0
100
AcDbLine
 10
4.056939991420853
 20
23.11300000000121
 30
0.0
 11
4.056939991420853
 21
27.51925000000121
 31
0.0
  0
MTEXT
  5
2BA1
330
18DC
100
AcDbEntity
  8
0
 62
   255
100
AcDbMText
 10
3.787069595786476
 20
24.90824990941364
 30
0.0
 40
0.28
 41
0.0
 71
     5
 72
     1
  1
\A1;ROUGH OPENING
 11
0.0000000000000001
 21
1.0
 31
0.0
 73
     1
 44
1.0
1001
ACAD
1000
MTEXTBEGIN
1070
    73
1070
     1
1070
    44
1040
1.0
1070
    74
1070
     0
1000
MTEXTEND
  0
SOLID
  5
2BA2
330
18DC
100
AcDbEntity
  8
0
100
AcDbTrace
 10
4.02048165808752
 20
27.51925000000121
 30
0.0
 11
4.093398324754186
 21
27.51925000000121
 31
0.0
 12
4.056939991420854
 22
27.7380000000012
 32
0.0
 13
4.056939991420854
 23
27.7380000000012
 33
0.0
  0
POINT
  5
2BA3
330
18DC
100
AcDbEntity
  8
Defpoints
 62
     0
100
AcDbPoint
 10
5.642492493388856
 20
23.11300000000121
 30
0.0
  0
POINT
  5
2BA4
330
18DC
100
AcDbEntity
  8
Defpoints
 62
     0
100
AcDbPoint
 10
7.580503688253522
 20
27.7380000000012
 30
0.0
  0
POINT
  5
2BA5
330
18DC
100
AcDbEntity
  8
Defpoints
 62
     0
100
AcDbPoint
 10
4.056939991420854
 20
27.7380000000012
 30
0.0
  0
ENDBLK
  5
18E5
330
18DC
100
AcDbEntity
  8
0
100
AcDbBlockEnd
  0
BLOCK
  5
18F1
330
18E6
100
AcDbEntity
  8
0
100
AcDbBlockBegin
  2
*D12
 70
     1
 10
0.0
 20
0.0
 30
0.0
  3
*D12
  1

  0
LINE
  5
2BB0
330
18E6
100
AcDbEntity
  8
0
100
AcDbLine
 10
7.080503688253523
 20
27.23800000000118
 30
0.0
 11
4.806939991420854
 21
27.23800000000118
 31
0.0
  0
LINE
  5
2BB1
330
18E6
100
AcDbEntity
  8
0
100
AcDbLine
 10
7.080503688253522
 20
27.7380000000012
 30
0.0
 11
4.806939991420855
 21
27.7380000000012
 31
0.0
  0
LINE
  5
2BB2
330
18E6
100
AcDbEntity
  8
0
100
AcDbLine
 10
5.056939991420854
 20
27.01925000000118
 30
0.0
 11
5.056939991420854
 21
26.80050000000119
 31
0.0
  0
LINE
  5
2BB3
330
18E6
100
AcDbEntity
  8
0
100
AcDbLine
 10
5.056939991420855
 20
27.9567500000012
 30
0.0
 11
5.056939991420855
 21
28.17550000000121
 31
0.0
  0
MTEXT
  5
2BB4
330
18E6
100
AcDbEntity
  8
0
 62
   255
100
AcDbMText
 10
5.076267676115818
 20
28.81614900933687
 30
0.0
 40
0.28
 41
0.0
 71
     5
 72
     1
  1
\A1;1/2"\P [13]
 11
0.0000000000000001
 21
1.0
 31
0.0
 73
     1
 44
1.0
1001
ACAD
1000
MTEXTBEGIN
1070
    73
1070
     1
1070
    44
1040
1.0
1070
    74
1070
     0
1000
MTEXTEND
  0
SOLID
  5
2BB5
330
18E6
100
AcDbEntity
  8
0
100
AcDbTrace
 10
5.020481658087521
 20
27.01925000000118
 30
0.0
 11
5.093398324754187
 21
27.01925000000118
 31
0.0
 12
5.056939991420854
 22
27.23800000000118
 32
0.0
 13
5.056939991420854
 23
27.23800000000118
 33
0.0
  0
SOLID
  5
2BB6
330
18E6
100
AcDbEntity
  8
0
100
AcDbTrace
 10
5.020481658087522
 20
27.9567500000012
 30
0.0
 11
5.093398324754188
 21
27.9567500000012
 31
0.0
 12
5.056939991420855
 22
27.7380000000012
 32
0.0
 13
5.056939991420855
 23
27.7380000000012
 33
0.0
  0
POINT
  5
2BB7
330
18E6
100
AcDbEntity
  8
Defpoints
 62
     0
100
AcDbPoint
 10
7.580503688253523
 20
27.23800000000118
 30
0.0
  0
POINT
  5
2BB8
330
18E6
100
AcDbEntity
  8
Defpoints
 62
     0
100
AcDbPoint
 10
7.580503688253522
 20
27.7380000000012
 30
0.0
  0
POINT
  5
2BB9
330
18E6
100
AcDbEntity
  8
Defpoints
 62
     0
100
AcDbPoint
 10
5.056939991420855
 20
27.7380000000012
 30
0.0
  0
ENDBLK
  5
18F2
330
18E6
100
AcDbEntity
  8
0
100
AcDbBlockEnd
  0
BLOCK
  5
2390
330
238D
100
AcDbEntity
  8
0
100
AcDbBlockBegin
  2
TSE 10 SD HV
 70
     0
 10
0.0
 20
0.0
 30
0.0
  3
TSE 10 SD HV
  1

  0
POINT
  5
2391
330
238D
100
AcDbEntity
  8
Pel_Points
100
AcDbPoint
 10
0.0
 20
-0.0000000000000036
 30
0.0
  0
LWPOLYLINE
  5
2392
330
238D
100
AcDbEntity
  8
Pel_CS-Cross Section
 62
     4
100
AcDbPolyline
 90
      129
 70
     1
 43
0.0
 10
1.429957603986359
 20
1.124999999999996
 10
1.349957603986357
 20
1.124999999999996
 10
1.349957603986357
 20
-0.0000000000000036
 10
0.0650000000000013
 20
-0.0000000000000036
 10
0.0649999999999977
 20
-0.0800000000000019
 10
0.1169615242270687
 20
-0.110000000000003
 10
0.1419615242270709
 20
-0.110000000000003
 10
0.1419615242270638
 20
-0.0800000000000019
 10
0.2800000000000011
 20
-0.0800000000000019
 10
0.2799999999999976
 20
-0.235000000000003
 10
0.0
 20
-0.235000000000003
 10
0.0
 20
-0.9380000000000059
 10
0.1999999999999993
 20
-0.9380000000000059
 10
0.1999999999999993
 20
-0.438000000000006
 10
0.8350000000000008
 20
-0.438000000000006
 10
0.8350000000000008
 20
-0.6280000000000037
 10
0.8000000000000007
 20
-0.6280000000000037
 10
0.8000000000000007
 20
-0.9380000000000059
 10
0.8900000000000005
 20
-0.9380000000000059
 42
1.0
 10
0.8900000000000005
 20
-0.8780000000000036
 10
0.8599999999999994
 20
-0.8780000000000001
 10
0.8599999999999994
 20
-0.6880000000000024
 10
1.054999999999999
 20
-0.6880000000000024
 10
1.054999999999999
 20
-0.8380000000000009
 10
1.112735026918961
 20
-0.9380000000000023
 10
2.15
 20
-0.9379999999999988
 10
2.15
 20
-1.103000000000005
 10
2.114999999999998
 20
-1.103000000000005
 10
2.074999999999993
 20
-1.063000000000005
 10
2.05
 20
-1.063000000000005
 10
2.049999999999998
 20
-1.563000000000005
 10
2.599999999999997
 20
-1.563000000000005
 42
0.4142135623731037
 10
2.629999999999999
 20
-1.533000000000004
 10
2.629999999999997
 20
-0.682282032302755
 10
2.669999999999998
 20
-0.6130000000000067
 10
2.669999999999996
 20
-0.5880000000000046
 10
2.629999999999999
 20
-0.5880000000000046
 10
2.629999999999999
 20
-0.4630000000000046
 10
4.269999999999999
 20
-0.4630000000000046
 10
4.269999999999997
 20
-0.5880000000000046
 10
4.230000000000002
 20
-0.5880000000000046
 10
4.230000000000002
 20
-0.6130000000000067
 10
4.269999999999999
 20
-0.682282032302755
 10
4.269999999999997
 20
-1.413000000000003
 10
4.230000000000002
 20
-1.413000000000003
 10
4.23
 20
-1.533000000000004
 42
0.4142135623730863
 10
4.259999999999998
 20
-1.563000000000002
 10
4.499999999999994
 20
-1.563000000000005
 10
4.499999999999998
 20
-0.235000000000003
 10
4.220000000000004
 20
-0.235000000000003
 10
4.22
 20
-0.0901420310525758
 10
4.144999999999997
 20
-0.0901420310525758
 10
4.145000000000003
 20
-0.235000000000003
 42
0.4142135623731037
 10
4.220000000000004
 20
-0.3100000000000058
 10
4.419999999999998
 20
-0.3100000000000058
 10
4.419999999999996
 20
-0.3830000000000027
 10
4.404899421459155
 20
-0.3830000000000027
 10
4.404899421459155
 20
-0.4430000000000014
 10
4.419999999999999
 20
-0.4430000000000014
 10
4.419999999999996
 20
-1.483000000000004
 10
4.33
 20
-1.483000000000004
 10
4.33
 20
-0.4430000000000014
 10
4.404899421459155
 20
-0.4430000000000014
 10
4.404899421459155
 20
-0.3830000000000027
 10
3.509
 20
-0.3830000000000027
 10
3.509000000000005
 20
-0.0901420310525758
 10
3.448999999999999
 20
-0.0901420310525758
 10
3.449000000000003
 20
-0.3830000000000027
 10
2.610000000000001
 20
-0.3830000000000027
 10
2.609999999999997
 20
-0.0901420310525758
 10
2.549999999999997
 20
-0.0901420310525758
 10
2.55
 20
-1.483000000000004
 10
2.130000000000002
 20
-1.483000000000004
 10
2.129999999999997
 20
-1.178000000000004
 10
2.150000000000002
 20
-1.178000000000007
 42
0.4142135623730822
 10
2.224999999999997
 20
-1.103000000000008
 10
2.224999999999997
 20
-0.9330000000000033
 42
0.414213562373109
 10
2.149999999999998
 20
-0.8580000000000005
 10
2.019999999999997
 20
-0.8580000000000005
 10
2.020000000000003
 20
-0.0901420310525758
 10
1.96
 20
-0.0901420310525758
 10
1.96
 20
-0.8580000000000005
 10
1.153149545762236
 20
-0.8580000000000005
 10
1.129999999999995
 20
-0.8179038105676674
 10
1.130000000000002
 20
-0.0901420310525758
 10
1.07
 20
-0.0901420310525758
 10
1.069999999999996
 20
-0.6130000000000031
 10
0.9100000000000036
 20
-0.6130000000000031
 10
0.9100000000000001
 20
-0.438000000000006
 42
0.4142135623730951
 10
0.8350000000000008
 20
-0.3630000000000031
 10
0.3550000000000004
 20
-0.3630000000000031
 10
0.3550000000000004
 20
-0.3530621331517061
 10
0.2950000000000017
 20
-0.3530621331517061
 10
0.2950000000000017
 20
-0.3630000000000031
 10
0.2149999999999999
 20
-0.3630000000000031
 42
0.4142135623730966
 10
0.1400000000000006
 20
-0.438000000000006
 10
0.139999999999997
 20
-0.858000000000004
 10
0.0800000000000019
 20
-0.858000000000004
 10
0.0799999999999983
 20
-0.3100000000000023
 10
0.2950000000000017
 20
-0.3100000000000023
 10
0.2950000000000017
 20
-0.3530621331517061
 10
0.3550000000000004
 20
-0.3530621331517061
 10
0.3550000000000004
 20
-0.0800000000000054
 10
1.07
 20
-0.0800000000000054
 10
1.07
 20
-0.0901420310525758
 10
1.130000000000006
 20
-0.0901420310525758
 10
1.129999999999999
 20
-0.0800000000000054
 10
1.96
 20
-0.0800000000000019
 10
1.96
 20
-0.0901420310525758
 10
2.019999999999999
 20
-0.0901420310525758
 10
2.020000000000001
 20
-0.0800000000000019
 10
2.550000000000002
 20
-0.0800000000000019
 10
2.550000000000004
 20
-0.0901420310525758
 10
2.610000000000001
 20
-0.0901420310525758
 10
2.609999999999997
 20
-0.0800000000000019
 10
3.448999999999999
 20
-0.0800000000000019
 10
3.449000000000001
 20
-0.0901420310525758
 10
3.509000000000003
 20
-0.0901420310525758
 10
3.509000000000003
 20
-0.0800000000000019
 10
4.144999999999999
 20
-0.0800000000000019
 10
4.144999999999997
 20
-0.0901420310525758
 10
4.220000000000004
 20
-0.0901420310525758
 10
4.22
 20
-0.0800000000000054
 10
4.358038475772936
 20
-0.0800000000000054
 10
4.358038475772936
 20
-0.110000000000003
 10
4.383038475772931
 20
-0.110000000000003
 10
4.435000000000004
 20
-0.0800000000000054
 10
4.435
 20
-0.0000000000000036
 10
1.429957603986363
 20
-0.0000000000000036
  0
POINT
  5
2393
330
238D
100
AcDbEntity
  8
Pel_Points
100
AcDbPoint
 10
0.0
 20
-0.0000000000000071
 30
0.0
  0
LWPOLYLINE
  5
2394
330
238D
100
AcDbEntity
  8
Pel_CS-Cross Section
 62
     4
100
AcDbPolyline
 90
       15
 70
     1
 43
0.0
 10
2.866857076183634
 20
-2.81299999999991
 10
2.866857076183634
 20
-2.724249999999905
 10
2.967719145149146
 20
-2.61834482758612
 42
1.0
 10
2.945995007218073
 20
-2.597655172413702
 10
2.821857076183619
 20
-2.727999999999916
 10
2.836857076183605
 20
-2.742999999999916
 10
2.836857076183605
 20
-2.81299999999991
 10
2.773443401098859
 20
-2.81299999999991
 42
0.5343310138307086
 10
2.759581993294659
 20
-2.833732484076342
 42
0.2404623521578165
 10
3.132215680118406
 20
-3.419880385509607
 42
0.9781803082727828
 10
3.147473102968035
 20
-3.394017467921706
 10
3.146200661725004
 20
-3.393311425494182
 42
-0.0133516086578351
 10
3.146910150142332
 20
-3.393685140719078
 42
-0.2361122684030795
 10
2.791337111878874
 20
-2.842999999999911
 10
2.836857076183605
 20
-2.842999999999911
 42
0.414213562373108
  0
LWPOLYLINE
  5
2395
330
238D
100
AcDbEntity
  8
Pel_CS-Cross Section
 62
     4
100
AcDbPolyline
 90
       73
 70
     1
 43
0.0
 10
2.991857076183634
 20
-1.188000000000009
 10
2.796857076183641
 20
-1.188000000000009
 42
0.4142135623730951
 10
2.7168570761836
 20
-1.268000000000007
 10
2.7168570761836
 20
-1.310500000000011
 10
2.766857076183612
 20
-1.310500000000011
 10
2.766857076183612
 20
-1.268000000000007
 10
2.816857076183623
 20
-1.268000000000007
 10
2.816857076183623
 20
-1.478000000000015
 10
2.766857076183612
 20
-1.478000000000015
 10
2.766857076183612
 20
-1.435500000000011
 10
2.7168570761836
 20
-1.435500000000011
 10
2.7168570761836
 20
-1.478000000000015
 10
2.7168570761836
 20
-2.813000000000009
 10
2.806857076183632
 20
-2.813000000000009
 42
1.0
 10
2.806857076183632
 20
-2.753000000000007
 10
2.796857076183641
 20
-2.753000000000007
 10
2.796857076183641
 20
-2.563000000000009
 10
2.820574096771736
 20
-2.563000000000009
 10
2.820574096771736
 20
-2.483000000000011
 10
2.796857076183641
 20
-2.483000000000011
 10
2.796857076183641
 20
-1.842000000000005
 10
2.820574096771736
 20
-1.842000000000005
 10
2.820574096771736
 20
-1.792000000000008
 10
2.796857076183641
 20
-1.792000000000008
 10
2.796857076183641
 20
-1.558000000000014
 10
2.816857076183623
 20
-1.558000000000014
 42
0.4142135623731081
 10
2.896857076183607
 20
-1.478000000000015
 10
2.896857076183607
 20
-1.268000000000007
 10
2.991857076183634
 20
-1.268000000000007
 10
2.991857076183634
 20
-1.792000000000008
 10
2.820574096771736
 20
-1.792000000000008
 10
2.820574096771736
 20
-1.842000000000005
 10
4.120665511853701
 20
-1.842000000000005
 10
4.120665511853701
 20
-1.792000000000008
 10
3.941857076183623
 20
-1.792000000000008
 10
3.941857076183623
 20
-1.268000000000007
 10
4.136857076183616
 20
-1.268000000000007
 10
4.136857076183616
 20
-1.792000000000008
 10
4.120665511853701
 20
-1.792000000000008
 10
4.120665511853701
 20
-1.842000000000005
 10
4.136857076183616
 20
-1.842000000000005
 10
4.136857076183616
 20
-2.733000000000011
 10
4.120665511853701
 20
-2.733000000000011
 10
4.120665511853701
 20
-2.783000000000008
 10
4.136857076183616
 20
-2.783000000000008
 10
4.136857076183616
 20
-3.378000000000007
 10
4.026857076183603
 20
-3.378000000000007
 10
4.026857076183603
 20
-2.783000000000008
 10
4.120665511853701
 20
-2.783000000000008
 10
4.120665511853701
 20
-2.733000000000011
 10
3.911857076183594
 20
-2.733000000000011
 10
3.911857076183594
 20
-2.563000000000009
 10
3.831857076183609
 20
-2.563000000000009
 10
3.831857076183609
 20
-2.733000000000011
 10
3.051857076183637
 20
-2.733000000000011
 10
3.051857076183637
 20
-2.563000000000009
 10
3.101857076183591
 20
-2.563000000000009
 10
3.101857076183591
 20
-2.483000000000011
 10
2.820574096771736
 20
-2.483000000000011
 10
2.820574096771736
 20
-2.563000000000009
 10
2.971857076183596
 20
-2.563000000000009
 10
2.971857076183596
 20
-2.733000000000011
 42
0.4142135623730951
 10
3.051857076183637
 20
-2.813000000000009
 10
3.9668570761836
 20
-2.813000000000009
 10
3.9668570761836
 20
-3.438000000000009
 10
4.2168570761836
 20
-3.438000000000009
 10
4.2168570761836
 20
-1.268000000000007
 42
0.4142135623730951
 10
4.136857076183616
 20
-1.188000000000009
 10
3.941857076183623
 20
-1.188000000000009
 42
0.4142135623730951
 10
3.861857076183639
 20
-1.268000000000007
 10
3.861857076183639
 20
-1.762000000000007
 10
3.071857076183619
 20
-1.762000000000007
 10
3.071857076183619
 20
-1.268000000000007
 42
0.4142135623730951
  0
LWPOLYLINE
  5
2396
330
238D
100
AcDbEntity
  8
Pel_CS-Cross Section
 62
     4
100
AcDbPolyline
 90
       17
 70
     1
 43
0.0
 10
3.930000000000006
 20
-0.463000000000001
 10
2.629999999999995
 20
-0.4630000000000152
 10
2.629999999999995
 20
-0.5130000000000124
 10
2.730000000000018
 20
-0.5130000000000124
 10
2.730000000000018
 20
-0.5430000000000135
 10
3.930000000000006
 20
-0.5429999999999993
 10
3.930000000000006
 20
-0.9630000000000009
 10
4.25
 20
-0.9630000000000009
 10
4.25
 20
-0.9130000000000038
 10
4.199999999999988
 20
-0.9130000000000038
 10
4.199999999999988
 20
-0.5830000000000056
 10
4.25
 20
-0.5830000000000056
 10
4.180717967697262
 20
-0.463000000000001
 10
4.120000000000004
 20
-0.463000000000001
 10
4.120000000000004
 20
-0.8830000000000026
 10
4.00999999999999
 20
-0.8830000000000168
 10
4.00999999999999
 20
-0.5430000000000135
 42
0.4142135623730951
  0
POLYLINE
  5
2397
330
238D
100
AcDbEntity
  8
Pel_CS-Weatherstrip
100
AcDb2dPolyline
 66
     1
 10
0.0
 20
0.0
 30
0.0
  0
VERTEX
  5
2668
330
2397
100
AcDbEntity
  8
Pel_CS-Weatherstrip
100
AcDbVertex
100
AcDb2dVertex
 10
2.775769530261641
 20
-1.465141855391429
 30
0.0
  0
VERTEX
  5
2669
330
2397
100
AcDbEntity
  8
Pel_CS-Weatherstrip
100
AcDbVertex
100
AcDb2dVertex
 10
2.775769530261641
 20
-1.418897265753052
 30
0.0
  0
VERTEX
  5
266A
330
2397
100
AcDbEntity
  8
Pel_CS-Weatherstrip
100
AcDbVertex
100
AcDb2dVertex
 10
2.629999999999995
 20
-1.457630846916224
 30
0.0
  0
VERTEX
  5
266B
330
2397
100
AcDbEntity
  8
Pel_CS-Weatherstrip
100
AcDbVertex
100
AcDb2dVertex
 10
2.629999999999995
 20
-1.429455610262344
 30
0.0
  0
VERTEX
  5
266C
330
2397
100
AcDbEntity
  8
Pel_CS-Weatherstrip
100
AcDbVertex
100
AcDb2dVertex
 10
2.775769530261641
 20
-1.418897265753052
 30
0.0
  0
VERTEX
  5
266D
330
2397
100
AcDbEntity
  8
Pel_CS-Weatherstrip
100
AcDbVertex
100
AcDb2dVertex
 10
2.629999999999995
 20
-1.408054524604231
 30
0.0
  0
VERTEX
  5
266E
330
2397
100
AcDbEntity
  8
Pel_CS-Weatherstrip
100
AcDbVertex
100
AcDb2dVertex
 10
2.629999999999995
 20
-1.377668283501314
 30
0.0
  0
VERTEX
  5
266F
330
2397
100
AcDbEntity
  8
Pel_CS-Weatherstrip
100
AcDbVertex
100
AcDb2dVertex
 10
2.775769530261641
 20
-1.418897265753052
 30
0.0
  0
VERTEX
  5
2670
330
2397
100
AcDbEntity
  8
Pel_CS-Weatherstrip
100
AcDbVertex
100
AcDb2dVertex
 10
2.775769530261641
 20
-1.33643930124959
 30
0.0
  0
VERTEX
  5
2671
330
2397
100
AcDbEntity
  8
Pel_CS-Weatherstrip
100
AcDbVertex
100
AcDb2dVertex
 10
2.629999999999995
 20
-1.377668283501314
 30
0.0
  0
VERTEX
  5
2672
330
2397
100
AcDbEntity
  8
Pel_CS-Weatherstrip
100
AcDbVertex
100
AcDb2dVertex
 10
2.629999999999995
 20
-1.347282042398397
 30
0.0
  0
VERTEX
  5
2673
330
2397
100
AcDbEntity
  8
Pel_CS-Weatherstrip
100
AcDbVertex
100
AcDb2dVertex
 10
2.775769530261641
 20
-1.33643930124959
 30
0.0
  0
VERTEX
  5
2674
330
2397
100
AcDbEntity
  8
Pel_CS-Weatherstrip
100
AcDbVertex
100
AcDb2dVertex
 10
2.629999999999995
 20
-1.318301524948033
 30
0.0
  0
VERTEX
  5
2675
330
2397
100
AcDbEntity
  8
Pel_CS-Weatherstrip
100
AcDbVertex
100
AcDb2dVertex
 10
2.629999999999995
 20
-1.276839754777405
 30
0.0
  0
VERTEX
  5
2676
330
2397
100
AcDbEntity
  8
Pel_CS-Weatherstrip
100
AcDbVertex
100
AcDb2dVertex
 10
2.775769530261641
 20
-1.33643930124959
 30
0.0
  0
VERTEX
  5
2677
330
2397
100
AcDbEntity
  8
Pel_CS-Weatherstrip
100
AcDbVertex
100
AcDb2dVertex
 10
2.775769530261641
 20
-1.278364131705252
 30
0.0
  0
VERTEX
  5
2678
330
2397
100
AcDbEntity
  8
Pel_CS-Weatherstrip
100
AcDbVertex
100
AcDb2dVertex
 10
2.810769516261643
 20
-1.278364131705252
 30
0.0
  0
VERTEX
  5
2679
330
2397
100
AcDbEntity
  8
Pel_CS-Weatherstrip
100
AcDbVertex
100
AcDb2dVertex
 10
2.810769516261643
 20
-1.465141855391429
 30
0.0
  0
VERTEX
  5
267A
330
2397
100
AcDbEntity
  8
0
100
AcDbVertex
100
AcDb2dVertex
 10
2.775769530261641
 20
-1.465141855391429
 30
0.0
  0
SEQEND
  5
267B
330
2397
100
AcDbEntity
  8
Pel_CS-Weatherstrip
  0
LINE
  5
23AC
330
238D
100
AcDbEntity
  8
0
100
AcDbLine
 10
2.637999441323472
 20
-1.408054524604231
 30
0.0
 11
2.637999441323472
 21
-1.408054524604231
 31
0.0
  0
LINE
  5
23AD
330
238D
100
AcDbEntity
  8
0
100
AcDbLine
 10
2.637999441323472
 20
-1.408054524604231
 30
0.0
 11
2.637999441323472
 21
-1.408054524604231
 31
0.0
  0
HATCH
  5
23AE
330
238D
100
AcDbEntity
  8
Pel_CS-Sealant
100
AcDbHatch
 10
0.0
 20
0.0
 30
0.0
210
0.0
220
0.0
230
1.0
  2
DASH
 70
     0
 71
     0
 91
        1
 92
        1
 93
        4
 72
     1
 10
3.310855922766052
 20
-3.121191049788851
 11
3.747605922766069
 21
-3.121191049788851
 72
     1
 10
3.747605922766069
 20
-3.121191049788851
 11
3.747605922766069
 21
-3.071500000000018
 72
     1
 10
3.747605922766069
 20
-3.071500000000018
 11
3.310855922766052
 21
-3.071500000000032
 72
     1
 10
3.310855922766052
 20
-3.071500000000032
 11
3.310855922766052
 21
-3.121191049788865
 97
        0
 75
     0
 76
     1
 52
30.0
 41
0.15
 77
     0
 78
     1
 53
30.0
 43
-8.0
 44
-0.0000000000000036
 45
0.0068629763209582
 46
0.0256129763209582
 79
     2
 49
0.01875
 49
-0.01875
 98
        1
 10
-8.0
 20
-0.0000000000000036
1001
ACAD
1010
0.0
1020
0.0
1030
0.0
  0
LWPOLYLINE
  5
23AF
330
238D
100
AcDbEntity
  8
Pel_CS-Sealant
100
AcDbPolyline
 90
        4
 70
     1
 43
0.0
 10
3.310855922766052
 20
-3.121191049788855
 10
3.747605922766069
 20
-3.121191049788855
 10
3.747605922766069
 20
-3.071500000000021
 10
3.310855922766052
 20
-3.071500000000035
  0
LWPOLYLINE
  5
23B0
330
238D
100
AcDbEntity
  8
Pel_CS-IG
100
AcDbPolyline
 90
        4
 70
     0
 43
0.0
 10
3.154105922766063
 20
-4.124999999999996
 10
3.154105922766063
 20
-2.938000000000023
 10
3.283105922766083
 20
-2.938000000000023
 10
3.283105922766083
 20
-4.124999999999996
  0
LWPOLYLINE
  5
23B1
330
238D
100
AcDbEntity
  8
Pel_CS-IG
100
AcDbPolyline
 90
        4
 70
     0
 43
0.0
 10
3.775355922766038
 20
-4.124999999999996
 10
3.775355922766038
 20
-2.938000000000023
 10
3.904355922766058
 20
-2.938000000000023
 10
3.904355922766058
 20
-4.124999999999996
  0
LWPOLYLINE
  5
23B2
330
238D
100
AcDbEntity
  8
Pel_CS-IG
100
AcDbPolyline
 90
       16
 70
     1
 43
0.0
 10
3.754605922766074
 20
-3.062500000000021
 10
3.303855922766047
 20
-3.062500000000021
 42
0.4142135623730951
 10
3.294855922766089
 20
-3.071500000000021
 10
3.294855922766089
 20
-3.353500000000032
 42
0.4142135623730913
 10
3.303855922766047
 20
-3.362500000000018
 10
3.372980922766089
 20
-3.362500000000018
 10
3.372980922766089
 20
-3.353500000000032
 10
3.303855922766047
 20
-3.353500000000032
 10
3.303855922766047
 20
-3.071500000000021
 10
3.754605922766074
 20
-3.071500000000021
 10
3.754605922766074
 20
-3.353500000000032
 10
3.685480922766089
 20
-3.353500000000018
 10
3.685480922766089
 20
-3.362500000000018
 10
3.754605922766074
 20
-3.362500000000018
 42
0.4142135623730918
 10
3.763605922766089
 20
-3.353500000000032
 10
3.763605922766089
 20
-3.071500000000021
 42
0.4142135623730951
  0
LINE
  5
23B3
330
238D
100
AcDbEntity
  8
Pel_CS-Weatherstrip
  6
Continuous
100
AcDbLine
 10
3.760643836999577
 20
-3.064825901431014
 30
0.0
 11
3.775355922766038
 21
-3.064825901431014
 31
0.0
  0
LINE
  5
23B4
330
238D
100
AcDbEntity
  8
Pel_CS-Weatherstrip
  6
Continuous
100
AcDbLine
 10
3.760643836999577
 20
-3.360174098569039
 30
0.0
 11
3.775355922766038
 21
-3.360174098569039
 31
0.0
  0
LINE
  5
23B5
330
238D
100
AcDbEntity
  8
Pel_CS-Weatherstrip
  6
Continuous
100
AcDbLine
 10
3.297818008532544
 20
-3.064825901431014
 30
0.0
 11
3.283105922766083
 21
-3.064825901431014
 31
0.0
  0
LINE
  5
23B6
330
238D
100
AcDbEntity
  8
Pel_CS-Weatherstrip
  6
Continuous
100
AcDbLine
 10
3.297818008532544
 20
-3.360174098569039
 30
0.0
 11
3.283105922766083
 21
-3.360174098569039
 31
0.0
  0
ARC
  5
23B7
330
238D
100
AcDbEntity
  8
Pel_CS-Sealant
100
AcDbCircle
 10
3.529230922766032
 20
-1.241563280373448
 30
0.0
 40
1.774198080538652
100
AcDbArc
 50
262.0259462884691
 51
277.9740537115308
  0
ARC
  5
23B8
330
238D
100
AcDbEntity
  8
Pel_CS-Sealant
100
AcDbCircle
 10
3.529230922766032
 20
-1.241563280373448
 30
0.0
 40
1.714198080538652
100
AcDbArc
 50
261.7449263785131
 51
278.2550736214901
  0
ARC
  5
23B9
330
238D
100
AcDbEntity
  8
Pel_CS-Sealant
100
AcDbCircle
 10
3.529230922766032
 20
-1.241563280373448
 30
0.0
 40
1.734198080538652
100
AcDbArc
 50
261.8407824200472
 51
278.1592175799527
  0
ARC
  5
23BA
330
238D
100
AcDbEntity
  8
Pel_CS-Sealant
100
AcDbCircle
 10
3.529230922766032
 20
-1.241563280373448
 30
0.0
 40
1.754198080538652
100
AcDbArc
 50
261.9344305006234
 51
278.0655694993799
  0
LWPOLYLINE
  5
23BB
330
238D
100
AcDbEntity
  8
Pel_CS-Weatherstrip
100
AcDbPolyline
 90
        4
 70
     1
 43
0.0
 10
3.904355922766058
 20
-3.063000000000009
 10
3.9668570761836
 20
-3.063000000000009
 10
3.9668570761836
 20
-3.438000000000009
 10
3.904355922766058
 20
-3.438000000000009
  0
LWPOLYLINE
  5
23BC
330
238D
100
AcDbEntity
  8
Pel_CS-Hardware
100
AcDbPolyline
 90
       19
 70
     0
 43
0.0
 10
0.406393398282205
 20
-0.694778575576315
 10
0.406393398282205
 20
-0.569778575576315
 10
0.3563933982821936
 20
-0.569778575576315
 10
0.3563933982821936
 20
-1.569778575576314
 10
0.406393398282205
 20
-1.569778575576314
 10
0.406393398282205
 20
-0.694778575576315
 10
0.406393398282205
 20
-1.444778575576314
 10
0.5003933982821991
 20
-1.394778575576317
 10
0.5003933982821991
 20
-0.7447785755763121
 10
0.5003933982821991
 20
-1.394778575576317
 10
0.5943933982821932
 20
-1.444778575576314
 10
0.5943933982821932
 20
-0.694778575576315
 10
0.5943933982821932
 20
-1.569778575576314
 10
0.6443933982822046
 20
-1.569778575576314
 10
0.6443933982822046
 20
-0.569778575576315
 10
0.5943933982821932
 20
-0.569778575576315
 10
0.5943933982821932
 20
-0.694778575576315
 10
0.5003933982821991
 20
-0.7447785755763121
 10
0.406393398282205
 20
-0.694778575576315
  0
LWPOLYLINE
  5
23BD
330
238D
100
AcDbEntity
  8
Pel_Clad
100
AcDbPolyline
 90
       25
 70
     1
 43
0.0
 10
0.3563933982821936
 20
-1.070966782205282
 10
0.3082202507870306
 20
-1.070966782205282
 42
-0.3868658026623525
 10
0.2693933982822045
 20
-1.035637684623928
 10
0.2693933982822045
 20
-0.7649667822052848
 10
0.2693933982822045
 20
-1.035637684623928
 10
0.2693933982822045
 20
-2.085966782205282
 42
0.4142135623730822
 10
0.2893933982821863
 20
-2.105966782205292
 10
0.5993933982821887
 20
-2.105966782205292
 42
-0.4142135623730948
 10
0.6393933982822091
 20
-2.145966782205285
 10
0.6393933982822091
 20
-2.266966782205294
 42
-0.4142135623730854
 10
0.5993933982821887
 20
-2.306966782205286
 10
0.3658933982821964
 20
-2.306966782205286
 10
0.3658933982821964
 20
-2.287966782205295
 10
0.6003933982822219
 20
-2.287966782205295
 42
0.4142135623730847
 10
0.6203933982822037
 20
-2.267966782205284
 10
0.6203933982822037
 20
-2.144966782205294
 42
0.4142135623731412
 10
0.6003933982822219
 20
-2.124966782205284
 10
0.2903933982822195
 20
-2.124966782205284
 42
-0.4142135623730891
 10
0.2503933982821991
 20
-2.084966782205277
 10
0.2503933982821991
 20
-0.7644667822052967
 42
-0.417485751266966
 10
0.2690998357369381
 20
-0.7459679340363508
 42
-0.4174423589703049
 10
0.2883090443743299
 20
-0.7649667822052848
 10
0.2883090443743299
 20
-1.030084268144442
 42
0.4421005955735554
 10
0.3082202507870306
 20
-1.05196678220529
 10
0.3563933982821936
 20
-1.05196678220529
  0
CIRCLE
  5
23BE
330
238D
100
AcDbEntity
  8
Pel_CS-Weatherstrip
100
AcDbCircle
 10
0.3193933982822159
 20
-2.422466782205283
 30
0.0
 40
0.018
  0
CIRCLE
  5
23BF
102
{ACAD_REACTORS
330
23C2
102
}
330
238D
100
AcDbEntity
  8
Pel_CS-Weatherstrip
100
AcDbCircle
 10
0.3193933982822159
 20
-2.297466782205283
 30
0.0
 40
0.018
  0
CIRCLE
  5
23C0
330
238D
100
AcDbEntity
  8
Pel_CS-Weatherstrip
100
AcDbCircle
 10
0.3193933982822159
 20
-2.672466782205283
 30
0.0
 40
0.018
  0
CIRCLE
  5
23C1
330
238D
100
AcDbEntity
  8
Pel_CS-Weatherstrip
100
AcDbCircle
 10
0.3193933982822159
 20
-2.547466782205283
 30
0.0
 40
0.018
  0
HATCH
  5
23C2
330
238D
100
AcDbEntity
  8
Pel_CS-Weatherstrip
100
AcDbHatch
 10
0.0
 20
0.0
 30
0.0
210
0.0
220
0.0
230
1.0
  2
SOLID
 70
     1
 71
     1
 91
        1
 92
        1
 93
        1
 72
     2
 10
0.3193933982822159
 20
-2.297466782205283
 40
0.018
 50
0.0
 51
360.0
 73
     1
 97
        1
330
23BF
 75
     0
 76
     1
 98
        1
 10
-0.3626066017178005
 20
-0.8124667822052664
  0
HATCH
  5
23C3
330
238D
100
AcDbEntity
  8
Pel_CS-Weatherstrip
100
AcDbHatch
 10
0.0
 20
0.0
 30
0.0
210
0.0
220
0.0
230
1.0
  2
SOLID
 70
     1
 71
     0
 91
        1
 92
        1
 93
        1
 72
     2
 10
0.3193933982822159
 20
-2.42246678220528
 40
0.018
 50
0.0
 51
360.0
 73
     1
 97
        0
 75
     0
 76
     1
 98
        1
 10
-0.3626066017178005
 20
-0.9374667822052664
  0
HATCH
  5
23C4
330
238D
100
AcDbEntity
  8
Pel_CS-Weatherstrip
100
AcDbHatch
 10
0.0
 20
0.0
 30
0.0
210
0.0
220
0.0
230
1.0
  2
SOLID
 70
     1
 71
     0
 91
        1
 92
        1
 93
        1
 72
     2
 10
0.3193933982822159
 20
-2.54746678220528
 40
0.018
 50
0.0
 51
360.0
 73
     1
 97
        0
 75
     0
 76
     1
 98
        1
 10
-0.3626066017178005
 20
-1.062466782205266
  0
HATCH
  5
23C5
330
238D
100
AcDbEntity
  8
Pel_CS-Weatherstrip
100
AcDbHatch
 10
0.0
 20
0.0
 30
0.0
210
0.0
220
0.0
230
1.0
  2
SOLID
 70
     1
 71
     0
 91
        1
 92
        1
 93
        1
 72
     2
 10
0.3193933982822159
 20
-2.67246678220528
 40
0.018
 50
0.0
 51
360.0
 73
     1
 97
        0
 75
     0
 76
     1
 98
        1
 10
-0.3626066017178005
 20
-1.187466782205266
  0
CIRCLE
  5
23C6
330
238D
100
AcDbEntity
  8
Pel_CS-Weatherstrip
100
AcDbCircle
 10
0.3193933982822159
 20
-2.922466782205283
 30
0.0
 40
0.018
  0
CIRCLE
  5
23C7
330
238D
100
AcDbEntity
  8
Pel_CS-Weatherstrip
100
AcDbCircle
 10
0.3193933982822159
 20
-2.797466782205283
 30
0.0
 40
0.018
  0
HATCH
  5
23C8
330
238D
100
AcDbEntity
  8
Pel_CS-Weatherstrip
100
AcDbHatch
 10
0.0
 20
0.0
 30
0.0
210
0.0
220
0.0
230
1.0
  2
SOLID
 70
     1
 71
     0
 91
        1
 92
        1
 93
        1
 72
     2
 10
0.3193933982822159
 20
-2.79746678220528
 40
0.018
 50
0.0
 51
360.0
 73
     1
 97
        0
 75
     0
 76
     1
 98
        1
 10
-0.3626066017178005
 20
-1.312466782205266
  0
HATCH
  5
23C9
330
238D
100
AcDbEntity
  8
Pel_CS-Weatherstrip
100
AcDbHatch
 10
0.0
 20
0.0
 30
0.0
210
0.0
220
0.0
230
1.0
  2
SOLID
 70
     1
 71
     0
 91
        1
 92
        1
 93
        1
 72
     2
 10
0.3193933982822159
 20
-2.92246678220528
 40
0.018
 50
0.0
 51
360.0
 73
     1
 97
        0
 75
     0
 76
     1
 98
        1
 10
-0.3626066017178005
 20
-1.437466782205266
  0
CIRCLE
  5
23CA
330
238D
100
AcDbEntity
  8
Pel_CS-Weatherstrip
100
AcDbCircle
 10
0.3193933982822159
 20
-3.172466782205283
 30
0.0
 40
0.018
  0
CIRCLE
  5
23CB
330
238D
100
AcDbEntity
  8
Pel_CS-Weatherstrip
100
AcDbCircle
 10
0.3193933982822159
 20
-3.047466782205283
 30
0.0
 40
0.018
  0
HATCH
  5
23CC
330
238D
100
AcDbEntity
  8
Pel_CS-Weatherstrip
100
AcDbHatch
 10
0.0
 20
0.0
 30
0.0
210
0.0
220
0.0
230
1.0
  2
SOLID
 70
     1
 71
     0
 91
        1
 92
        1
 93
        1
 72
     2
 10
0.3193933982822159
 20
-3.04746678220528
 40
0.018
 50
0.0
 51
360.0
 73
     1
 97
        0
 75
     0
 76
     1
 98
        1
 10
-0.3626066017178005
 20
-1.562466782205266
  0
HATCH
  5
23CD
330
238D
100
AcDbEntity
  8
Pel_CS-Weatherstrip
100
AcDbHatch
 10
0.0
 20
0.0
 30
0.0
210
0.0
220
0.0
230
1.0
  2
SOLID
 70
     1
 71
     0
 91
        1
 92
        1
 93
        1
 72
     2
 10
0.3193933982822159
 20
-3.17246678220528
 40
0.018
 50
0.0
 51
360.0
 73
     1
 97
        0
 75
     0
 76
     1
 98
        1
 10
-0.3626066017178005
 20
-1.687466782205266
  0
CIRCLE
  5
23CE
330
238D
100
AcDbEntity
  8
Pel_CS-Weatherstrip
100
AcDbCircle
 10
0.3193933982822159
 20
-3.422466782205283
 30
0.0
 40
0.018
  0
CIRCLE
  5
23CF
330
238D
100
AcDbEntity
  8
Pel_CS-Weatherstrip
100
AcDbCircle
 10
0.3193933982822159
 20
-3.297466782205283
 30
0.0
 40
0.018
  0
HATCH
  5
23D0
330
238D
100
AcDbEntity
  8
Pel_CS-Weatherstrip
100
AcDbHatch
 10
0.0
 20
0.0
 30
0.0
210
0.0
220
0.0
230
1.0
  2
SOLID
 70
     1
 71
     0
 91
        1
 92
        1
 93
        1
 72
     2
 10
0.3193933982822159
 20
-3.29746678220528
 40
0.018
 50
0.0
 51
360.0
 73
     1
 97
        0
 75
     0
 76
     1
 98
        1
 10
-0.3626066017178005
 20
-1.812466782205266
  0
HATCH
  5
23D1
330
238D
100
AcDbEntity
  8
Pel_CS-Weatherstrip
100
AcDbHatch
 10
0.0
 20
0.0
 30
0.0
210
0.0
220
0.0
230
1.0
  2
SOLID
 70
     1
 71
     0
 91
        1
 92
        1
 93
        1
 72
     2
 10
0.3193933982822159
 20
-3.42246678220528
 40
0.018
 50
0.0
 51
360.0
 73
     1
 97
        0
 75
     0
 76
     1
 98
        1
 10
-0.3626066017178005
 20
-1.937466782205266
  0
CIRCLE
  5
23D2
330
238D
100
AcDbEntity
  8
Pel_CS-Weatherstrip
100
AcDbCircle
 10
0.3193933982822159
 20
-3.547466782205283
 30
0.0
 40
0.018
  0
HATCH
  5
23D3
330
238D
100
AcDbEntity
  8
Pel_CS-Weatherstrip
100
AcDbHatch
 10
0.0
 20
0.0
 30
0.0
210
0.0
220
0.0
230
1.0
  2
SOLID
 70
     1
 71
     0
 91
        1
 92
        1
 93
        1
 72
     2
 10
0.3193933982822159
 20
-3.54746678220528
 40
0.018
 50
0.0
 51
360.0
 73
     1
 97
        0
 75
     0
 76
     1
 98
        1
 10
-0.3626066017178005
 20
-2.062466782205266
  0
LWPOLYLINE
  5
23D4
330
238D
100
AcDbEntity
  8
Pel_Clad
100
AcDbPolyline
 90
       29
 70
     1
 43
0.0
 10
0.6443933982822046
 20
-1.051966782205276
 10
0.6925665457773676
 20
-1.051966782205276
 42
0.4421005955734904
 10
0.7124777521901251
 20
-1.030084268144442
 10
0.7124777521901251
 20
-0.7649667822052848
 42
-0.4174423589703208
 10
0.7316869608274601
 20
-0.7459679340363508
 42
-0.4174857512669492
 10
0.7503933982821991
 20
-0.7644667822052825
 10
0.7503933982821991
 20
-2.084966782205292
 42
-0.4142135623730885
 10
0.7103933982821787
 20
-2.124966782205284
 10
0.6783933982821964
 20
-2.124966782205284
 42
0.4142135623731344
 10
0.6583933982822146
 20
-2.144966782205294
 10
0.6583933982822146
 20
-2.285966782205285
 42
-0.4142135623730889
 10
0.6183933982821941
 20
-2.325966782205291
 10
0.3658933982821964
 20
-2.325966782205291
 42
-1.0
 10
0.3658933982821964
 20
-2.268966782205289
 10
0.4953933982822037
 20
-2.268966782205289
 10
0.4953933982822037
 20
-2.287966782205295
 10
0.3658933982821964
 20
-2.287966782205295
 42
1.0
 10
0.3658933982821964
 20
-2.306966782205286
 10
0.6193933982822273
 20
-2.306966782205286
 42
0.4142135623730864
 10
0.6393933982822091
 20
-2.28696678220529
 10
0.6393933982822091
 20
-2.145966782205285
 42
-0.4142135623730826
 10
0.6793933982822296
 20
-2.105966782205292
 10
0.7113933982822119
 20
-2.105966782205292
 42
0.4142135623730822
 10
0.7313933982821937
 20
-2.085966782205282
 10
0.7313933982821937
 20
-1.035637684623928
 10
0.7313933982821937
 20
-0.7649667822052848
 10
0.7313933982821937
 20
-1.035637684623928
 42
-0.3868658026623807
 10
0.6925665457773676
 20
-1.070966782205282
 10
0.6443933982822046
 20
-1.070966782205282
  0
CIRCLE
  5
23D5
330
238D
100
AcDbEntity
  8
Pel_CS-Weatherstrip
100
AcDbCircle
 10
0.3193933982822159
 20
-3.797466782205283
 30
0.0
 40
0.018
  0
CIRCLE
  5
23D6
330
238D
100
AcDbEntity
  8
Pel_CS-Weatherstrip
100
AcDbCircle
 10
0.3193933982822159
 20
-3.672466782205283
 30
0.0
 40
0.018
  0
HATCH
  5
23D7
330
238D
100
AcDbEntity
  8
Pel_CS-Weatherstrip
100
AcDbHatch
 10
0.0
 20
0.0
 30
0.0
210
0.0
220
0.0
230
1.0
  2
SOLID
 70
     1
 71
     0
 91
        1
 92
        1
 93
        1
 72
     2
 10
0.3193933982822159
 20
-3.67246678220528
 40
0.018
 50
0.0
 51
360.0
 73
     1
 97
        0
 75
     0
 76
     1
 98
        1
 10
-0.3626066017178005
 20
-2.187466782205266
  0
HATCH
  5
23D8
330
238D
100
AcDbEntity
  8
Pel_CS-Weatherstrip
100
AcDbHatch
 10
0.0
 20
0.0
 30
0.0
210
0.0
220
0.0
230
1.0
  2
SOLID
 70
     1
 71
     0
 91
        1
 92
        1
 93
        1
 72
     2
 10
0.3193933982822159
 20
-3.79746678220528
 40
0.018
 50
0.0
 51
360.0
 73
     1
 97
        0
 75
     0
 76
     1
 98
        1
 10
-0.3626066017178005
 20
-2.312466782205266
  0
CIRCLE
  5
23D9
330
238D
100
AcDbEntity
  8
Pel_CS-Weatherstrip
100
AcDbCircle
 10
0.3193933982822159
 20
-3.922466782205283
 30
0.0
 40
0.018
  0
HATCH
  5
23DA
330
238D
100
AcDbEntity
  8
Pel_CS-Weatherstrip
100
AcDbHatch
 10
0.0
 20
0.0
 30
0.0
210
0.0
220
0.0
230
1.0
  2
SOLID
 70
     1
 71
     0
 91
        1
 92
        1
 93
        1
 72
     2
 10
0.3193933982822159
 20
-3.92246678220528
 40
0.018
 50
0.0
 51
360.0
 73
     1
 97
        0
 75
     0
 76
     1
 98
        1
 10
-0.3626066017178005
 20
-2.437466782205266
  0
LWPOLYLINE
  5
23DB
330
238D
100
AcDbEntity
  8
Pel_CS-Sealant
100
AcDbPolyline
 90
       30
 70
     1
 43
0.0
 10
0.5605937287370875
 20
-2.256063476543967
 10
0.5870437485369689
 20
-2.255427003307055
 10
0.5818239470211531
 20
-2.229489341158522
 10
0.6044120994799905
 20
-2.215713129266585
 10
0.5869227876903178
 20
-2.195860355689088
 10
0.5995965955982623
 20
-2.172635729993327
 10
0.5745240205049527
 20
-2.164187379634473
 10
0.5738875472680221
 20
-2.137737359834595
 10
0.5479498851195093
 20
-2.142957161350413
 10
0.5369777936405172
 20
-2.124966782205287
 10
0.5289545683447923
 20
-2.124966782205287
 10
0.5143208996500821
 20
-2.137858320681242
 10
0.4910962739543088
 20
-2.125184512773309
 10
0.4826479235954757
 20
-2.150257087866606
 10
0.4561979037955748
 20
-2.150893561103529
 10
0.4614177053113889
 20
-2.176831223252058
 10
0.438829552852555
 20
-2.190607435143999
 10
0.4563188646422259
 20
-2.210460208721489
 10
0.4952202698294439
 20
-2.206111527722999
 42
-0.1989123673796589
 10
0.5008659680348835
 20
-2.186579115510941
 42
-1.0
 10
0.5423756842976691
 20
-2.219741448899636
 42
-0.6681786379193064
 10
0.4952202698294439
 20
-2.206111527722999
 10
0.4563188646422259
 20
-2.210460208721489
 10
0.4436450567342903
 20
-2.23368483441725
 10
0.4687176318276052
 20
-2.242133184776111
 10
0.4693541050645216
 20
-2.268583204575985
 10
0.4952917672130415
 20
-2.263363403060164
 10
0.5090679791049837
 20
-2.285951555519002
 10
0.528920752682474
 20
-2.268462243729334
 10
0.5521453783782331
 20
-2.281136051637272
  0
CIRCLE
  5
265F
330
238D
100
AcDbEntity
  8
Pel_CS-Weatherstrip
100
AcDbCircle
 10
0.3193933982822159
 20
-4.047466782205283
 30
0.0
 40
0.018
  0
HATCH
  5
2660
330
238D
100
AcDbEntity
  8
Pel_CS-Weatherstrip
100
AcDbHatch
 10
0.0
 20
0.0
 30
0.0
210
0.0
220
0.0
230
1.0
  2
SOLID
 70
     1
 71
     0
 91
        1
 92
        1
 93
        1
 72
     2
 10
0.3193933982822159
 20
-4.04746678220528
 40
0.018
 50
0.0
 51
360.0
 73
     1
 97
        0
 75
     0
 76
     1
 98
        1
 10
-0.3626066017178005
 20
-2.562466782205266
  0
ENDBLK
  5
23DC
330
238D
100
AcDbEntity
  8
0
100
AcDbBlockEnd
  0
BLOCK
  5
23E0
330
23DD
100
AcDbEntity
  8
0
100
AcDbBlockBegin
  2
TSE 10 SD SV
 70
     0
 10
0.0
 20
0.0
 30
0.0
  3
TSE 10 SD SV
  1

  0
POINT
  5
23E1
330
23DD
100
AcDbEntity
  8
Pel_Points
100
AcDbPoint
 10
0.0
 20
0.0000000000000036
 30
0.0
  0
LWPOLYLINE
  5
23E2
330
23DD
100
AcDbEntity
  8
Pel_CS-Cross Section
 62
     4
100
AcDbPolyline
 90
      129
 70
     1
 43
0.0
 10
1.429957603986359
 20
-1.125
 10
1.349957603986357
 20
-1.125
 10
1.349957603986357
 20
0.0
 10
0.0650000000000013
 20
0.0
 10
0.0649999999999977
 20
0.0799999999999983
 10
0.1169615242270687
 20
0.1099999999999994
 10
0.1419615242270709
 20
0.1099999999999994
 10
0.1419615242270638
 20
0.0799999999999983
 10
0.2800000000000011
 20
0.0799999999999983
 10
0.2799999999999976
 20
0.2349999999999994
 10
0.0
 20
0.2349999999999994
 10
0.0
 20
0.9380000000000023
 10
0.1999999999999993
 20
0.9380000000000023
 10
0.1999999999999993
 20
0.4380000000000024
 10
0.8350000000000008
 20
0.4380000000000024
 10
0.8350000000000008
 20
0.6280000000000002
 10
0.8000000000000007
 20
0.6280000000000002
 10
0.8000000000000007
 20
0.9380000000000023
 10
0.8900000000000005
 20
0.9380000000000023
 42
-1.0
 10
0.8900000000000005
 20
0.8780000000000001
 10
0.8599999999999994
 20
0.8779999999999965
 10
0.8599999999999994
 20
0.6879999999999989
 10
1.054999999999999
 20
0.6879999999999989
 10
1.054999999999999
 20
0.8379999999999974
 10
1.112735026918961
 20
0.9379999999999988
 10
2.15
 20
0.9379999999999952
 10
2.15
 20
1.103000000000001
 10
2.114999999999998
 20
1.103000000000001
 10
2.074999999999993
 20
1.063000000000002
 10
2.05
 20
1.063000000000002
 10
2.049999999999998
 20
1.563000000000002
 10
2.599999999999997
 20
1.563000000000002
 42
-0.4142135623731037
 10
2.629999999999999
 20
1.533000000000001
 10
2.629999999999997
 20
0.6822820323027515
 10
2.669999999999998
 20
0.6130000000000031
 10
2.669999999999996
 20
0.588000000000001
 10
2.629999999999999
 20
0.588000000000001
 10
2.629999999999999
 20
0.463000000000001
 10
4.269999999999999
 20
0.463000000000001
 10
4.269999999999997
 20
0.588000000000001
 10
4.230000000000002
 20
0.588000000000001
 10
4.230000000000002
 20
0.6130000000000031
 10
4.269999999999999
 20
0.6822820323027515
 10
4.269999999999997
 20
1.413
 10
4.230000000000002
 20
1.413
 10
4.23
 20
1.533000000000001
 42
-0.4142135623730863
 10
4.259999999999998
 20
1.562999999999998
 10
4.499999999999994
 20
1.563000000000002
 10
4.499999999999998
 20
0.2349999999999994
 10
4.220000000000004
 20
0.2349999999999994
 10
4.22
 20
0.0901420310525723
 10
4.144999999999997
 20
0.0901420310525723
 10
4.145000000000003
 20
0.2349999999999994
 42
-0.4142135623731037
 10
4.220000000000004
 20
0.3100000000000023
 10
4.419999999999998
 20
0.3100000000000023
 10
4.419999999999996
 20
0.3829999999999991
 10
4.404899421459155
 20
0.3829999999999991
 10
4.404899421459155
 20
0.4429999999999979
 10
4.419999999999999
 20
0.4429999999999979
 10
4.419999999999996
 20
1.483
 10
4.33
 20
1.483
 10
4.33
 20
0.4429999999999979
 10
4.404899421459155
 20
0.4429999999999979
 10
4.404899421459155
 20
0.3829999999999991
 10
3.509
 20
0.3829999999999991
 10
3.509000000000005
 20
0.0901420310525723
 10
3.448999999999999
 20
0.0901420310525723
 10
3.449000000000003
 20
0.3829999999999991
 10
2.610000000000001
 20
0.3829999999999991
 10
2.609999999999997
 20
0.0901420310525723
 10
2.549999999999997
 20
0.0901420310525723
 10
2.55
 20
1.483
 10
2.130000000000002
 20
1.483
 10
2.129999999999997
 20
1.178
 10
2.150000000000002
 20
1.178000000000004
 42
-0.4142135623730822
 10
2.224999999999997
 20
1.103000000000005
 10
2.224999999999997
 20
0.9329999999999998
 42
-0.414213562373109
 10
2.149999999999998
 20
0.8579999999999969
 10
2.019999999999997
 20
0.8579999999999969
 10
2.020000000000003
 20
0.0901420310525723
 10
1.96
 20
0.0901420310525723
 10
1.96
 20
0.8579999999999969
 10
1.153149545762236
 20
0.8579999999999969
 10
1.129999999999995
 20
0.8179038105676639
 10
1.130000000000002
 20
0.0901420310525723
 10
1.07
 20
0.0901420310525723
 10
1.069999999999996
 20
0.6129999999999996
 10
0.9100000000000036
 20
0.6129999999999996
 10
0.9100000000000001
 20
0.4380000000000024
 42
-0.4142135623730951
 10
0.8350000000000008
 20
0.3629999999999995
 10
0.3550000000000004
 20
0.3629999999999995
 10
0.3550000000000004
 20
0.3530621331517025
 10
0.2950000000000017
 20
0.3530621331517025
 10
0.2950000000000017
 20
0.3629999999999995
 10
0.2149999999999999
 20
0.3629999999999995
 42
-0.4142135623730966
 10
0.1400000000000006
 20
0.4380000000000024
 10
0.139999999999997
 20
0.8580000000000005
 10
0.0800000000000019
 20
0.8580000000000005
 10
0.0799999999999983
 20
0.3099999999999987
 10
0.2950000000000017
 20
0.3099999999999987
 10
0.2950000000000017
 20
0.3530621331517025
 10
0.3550000000000004
 20
0.3530621331517025
 10
0.3550000000000004
 20
0.0800000000000019
 10
1.07
 20
0.0800000000000019
 10
1.07
 20
0.0901420310525723
 10
1.130000000000006
 20
0.0901420310525723
 10
1.129999999999999
 20
0.0800000000000019
 10
1.96
 20
0.0799999999999983
 10
1.96
 20
0.0901420310525723
 10
2.019999999999999
 20
0.0901420310525723
 10
2.020000000000001
 20
0.0799999999999983
 10
2.550000000000002
 20
0.0799999999999983
 10
2.550000000000004
 20
0.0901420310525723
 10
2.610000000000001
 20
0.0901420310525723
 10
2.609999999999997
 20
0.0799999999999983
 10
3.448999999999999
 20
0.0799999999999983
 10
3.449000000000001
 20
0.0901420310525723
 10
3.509000000000003
 20
0.0901420310525723
 10
3.509000000000003
 20
0.0799999999999983
 10
4.144999999999999
 20
0.0799999999999983
 10
4.144999999999997
 20
0.0901420310525723
 10
4.220000000000004
 20
0.0901420310525723
 10
4.22
 20
0.0800000000000019
 10
4.358038475772936
 20
0.0800000000000019
 10
4.358038475772936
 20
0.1099999999999994
 10
4.383038475772931
 20
0.1099999999999994
 10
4.435000000000004
 20
0.0800000000000019
 10
4.435
 20
0.0
 10
1.429957603986363
 20
0.0
  0
LWPOLYLINE
  5
23E3
330
23DD
100
AcDbEntity
  8
Pel_CS-Weatherstrip
100
AcDbPolyline
 90
        8
 70
     1
 43
0.0
 10
3.377119290024834
 20
1.210556247844277
 42
-1.0
 10
3.589119290024836
 20
1.210556247844316
 10
3.568119290024835
 20
1.074556247844316
 10
3.585908465696665
 20
1.071809389836165
 10
3.607110982726172
 20
1.209120928693959
 42
1.011642928794339
 10
3.359127597323524
 20
1.20912092869381
 10
3.380330114353011
 20
1.071809389836165
 10
3.398119290024833
 20
1.074556247844316
  0
LWPOLYLINE
  5
23E4
330
23DD
100
AcDbEntity
  8
Pel_CS-Cross Section
 62
     4
100
AcDbPolyline
 90
       22
 70
     1
 43
0.0
 10
3.452119290024832
 20
1.121815051097822
 10
3.452119290024834
 20
0.9420617067050791
 10
2.725527450572624
 20
0.8891310290833018
 42
0.3930714131828159
 10
2.669886771830102
 20
0.8292896026449732
 10
2.6698867718301
 20
0.57132678386699
 10
2.638450042615247
 20
0.57132678386699
 10
2.701958572226104
 20
0.4613267838669906
 10
2.731886771830101
 20
0.4613267838669906
 10
2.731886771830101
 20
0.8274299986196602
 10
3.452119290024834
 20
0.879897413147777
 10
3.452119290024834
 20
0.463000000000001
 10
3.514119290024835
 20
0.463000000000001
 10
3.514119290024837
 20
0.8844139819204528
 10
4.171119290024831
 20
0.9322750413341154
 10
4.171119290024833
 20
0.463000000000001
 10
4.201047489628829
 20
0.463000000000001
 10
4.264556019239686
 20
0.5730000000000004
 10
4.233119290024831
 20
0.573000000000004
 10
4.233119290024831
 20
0.9344260368931465
 42
0.4356765784393732
 10
4.168759968767353
 20
0.9942674633314787
 10
3.514119290024835
 20
0.9465782754777514
 10
3.514119290024819
 20
1.121815051097819
 42
5.894877314404304
  0
LWPOLYLINE
  5
23E5
330
23DD
100
AcDbEntity
  8
Pel_CS-Cross Section
 62
     4
100
AcDbPolyline
 90
       16
 70
     1
 43
0.0
 10
0.8002349772858536
 20
0.7841958558996467
 42
0.4142135623730951
 10
0.7682349772858537
 20
0.8161958558996467
 10
0.5342349772858555
 20
0.8161958558996467
 10
0.5342349772858466
 20
0.8988665754009872
 42
3.910976016622828
 10
0.4742349772858621
 20
0.8988665754009907
 10
0.4742349772858532
 20
0.8161958558996467
 10
0.240234977285855
 20
0.8161958558996467
 42
0.4142135623730951
 10
0.2082349772858549
 20
0.7841958558996467
 10
0.2082349772858549
 20
0.4411958558996468
 10
0.2682349772858554
 20
0.4411958558996468
 10
0.2682349772858554
 20
0.7561958558996445
 10
0.740234977285855
 20
0.7561958558996445
 10
0.7402349772858568
 20
0.4411958558996468
 10
0.8002349772858554
 20
0.4411958558996468
 10
0.8002349772858536
 20
0.5521958558996474
 42
1.0
 10
0.8002349772858536
 20
0.6161958558996546
  0
LWPOLYLINE
  5
23E6
330
23DD
100
AcDbEntity
  8
Pel_CS-Cross Section
 62
     4
100
AcDbPolyline
 90
       15
 70
     1
 43
0.0
 10
2.866857076183634
 20
2.812999999999902
 10
2.866857076183634
 20
2.724249999999898
 10
2.967719145149146
 20
2.618344827586099
 42
-1.0
 10
2.945995007218073
 20
2.597655172413709
 10
2.821857076183619
 20
2.727999999999894
 10
2.836857076183605
 20
2.742999999999909
 10
2.836857076183605
 20
2.812999999999902
 10
2.773443401098859
 20
2.812999999999902
 42
-0.5343310138307086
 10
2.759581993294659
 20
2.833732484076335
 42
-0.2404623521578165
 10
3.132215680118406
 20
3.4198803855096
 42
-0.9781803082727828
 10
3.147473102968035
 20
3.394017467921713
 10
3.146200661725004
 20
3.393311425494175
 42
0.0133516086578351
 10
3.146910150142332
 20
3.393685140719071
 42
0.2361122684030795
 10
2.791337111878874
 20
2.842999999999904
 10
2.836857076183605
 20
2.842999999999904
 42
-0.414213562373108
  0
LWPOLYLINE
  5
23E7
330
23DD
100
AcDbEntity
  8
Pel_CS-Cross Section
 62
     4
100
AcDbPolyline
 90
       73
 70
     1
 43
0.0
 10
2.991857076183634
 20
1.187999999999988
 10
2.796857076183641
 20
1.187999999999988
 42
-0.4142135623730951
 10
2.7168570761836
 20
1.268
 10
2.7168570761836
 20
1.31049999999999
 10
2.766857076183612
 20
1.31049999999999
 10
2.766857076183612
 20
1.268
 10
2.816857076183623
 20
1.268
 10
2.816857076183623
 20
1.478000000000008
 10
2.766857076183612
 20
1.478000000000008
 10
2.766857076183612
 20
1.43549999999999
 10
2.7168570761836
 20
1.43549999999999
 10
2.7168570761836
 20
1.478000000000008
 10
2.7168570761836
 20
2.812999999999988
 10
2.806857076183632
 20
2.812999999999988
 42
-1.0
 10
2.806857076183632
 20
2.753000000000014
 10
2.796857076183641
 20
2.753000000000014
 10
2.796857076183641
 20
2.562999999999988
 10
2.820574096771736
 20
2.562999999999988
 10
2.820574096771736
 20
2.483000000000004
 10
2.796857076183641
 20
2.483000000000004
 10
2.796857076183641
 20
1.842000000000012
 10
2.820574096771736
 20
1.842000000000012
 10
2.820574096771736
 20
1.792000000000001
 10
2.796857076183641
 20
1.792000000000001
 10
2.796857076183641
 20
1.557999999999992
 10
2.816857076183623
 20
1.557999999999992
 42
-0.4142135623731081
 10
2.896857076183607
 20
1.478000000000008
 10
2.896857076183607
 20
1.268
 10
2.991857076183634
 20
1.268
 10
2.991857076183634
 20
1.792000000000001
 10
2.820574096771736
 20
1.792000000000001
 10
2.820574096771736
 20
1.842000000000012
 10
4.120665511853701
 20
1.842000000000012
 10
4.120665511853701
 20
1.792000000000001
 10
3.941857076183623
 20
1.792000000000001
 10
3.941857076183623
 20
1.268
 10
4.136857076183616
 20
1.268
 10
4.136857076183616
 20
1.792000000000001
 10
4.120665511853701
 20
1.792000000000001
 10
4.120665511853701
 20
1.842000000000012
 10
4.136857076183616
 20
1.842000000000012
 10
4.136857076183616
 20
2.733000000000004
 10
4.120665511853701
 20
2.733000000000004
 10
4.120665511853701
 20
2.782999999999987
 10
4.136857076183616
 20
2.782999999999987
 10
4.136857076183616
 20
3.378000000000014
 10
4.026857076183603
 20
3.378000000000014
 10
4.026857076183603
 20
2.782999999999987
 10
4.120665511853701
 20
2.782999999999987
 10
4.120665511853701
 20
2.733000000000004
 10
3.911857076183594
 20
2.733000000000004
 10
3.911857076183594
 20
2.562999999999988
 10
3.831857076183609
 20
2.562999999999988
 10
3.831857076183609
 20
2.733000000000004
 10
3.051857076183637
 20
2.733000000000004
 10
3.051857076183637
 20
2.562999999999988
 10
3.101857076183591
 20
2.562999999999988
 10
3.101857076183591
 20
2.483000000000004
 10
2.820574096771736
 20
2.483000000000004
 10
2.820574096771736
 20
2.562999999999988
 10
2.971857076183596
 20
2.562999999999988
 10
2.971857076183596
 20
2.733000000000004
 42
-0.4142135623730951
 10
3.051857076183637
 20
2.812999999999988
 10
3.9668570761836
 20
2.812999999999988
 10
3.9668570761836
 20
3.437999999999988
 10
4.2168570761836
 20
3.437999999999988
 10
4.2168570761836
 20
1.268
 42
-0.4142135623730951
 10
4.136857076183616
 20
1.187999999999988
 10
3.941857076183623
 20
1.187999999999988
 42
-0.4142135623730951
 10
3.861857076183639
 20
1.268
 10
3.861857076183639
 20
1.762
 10
3.071857076183619
 20
1.762
 10
3.071857076183619
 20
1.268
 42
-0.4142135623730951
  0
POLYLINE
  5
23E8
330
23DD
100
AcDbEntity
  8
Pel_CS-Weatherstrip
100
AcDb2dPolyline
 66
     1
 10
0.0
 20
0.0
 30
0.0
  0
VERTEX
  5
2542
330
23E8
100
AcDbEntity
  8
Pel_CS-Weatherstrip
100
AcDbVertex
100
AcDb2dVertex
 10
2.775769530261641
 20
1.465141855391408
 30
0.0
  0
VERTEX
  5
2543
330
23E8
100
AcDbEntity
  8
Pel_CS-Weatherstrip
100
AcDbVertex
100
AcDb2dVertex
 10
2.775769530261641
 20
1.418897265753031
 30
0.0
  0
VERTEX
  5
2544
330
23E8
100
AcDbEntity
  8
Pel_CS-Weatherstrip
100
AcDbVertex
100
AcDb2dVertex
 10
2.629999999999995
 20
1.457630846916202
 30
0.0
  0
VERTEX
  5
2545
330
23E8
100
AcDbEntity
  8
Pel_CS-Weatherstrip
100
AcDbVertex
100
AcDb2dVertex
 10
2.629999999999995
 20
1.429455610262323
 30
0.0
  0
VERTEX
  5
2546
330
23E8
100
AcDbEntity
  8
Pel_CS-Weatherstrip
100
AcDbVertex
100
AcDb2dVertex
 10
2.775769530261641
 20
1.418897265753031
 30
0.0
  0
VERTEX
  5
2547
330
23E8
100
AcDbEntity
  8
Pel_CS-Weatherstrip
100
AcDbVertex
100
AcDb2dVertex
 10
2.629999999999995
 20
1.40805452460421
 30
0.0
  0
VERTEX
  5
2548
330
23E8
100
AcDbEntity
  8
Pel_CS-Weatherstrip
100
AcDbVertex
100
AcDb2dVertex
 10
2.629999999999995
 20
1.377668283501321
 30
0.0
  0
VERTEX
  5
2549
330
23E8
100
AcDbEntity
  8
Pel_CS-Weatherstrip
100
AcDbVertex
100
AcDb2dVertex
 10
2.775769530261641
 20
1.418897265753031
 30
0.0
  0
VERTEX
  5
254A
330
23E8
100
AcDbEntity
  8
Pel_CS-Weatherstrip
100
AcDbVertex
100
AcDb2dVertex
 10
2.775769530261641
 20
1.336439301249583
 30
0.0
  0
VERTEX
  5
254B
330
23E8
100
AcDbEntity
  8
Pel_CS-Weatherstrip
100
AcDbVertex
100
AcDb2dVertex
 10
2.629999999999995
 20
1.377668283501321
 30
0.0
  0
VERTEX
  5
254C
330
23E8
100
AcDbEntity
  8
Pel_CS-Weatherstrip
100
AcDbVertex
100
AcDb2dVertex
 10
2.629999999999995
 20
1.347282042398376
 30
0.0
  0
VERTEX
  5
254D
330
23E8
100
AcDbEntity
  8
Pel_CS-Weatherstrip
100
AcDbVertex
100
AcDb2dVertex
 10
2.775769530261641
 20
1.336439301249583
 30
0.0
  0
VERTEX
  5
254E
330
23E8
100
AcDbEntity
  8
Pel_CS-Weatherstrip
100
AcDbVertex
100
AcDb2dVertex
 10
2.629999999999995
 20
1.318301524948026
 30
0.0
  0
VERTEX
  5
254F
330
23E8
100
AcDbEntity
  8
Pel_CS-Weatherstrip
100
AcDbVertex
100
AcDb2dVertex
 10
2.629999999999995
 20
1.276839754777398
 30
0.0
  0
VERTEX
  5
2550
330
23E8
100
AcDbEntity
  8
Pel_CS-Weatherstrip
100
AcDbVertex
100
AcDb2dVertex
 10
2.775769530261641
 20
1.336439301249583
 30
0.0
  0
VERTEX
  5
2551
330
23E8
100
AcDbEntity
  8
Pel_CS-Weatherstrip
100
AcDbVertex
100
AcDb2dVertex
 10
2.775769530261641
 20
1.278364131705245
 30
0.0
  0
VERTEX
  5
2552
330
23E8
100
AcDbEntity
  8
Pel_CS-Weatherstrip
100
AcDbVertex
100
AcDb2dVertex
 10
2.810769516261643
 20
1.278364131705245
 30
0.0
  0
VERTEX
  5
2553
330
23E8
100
AcDbEntity
  8
Pel_CS-Weatherstrip
100
AcDbVertex
100
AcDb2dVertex
 10
2.810769516261643
 20
1.465141855391408
 30
0.0
  0
VERTEX
  5
2554
330
23E8
100
AcDbEntity
  8
0
100
AcDbVertex
100
AcDb2dVertex
 10
2.775769530261641
 20
1.465141855391408
 30
0.0
  0
SEQEND
  5
2555
330
23E8
100
AcDbEntity
  8
Pel_CS-Weatherstrip
  0
HATCH
  5
23FD
330
23DD
100
AcDbEntity
  8
Pel_CS-Sealant
100
AcDbHatch
 10
0.0
 20
0.0
 30
0.0
210
0.0
220
0.0
230
1.0
  2
DASH
 70
     0
 71
     0
 91
        1
 92
        1
 93
        4
 72
     1
 10
3.310855922766052
 20
3.121191049788848
 11
3.747605922766069
 21
3.121191049788848
 72
     1
 10
3.747605922766069
 20
3.121191049788848
 11
3.747605922766069
 21
3.071500000000014
 72
     1
 10
3.747605922766069
 20
3.071500000000014
 11
3.310855922766052
 21
3.071500000000014
 72
     1
 10
3.310855922766052
 20
3.071500000000014
 11
3.310855922766052
 21
3.121191049788848
 97
        0
 75
     0
 76
     1
 52
30.0
 41
0.15
 77
     0
 78
     1
 53
330.0000000000001
 43
-8.0
 44
0.0
 45
0.0068629763209582
 46
-0.0256129763209582
 79
     2
 49
0.01875
 49
-0.01875
 98
        1
 10
-8.0
 20
0.0
1001
ACAD
1010
0.0
1020
0.0
1030
0.0
  0
LWPOLYLINE
  5
23FE
330
23DD
100
AcDbEntity
  8
Pel_CS-Sealant
100
AcDbPolyline
 90
        4
 70
     1
 43
0.0
 10
3.310855922766052
 20
3.121191049788848
 10
3.747605922766069
 20
3.121191049788848
 10
3.747605922766069
 20
3.071500000000014
 10
3.310855922766052
 20
3.071500000000014
  0
LWPOLYLINE
  5
23FF
330
23DD
100
AcDbEntity
  8
Pel_CS-IG
100
AcDbPolyline
 90
        4
 70
     0
 43
0.0
 10
3.154105922766063
 20
5.250049999997976
 10
3.154105922766063
 20
2.938000000000016
 10
3.283105922766083
 20
2.938000000000016
 10
3.283105922766083
 20
5.250049999997976
  0
LWPOLYLINE
  5
2400
330
23DD
100
AcDbEntity
  8
Pel_CS-IG
100
AcDbPolyline
 90
        4
 70
     0
 43
0.0
 10
3.775355922766038
 20
5.250049999997976
 10
3.775355922766038
 20
2.938000000000016
 10
3.904355922766058
 20
2.938000000000016
 10
3.904355922766058
 20
5.250049999997976
  0
LWPOLYLINE
  5
2401
330
23DD
100
AcDbEntity
  8
Pel_CS-IG
100
AcDbPolyline
 90
       16
 70
     1
 43
0.0
 10
3.754605922766074
 20
3.062500000000028
 10
3.303855922766047
 20
3.062500000000028
 42
-0.4142135623730951
 10
3.294855922766089
 20
3.071500000000014
 10
3.294855922766089
 20
3.353500000000025
 42
-0.4142135623730913
 10
3.303855922766047
 20
3.362500000000011
 10
3.372980922766089
 20
3.362500000000011
 10
3.372980922766089
 20
3.353500000000025
 10
3.303855922766047
 20
3.353500000000025
 10
3.303855922766047
 20
3.071500000000014
 10
3.754605922766074
 20
3.071500000000014
 10
3.754605922766074
 20
3.353500000000025
 10
3.685480922766089
 20
3.353500000000025
 10
3.685480922766089
 20
3.362500000000011
 10
3.754605922766074
 20
3.362500000000011
 42
-0.4142135623730918
 10
3.763605922766089
 20
3.353500000000025
 10
3.763605922766089
 20
3.071500000000014
 42
-0.4142135623730951
  0
LWPOLYLINE
  5
2402
330
23DD
100
AcDbEntity
  8
Pel_CS-Weatherstrip
100
AcDbPolyline
 90
        4
 70
     1
 43
0.0
 10
3.904355922766058
 20
3.062999999999988
 10
3.9668570761836
 20
3.062999999999988
 10
3.9668570761836
 20
3.437999999999988
 10
3.904355922766058
 20
3.437999999999988
  0
LWPOLYLINE
  5
2403
330
23DD
100
AcDbEntity
  8
Pel_CS-Sealant
100
AcDbPolyline
 90
        5
 70
     1
 43
0.0
 10
3.958934942850476
 20
2.921547325803004
 10
2.896934942892983
 20
2.921547325803004
 10
2.896934942892983
 20
2.871547325805011
 10
2.951934942890773
 20
2.816547325807192
 10
3.958934942850476
 20
2.816547325807192
  0
LWPOLYLINE
  5
2404
330
23DD
100
AcDbEntity
  8
Pel_CS-Hardware
100
AcDbPolyline
 90
       17
 70
     0
 43
0.0
 10
3.616224409242647
 20
1.708405281507253
 10
3.616224409242647
 20
1.280916354648923
 10
3.585224409242528
 20
1.280916354648923
 10
3.585224409242528
 20
1.708405281507253
 10
3.616224409242647
 20
1.708405281507253
 10
3.350014170807071
 20
1.708405281507253
 10
3.381014170807134
 20
1.708405281507253
 10
3.381014170807134
 20
1.280916354648923
 10
3.350014170807071
 20
1.280916354648923
 10
3.350014170807071
 20
1.708405281507253
 10
3.106763073355352
 20
1.708405281507253
 10
3.106763073355352
 20
2.677405281507247
 42
-0.4142135623730951
 10
3.156763073355364
 20
2.727405281507259
 10
3.776763073355368
 20
2.727405281507259
 42
-0.4142135623730951
 10
3.82676307335538
 20
2.677405281507247
 10
3.82676307335538
 20
1.708405281507253
 10
3.616224409242647
 20
1.708405281507253
  0
LWPOLYLINE
  5
2405
330
23DD
100
AcDbEntity
  8
Pel_CS-Hardware
100
AcDbPolyline
 90
        4
 70
     0
 43
0.0
 10
3.464448770306603
 20
2.608383855676578
 42
0.4088008425369511
 10
3.341763073355366
 20
2.483405281507259
 42
1.0
 10
3.591763073355366
 20
2.483405281507259
 42
0.4196466793747206
 10
3.464448939869384
 20
2.608383858816353
 42
0.4196466793747206
  0
LWPOLYLINE
  5
2406
330
23DD
100
AcDbEntity
  8
Pel_CS-Hardware
100
AcDbPolyline
 90
        4
 70
     0
 43
0.0
 10
3.464448770306603
 20
2.108383855676578
 42
0.4088008425369511
 10
3.341763073355366
 20
1.983405281507259
 42
1.0
 10
3.591763073355366
 20
1.983405281507259
 42
0.4196466793747206
 10
3.464448939869384
 20
2.108383858816353
 42
0.4196466793747206
  0
LWPOLYLINE
  5
2407
330
23DD
100
AcDbEntity
  8
Pel_CS-Hardware
100
AcDbPolyline
 90
       19
 70
     0
 43
0.0
 10
0.4102349772858816
 20
0.9744686354032126
 10
0.4102349772858816
 20
0.8494686354032126
 10
0.3602349772858702
 20
0.8494686354032126
 10
0.3602349772858702
 20
1.849468635403212
 10
0.4102349772858816
 20
1.849468635403212
 10
0.4102349772858816
 20
0.9744686354032126
 10
0.4102349772858816
 20
1.724468635403212
 10
0.5042349772858757
 20
1.674468635403201
 10
0.5042349772858757
 20
1.024468635403223
 10
0.5042349772858757
 20
1.674468635403201
 10
0.5982349772858698
 20
1.724468635403212
 10
0.5982349772858698
 20
0.9744686354032126
 10
0.5982349772858698
 20
1.849468635403212
 10
0.6482349772858811
 20
1.849468635403212
 10
0.6482349772858811
 20
0.8494686354032126
 10
0.5982349772858698
 20
0.8494686354032126
 10
0.5982349772858698
 20
0.9744686354032126
 10
0.5042349772858757
 20
1.024468635403223
 10
0.4102349772858816
 20
0.9744686354032126
  0
LWPOLYLINE
  5
2408
330
23DD
100
AcDbEntity
  8
Pel_Clad
100
AcDbPolyline
 90
       25
 70
     1
 43
0.0
 10
0.3602349772858702
 20
1.350656842032179
 10
0.3120618297907072
 20
1.350656842032179
 42
0.3868658026623525
 10
0.2732349772858811
 20
1.315327744450826
 10
0.2732349772858811
 20
1.044656842032196
 10
0.2732349772858811
 20
1.315327744450826
 10
0.2732349772858811
 20
2.365656842032194
 42
-0.4142135623730822
 10
0.2932349772858629
 20
2.385656842032176
 10
0.6032349772858652
 20
2.385656842032176
 42
0.4142135623730948
 10
0.6432349772858857
 20
2.425656842032196
 10
0.6432349772858288
 20
2.546656842032177
 42
0.4142135623730854
 10
0.6032349772858652
 20
2.586656842032198
 10
0.3697349772858729
 20
2.586656842032198
 10
0.3697349772858729
 20
2.567656842032192
 10
0.6042349772858416
 20
2.567656842032192
 42
-0.4142135623730847
 10
0.6242349772858802
 20
2.547656842032182
 10
0.6242349772858802
 20
2.424656842032192
 42
-0.4142135623731412
 10
0.6042349772858416
 20
2.404656842032181
 10
0.2942349772858392
 20
2.404656842032181
 42
0.4142135623730891
 10
0.2542349772858756
 20
2.364656842032189
 10
0.2542349772858756
 20
1.04415684203218
 42
0.417485751266966
 10
0.2729414147405578
 20
1.025657993863262
 42
0.4174423589703049
 10
0.2921506233779496
 20
1.044656842032196
 10
0.2921506233779496
 20
1.309774327971354
 42
-0.4421005955735554
 10
0.3120618297907072
 20
1.331656842032202
 10
0.3602349772858702
 20
1.331656842032202
  0
LWPOLYLINE
  5
2409
330
23DD
100
AcDbEntity
  8
Pel_Clad
100
AcDbPolyline
 90
       29
 70
     1
 43
0.0
 10
0.6482349772858811
 20
1.331656842032174
 10
0.6964081247809873
 20
1.331656842032174
 42
-0.4421005955734904
 10
0.7163193311937448
 20
1.309774327971354
 10
0.7163193311937448
 20
1.044656842032168
 42
0.4174423589703208
 10
0.7355285398311367
 20
1.025657993863262
 42
0.4174857512669492
 10
0.7542349772858757
 20
1.04415684203218
 10
0.7542349772858757
 20
2.364656842032189
 42
0.4142135623730885
 10
0.7142349772858552
 20
2.404656842032181
 10
0.6822349772858729
 20
2.404656842032181
 42
-0.4142135623731344
 10
0.6622349772858343
 20
2.424656842032192
 10
0.6622349772858343
 20
2.565656842032183
 42
0.4142135623730889
 10
0.6222349772858707
 20
2.605656842032175
 10
0.3697349772858729
 20
2.605656842032175
 42
1.0
 10
0.3697349772858729
 20
2.548656842032187
 10
0.4992349772858802
 20
2.548656842032187
 10
0.4992349772858802
 20
2.567656842032192
 10
0.3697349772858729
 20
2.567656842032192
 42
-1.0
 10
0.3697349772858729
 20
2.586656842032198
 10
0.623234977285847
 20
2.586656842032198
 42
-0.4142135623730864
 10
0.6432349772858288
 20
2.566656842032188
 10
0.6432349772858857
 20
2.425656842032196
 42
0.4142135623730826
 10
0.6832349772858493
 20
2.385656842032176
 10
0.7152349772858316
 20
2.385656842032176
 42
-0.4142135623730822
 10
0.7352349772858702
 20
2.365656842032194
 10
0.7352349772858702
 20
1.315327744450826
 10
0.7352349772858702
 20
1.044656842032196
 10
0.7352349772858702
 20
1.315327744450826
 42
0.3868658026623807
 10
0.6964081247809873
 20
1.350656842032179
 10
0.6482349772858811
 20
1.350656842032179
  0
LINE
  5
240A
330
23DD
100
AcDbEntity
  8
0
100
AcDbLine
 10
2.637999441323472
 20
1.40805452460421
 30
0.0
 11
2.637999441323472
 21
1.40805452460421
 31
0.0
  0
LINE
  5
240B
330
23DD
100
AcDbEntity
  8
0
100
AcDbLine
 10
2.637999441323472
 20
1.40805452460421
 30
0.0
 11
2.637999441323472
 21
1.40805452460421
 31
0.0
  0
LINE
  5
240C
330
23DD
100
AcDbEntity
  8
Pel_CS-Weatherstrip
  6
Continuous
100
AcDbLine
 10
3.760643836999577
 20
3.064825901430992
 30
0.0
 11
3.775355922766038
 21
3.064825901430992
 31
0.0
  0
LINE
  5
240D
330
23DD
100
AcDbEntity
  8
Pel_CS-Weatherstrip
  6
Continuous
100
AcDbLine
 10
3.760643836999577
 20
3.360174098569018
 30
0.0
 11
3.775355922766038
 21
3.360174098569018
 31
0.0
  0
LINE
  5
240E
330
23DD
100
AcDbEntity
  8
Pel_CS-Weatherstrip
  6
Continuous
100
AcDbLine
 10
3.297818008532544
 20
3.064825901430992
 30
0.0
 11
3.283105922766083
 21
3.064825901430992
 31
0.0
  0
LINE
  5
240F
330
23DD
100
AcDbEntity
  8
Pel_CS-Weatherstrip
  6
Continuous
100
AcDbLine
 10
3.297818008532544
 20
3.360174098569018
 30
0.0
 11
3.283105922766083
 21
3.360174098569018
 31
0.0
  0
ARC
  5
2410
330
23DD
100
AcDbEntity
  8
Pel_CS-Sealant
100
AcDbCircle
 10
3.529230922766032
 20
1.241563280373441
 30
0.0
 40
1.774198080538652
100
AcDbArc
 50
82.02594628846911
 51
97.97405371153079
  0
ARC
  5
2411
330
23DD
100
AcDbEntity
  8
Pel_CS-Sealant
100
AcDbCircle
 10
3.529230922766032
 20
1.241563280373441
 30
0.0
 40
1.714198080538652
100
AcDbArc
 50
81.74492637850994
 51
98.25507362148689
  0
ARC
  5
2412
330
23DD
100
AcDbEntity
  8
Pel_CS-Sealant
100
AcDbCircle
 10
3.529230922766032
 20
1.241563280373441
 30
0.0
 40
1.734198080538652
100
AcDbArc
 50
81.84078242004723
 51
98.15921757995266
  0
ARC
  5
2413
330
23DD
100
AcDbEntity
  8
Pel_CS-Sealant
100
AcDbCircle
 10
3.529230922766032
 20
1.241563280373441
 30
0.0
 40
1.754198080538652
100
AcDbArc
 50
81.93443050062024
 51
98.06556949937657
  0
CIRCLE
  5
2414
330
23DD
100
AcDbEntity
  8
Pel_CS-Weatherstrip
100
AcDbCircle
 10
0.3232349772858356
 20
2.702156842032195
 30
0.0
 40
0.018
  0
CIRCLE
  5
2415
102
{ACAD_REACTORS
330
2418
102
}
330
23DD
100
AcDbEntity
  8
Pel_CS-Weatherstrip
100
AcDbCircle
 10
0.3232349772858356
 20
2.577156842032195
 30
0.0
 40
0.018
  0
CIRCLE
  5
2416
330
23DD
100
AcDbEntity
  8
Pel_CS-Weatherstrip
100
AcDbCircle
 10
0.3232349772858356
 20
2.952156842032195
 30
0.0
 40
0.018
  0
CIRCLE
  5
2417
330
23DD
100
AcDbEntity
  8
Pel_CS-Weatherstrip
100
AcDbCircle
 10
0.3232349772858356
 20
2.827156842032195
 30
0.0
 40
0.018
  0
HATCH
  5
2418
330
23DD
100
AcDbEntity
  8
Pel_CS-Weatherstrip
100
AcDbHatch
 10
0.0
 20
0.0
 30
0.0
210
0.0
220
0.0
230
1.0
  2
SOLID
 70
     1
 71
     1
 91
        1
 92
        1
 93
        1
 72
     2
 10
0.3232349772858356
 20
2.577156842032195
 40
0.018
 50
0.0
 51
360.0
 73
     1
 97
        1
330
2415
 75
     0
 76
     1
 98
        1
 10
-0.3587650227141239
 20
1.092156842032181
  0
HATCH
  5
2419
330
23DD
100
AcDbEntity
  8
Pel_CS-Weatherstrip
100
AcDbHatch
 10
0.0
 20
0.0
 30
0.0
210
0.0
220
0.0
230
1.0
  2
SOLID
 70
     1
 71
     0
 91
        1
 92
        1
 93
        1
 72
     2
 10
0.3232349772858356
 20
2.702156842032195
 40
0.018
 50
0.0
 51
360.0
 73
     0
 97
        0
 75
     0
 76
     1
 98
        1
 10
-0.3587650227141239
 20
1.217156842032181
  0
HATCH
  5
241A
330
23DD
100
AcDbEntity
  8
Pel_CS-Weatherstrip
100
AcDbHatch
 10
0.0
 20
0.0
 30
0.0
210
0.0
220
0.0
230
1.0
  2
SOLID
 70
     1
 71
     0
 91
        1
 92
        1
 93
        1
 72
     2
 10
0.3232349772858356
 20
2.827156842032195
 40
0.018
 50
0.0
 51
360.0
 73
     0
 97
        0
 75
     0
 76
     1
 98
        1
 10
-0.3587650227141239
 20
1.342156842032181
  0
HATCH
  5
241B
330
23DD
100
AcDbEntity
  8
Pel_CS-Weatherstrip
100
AcDbHatch
 10
0.0
 20
0.0
 30
0.0
210
0.0
220
0.0
230
1.0
  2
SOLID
 70
     1
 71
     0
 91
        1
 92
        1
 93
        1
 72
     2
 10
0.3232349772858356
 20
2.952156842032195
 40
0.018
 50
0.0
 51
360.0
 73
     0
 97
        0
 75
     0
 76
     1
 98
        1
 10
-0.3587650227141239
 20
1.467156842032181
  0
CIRCLE
  5
241C
330
23DD
100
AcDbEntity
  8
Pel_CS-Weatherstrip
100
AcDbCircle
 10
0.3232349772858356
 20
3.202156842032195
 30
0.0
 40
0.018
  0
CIRCLE
  5
241D
330
23DD
100
AcDbEntity
  8
Pel_CS-Weatherstrip
100
AcDbCircle
 10
0.3232349772858356
 20
3.077156842032195
 30
0.0
 40
0.018
  0
HATCH
  5
241E
330
23DD
100
AcDbEntity
  8
Pel_CS-Weatherstrip
100
AcDbHatch
 10
0.0
 20
0.0
 30
0.0
210
0.0
220
0.0
230
1.0
  2
SOLID
 70
     1
 71
     0
 91
        1
 92
        1
 93
        1
 72
     2
 10
0.3232349772858356
 20
3.077156842032195
 40
0.018
 50
0.0
 51
360.0
 73
     0
 97
        0
 75
     0
 76
     1
 98
        1
 10
-0.3587650227141239
 20
1.592156842032181
  0
HATCH
  5
241F
330
23DD
100
AcDbEntity
  8
Pel_CS-Weatherstrip
100
AcDbHatch
 10
0.0
 20
0.0
 30
0.0
210
0.0
220
0.0
230
1.0
  2
SOLID
 70
     1
 71
     0
 91
        1
 92
        1
 93
        1
 72
     2
 10
0.3232349772858356
 20
3.202156842032195
 40
0.018
 50
0.0
 51
360.0
 73
     0
 97
        0
 75
     0
 76
     1
 98
        1
 10
-0.3587650227141239
 20
1.717156842032181
  0
CIRCLE
  5
2420
330
23DD
100
AcDbEntity
  8
Pel_CS-Weatherstrip
100
AcDbCircle
 10
0.3232349772858356
 20
3.452156842032195
 30
0.0
 40
0.018
  0
CIRCLE
  5
2421
330
23DD
100
AcDbEntity
  8
Pel_CS-Weatherstrip
100
AcDbCircle
 10
0.3232349772858356
 20
3.327156842032195
 30
0.0
 40
0.018
  0
HATCH
  5
2422
330
23DD
100
AcDbEntity
  8
Pel_CS-Weatherstrip
100
AcDbHatch
 10
0.0
 20
0.0
 30
0.0
210
0.0
220
0.0
230
1.0
  2
SOLID
 70
     1
 71
     0
 91
        1
 92
        1
 93
        1
 72
     2
 10
0.3232349772858356
 20
3.327156842032195
 40
0.018
 50
0.0
 51
360.0
 73
     0
 97
        0
 75
     0
 76
     1
 98
        1
 10
-0.3587650227141239
 20
1.842156842032181
  0
HATCH
  5
2423
330
23DD
100
AcDbEntity
  8
Pel_CS-Weatherstrip
100
AcDbHatch
 10
0.0
 20
0.0
 30
0.0
210
0.0
220
0.0
230
1.0
  2
SOLID
 70
     1
 71
     0
 91
        1
 92
        1
 93
        1
 72
     2
 10
0.3232349772858356
 20
3.452156842032195
 40
0.018
 50
0.0
 51
360.0
 73
     0
 97
        0
 75
     0
 76
     1
 98
        1
 10
-0.3587650227141239
 20
1.967156842032181
  0
CIRCLE
  5
2424
330
23DD
100
AcDbEntity
  8
Pel_CS-Weatherstrip
100
AcDbCircle
 10
0.3232349772858356
 20
3.702156842032195
 30
0.0
 40
0.018
  0
CIRCLE
  5
2425
330
23DD
100
AcDbEntity
  8
Pel_CS-Weatherstrip
100
AcDbCircle
 10
0.3232349772858356
 20
3.577156842032195
 30
0.0
 40
0.018
  0
HATCH
  5
2426
330
23DD
100
AcDbEntity
  8
Pel_CS-Weatherstrip
100
AcDbHatch
 10
0.0
 20
0.0
 30
0.0
210
0.0
220
0.0
230
1.0
  2
SOLID
 70
     1
 71
     0
 91
        1
 92
        1
 93
        1
 72
     2
 10
0.3232349772858356
 20
3.577156842032195
 40
0.018
 50
0.0
 51
360.0
 73
     0
 97
        0
 75
     0
 76
     1
 98
        1
 10
-0.3587650227141239
 20
2.092156842032181
  0
HATCH
  5
2427
330
23DD
100
AcDbEntity
  8
Pel_CS-Weatherstrip
100
AcDbHatch
 10
0.0
 20
0.0
 30
0.0
210
0.0
220
0.0
230
1.0
  2
SOLID
 70
     1
 71
     0
 91
        1
 92
        1
 93
        1
 72
     2
 10
0.3232349772858356
 20
3.702156842032195
 40
0.018
 50
0.0
 51
360.0
 73
     0
 97
        0
 75
     0
 76
     1
 98
        1
 10
-0.3587650227141239
 20
2.217156842032181
  0
CIRCLE
  5
2428
330
23DD
100
AcDbEntity
  8
Pel_CS-Weatherstrip
100
AcDbCircle
 10
0.3232349772858356
 20
3.952156842032195
 30
0.0
 40
0.018
  0
CIRCLE
  5
2429
330
23DD
100
AcDbEntity
  8
Pel_CS-Weatherstrip
100
AcDbCircle
 10
0.3232349772858356
 20
3.827156842032195
 30
0.0
 40
0.018
  0
HATCH
  5
242A
330
23DD
100
AcDbEntity
  8
Pel_CS-Weatherstrip
100
AcDbHatch
 10
0.0
 20
0.0
 30
0.0
210
0.0
220
0.0
230
1.0
  2
SOLID
 70
     1
 71
     0
 91
        1
 92
        1
 93
        1
 72
     2
 10
0.3232349772858356
 20
3.827156842032195
 40
0.018
 50
0.0
 51
360.0
 73
     0
 97
        0
 75
     0
 76
     1
 98
        1
 10
-0.3587650227141239
 20
2.342156842032181
  0
HATCH
  5
242B
330
23DD
100
AcDbEntity
  8
Pel_CS-Weatherstrip
100
AcDbHatch
 10
0.0
 20
0.0
 30
0.0
210
0.0
220
0.0
230
1.0
  2
SOLID
 70
     1
 71
     0
 91
        1
 92
        1
 93
        1
 72
     2
 10
0.3232349772858356
 20
3.952156842032195
 40
0.018
 50
0.0
 51
360.0
 73
     0
 97
        0
 75
     0
 76
     1
 98
        1
 10
-0.3587650227141239
 20
2.467156842032181
  0
LWPOLYLINE
  5
242C
330
23DD
100
AcDbEntity
  8
Pel_CS-Sealant
100
AcDbPolyline
 90
       30
 70
     1
 43
0.0
 10
0.5644353077407623
 20
2.535753536370865
 10
0.5908853275406436
 20
2.535117063133952
 10
0.5856655260248296
 20
2.50917940098542
 10
0.608253678483667
 20
2.495403189093483
 10
0.5907643666939926
 20
2.475550415515986
 10
0.6034381746019371
 20
2.452325789820225
 10
0.5783655995086292
 20
2.44387743946137
 10
0.5777291262716986
 20
2.417427419661493
 10
0.5517914641231841
 20
2.42264722117731
 10
0.5408193726441937
 20
2.404656842032185
 10
0.5327961473484671
 20
2.404656842032185
 10
0.5181624786537569
 20
2.41754838050814
 10
0.4949378529579854
 20
2.404874572600206
 10
0.4864895025991523
 20
2.429947147693503
 10
0.4600394827992496
 20
2.430583620930427
 10
0.4652592843150636
 20
2.456521283078956
 10
0.4426711318562333
 20
2.470297494970896
 10
0.4601604436459006
 20
2.490150268548386
 10
0.4990618488331187
 20
2.485801587549897
 42
0.1989123673796589
 10
0.5047075470385601
 20
2.466269175337838
 42
1.0
 10
0.5462172633013438
 20
2.499431508726534
 42
0.6681786379193064
 10
0.4990618488331187
 20
2.485801587549897
 10
0.4601604436459006
 20
2.490150268548386
 10
0.4474866357379668
 20
2.513374894244147
 10
0.4725592108312818
 20
2.521823244603009
 10
0.4731956840681982
 20
2.548273264402883
 10
0.4991333462167198
 20
2.543053462887062
 10
0.5129095581086603
 20
2.565641615345899
 10
0.5327623316861505
 20
2.548152303556232
 10
0.5559869573819079
 20
2.560826111464169
  0
CIRCLE
  5
242D
330
23DD
100
AcDbEntity
  8
Pel_CS-Weatherstrip
100
AcDbCircle
 10
0.3232349772858356
 20
4.077156842032195
 30
0.0
 40
0.018
  0
HATCH
  5
242E
330
23DD
100
AcDbEntity
  8
Pel_CS-Weatherstrip
100
AcDbHatch
 10
0.0
 20
0.0
 30
0.0
210
0.0
220
0.0
230
1.0
  2
SOLID
 70
     1
 71
     0
 91
        1
 92
        1
 93
        1
 72
     2
 10
0.3232349772858356
 20
4.077156842032195
 40
0.018
 50
0.0
 51
360.0
 73
     0
 97
        0
 75
     0
 76
     1
 98
        1
 10
-0.3587650227141239
 20
2.592156842032181
  0
CIRCLE
  5
242F
330
23DD
100
AcDbEntity
  8
Pel_CS-Weatherstrip
100
AcDbCircle
 10
0.3232349772858356
 20
4.202156842032195
 30
0.0
 40
0.018
  0
HATCH
  5
2430
330
23DD
100
AcDbEntity
  8
Pel_CS-Weatherstrip
100
AcDbHatch
 10
0.0
 20
0.0
 30
0.0
210
0.0
220
0.0
230
1.0
  2
SOLID
 70
     1
 71
     0
 91
        1
 92
        1
 93
        1
 72
     2
 10
0.3232349772858356
 20
4.202156842032195
 40
0.018
 50
0.0
 51
360.0
 73
     0
 97
        0
 75
     0
 76
     1
 98
        1
 10
-0.3587650227141239
 20
2.717156842032181
  0
CIRCLE
  5
258A
330
23DD
100
AcDbEntity
  8
Pel_CS-Weatherstrip
100
AcDbCircle
 10
0.3232349772858356
 20
4.452156842032195
 30
0.0
 40
0.018
  0
CIRCLE
  5
258B
330
23DD
100
AcDbEntity
  8
Pel_CS-Weatherstrip
100
AcDbCircle
 10
0.3232349772858356
 20
4.327156842032195
 30
0.0
 40
0.018
  0
HATCH
  5
258C
330
23DD
100
AcDbEntity
  8
Pel_CS-Weatherstrip
100
AcDbHatch
 10
0.0
 20
0.0
 30
0.0
210
0.0
220
0.0
230
1.0
  2
SOLID
 70
     1
 71
     0
 91
        1
 92
        1
 93
        1
 72
     2
 10
0.3232349772858356
 20
4.327156842032195
 40
0.018
 50
0.0
 51
360.0
 73
     0
 97
        0
 75
     0
 76
     1
 98
        1
 10
-0.3587650227141239
 20
2.842156842032181
  0
HATCH
  5
258D
330
23DD
100
AcDbEntity
  8
Pel_CS-Weatherstrip
100
AcDbHatch
 10
0.0
 20
0.0
 30
0.0
210
0.0
220
0.0
230
1.0
  2
SOLID
 70
     1
 71
     0
 91
        1
 92
        1
 93
        1
 72
     2
 10
0.3232349772858356
 20
4.452156842032195
 40
0.018
 50
0.0
 51
360.0
 73
     0
 97
        0
 75
     0
 76
     1
 98
        1
 10
-0.3587650227141239
 20
2.967156842032181
  0
CIRCLE
  5
258E
330
23DD
100
AcDbEntity
  8
Pel_CS-Weatherstrip
100
AcDbCircle
 10
0.3232349772858356
 20
4.702156842032195
 30
0.0
 40
0.018
  0
CIRCLE
  5
258F
330
23DD
100
AcDbEntity
  8
Pel_CS-Weatherstrip
100
AcDbCircle
 10
0.3232349772858356
 20
4.577156842032195
 30
0.0
 40
0.018
  0
HATCH
  5
2590
330
23DD
100
AcDbEntity
  8
Pel_CS-Weatherstrip
100
AcDbHatch
 10
0.0
 20
0.0
 30
0.0
210
0.0
220
0.0
230
1.0
  2
SOLID
 70
     1
 71
     0
 91
        1
 92
        1
 93
        1
 72
     2
 10
0.3232349772858356
 20
4.577156842032195
 40
0.018
 50
0.0
 51
360.0
 73
     0
 97
        0
 75
     0
 76
     1
 98
        1
 10
-0.3587650227141239
 20
3.092156842032181
  0
HATCH
  5
2591
330
23DD
100
AcDbEntity
  8
Pel_CS-Weatherstrip
100
AcDbHatch
 10
0.0
 20
0.0
 30
0.0
210
0.0
220
0.0
230
1.0
  2
SOLID
 70
     1
 71
     0
 91
        1
 92
        1
 93
        1
 72
     2
 10
0.3232349772858356
 20
4.702156842032195
 40
0.018
 50
0.0
 51
360.0
 73
     0
 97
        0
 75
     0
 76
     1
 98
        1
 10
-0.3587650227141239
 20
3.217156842032181
  0
CIRCLE
  5
2592
330
23DD
100
AcDbEntity
  8
Pel_CS-Weatherstrip
100
AcDbCircle
 10
0.3232349772858356
 20
4.952156842032195
 30
0.0
 40
0.018
  0
CIRCLE
  5
2593
330
23DD
100
AcDbEntity
  8
Pel_CS-Weatherstrip
100
AcDbCircle
 10
0.3232349772858356
 20
4.827156842032195
 30
0.0
 40
0.018
  0
HATCH
  5
2594
330
23DD
100
AcDbEntity
  8
Pel_CS-Weatherstrip
100
AcDbHatch
 10
0.0
 20
0.0
 30
0.0
210
0.0
220
0.0
230
1.0
  2
SOLID
 70
     1
 71
     0
 91
        1
 92
        1
 93
        1
 72
     2
 10
0.3232349772858356
 20
4.827156842032195
 40
0.018
 50
0.0
 51
360.0
 73
     0
 97
        0
 75
     0
 76
     1
 98
        1
 10
-0.3587650227141239
 20
3.342156842032181
  0
HATCH
  5
2595
330
23DD
100
AcDbEntity
  8
Pel_CS-Weatherstrip
100
AcDbHatch
 10
0.0
 20
0.0
 30
0.0
210
0.0
220
0.0
230
1.0
  2
SOLID
 70
     1
 71
     0
 91
        1
 92
        1
 93
        1
 72
     2
 10
0.3232349772858356
 20
4.952156842032195
 40
0.018
 50
0.0
 51
360.0
 73
     0
 97
        0
 75
     0
 76
     1
 98
        1
 10
-0.3587650227141239
 20
3.467156842032181
  0
CIRCLE
  5
2596
330
23DD
100
AcDbEntity
  8
Pel_CS-Weatherstrip
100
AcDbCircle
 10
0.3232349772858356
 20
5.202156842032195
 30
0.0
 40
0.018
  0
CIRCLE
  5
2597
330
23DD
100
AcDbEntity
  8
Pel_CS-Weatherstrip
100
AcDbCircle
 10
0.3232349772858356
 20
5.077156842032195
 30
0.0
 40
0.018
  0
HATCH
  5
2598
330
23DD
100
AcDbEntity
  8
Pel_CS-Weatherstrip
100
AcDbHatch
 10
0.0
 20
0.0
 30
0.0
210
0.0
220
0.0
230
1.0
  2
SOLID
 70
     1
 71
     0
 91
        1
 92
        1
 93
        1
 72
     2
 10
0.3232349772858356
 20
5.077156842032195
 40
0.018
 50
0.0
 51
360.0
 73
     0
 97
        0
 75
     0
 76
     1
 98
        1
 10
-0.3587650227141239
 20
3.592156842032181
  0
HATCH
  5
2599
330
23DD
100
AcDbEntity
  8
Pel_CS-Weatherstrip
100
AcDbHatch
 10
0.0
 20
0.0
 30
0.0
210
0.0
220
0.0
230
1.0
  2
SOLID
 70
     1
 71
     0
 91
        1
 92
        1
 93
        1
 72
     2
 10
0.3232349772858356
 20
5.202156842032195
 40
0.018
 50
0.0
 51
360.0
 73
     0
 97
        0
 75
     0
 76
     1
 98
        1
 10
-0.3587650227141239
 20
3.717156842032181
  0
ENDBLK
  5
2431
330
23DD
100
AcDbEntity
  8
0
100
AcDbBlockEnd
  0
BLOCK
  5
2435
330
2432
100
AcDbEntity
  8
0
100
AcDbBlockBegin
  2
TSE 10 SD JV
 70
     0
 10
0.0
 20
0.0
 30
0.0
  3
TSE 10 SD JV
  1

  0
POINT
  5
2436
330
2432
100
AcDbEntity
  8
Pel_Points
100
AcDbPoint
 10
0.0000000000000013
 20
-0.0000000000000002
 30
0.0
 50
89.99999999999998
  0
LINE
  5
2437
330
2432
100
AcDbEntity
  8
0
100
AcDbLine
 10
2.63799944132347
 20
-1.40805452460421
 30
0.0
 11
2.63799944132347
 21
-1.40805452460421
 31
0.0
  0
LINE
  5
2438
330
2432
100
AcDbEntity
  8
0
100
AcDbLine
 10
2.63799944132347
 20
-1.40805452460421
 30
0.0
 11
2.63799944132347
 21
-1.40805452460421
 31
0.0
  0
HATCH
  5
2439
330
2432
100
AcDbEntity
  8
Pel_Hatch
100
AcDbHatch
 10
0.0
 20
0.0
 30
0.0
210
0.0
220
0.0
230
1.0
  2
PLAST
 70
     0
 71
     1
 91
        1
 92
        1
 93
       19
 72
     2
 10
3.057807904473149
 20
-1.327393846287953
 40
0.0479999999999743
 50
-27.76672404073092
 51
0.0000000000424159
 73
     1
 72
     1
 10
3.105807904473122
 20
-1.327393846287918
 11
3.105807904473122
 21
-1.221055938570742
 72
     1
 10
3.105807904473122
 20
-1.221055938570742
 11
4.053564347943334
 21
-1.22105593857077
 72
     1
 10
4.053564347943334
 20
-1.22105593857077
 11
4.053564347943334
 21
-2.578055938570741
 72
     1
 10
4.053564347943334
 20
-2.578055938570741
 11
4.101564347943336
 21
-2.578055938570741
 72
     1
 10
4.101564347943336
 20
-2.578055938570741
 11
4.101564347943336
 21
-1.22105593857077
 72
     2
 10
4.053564347943334
 20
-1.22105593857077
 40
0.0480000000000032
 50
0.0000000000000127
 51
90.00000000000001
 73
     1
 72
     1
 10
4.053564347943334
 20
-1.173055938570768
 11
3.105807904473122
 21
-1.17305593857074
 72
     2
 10
3.105807904473122
 20
-1.221055938570742
 40
0.0480000000000018
 50
90.00000000000001
 51
180.0
 73
     1
 72
     1
 10
3.05780790447312
 20
-1.221055938570742
 11
3.05780790447312
 21
-1.327393846287918
 72
     1
 10
3.05780790447312
 20
-1.327393846287918
 11
2.925091466739784
 21
-1.579467716284682
 72
     2
 10
2.967564347943293
 20
-1.601829611603953
 40
0.047999999999974
 50
152.233275959269
 51
180.0000000000423
 73
     1
 72
     1
 10
2.919564347943319
 20
-1.601829611603988
 11
2.919564347943319
 21
-2.261592648131113
 72
     2
 10
2.967564347943328
 20
-2.261592648131127
 40
0.0480000000000093
 50
179.999999999983
 51
229.0395742083725
 73
     1
 72
     1
 10
2.936098543409455
 20
-2.297840450064995
 11
3.258899618310634
 21
-2.578055938570741
 72
     1
 10
3.258899618310634
 20
-2.578055938570741
 11
3.2903654228445
 21
-2.541808136636887
 72
     1
 10
3.2903654228445
 20
-2.541808136636887
 11
2.967564347943321
 21
-2.261592648131113
 72
     1
 10
2.967564347943321
 20
-2.261592648131113
 11
2.967564347943321
 21
-1.601829611603988
 72
     1
 10
2.967564347943321
 20
-1.601829611603988
 11
3.100280785676657
 21
-1.349755741607225
 97
        1
330
243A
 75
     0
 76
     1
 52
315.0
 41
1.0
 77
     0
 78
     3
 53
315.0
 43
10.0
 44
-0.000000000000002
 45
0.1767766952966369
 46
0.1767766952966369
 79
     0
 53
315.0
 43
10.02209708691209
 44
0.0220970869120814
 45
0.1767766952966369
 46
0.1767766952966369
 79
     0
 53
315.0
 43
10.04419417382417
 44
0.0441941738241647
 45
0.1767766952966369
 46
0.1767766952966369
 79
     0
 98
        1
 10
10.0
 20
-0.000000000000002
1001
ACAD
1010
0.0
1020
0.0
1030
0.0
  0
LWPOLYLINE
  5
243A
102
{ACAD_REACTORS
330
2439
102
}
330
2432
100
AcDbEntity
  8
Pel_CS-Reinforcement
100
AcDbPolyline
 90
       19
 70
     1
 43
0.0
 10
3.100280785676657
 20
-1.349755741607225
 42
0.121751485986151
 10
3.105807904473122
 20
-1.327393846287918
 10
3.105807904473122
 20
-1.221055938570742
 10
4.053564347943334
 20
-1.22105593857077
 10
4.053564347943334
 20
-2.578055938570741
 10
4.101564347943336
 20
-2.578055938570741
 10
4.101564347943336
 20
-1.22105593857077
 42
0.4142135623730789
 10
4.053564347943334
 20
-1.173055938570768
 10
3.105807904473122
 20
-1.17305593857074
 42
0.4142135623731005
 10
3.05780790447312
 20
-1.221055938570742
 10
3.05780790447312
 20
-1.327393846287918
 10
2.925091466739784
 20
-1.579467716284682
 42
0.1217514859861519
 10
2.919564347943319
 20
-1.601829611603988
 10
2.919564347943319
 20
-2.261592648131113
 42
0.2173021055735763
 10
2.936098543409455
 20
-2.297840450064995
 10
3.258899618310634
 20
-2.578055938570741
 10
3.2903654228445
 20
-2.541808136636887
 10
2.967564347943321
 20
-2.261592648131113
 10
2.967564347943321
 20
-1.601829611603988
  0
LWPOLYLINE
  5
243B
330
2432
100
AcDbEntity
  8
Pel_CS-Cross Section
 62
     4
100
AcDbPolyline
 90
       46
 70
     1
 43
0.0
 10
2.794451099289288
 20
-1.433055938570759
 10
2.81445109928927
 20
-1.433055938570759
 42
0.4142135623730823
 10
2.894451099289254
 20
-1.353055938570775
 10
2.894451099289253
 20
-1.143055938570767
 10
4.134451099289263
 20
-1.143055938570767
 10
4.134451099289263
 20
-2.608055938570771
 10
4.128992007408838
 20
-2.608055938570771
 10
4.128992007408838
 20
-2.658055938570782
 10
4.134451099289263
 20
-2.658055938570782
 10
4.134451099289266
 20
-3.253055938570752
 10
4.024451099289253
 20
-3.253055938570752
 10
4.024451099289249
 20
-2.658055938570782
 10
4.128992007408838
 20
-2.658055938570782
 10
4.128992007408838
 20
-2.608055938570771
 10
3.049451099289283
 20
-2.608055938570771
 10
3.049451099289283
 20
-2.438055938570755
 42
0.4142135623730835
 10
2.969451099289242
 20
-2.358055938570771
 10
2.801040949422597
 20
-2.358055938570771
 10
2.801040949422597
 20
-2.438055938570755
 10
2.969451099289242
 20
-2.438055938570755
 10
2.969451099289242
 20
-2.608055938570771
 42
0.4142135623730951
 10
3.049451099289283
 20
-2.688055938570755
 10
3.964451099289247
 20
-2.688055938570755
 10
3.964451099289247
 20
-3.313055938570755
 10
4.21445109928925
 20
-3.313055938570755
 10
4.214451099289247
 20
-1.143055938570767
 42
0.4142135623730951
 10
4.134451099289263
 20
-1.063055938570755
 10
2.794451099289287
 20
-1.063055938570755
 42
0.4142135623730951
 10
2.714451099289246
 20
-1.143055938570767
 10
2.714451099289246
 20
-1.185555938570757
 10
2.764451099289258
 20
-1.185555938570757
 10
2.764451099289258
 20
-1.143055938570767
 10
2.814451099289269
 20
-1.143055938570767
 10
2.81445109928927
 20
-1.353055938570775
 10
2.764451099289258
 20
-1.353055938570775
 10
2.764451099289258
 20
-1.310555938570757
 10
2.714451099289247
 20
-1.310555938570757
 10
2.714451099289247
 20
-1.353055938570775
 10
2.714451099289247
 20
-2.688055938570755
 10
2.804451099289279
 20
-2.688055938570755
 42
1.0
 10
2.804451099289279
 20
-2.628055938570752
 10
2.794451099289288
 20
-2.628055938570781
 10
2.794451099289288
 20
-2.438055938570755
 10
2.801040949422597
 20
-2.438055938570755
 10
2.801040949422597
 20
-2.358055938570771
 10
2.794451099289288
 20
-2.358055938570771
  0
LWPOLYLINE
  5
243C
330
2432
100
AcDbEntity
  8
Pel_CS-Cross Section
 62
     4
100
AcDbPolyline
 90
       15
 70
     1
 43
0.0
 10
2.860227951931504
 20
-2.686715228753655
 10
2.860227951931504
 20
-2.59796522875365
 10
2.961090020897016
 20
-2.49206005633988
 42
1.0
 10
2.939365882965999
 20
-2.471370401167461
 10
2.815227951931488
 20
-2.601715228753647
 10
2.830227951931474
 20
-2.616715228753661
 10
2.830227951931474
 20
-2.686715228753655
 10
2.766814276846728
 20
-2.686715228753655
 42
0.5343310138307086
 10
2.752952869042529
 20
-2.707447712830088
 42
0.2404623521578165
 10
3.125586555866276
 20
-3.293595614263352
 42
0.9781803082727828
 10
3.140843978715905
 20
-3.267732696675465
 10
3.13957153747293
 20
-3.267026654247927
 42
-0.0133516086578351
 10
3.140281025890259
 20
-3.267400369472823
 42
-0.2361122684030795
 10
2.784707987626743
 20
-2.716715228753656
 10
2.830227951931474
 20
-2.716715228753656
 42
0.414213562373108
  0
HATCH
  5
243D
330
2432
100
AcDbEntity
  8
Pel_CS-Sealant
100
AcDbHatch
 10
0.0
 20
0.0
 30
0.0
210
0.0
220
0.0
230
1.0
  2
DASH
 70
     0
 71
     0
 91
        1
 92
        1
 93
        4
 72
     1
 10
3.304226798513921
 20
-2.9949062785426
 11
3.740976798513939
 21
-2.9949062785426
 72
     1
 10
3.740976798513939
 20
-2.9949062785426
 11
3.740976798513939
 21
-2.945215228753766
 72
     1
 10
3.740976798513939
 20
-2.945215228753766
 11
3.304226798513921
 21
-2.945215228753766
 72
     1
 10
3.304226798513921
 20
-2.945215228753766
 11
3.304226798513921
 21
-2.9949062785426
 97
        0
 75
     0
 76
     1
 52
30.0
 41
0.15
 77
     0
 78
     1
 53
29.99999999999998
 43
-8.006629124252128
 44
0.1262847712462457
 45
0.0068629763209582
 46
0.0256129763209582
 79
     2
 49
0.01875
 49
-0.01875
 98
        1
 10
-8.006629124252128
 20
0.1262847712462457
1001
ACAD
1010
0.0
1020
0.0
1030
0.0
  0
LWPOLYLINE
  5
243E
330
2432
100
AcDbEntity
  8
Pel_CS-Sealant
100
AcDbPolyline
 90
        4
 70
     1
 43
0.0
 10
3.304226798513921
 20
-2.9949062785426
 10
3.740976798513939
 20
-2.9949062785426
 10
3.740976798513939
 20
-2.945215228753766
 10
3.304226798513921
 20
-2.945215228753766
  0
LWPOLYLINE
  5
243F
330
2432
100
AcDbEntity
  8
Pel_CS-IG
100
AcDbPolyline
 90
        4
 70
     0
 43
0.0
 10
3.147476798513933
 20
-4.375
 10
3.147476798513933
 20
-2.811715228753768
 10
3.276476798513952
 20
-2.811715228753768
 10
3.276476798513952
 20
-4.375
  0
LWPOLYLINE
  5
2440
330
2432
100
AcDbEntity
  8
Pel_CS-IG
100
AcDbPolyline
 90
        4
 70
     0
 43
0.0
 10
3.768726798513965
 20
-4.374999999999999
 10
3.768726798513965
 20
-2.811715228753768
 10
3.897726798513927
 20
-2.811715228753768
 10
3.897726798513927
 20
-4.374999999999999
  0
LWPOLYLINE
  5
2441
330
2432
100
AcDbEntity
  8
Pel_CS-IG
100
AcDbPolyline
 90
       16
 70
     1
 43
0.0
 10
3.747976798513944
 20
-2.93621522875378
 10
3.297226798513973
 20
-2.93621522875378
 42
0.4142135623730951
 10
3.288226798513958
 20
-2.945215228753766
 10
3.288226798513958
 20
-3.227215228753777
 42
0.4142135623730913
 10
3.297226798513973
 20
-3.236215228753763
 10
3.366351798513958
 20
-3.236215228753763
 10
3.366351798513958
 20
-3.227215228753777
 10
3.297226798513973
 20
-3.227215228753777
 10
3.297226798513973
 20
-2.945215228753766
 10
3.747976798513944
 20
-2.945215228753766
 10
3.747976798513944
 20
-3.227215228753777
 10
3.678851798513958
 20
-3.227215228753777
 10
3.678851798513958
 20
-3.236215228753763
 10
3.747976798513944
 20
-3.236215228753763
 42
0.4142135623730918
 10
3.756976798513958
 20
-3.227215228753777
 10
3.756976798513958
 20
-2.945215228753766
 42
0.4142135623730951
  0
LINE
  5
2442
330
2432
100
AcDbEntity
  8
Pel_CS-Weatherstrip
  6
Continuous
100
AcDbLine
 10
3.754014712747446
 20
-2.938541130184745
 30
0.0
 11
3.768726798513965
 21
-2.938541130184745
 31
0.0
  0
LINE
  5
2443
330
2432
100
AcDbEntity
  8
Pel_CS-Weatherstrip
  6
Continuous
100
AcDbLine
 10
3.754014712747446
 20
-3.23388932732277
 30
0.0
 11
3.768726798513965
 21
-3.23388932732277
 31
0.0
  0
LINE
  5
2444
330
2432
100
AcDbEntity
  8
Pel_CS-Weatherstrip
  6
Continuous
100
AcDbLine
 10
3.291188884280471
 20
-2.938541130184745
 30
0.0
 11
3.276476798513952
 21
-2.938541130184745
 31
0.0
  0
LINE
  5
2445
330
2432
100
AcDbEntity
  8
Pel_CS-Weatherstrip
  6
Continuous
100
AcDbLine
 10
3.291188884280471
 20
-3.23388932732277
 30
0.0
 11
3.276476798513952
 21
-3.23388932732277
 31
0.0
  0
ARC
  5
2446
330
2432
100
AcDbEntity
  8
Pel_CS-Sealant
100
AcDbCircle
 10
3.522601798513901
 20
-1.115278509127193
 30
0.0
 40
1.774198080538652
100
AcDbArc
 50
262.0259462884691
 51
277.9740537115308
  0
ARC
  5
2447
330
2432
100
AcDbEntity
  8
Pel_CS-Sealant
100
AcDbCircle
 10
3.522601798513901
 20
-1.115278509127193
 30
0.0
 40
1.714198080538652
100
AcDbArc
 50
261.7449263785131
 51
278.2550736214902
  0
ARC
  5
2448
330
2432
100
AcDbEntity
  8
Pel_CS-Sealant
100
AcDbCircle
 10
3.522601798513901
 20
-1.115278509127193
 30
0.0
 40
1.734198080538652
100
AcDbArc
 50
261.8407824200472
 51
278.1592175799528
  0
ARC
  5
2449
330
2432
100
AcDbEntity
  8
Pel_CS-Sealant
100
AcDbCircle
 10
3.522601798513901
 20
-1.115278509127193
 30
0.0
 40
1.754198080538652
100
AcDbArc
 50
261.9344305006234
 51
278.0655694993797
  0
LWPOLYLINE
  5
244A
330
2432
100
AcDbEntity
  8
Pel_CS-Weatherstrip
100
AcDbPolyline
 90
        4
 70
     1
 43
0.0
 10
3.897726798513927
 20
-2.936715228753768
 10
3.960227951931527
 20
-2.936715228753768
 10
3.960227951931527
 20
-3.311715228753768
 10
3.897726798513927
 20
-3.311715228753768
  0
POLYLINE
  5
244B
330
2432
100
AcDbEntity
  8
Pel_Clad
100
AcDb2dPolyline
 66
     1
 10
0.0
 20
0.0
 30
0.0
 70
     1
  0
VERTEX
  5
2740
330
244B
100
AcDbEntity
  8
Pel_Clad
100
AcDbVertex
100
AcDb2dVertex
 10
0.7503933982821973
 20
-2.084968523638224
 30
0.0
 42
-0.4142135623730885
  0
VERTEX
  5
2741
330
244B
100
AcDbEntity
  8
Pel_Clad
100
AcDbVertex
100
AcDb2dVertex
 10
0.7103933982821769
 20
-2.124968523638216
 30
0.0
  0
VERTEX
  5
2742
330
244B
100
AcDbEntity
  8
Pel_Clad
100
AcDbVertex
100
AcDb2dVertex
 10
0.6783933982821946
 20
-2.124968523638216
 30
0.0
 42
0.4142135623731344
  0
VERTEX
  5
2743
330
244B
100
AcDbEntity
  8
Pel_Clad
100
AcDbVertex
100
AcDb2dVertex
 10
0.6583933982822128
 20
-2.144968523638226
 30
0.0
  0
VERTEX
  5
2744
330
244B
100
AcDbEntity
  8
Pel_Clad
100
AcDbVertex
100
AcDb2dVertex
 10
0.6583933982822128
 20
-2.285968523638217
 30
0.0
 42
-0.4142135623730889
  0
VERTEX
  5
2745
330
244B
100
AcDbEntity
  8
Pel_Clad
100
AcDbVertex
100
AcDb2dVertex
 10
0.6183933982821923
 20
-2.325968523638209
 30
0.0
  0
VERTEX
  5
2746
330
244B
100
AcDbEntity
  8
Pel_Clad
100
AcDbVertex
100
AcDb2dVertex
 10
0.3658933982821946
 20
-2.325968523638209
 30
0.0
 42
-1.0
  0
VERTEX
  5
2747
330
244B
100
AcDbEntity
  8
Pel_Clad
100
AcDbVertex
100
AcDb2dVertex
 10
0.3658933982821946
 20
-2.268968523638221
 30
0.0
  0
VERTEX
  5
2748
330
244B
100
AcDbEntity
  8
Pel_Clad
100
AcDbVertex
100
AcDb2dVertex
 10
0.4953933982822019
 20
-2.268968523638221
 30
0.0
  0
VERTEX
  5
2749
330
244B
100
AcDbEntity
  8
Pel_Clad
100
AcDbVertex
100
AcDb2dVertex
 10
0.4953933982822019
 20
-2.287968523638227
 30
0.0
  0
VERTEX
  5
274A
330
244B
100
AcDbEntity
  8
Pel_Clad
100
AcDbVertex
100
AcDb2dVertex
 10
0.3658933982821946
 20
-2.287968523638227
 30
0.0
 42
1.0
  0
VERTEX
  5
274B
330
244B
100
AcDbEntity
  8
Pel_Clad
100
AcDbVertex
100
AcDb2dVertex
 10
0.3658933982821946
 20
-2.306968523638204
 30
0.0
  0
VERTEX
  5
274C
330
244B
100
AcDbEntity
  8
Pel_Clad
100
AcDbVertex
100
AcDb2dVertex
 10
0.6193933982822255
 20
-2.306968523638204
 30
0.0
 42
0.4142135623730864
  0
VERTEX
  5
274D
330
244B
100
AcDbEntity
  8
Pel_Clad
100
AcDbVertex
100
AcDb2dVertex
 10
0.6393933982822074
 20
-2.286968523638222
 30
0.0
  0
VERTEX
  5
274E
330
244B
100
AcDbEntity
  8
Pel_Clad
100
AcDbVertex
100
AcDb2dVertex
 10
0.6393933982822074
 20
-2.145968523638202
 30
0.0
 42
-0.4142135623730826
  0
VERTEX
  5
274F
330
244B
100
AcDbEntity
  8
Pel_Clad
100
AcDbVertex
100
AcDb2dVertex
 10
0.6793933982822278
 20
-2.10596852363821
 30
0.0
  0
VERTEX
  5
2750
330
244B
100
AcDbEntity
  8
Pel_Clad
100
AcDbVertex
100
AcDb2dVertex
 10
0.7113933982822101
 20
-2.10596852363821
 30
0.0
 42
0.4142135623730822
  0
VERTEX
  5
2751
330
244B
100
AcDbEntity
  8
Pel_Clad
100
AcDbVertex
100
AcDb2dVertex
 10
0.7313933982821919
 20
-2.0859685236382
 30
0.0
  0
VERTEX
  5
2752
330
244B
100
AcDbEntity
  8
Pel_Clad
100
AcDbVertex
100
AcDb2dVertex
 10
0.7313933982821917
 20
-1.03563942605686
 30
0.0
  0
VERTEX
  5
2753
330
244B
100
AcDbEntity
  8
Pel_Clad
100
AcDbVertex
100
AcDb2dVertex
 10
0.7313933982821915
 20
-0.7649685236382028
 30
0.0
  0
VERTEX
  5
2754
330
244B
100
AcDbEntity
  8
Pel_Clad
100
AcDbVertex
100
AcDb2dVertex
 10
0.7313933982821917
 20
-1.03563942605686
 30
0.0
 42
-0.3868658026623807
  0
VERTEX
  5
2755
330
244B
100
AcDbEntity
  8
Pel_Clad
100
AcDbVertex
100
AcDb2dVertex
 10
0.6925665457773656
 20
-1.070968523638214
 30
0.0
  0
VERTEX
  5
2756
330
244B
100
AcDbEntity
  8
Pel_Clad
100
AcDbVertex
100
AcDb2dVertex
 10
0.3082202507870286
 20
-1.070968523638214
 30
0.0
 42
-0.3868658026623525
  0
VERTEX
  5
2757
330
244B
100
AcDbEntity
  8
Pel_Clad
100
AcDbVertex
100
AcDb2dVertex
 10
0.2693933982822025
 20
-1.03563942605686
 30
0.0
  0
VERTEX
  5
2758
330
244B
100
AcDbEntity
  8
Pel_Clad
100
AcDbVertex
100
AcDb2dVertex
 10
0.2693933982822024
 20
-0.7649685236382029
 30
0.0
  0
VERTEX
  5
2759
330
244B
100
AcDbEntity
  8
Pel_Clad
100
AcDbVertex
100
AcDb2dVertex
 10
0.2693933982822025
 20
-1.03563942605686
 30
0.0
  0
VERTEX
  5
275A
330
244B
100
AcDbEntity
  8
Pel_Clad
100
AcDbVertex
100
AcDb2dVertex
 10
0.2693933982822027
 20
-2.0859685236382
 30
0.0
 42
0.4142135623730822
  0
VERTEX
  5
275B
330
244B
100
AcDbEntity
  8
Pel_Clad
100
AcDbVertex
100
AcDb2dVertex
 10
0.2893933982821845
 20
-2.10596852363821
 30
0.0
  0
VERTEX
  5
275C
330
244B
100
AcDbEntity
  8
Pel_Clad
100
AcDbVertex
100
AcDb2dVertex
 10
0.5993933982821869
 20
-2.10596852363821
 30
0.0
 42
-0.4142135623730948
  0
VERTEX
  5
275D
330
244B
100
AcDbEntity
  8
Pel_Clad
100
AcDbVertex
100
AcDb2dVertex
 10
0.6393933982822074
 20
-2.145968523638202
 30
0.0
  0
VERTEX
  5
275E
330
244B
100
AcDbEntity
  8
Pel_Clad
100
AcDbVertex
100
AcDb2dVertex
 10
0.6393933982822074
 20
-2.266968523638212
 30
0.0
 42
-0.4142135623730854
  0
VERTEX
  5
275F
330
244B
100
AcDbEntity
  8
Pel_Clad
100
AcDbVertex
100
AcDb2dVertex
 10
0.5993933982821869
 20
-2.306968523638204
 30
0.0
  0
VERTEX
  5
2760
330
244B
100
AcDbEntity
  8
Pel_Clad
100
AcDbVertex
100
AcDb2dVertex
 10
0.3658933982821946
 20
-2.306968523638204
 30
0.0
  0
VERTEX
  5
2761
330
244B
100
AcDbEntity
  8
Pel_Clad
100
AcDbVertex
100
AcDb2dVertex
 10
0.3658933982821946
 20
-2.287968523638227
 30
0.0
  0
VERTEX
  5
2762
330
244B
100
AcDbEntity
  8
Pel_Clad
100
AcDbVertex
100
AcDb2dVertex
 10
0.6003933982822201
 20
-2.287968523638227
 30
0.0
 42
0.4142135623730847
  0
VERTEX
  5
2763
330
244B
100
AcDbEntity
  8
Pel_Clad
100
AcDbVertex
100
AcDb2dVertex
 10
0.6203933982822019
 20
-2.267968523638216
 30
0.0
  0
VERTEX
  5
2764
330
244B
100
AcDbEntity
  8
Pel_Clad
100
AcDbVertex
100
AcDb2dVertex
 10
0.6203933982822019
 20
-2.144968523638226
 30
0.0
 42
0.4142135623731412
  0
VERTEX
  5
2765
330
244B
100
AcDbEntity
  8
Pel_Clad
100
AcDbVertex
100
AcDb2dVertex
 10
0.6003933982822201
 20
-2.124968523638216
 30
0.0
  0
VERTEX
  5
2766
330
244B
100
AcDbEntity
  8
Pel_Clad
100
AcDbVertex
100
AcDb2dVertex
 10
0.2903933982822178
 20
-2.124968523638216
 30
0.0
 42
-0.4142135623730891
  0
VERTEX
  5
2767
330
244B
100
AcDbEntity
  8
Pel_Clad
100
AcDbVertex
100
AcDb2dVertex
 10
0.2503933982821973
 20
-2.084968523638224
 30
0.0
  0
VERTEX
  5
2768
330
244B
100
AcDbEntity
  8
Pel_Clad
100
AcDbVertex
100
AcDb2dVertex
 10
0.2503933982821969
 20
-0.7644685236382147
 30
0.0
 42
-0.417485751266966
  0
VERTEX
  5
2769
330
244B
100
AcDbEntity
  8
Pel_Clad
100
AcDbVertex
100
AcDb2dVertex
 10
0.2690998357369359
 20
-0.7459696754692688
 30
0.0
 42
-0.4174423589703049
  0
VERTEX
  5
276A
330
244B
100
AcDbEntity
  8
Pel_Clad
100
AcDbVertex
100
AcDb2dVertex
 10
0.2883090443743278
 20
-0.7649685236382029
 30
0.0
  0
VERTEX
  5
276B
330
244B
100
AcDbEntity
  8
Pel_Clad
100
AcDbVertex
100
AcDb2dVertex
 10
0.2883090443743279
 20
-1.03008600957736
 30
0.0
 42
0.4421005955735554
  0
VERTEX
  5
276C
330
244B
100
AcDbEntity
  8
Pel_Clad
100
AcDbVertex
100
AcDb2dVertex
 10
0.3082202507870286
 20
-1.051968523638209
 30
0.0
  0
VERTEX
  5
276D
330
244B
100
AcDbEntity
  8
Pel_Clad
100
AcDbVertex
100
AcDb2dVertex
 10
0.6925665457773656
 20
-1.051968523638208
 30
0.0
 42
0.4421005955734904
  0
VERTEX
  5
276E
330
244B
100
AcDbEntity
  8
Pel_Clad
100
AcDbVertex
100
AcDb2dVertex
 10
0.7124777521901232
 20
-1.03008600957736
 30
0.0
  0
VERTEX
  5
276F
330
244B
100
AcDbEntity
  8
Pel_Clad
100
AcDbVertex
100
AcDb2dVertex
 10
0.712477752190123
 20
-0.7649685236382028
 30
0.0
 42
-0.4174423589703208
  0
VERTEX
  5
2770
330
244B
100
AcDbEntity
  8
Pel_Clad
100
AcDbVertex
100
AcDb2dVertex
 10
0.731686960827458
 20
-0.7459696754692688
 30
0.0
 42
-0.4174857512669492
  0
VERTEX
  5
2771
330
244B
100
AcDbEntity
  8
Pel_Clad
100
AcDbVertex
100
AcDb2dVertex
 10
0.750393398282197
 20
-0.7644685236382146
 30
0.0
  0
SEQEND
  5
2772
330
244B
100
AcDbEntity
  8
Pel_Clad
  0
LWPOLYLINE
  5
247F
330
2432
100
AcDbEntity
  8
Pel_CS-Sealant
100
AcDbPolyline
 90
       30
 70
     1
 43
0.0
 10
0.5605937287370839
 20
-2.2560652179769
 10
0.5870437485369653
 20
-2.255428744739987
 10
0.5818239470211513
 20
-2.229491082591454
 10
0.6044120994799887
 20
-2.215714870699518
 10
0.5869227876903143
 20
-2.19586209712202
 10
0.5995965955982588
 20
-2.172637471426259
 10
0.5745240205049509
 20
-2.164189121067405
 10
0.5738875472680203
 20
-2.137739101267527
 10
0.5479498851195057
 20
-2.142958902783345
 10
0.5369777936405154
 20
-2.124968523638219
 10
0.5289545683447888
 20
-2.124968523638219
 10
0.5143208996500786
 20
-2.137860062114175
 10
0.491096273954307
 20
-2.125186254206241
 10
0.482647923595474
 20
-2.150258829299538
 10
0.4561979037955713
 20
-2.150895302536461
 10
0.4614177053113853
 20
-2.17683296468499
 10
0.438829552852555
 20
-2.190609176576931
 10
0.4563188646422223
 20
-2.210461950154421
 10
0.4952202698294404
 20
-2.206113269155931
 42
-0.1989123673796589
 10
0.5008659680348817
 20
-2.186580856943873
 42
-1.0
 10
0.5423756842976655
 20
-2.219743190332568
 42
-0.6681786379193064
 10
0.4952202698294404
 20
-2.206113269155931
 10
0.4563188646422223
 20
-2.210461950154421
 10
0.4436450567342885
 20
-2.233686575850182
 10
0.4687176318276034
 20
-2.242134926209043
 10
0.4693541050645198
 20
-2.268584946008918
 10
0.4952917672130415
 20
-2.263365144493096
 10
0.509067979104982
 20
-2.285953296951934
 10
0.5289207526824722
 20
-2.268463985162266
 10
0.5521453783782296
 20
-2.281137793070204
  0
LWPOLYLINE
  5
2480
330
2432
100
AcDbEntity
  8
Pel_CS-Hardware
100
AcDbPolyline
 90
       40
 70
     0
 43
0.0
 10
4.214451099289098
 20
-1.574055938570864
 10
4.481545069091245
 20
-1.583383065522979
 42
-0.4040262258350691
 10
4.539451099289086
 20
-1.643346515144116
 10
4.539379296386718
 20
-1.645402681243097
 42
-0.0225325441494628
 10
4.820581162710956
 20
-1.661717817549827
 42
-0.0243068766402591
 10
4.952014183112842
 20
-1.68573228273459
 42
-0.0779250719197436
 10
5.346853849273278
 20
-1.845665268405951
 42
-0.0597023596658246
 10
5.605405289063972
 20
-2.04618671712643
 42
-0.0299641968389323
 10
5.715449708014764
 20
-2.168667638180351
 42
-0.0637974420991638
 10
5.896507935932495
 20
-2.46757014472277
 42
-0.0562853933761843
 10
5.989104656042249
 20
-2.7619421685105
 42
-0.0474531303761581
 10
6.014446325104293
 20
-3.021111994834085
 10
6.014451099289084
 20
-3.999350751280501
 42
-0.194382855300675
 10
5.944286067667595
 20
-4.17301528534952
 42
-0.1943777656335873
 10
5.773176045197336
 20
-4.249198369207277
 42
-0.0335145671179134
 10
5.664773210014507
 20
-4.24904798058145
 42
-0.1929384410841095
 10
5.514196343214583
 20
-4.182006840138227
 42
-0.1958229564131192
 10
5.452451099289069
 20
-4.029181998637255
 10
5.452468133977811
 20
-3.280987983638367
 42
0.1030251798112709
 10
5.374954880186029
 20
-2.908752466287835
 42
0.0635179896605866
 10
5.29831082484346
 20
-2.780161357552912
 42
0.0302747233968973
 10
5.199051876368192
 20
-2.66810045619735
 42
0.0643715405016018
 10
5.078356217170854
 20
-2.575043662702284
 42
0.1023066664215547
 10
4.722175693487221
 20
-2.455291588922136
 42
0.0165857740700632
 10
4.539025279561249
 20
-2.439268003983527
 42
-0.0165857740700323
 10
4.349451099058418
 20
-2.422682412292317
 10
4.349451099058422
 20
-3.387144877306098
 10
4.349451099058418
 20
-2.7485050165142
 42
-0.1065505972514744
 10
4.53736776631006
 20
-2.860851520902769
 42
-0.201947365830347
 10
4.629451099094515
 20
-3.05573905186614
 10
4.629451099094515
 20
-3.093006291509254
 42
-0.2162646955990915
 10
4.521581679895769
 20
-3.302435144092498
 42
-0.1099111178947065
 10
4.308417306250754
 20
-3.413265288718406
 42
-0.0431353532758265
 10
4.295546359389613
 20
-3.41659520979067
 10
4.249451099058427
 20
-3.41659520979067
 42
-0.4142135623728088
 10
4.239451099058436
 20
-3.406595209790679
 10
4.239451099058433
 20
-2.43624942941713
 10
4.22392773949601
 20
-2.435435884615429
 42
-0.3989595459728616
 10
4.214451099058427
 20
-2.425449589267884
 10
4.214451098934622
 20
-1.574055938558501
  0
LWPOLYLINE
  5
2481
330
2432
100
AcDbEntity
  8
Pel_CS-Hardware
100
AcDbPolyline
 90
       21
 70
     1
 43
0.0
 10
1.364451099058436
 20
-1.718799072596681
 10
1.364451099058433
 20
-2.343799072596681
 10
1.339451099058427
 20
-2.343799072596681
 10
1.33945109905843
 20
-1.718799072596681
 10
1.339451099058427
 20
-2.343799072596681
 10
1.314451099058421
 20
-2.318799072596675
 10
1.314451099058425
 20
-1.743799072596686
 10
1.33945109905843
 20
-1.718799072596681
 10
1.364451099058436
 20
-1.718799072596681
 10
1.33945109905843
 20
-1.718799072596681
 10
1.314451099058425
 20
-1.743799072596686
 10
1.314451099058421
 20
-2.318799072596675
 10
1.339451099058427
 20
-2.343799072596681
 10
1.364451099058433
 20
-2.343799072596681
 10
1.364451099058433
 20
-2.438219226670412
 42
0.4049229637942268
 10
1.408019261565433
 20
-2.483196439960494
 10
2.714451099058456
 20
-2.525815463199563
 10
2.714451099058427
 20
-1.609938851646859
 10
1.408443017361514
 20
-1.638065963300789
 42
0.3587001382042505
 10
1.364451099058436
 20
-1.686337639642374
 10
1.364451099058436
 20
-1.718799072596681
  0
CIRCLE
  5
2482
102
{ACAD_REACTORS
330
2483
102
}
330
2432
100
AcDbEntity
  8
Pel_CS-Weatherstrip
100
AcDbCircle
 10
0.3184933982822024
 20
-3.824849999999997
 30
0.0
 40
0.0189
  0
HATCH
  5
2483
330
2432
100
AcDbEntity
  8
Pel_CS-Weatherstrip
100
AcDbHatch
 10
0.0
 20
0.0
 30
0.0
210
0.0
220
0.0
230
1.0
  2
SOLID
 70
     1
 71
     1
 91
        1
 92
        1
 93
        1
 72
     2
 10
0.3184933982822024
 20
-3.824849999999997
 40
0.0189
 50
-89.99999999999998
 51
270.0
 73
     1
 97
        1
330
2482
 75
     0
 76
     1
 98
        1
 10
-6.243658745673664
 20
-10.31741485349673
  0
CIRCLE
  5
2484
102
{ACAD_REACTORS
330
2485
102
}
330
2432
100
AcDbEntity
  8
Pel_CS-Weatherstrip
100
AcDbCircle
 10
0.3184933982822024
 20
-3.668599999999997
 30
0.0
 40
0.0189
  0
HATCH
  5
2485
330
2432
100
AcDbEntity
  8
Pel_CS-Weatherstrip
100
AcDbHatch
 10
0.0
 20
0.0
 30
0.0
210
0.0
220
0.0
230
1.0
  2
SOLID
 70
     1
 71
     1
 91
        1
 92
        1
 93
        1
 72
     2
 10
0.3184933982822024
 20
-3.668599999999997
 40
0.0189
 50
-89.99999999999998
 51
270.0
 73
     1
 97
        1
330
2484
 75
     0
 76
     1
 98
        1
 10
-6.243658745673664
 20
-10.16116485349673
  0
CIRCLE
  5
2486
102
{ACAD_REACTORS
330
2487
102
}
330
2432
100
AcDbEntity
  8
Pel_CS-Weatherstrip
100
AcDbCircle
 10
0.3184933982822023
 20
-3.512349999999997
 30
0.0
 40
0.0189
  0
HATCH
  5
2487
330
2432
100
AcDbEntity
  8
Pel_CS-Weatherstrip
100
AcDbHatch
 10
0.0
 20
0.0
 30
0.0
210
0.0
220
0.0
230
1.0
  2
SOLID
 70
     1
 71
     1
 91
        1
 92
        1
 93
        1
 72
     2
 10
0.3184933982822023
 20
-3.512349999999997
 40
0.0189
 50
-89.99999999999998
 51
270.0
 73
     1
 97
        1
330
2486
 75
     0
 76
     1
 98
        1
 10
-6.243658745673664
 20
-10.00491485349673
  0
CIRCLE
  5
2488
102
{ACAD_REACTORS
330
2489
102
}
330
2432
100
AcDbEntity
  8
Pel_CS-Weatherstrip
100
AcDbCircle
 10
0.3184933982822022
 20
-3.356099999999997
 30
0.0
 40
0.0189
  0
HATCH
  5
2489
330
2432
100
AcDbEntity
  8
Pel_CS-Weatherstrip
100
AcDbHatch
 10
0.0
 20
0.0
 30
0.0
210
0.0
220
0.0
230
1.0
  2
SOLID
 70
     1
 71
     1
 91
        1
 92
        1
 93
        1
 72
     2
 10
0.3184933982822022
 20
-3.356099999999997
 40
0.0189
 50
-89.99999999999998
 51
270.0
 73
     1
 97
        1
330
2488
 75
     0
 76
     1
 98
        1
 10
-6.243658745673664
 20
-9.848664853496734
  0
CIRCLE
  5
248A
102
{ACAD_REACTORS
330
248B
102
}
330
2432
100
AcDbEntity
  8
Pel_CS-Weatherstrip
100
AcDbCircle
 10
0.3184933982822022
 20
-3.199849999999997
 30
0.0
 40
0.0189
  0
HATCH
  5
248B
330
2432
100
AcDbEntity
  8
Pel_CS-Weatherstrip
100
AcDbHatch
 10
0.0
 20
0.0
 30
0.0
210
0.0
220
0.0
230
1.0
  2
SOLID
 70
     1
 71
     1
 91
        1
 92
        1
 93
        1
 72
     2
 10
0.3184933982822022
 20
-3.199849999999997
 40
0.0189
 50
-89.99999999999998
 51
270.0
 73
     1
 97
        1
330
248A
 75
     0
 76
     1
 98
        1
 10
-6.243658745673664
 20
-9.692414853496734
  0
CIRCLE
  5
248C
102
{ACAD_REACTORS
330
248D
102
}
330
2432
100
AcDbEntity
  8
Pel_CS-Weatherstrip
100
AcDbCircle
 10
0.3184933982822022
 20
-3.043599999999997
 30
0.0
 40
0.0189
  0
HATCH
  5
248D
330
2432
100
AcDbEntity
  8
Pel_CS-Weatherstrip
100
AcDbHatch
 10
0.0
 20
0.0
 30
0.0
210
0.0
220
0.0
230
1.0
  2
SOLID
 70
     1
 71
     1
 91
        1
 92
        1
 93
        1
 72
     2
 10
0.3184933982822022
 20
-3.043599999999997
 40
0.0189
 50
-89.99999999999998
 51
270.0
 73
     1
 97
        1
330
248C
 75
     0
 76
     1
 98
        1
 10
-6.243658745673664
 20
-9.536164853496734
  0
CIRCLE
  5
248E
102
{ACAD_REACTORS
330
248F
102
}
330
2432
100
AcDbEntity
  8
Pel_CS-Weatherstrip
100
AcDbCircle
 10
0.3184933982822022
 20
-2.887349999999997
 30
0.0
 40
0.0189
  0
HATCH
  5
248F
330
2432
100
AcDbEntity
  8
Pel_CS-Weatherstrip
100
AcDbHatch
 10
0.0
 20
0.0
 30
0.0
210
0.0
220
0.0
230
1.0
  2
SOLID
 70
     1
 71
     1
 91
        1
 92
        1
 93
        1
 72
     2
 10
0.3184933982822022
 20
-2.887349999999997
 40
0.0189
 50
-89.99999999999998
 51
270.0
 73
     1
 97
        1
330
248E
 75
     0
 76
     1
 98
        1
 10
-6.243658745673664
 20
-9.379914853496734
  0
CIRCLE
  5
2490
102
{ACAD_REACTORS
330
2491
102
}
330
2432
100
AcDbEntity
  8
Pel_CS-Weatherstrip
100
AcDbCircle
 10
0.3184933982822021
 20
-2.731099999999997
 30
0.0
 40
0.0189
  0
HATCH
  5
2491
330
2432
100
AcDbEntity
  8
Pel_CS-Weatherstrip
100
AcDbHatch
 10
0.0
 20
0.0
 30
0.0
210
0.0
220
0.0
230
1.0
  2
SOLID
 70
     1
 71
     1
 91
        1
 92
        1
 93
        1
 72
     2
 10
0.3184933982822021
 20
-2.731099999999997
 40
0.0189
 50
-89.99999999999998
 51
270.0
 73
     1
 97
        1
330
2490
 75
     0
 76
     1
 98
        1
 10
-6.243658745673664
 20
-9.223664853496734
  0
CIRCLE
  5
2492
102
{ACAD_REACTORS
330
2493
102
}
330
2432
100
AcDbEntity
  8
Pel_CS-Weatherstrip
100
AcDbCircle
 10
0.3184933982822021
 20
-2.574849999999997
 30
0.0
 40
0.0189
  0
HATCH
  5
2493
330
2432
100
AcDbEntity
  8
Pel_CS-Weatherstrip
100
AcDbHatch
 10
0.0
 20
0.0
 30
0.0
210
0.0
220
0.0
230
1.0
  2
SOLID
 70
     1
 71
     1
 91
        1
 92
        1
 93
        1
 72
     2
 10
0.3184933982822021
 20
-2.574849999999997
 40
0.0189
 50
-89.99999999999998
 51
270.0
 73
     1
 97
        1
330
2492
 75
     0
 76
     1
 98
        1
 10
-6.243658745673664
 20
-9.067414853496734
  0
CIRCLE
  5
2494
102
{ACAD_REACTORS
330
2495
102
}
330
2432
100
AcDbEntity
  8
Pel_CS-Weatherstrip
100
AcDbCircle
 10
0.3184933982822021
 20
-2.418599999999997
 30
0.0
 40
0.0189
  0
HATCH
  5
2495
330
2432
100
AcDbEntity
  8
Pel_CS-Weatherstrip
100
AcDbHatch
 10
0.0
 20
0.0
 30
0.0
210
0.0
220
0.0
230
1.0
  2
SOLID
 70
     1
 71
     1
 91
        1
 92
        1
 93
        1
 72
     2
 10
0.3184933982822021
 20
-2.418599999999997
 40
0.0189
 50
-89.99999999999998
 51
270.0
 73
     1
 97
        1
330
2494
 75
     0
 76
     1
 98
        1
 10
-6.243658745673664
 20
-8.911164853496734
  0
HATCH
  5
2496
330
2432
100
AcDbEntity
  8
Pel_CS-Weatherstrip
100
AcDbHatch
 10
0.0
 20
0.0
 30
0.0
210
0.0
220
0.0
230
1.0
  2
SOLID
 70
     1
 71
     1
 91
        1
 92
        1
 93
        1
 72
     2
 10
0.318493398282202
 20
-2.262349999999997
 40
0.0189
 50
-89.99999999999998
 51
270.0
 73
     1
 97
        1
330
2497
 75
     0
 76
     1
 98
        1
 10
-6.243658745673664
 20
-8.754914853496734
  0
CIRCLE
  5
2497
102
{ACAD_REACTORS
330
2496
102
}
330
2432
100
AcDbEntity
  8
Pel_CS-Weatherstrip
100
AcDbCircle
 10
0.318493398282202
 20
-2.262349999999997
 30
0.0
 40
0.0189
  0
CIRCLE
  5
2498
102
{ACAD_REACTORS
330
2499
102
}
330
2432
100
AcDbEntity
  8
Pel_CS-Weatherstrip
100
AcDbCircle
 10
0.3184933982822025
 20
-4.137349999999997
 30
0.0
 40
0.0189
  0
HATCH
  5
2499
330
2432
100
AcDbEntity
  8
Pel_CS-Weatherstrip
100
AcDbHatch
 10
0.0
 20
0.0
 30
0.0
210
0.0
220
0.0
230
1.0
  2
SOLID
 70
     1
 71
     1
 91
        1
 92
        1
 93
        1
 72
     2
 10
0.3184933982822025
 20
-4.137349999999997
 40
0.0189
 50
-89.99999999999998
 51
270.0
 73
     1
 97
        1
330
2498
 75
     0
 76
     1
 98
        1
 10
-6.243658745673664
 20
-10.62991485349673
  0
CIRCLE
  5
249A
102
{ACAD_REACTORS
330
249B
102
}
330
2432
100
AcDbEntity
  8
Pel_CS-Weatherstrip
100
AcDbCircle
 10
0.3184933982822024
 20
-3.981099999999997
 30
0.0
 40
0.0189
  0
HATCH
  5
249B
330
2432
100
AcDbEntity
  8
Pel_CS-Weatherstrip
100
AcDbHatch
 10
0.0
 20
0.0
 30
0.0
210
0.0
220
0.0
230
1.0
  2
SOLID
 70
     1
 71
     1
 91
        1
 92
        1
 93
        1
 72
     2
 10
0.3184933982822024
 20
-3.981099999999997
 40
0.0189
 50
-89.99999999999998
 51
270.0
 73
     1
 97
        1
330
249A
 75
     0
 76
     1
 98
        1
 10
-6.243658745673664
 20
-10.47366485349673
  0
LWPOLYLINE
  5
249C
330
2432
100
AcDbEntity
  8
Pel_CS-Cross Section
 62
     4
100
AcDbPolyline
 90
      129
 70
     1
 43
0.0
 10
1.429957603986357
 20
1.125
 10
1.349957603986355
 20
1.125
 10
1.349957603986355
 20
0.0
 10
0.064999999999999
 20
-0.0000000000000002
 10
0.0649999999999955
 20
-0.0799999999999985
 10
0.1169615242270665
 20
-0.1099999999999996
 10
0.1419615242270686
 20
-0.1099999999999996
 10
0.1419615242270615
 20
-0.0799999999999985
 10
0.2799999999999989
 20
-0.0799999999999985
 10
0.2799999999999954
 20
-0.2349999999999996
 10
-0.0000000000000022
 20
-0.2349999999999996
 10
-0.0000000000000021
 20
-0.9380000000000025
 10
0.1999999999999972
 20
-0.9380000000000025
 10
0.1999999999999971
 20
-0.4380000000000026
 10
0.8349999999999987
 20
-0.4380000000000025
 10
0.8349999999999987
 20
-0.6280000000000002
 10
0.7999999999999986
 20
-0.6280000000000002
 10
0.7999999999999986
 20
-0.9380000000000025
 10
0.8899999999999984
 20
-0.9380000000000025
 42
1.0
 10
0.8899999999999984
 20
-0.8780000000000002
 10
0.8599999999999972
 20
-0.8779999999999967
 10
0.8599999999999972
 20
-0.687999999999999
 10
1.054999999999997
 20
-0.6879999999999989
 10
1.054999999999997
 20
-0.8379999999999974
 10
1.112735026918959
 20
-0.9379999999999988
 10
2.149999999999999
 20
-0.9379999999999951
 10
2.149999999999999
 20
-1.103000000000001
 10
2.114999999999996
 20
-1.103000000000001
 10
2.074999999999989
 20
-1.063000000000002
 10
2.049999999999998
 20
-1.063000000000002
 10
2.049999999999998
 20
-1.563000000000002
 10
2.599999999999996
 20
-1.563000000000002
 42
0.4142135623731037
 10
2.629999999999997
 20
-1.533000000000001
 10
2.629999999999996
 20
-0.6822820323027513
 10
2.669999999999995
 20
-0.613000000000003
 10
2.669999999999995
 20
-0.5880000000000008
 10
2.629999999999996
 20
-0.5880000000000008
 10
2.629999999999996
 20
-0.4630000000000008
 10
4.269999999999997
 20
-0.4630000000000005
 10
4.269999999999997
 20
-0.5880000000000005
 10
4.229999999999998
 20
-0.5880000000000005
 10
4.229999999999998
 20
-0.6130000000000026
 10
4.269999999999997
 20
-0.6822820323027509
 10
4.269999999999997
 20
-1.412999999999999
 10
4.229999999999998
 20
-1.412999999999999
 10
4.229999999999998
 20
-1.533
 42
0.4142135623730863
 10
4.259999999999996
 20
-1.562999999999998
 10
4.499999999999994
 20
-1.563000000000001
 10
4.499999999999993
 20
-0.2349999999999988
 10
4.219999999999999
 20
-0.2349999999999989
 10
4.219999999999999
 20
-0.0901420310525717
 10
4.144999999999996
 20
-0.0901420310525717
 10
4.145
 20
-0.2349999999999989
 42
0.4142135623731037
 10
4.22
 20
-0.3100000000000017
 10
4.419999999999996
 20
-0.3100000000000017
 10
4.419999999999996
 20
-0.3829999999999986
 10
4.404899421459154
 20
-0.3829999999999986
 10
4.404899421459154
 20
-0.4429999999999973
 10
4.419999999999996
 20
-0.4429999999999973
 10
4.419999999999996
 20
-1.482999999999999
 10
4.33
 20
-1.483
 10
4.33
 20
-0.4429999999999973
 10
4.404899421459154
 20
-0.4429999999999973
 10
4.404899421459154
 20
-0.3829999999999986
 10
3.508999999999998
 20
-0.3829999999999987
 10
3.509000000000001
 20
-0.0901420310525718
 10
3.448999999999999
 20
-0.0901420310525719
 10
3.448999999999999
 20
-0.3829999999999987
 10
2.61
 20
-0.3829999999999989
 10
2.609999999999993
 20
-0.090142031052572
 10
2.549999999999994
 20
-0.090142031052572
 10
2.549999999999998
 20
-1.483
 10
2.13
 20
-1.483
 10
2.129999999999996
 20
-1.178
 10
2.149999999999999
 20
-1.178000000000004
 42
0.4142135623730822
 10
2.224999999999995
 20
-1.103000000000004
 10
2.224999999999995
 20
-0.9329999999999996
 42
0.414213562373109
 10
2.149999999999996
 20
-0.8579999999999968
 10
2.019999999999997
 20
-0.8579999999999968
 10
2.02
 20
-0.0901420310525721
 10
1.959999999999998
 20
-0.0901420310525721
 10
1.959999999999998
 20
-0.8579999999999968
 10
1.153149545762234
 20
-0.8579999999999969
 10
1.129999999999993
 20
-0.8179038105676639
 10
1.13
 20
-0.0901420310525723
 10
1.069999999999998
 20
-0.0901420310525723
 10
1.069999999999994
 20
-0.6129999999999996
 10
0.9100000000000015
 20
-0.6129999999999997
 10
0.909999999999998
 20
-0.4380000000000025
 42
0.4142135623730951
 10
0.8349999999999987
 20
-0.3629999999999996
 10
0.3549999999999982
 20
-0.3629999999999997
 10
0.3549999999999982
 20
-0.3530621331517027
 10
0.2949999999999995
 20
-0.3530621331517027
 10
0.2949999999999995
 20
-0.3629999999999997
 10
0.2149999999999977
 20
-0.3629999999999997
 42
0.4142135623730966
 10
0.1399999999999984
 20
-0.4380000000000026
 10
0.1399999999999949
 20
-0.8580000000000007
 10
0.0799999999999998
 20
-0.8580000000000007
 10
0.0799999999999961
 20
-0.3099999999999989
 10
0.2949999999999995
 20
-0.3099999999999989
 10
0.2949999999999995
 20
-0.3530621331517027
 10
0.3549999999999982
 20
-0.3530621331517027
 10
0.3549999999999982
 20
-0.080000000000002
 10
1.069999999999998
 20
-0.0800000000000019
 10
1.069999999999998
 20
-0.0901420310525723
 10
1.130000000000003
 20
-0.0901420310525723
 10
1.129999999999996
 20
-0.0800000000000019
 10
1.959999999999998
 20
-0.0799999999999982
 10
1.959999999999998
 20
-0.0901420310525721
 10
2.019999999999997
 20
-0.0901420310525721
 10
2.019999999999997
 20
-0.0799999999999982
 10
2.549999999999998
 20
-0.0799999999999981
 10
2.550000000000002
 20
-0.090142031052572
 10
2.61
 20
-0.090142031052572
 10
2.609999999999993
 20
-0.0799999999999981
 10
3.448999999999999
 20
-0.0799999999999979
 10
3.448999999999999
 20
-0.0901420310525719
 10
3.509000000000001
 20
-0.0901420310525718
 10
3.509000000000001
 20
-0.0799999999999979
 10
4.144999999999996
 20
-0.0799999999999978
 10
4.144999999999996
 20
-0.0901420310525717
 10
4.219999999999999
 20
-0.0901420310525717
 10
4.219999999999999
 20
-0.0800000000000013
 10
4.358038475772933
 20
-0.0800000000000013
 10
4.358038475772933
 20
-0.1099999999999989
 10
4.383038475772928
 20
-0.1099999999999989
 10
4.435000000000003
 20
-0.0800000000000013
 10
4.434999999999996
 20
0.0000000000000006
 10
1.42995760398636
 20
0.0
  0
POLYLINE
  5
249D
330
2432
100
AcDbEntity
  8
Pel_CS-Weatherstrip
100
AcDb2dPolyline
 66
     1
 10
0.0
 20
0.0
 30
0.0
  0
VERTEX
  5
2792
330
249D
100
AcDbEntity
  8
Pel_CS-Weatherstrip
100
AcDbVertex
100
AcDb2dVertex
 10
2.776488682347119
 20
-1.340260736308891
 30
0.0
  0
VERTEX
  5
2793
330
249D
100
AcDbEntity
  8
Pel_CS-Weatherstrip
100
AcDbVertex
100
AcDb2dVertex
 10
2.776488682347119
 20
-1.294016146670514
 30
0.0
  0
VERTEX
  5
2794
330
249D
100
AcDbEntity
  8
Pel_CS-Weatherstrip
100
AcDbVertex
100
AcDb2dVertex
 10
2.630719152085474
 20
-1.332749727833686
 30
0.0
  0
VERTEX
  5
2795
330
249D
100
AcDbEntity
  8
Pel_CS-Weatherstrip
100
AcDbVertex
100
AcDb2dVertex
 10
2.630719152085474
 20
-1.304574491179806
 30
0.0
  0
VERTEX
  5
2796
330
249D
100
AcDbEntity
  8
Pel_CS-Weatherstrip
100
AcDbVertex
100
AcDb2dVertex
 10
2.776488682347119
 20
-1.294016146670514
 30
0.0
  0
VERTEX
  5
2797
330
249D
100
AcDbEntity
  8
Pel_CS-Weatherstrip
100
AcDbVertex
100
AcDb2dVertex
 10
2.630719152085474
 20
-1.283173405521693
 30
0.0
  0
VERTEX
  5
2798
330
249D
100
AcDbEntity
  8
Pel_CS-Weatherstrip
100
AcDbVertex
100
AcDb2dVertex
 10
2.630719152085474
 20
-1.252787164418776
 30
0.0
  0
VERTEX
  5
2799
330
249D
100
AcDbEntity
  8
Pel_CS-Weatherstrip
100
AcDbVertex
100
AcDb2dVertex
 10
2.776488682347119
 20
-1.294016146670514
 30
0.0
  0
VERTEX
  5
279A
330
249D
100
AcDbEntity
  8
Pel_CS-Weatherstrip
100
AcDbVertex
100
AcDb2dVertex
 10
2.776488682347119
 20
-1.211558182167038
 30
0.0
  0
VERTEX
  5
279B
330
249D
100
AcDbEntity
  8
Pel_CS-Weatherstrip
100
AcDbVertex
100
AcDb2dVertex
 10
2.630719152085474
 20
-1.252787164418776
 30
0.0
  0
VERTEX
  5
279C
330
249D
100
AcDbEntity
  8
Pel_CS-Weatherstrip
100
AcDbVertex
100
AcDb2dVertex
 10
2.630719152085473
 20
-1.222400923315859
 30
0.0
  0
VERTEX
  5
279D
330
249D
100
AcDbEntity
  8
Pel_CS-Weatherstrip
100
AcDbVertex
100
AcDb2dVertex
 10
2.776488682347119
 20
-1.211558182167038
 30
0.0
  0
VERTEX
  5
279E
330
249D
100
AcDbEntity
  8
Pel_CS-Weatherstrip
100
AcDbVertex
100
AcDb2dVertex
 10
2.630719152085473
 20
-1.193420405865481
 30
0.0
  0
VERTEX
  5
279F
330
249D
100
AcDbEntity
  8
Pel_CS-Weatherstrip
100
AcDbVertex
100
AcDb2dVertex
 10
2.630719152085473
 20
-1.151958635694853
 30
0.0
  0
VERTEX
  5
27A0
330
249D
100
AcDbEntity
  8
Pel_CS-Weatherstrip
100
AcDbVertex
100
AcDb2dVertex
 10
2.776488682347119
 20
-1.211558182167038
 30
0.0
  0
VERTEX
  5
27A1
330
249D
100
AcDbEntity
  8
Pel_CS-Weatherstrip
100
AcDbVertex
100
AcDb2dVertex
 10
2.776488682347119
 20
-1.1534830126227
 30
0.0
  0
VERTEX
  5
27A2
330
249D
100
AcDbEntity
  8
Pel_CS-Weatherstrip
100
AcDbVertex
100
AcDb2dVertex
 10
2.811488668347121
 20
-1.1534830126227
 30
0.0
  0
VERTEX
  5
27A3
330
249D
100
AcDbEntity
  8
Pel_CS-Weatherstrip
100
AcDbVertex
100
AcDb2dVertex
 10
2.811488668347122
 20
-1.340260736308891
 30
0.0
  0
VERTEX
  5
27A4
330
249D
100
AcDbEntity
  8
0
100
AcDbVertex
100
AcDb2dVertex
 10
2.776488682347119
 20
-1.340260736308891
 30
0.0
  0
SEQEND
  5
27A5
330
249D
100
AcDbEntity
  8
Pel_CS-Weatherstrip
  0
CIRCLE
  5
27A6
102
{ACAD_REACTORS
330
27A7
102
}
330
2432
100
AcDbEntity
  8
Pel_CS-Weatherstrip
100
AcDbCircle
 10
0.3184933982822025
 20
-4.293599999999997
 30
0.0
 40
0.0189
  0
HATCH
  5
27A7
330
2432
100
AcDbEntity
  8
Pel_CS-Weatherstrip
100
AcDbHatch
 10
0.0
 20
0.0
 30
0.0
210
0.0
220
0.0
230
1.0
  2
SOLID
 70
     1
 71
     1
 91
        1
 92
        1
 93
        1
 72
     2
 10
0.3184933982822025
 20
-4.293599999999997
 40
0.0189
 50
-89.99999999999998
 51
270.0
 73
     1
 97
        1
330
27A6
 75
     0
 76
     1
 98
        1
 10
-6.243658745673664
 20
-10.78616485349673
  0
ENDBLK
  5
24B2
330
2432
100
AcDbEntity
  8
0
100
AcDbBlockEnd
  0
BLOCK
  5
25AD
330
25AC
100
AcDbEntity
  8
0
100
AcDbBlockBegin
  2
*D16
 70
     1
 10
0.0
 20
0.0
 30
0.0
  3
*D16
  1

  0
LINE
  5
2B91
330
25AC
100
AcDbEntity
  8
0
100
AcDbLine
 10
7.080503688253523
 20
27.2380000000012
 30
0.0
 11
4.806939991420849
 21
27.2380000000012
 31
0.0
  0
LINE
  5
2B92
330
25AC
100
AcDbEntity
  8
0
100
AcDbLine
 10
5.056939991420849
 20
23.1130000000012
 30
0.0
 11
5.056939991420849
 21
27.0192500000012
 31
0.0
  0
MTEXT
  5
2B93
330
25AC
100
AcDbEntity
  8
0
 62
   255
100
AcDbMText
 10
4.791939991420854
 20
24.07826560521434
 30
0.0
 40
0.28
 41
0.0
 71
     5
 72
     1
  1
\A1;FRAME
 11
0.0000000000000001
 21
1.0
 31
0.0
 73
     1
 44
1.0
1001
ACAD
1000
MTEXTBEGIN
1070
    73
1070
     1
1070
    44
1040
1.0
1070
    74
1070
     0
1000
MTEXTEND
  0
SOLID
  5
2B94
330
25AC
100
AcDbEntity
  8
0
100
AcDbTrace
 10
5.020481658087516
 20
27.0192500000012
 30
0.0
 11
5.093398324754182
 21
27.0192500000012
 31
0.0
 12
5.056939991420849
 22
27.2380000000012
 32
0.0
 13
5.056939991420849
 23
27.2380000000012
 33
0.0
  0
POINT
  5
2B95
330
25AC
100
AcDbEntity
  8
Defpoints
 62
     0
100
AcDbPoint
 10
5.935050098280615
 20
23.1130000000012
 30
0.0
  0
POINT
  5
2B96
330
25AC
100
AcDbEntity
  8
Defpoints
 62
     0
100
AcDbPoint
 10
7.580503688253523
 20
27.2380000000012
 30
0.0
  0
POINT
  5
2B97
330
25AC
100
AcDbEntity
  8
Defpoints
 62
     0
100
AcDbPoint
 10
5.056939991420849
 20
27.2380000000012
 30
0.0
  0
ENDBLK
  5
25AE
330
25AC
100
AcDbEntity
  8
0
100
AcDbBlockEnd
  0
BLOCK
  5
25B7
330
25B6
100
AcDbEntity
  8
0
100
AcDbBlockBegin
  2
*D17
 70
     1
 10
0.0
 20
0.0
 30
0.0
  3
*D17
  1

  0
LINE
  5
2B83
330
25B6
100
AcDbEntity
  8
0
100
AcDbLine
 10
21.74995000000203
 20
18.18027858997612
 30
0.0
 11
21.74995000000203
 21
13.36295000000322
 31
0.0
  0
LINE
  5
2B84
330
25B6
100
AcDbEntity
  8
0
100
AcDbLine
 10
26.11895000000263
 20
13.61295000000322
 30
0.0
 11
21.96870000000203
 21
13.61295000000322
 31
0.0
  0
MTEXT
  5
2B85
330
25B6
100
AcDbEntity
  8
0
 62
   255
100
AcDbMText
 10
25.34348211445725
 20
13.34795000000322
 30
0.0
 40
0.28
 41
0.0
 71
     5
 72
     1
  1
\A1;FRAME
 73
     1
 44
1.0
1001
ACAD
1000
MTEXTBEGIN
1070
    73
1070
     1
1070
    44
1040
1.0
1070
    74
1070
     0
1000
MTEXTEND
  0
SOLID
  5
2B86
330
25B6
100
AcDbEntity
  8
0
100
AcDbTrace
 10
21.96870000000203
 20
13.64940833333655
 30
0.0
 11
21.96870000000203
 21
13.57649166666988
 31
0.0
 12
21.74995000000203
 22
13.61295000000322
 32
0.0
 13
21.74995000000203
 23
13.61295000000322
 33
0.0
  0
POINT
  5
2B87
330
25B6
100
AcDbEntity
  8
Defpoints
 62
     0
100
AcDbPoint
 10
26.11895000000263
 20
17.03482500000321
 30
0.0
  0
POINT
  5
2B88
330
25B6
100
AcDbEntity
  8
Defpoints
 62
     0
100
AcDbPoint
 10
21.74995000000203
 20
18.68027858997612
 30
0.0
  0
POINT
  5
2B89
330
25B6
100
AcDbEntity
  8
Defpoints
 62
     0
100
AcDbPoint
 10
21.74995000000203
 20
13.61295000000322
 30
0.0
  0
ENDBLK
  5
25B8
330
25B6
100
AcDbEntity
  8
0
100
AcDbBlockEnd
  0
BLOCK
  5
25C1
330
25C0
100
AcDbEntity
  8
0
100
AcDbBlockBegin
  2
*D18
 70
     1
 10
0.0
 20
0.0
 30
0.0
  3
*D18
  1

  0
LINE
  5
2B75
330
25C0
100
AcDbEntity
  8
0
100
AcDbLine
 10
21.49995000000203
 20
18.18027858997613
 30
0.0
 11
21.49995000000203
 21
12.36295000000322
 31
0.0
  0
LINE
  5
2B76
330
25C0
100
AcDbEntity
  8
0
100
AcDbLine
 10
26.11895000000263
 20
12.61295000000322
 30
0.0
 11
21.71870000000203
 21
12.61295000000322
 31
0.0
  0
MTEXT
  5
2B77
330
25C0
100
AcDbEntity
  8
0
 62
   255
100
AcDbMText
 10
24.3297000905896
 20
12.34307960436883
 30
0.0
 40
0.28
 41
0.0
 71
     5
 72
     1
  1
\A1;ROUGH OPENING
 73
     1
 44
1.0
1001
ACAD
1000
MTEXTBEGIN
1070
    73
1070
     1
1070
    44
1040
1.0
1070
    74
1070
     0
1000
MTEXTEND
  0
SOLID
  5
2B78
330
25C0
100
AcDbEntity
  8
0
100
AcDbTrace
 10
21.71870000000203
 20
12.64940833333655
 30
0.0
 11
21.71870000000203
 21
12.57649166666988
 31
0.0
 12
21.49995000000203
 22
12.61295000000322
 32
0.0
 13
21.49995000000203
 23
12.61295000000322
 33
0.0
  0
POINT
  5
2B79
330
25C0
100
AcDbEntity
  8
Defpoints
 62
     0
100
AcDbPoint
 10
26.11895000000263
 20
17.03482500000321
 30
0.0
  0
POINT
  5
2B7A
330
25C0
100
AcDbEntity
  8
Defpoints
 62
     0
100
AcDbPoint
 10
21.49995000000203
 20
18.68027858997613
 30
0.0
  0
POINT
  5
2B7B
330
25C0
100
AcDbEntity
  8
Defpoints
 62
     0
100
AcDbPoint
 10
21.49995000000203
 20
12.61295000000322
 30
0.0
  0
ENDBLK
  5
25C2
330
25C0
100
AcDbEntity
  8
0
100
AcDbBlockEnd
  0
BLOCK
  5
25CB
330
25CA
100
AcDbEntity
  8
0
100
AcDbBlockBegin
  2
*D19
 70
     1
 10
0.0
 20
0.0
 30
0.0
  3
*D19
  1

  0
LINE
  5
2B64
330
25CA
100
AcDbEntity
  8
0
100
AcDbLine
 10
21.74995000000203
 20
18.18027858997612
 30
0.0
 11
21.74995000000203
 21
13.36295000000322
 31
0.0
  0
LINE
  5
2B65
330
25CA
100
AcDbEntity
  8
0
100
AcDbLine
 10
21.49995000000203
 20
18.18027858997613
 30
0.0
 11
21.49995000000203
 21
13.36295000000322
 31
0.0
  0
LINE
  5
2B66
330
25CA
100
AcDbEntity
  8
0
100
AcDbLine
 10
21.96870000000203
 20
13.61295000000322
 30
0.0
 11
22.18745000000204
 21
13.61295000000322
 31
0.0
  0
LINE
  5
2B67
330
25CA
100
AcDbEntity
  8
0
100
AcDbLine
 10
21.28120000000203
 20
13.61295000000322
 30
0.0
 11
21.06245000000203
 21
13.61295000000322
 31
0.0
  0
MTEXT
  5
2B68
330
25CA
100
AcDbEntity
  8
0
 62
   255
100
AcDbMText
 10
20.46555582434033
 20
13.61295000000322
 30
0.0
 40
0.28
 41
0.0
 71
     5
 72
     1
  1
\A1;1/4"\P [6]
 73
     1
 44
1.0
1001
ACAD
1000
MTEXTBEGIN
1070
    73
1070
     1
1070
    44
1040
1.0
1070
    74
1070
     0
1000
MTEXTEND
  0
SOLID
  5
2B69
330
25CA
100
AcDbEntity
  8
0
100
AcDbTrace
 10
21.96870000000203
 20
13.64940833333655
 30
0.0
 11
21.96870000000203
 21
13.57649166666988
 31
0.0
 12
21.74995000000203
 22
13.61295000000322
 32
0.0
 13
21.74995000000203
 23
13.61295000000322
 33
0.0
  0
SOLID
  5
2B6A
330
25CA
100
AcDbEntity
  8
0
100
AcDbTrace
 10
21.28120000000203
 20
13.64940833333655
 30
0.0
 11
21.28120000000203
 21
13.57649166666988
 31
0.0
 12
21.49995000000203
 22
13.61295000000322
 32
0.0
 13
21.49995000000203
 23
13.61295000000322
 33
0.0
  0
POINT
  5
2B6B
330
25CA
100
AcDbEntity
  8
Defpoints
 62
     0
100
AcDbPoint
 10
21.74995000000203
 20
18.68027858997612
 30
0.0
  0
POINT
  5
2B6C
330
25CA
100
AcDbEntity
  8
Defpoints
 62
     0
100
AcDbPoint
 10
21.49995000000203
 20
18.68027858997613
 30
0.0
  0
POINT
  5
2B6D
330
25CA
100
AcDbEntity
  8
Defpoints
 62
     0
100
AcDbPoint
 10
21.49995000000203
 20
13.61295000000322
 30
0.0
  0
ENDBLK
  5
25CC
330
25CA
100
AcDbEntity
  8
0
100
AcDbBlockEnd
  0
ENDSEC
  0
SECTION
  2
ENTITIES
  0
MTEXT
  5
25B
330
2
100
AcDbEntity
  8
0
100
AcDbMText
 10
10.39407953934012
 20
11.61295000000322
 30
0.0
 40
0.28
 41
1.40369753947796
 71
     2
 72
     5
  1
SILL
 73
     1
 44
1.0
1001
ACAD
1000
MTEXTBEGIN
1070
    73
1070
     1
1070
    44
1040
1.0
1070
    74
1070
     0
1000
MTEXTEND
  0
DIMENSION
  5
25D
330
2
100
AcDbEntity
  8
0
100
AcDbDimension
  2
*D9
 10
5.056939991420849
 20
22.11300000000119
 30
0.0
 11
4.791939991420852
 21
21.2481058424669
 31
0.0
 70
   160
  1
FRAME
 71
     5
 42
5.250049999997973
  3
3 inch Scale
100
AcDbAlignedDimension
 13
7.513175098280607
 23
16.86295000000322
 33
0.0
 14
4.383679188593082
 24
22.11300000000119
 34
0.0
 50
90.0
100
AcDbRotatedDimension
1001
ACAD
1000
DSTYLE
1002
{
1070
    76
1070
     1
1070
    75
1070
     0
1070
   343
1005
0
1070
   173
1070
     1
1070
   344
1005
25E
1002
}
  0
DIMENSION
  5
26C
330
2
100
AcDbEntity
  8
0
100
AcDbDimension
  2
*D8
 10
4.056939991420853
 20
16.86295000000322
 30
0.0
 11
3.787069595786474
 21
20.31775009058876
 31
0.0
 70
   160
  1
ROUGH OPENING
 71
     5
 42
5.250049999997973
  3
3 inch Scale
100
AcDbAlignedDimension
 13
4.383679188593082
 23
22.11300000000119
 33
0.0
 14
7.578175098280608
 24
16.86295000000322
 34
0.0
 50
90.0
100
AcDbRotatedDimension
1001
ACAD
1000
DSTYLE
1002
{
1070
    75
1070
     1
1070
   343
1005
25E
1070
   173
1070
     1
1070
   344
1005
0
1002
}
  0
POLYLINE
  5
277
330
2
100
AcDbEntity
  8
0
  6
Continuous
100
AcDb2dPolyline
 66
     1
 10
0.0
 20
0.0
 30
0.0
  0
VERTEX
  5
278
330
277
100
AcDbEntity
  8
0
  6
Continuous
100
AcDbVertex
100
AcDb2dVertex
 10
3.681939991420867
 20
22.1130000000012
 30
0.0
  0
VERTEX
  5
279
330
277
100
AcDbEntity
  8
0
  6
Continuous
100
AcDbVertex
100
AcDb2dVertex
 10
7.056939991420856
 20
22.1130000000012
 30
0.0
  0
VERTEX
  5
27A
330
277
100
AcDbEntity
  8
0
  6
Continuous
100
AcDbVertex
100
AcDb2dVertex
 10
7.15693999142085
 20
22.3630000000012
 30
0.0
  0
VERTEX
  5
27B
330
277
100
AcDbEntity
  8
0
  6
Continuous
100
AcDbVertex
100
AcDb2dVertex
 10
7.256939991420873
 20
21.8630000000012
 30
0.0
  0
VERTEX
  5
27C
330
277
100
AcDbEntity
  8
0
  6
Continuous
100
AcDbVertex
100
AcDb2dVertex
 10
7.356939991420867
 20
22.1130000000012
 30
0.0
  0
VERTEX
  5
27D
330
277
100
AcDbEntity
  8
0
  6
Continuous
100
AcDbVertex
100
AcDb2dVertex
 10
12.3344316150927
 20
22.1130000000012
 30
0.0
  0
VERTEX
  5
27E
330
277
100
AcDbEntity
  8
0
  6
Continuous
100
AcDbVertex
100
AcDb2dVertex
 10
12.4344316150927
 20
22.3630000000012
 30
0.0
  0
VERTEX
  5
27F
330
277
100
AcDbEntity
  8
0
  6
Continuous
100
AcDbVertex
100
AcDb2dVertex
 10
12.53443161509269
 20
21.8630000000012
 30
0.0
  0
VERTEX
  5
280
330
277
100
AcDbEntity
  8
0
  6
Continuous
100
AcDbVertex
100
AcDb2dVertex
 10
12.63443161509269
 20
22.1130000000012
 30
0.0
  0
VERTEX
  5
281
330
277
100
AcDbEntity
  8
0
  6
Continuous
100
AcDbVertex
100
AcDb2dVertex
 10
14.91091413644849
 20
22.1130000000012
 30
0.0
  0
SEQEND
  5
282
330
277
100
AcDbEntity
  8
0
  6
Continuous
  0
HATCH
  5
2F7
330
2
100
AcDbEntity
  8
0
100
AcDbHatch
 10
0.0
 20
0.0
 30
0.0
210
0.0
220
0.0
230
1.0
  2
WOOD
 70
     0
 71
     1
 91
        1
 92
        1
 93
        4
 72
     1
 10
21.74995000000199
 20
24.78796325164177
 11
22.59914133380401
 21
24.78796325164177
 72
     1
 10
22.59914133380401
 20
24.78796325164177
 11
22.59914133380401
 21
23.29459746343895
 72
     1
 10
22.59914133380401
 20
23.29459746343895
 11
21.74995000000199
 21
23.29445034042967
 72
     1
 10
21.74995000000199
 20
23.29445034042967
 11
21.74995000000199
 21
24.78796325164177
 97
        1
330
2F8
 75
     0
 76
     1
 52
225.0
 41
0.14
 77
     0
 78
    12
 53
315.0
 43
45.63075520552793
 44
1.628636853602699
 45
-0.0000000000000002
 46
-0.7919595949289332
 79
     2
 49
0.5600000000000001
 49
-5.04
 53
315.0
 43
46.71969964855522
 44
0.3417025118431809
 45
-0.0000000000000002
 46
-0.7919595949289332
 79
     2
 49
0.5600000000000001
 49
-2.24
 53
288.4349488200001
 43
46.02673500299239
 44
2.024616651067166
 45
0.0000000442314982
 46
-0.7919595586260602
 79
     2
 49
1.25219808
 49
-11.26978258
 53
329.03624347
 43
44.2448259144023
 44
3.410545942192797
 45
0.0000000240384626
 46
-0.7919596908495017
 79
     2
 49
0.5772348400000001
 49
-4.04064346
 53
329.03624347
 43
45.13578045869735
 44
2.71758129662998
 45
0.0000000240384626
 46
-0.7919596908495017
 79
     2
 49
0.5772348400000001
 49
-4.04064346
 53
329.03624347
 43
43.15588147137501
 44
3.113561094094446
 45
0.0000000240384626
 46
-0.7919596908495017
 79
     2
 49
0.5772348400000001
 49
-4.04064346
 53
300.96375653
 43
46.42271480045687
 44
0.8366772586737631
 45
-0.0000000240384629
 46
-0.7919596908495016
 79
     2
 49
0.5772348400000001
 49
-22.51215666
 53
300.96375653
 43
50.38251277510153
 44
-6.290959095686634
 45
-0.0000000240384629
 46
-0.7919596908495016
 79
     2
 49
0.5772348400000001
 49
-22.51215666
 53
300.96375653
 43
54.3423107497462
 44
-12.6266358551181
 45
-0.0000000240384629
 46
-0.7919596908495016
 79
     2
 49
0.5772348400000001
 49
-22.51215666
 53
341.56505118
 43
47.61065419285026
 44
-0.3512621337196364
 45
-0.0000000442314984
 46
-0.7919595586260602
 79
     2
 49
0.6260990400000001
 49
-11.89588162
 53
341.56505118
 43
39.69105824356093
 44
2.024616651067167
 45
-0.0000000442314984
 46
-0.7919595586260602
 79
     2
 49
0.6260990400000001
 49
-11.89588162
 53
341.56505118
 43
43.6508562182056
 44
0.4406974612092967
 45
-0.0000000442314984
 46
-0.7919595586260602
 79
     2
 49
0.6260990400000001
 49
-11.89588162
 98
        1
 10
42.12495000000198
 20
51.04757288120548
  0
POLYLINE
  5
2F8
102
{ACAD_REACTORS
330
2F7
102
}
330
2
100
AcDbEntity
  8
0
100
AcDb2dPolyline
 66
     1
 10
0.0
 20
0.0
 30
0.0
 70
     1
  0
VERTEX
  5
2F9
330
2F8
100
AcDbEntity
  8
0
100
AcDbVertex
100
AcDb2dVertex
 10
21.74995000000199
 20
24.78796325164177
 30
0.0
  0
VERTEX
  5
2FA
330
2F8
100
AcDbEntity
  8
0
100
AcDbVertex
100
AcDb2dVertex
 10
22.59914133380401
 20
24.78796325164177
 30
0.0
  0
VERTEX
  5
2FB
330
2F8
100
AcDbEntity
  8
0
100
AcDbVertex
100
AcDb2dVertex
 10
22.59914133380401
 20
23.29459746343895
 30
0.0
  0
VERTEX
  5
2FC
330
2F8
100
AcDbEntity
  8
0
100
AcDbVertex
100
AcDb2dVertex
 10
21.74995000000199
 20
23.29445034042967
 30
0.0
  0
SEQEND
  5
2FD
330
2F8
100
AcDbEntity
  8
0
  0
INSERT
  5
2FE
330
2
100
AcDbEntity
  8
0
100
AcDbBlockReference
  2
ACC31D0 Colonial
 10
22.44088153807237
 20
24.78796325164177
 30
0.0
 50
90.0
  0
INSERT
  5
323
330
2
100
AcDbEntity
  8
0
100
AcDbBlockReference
  2
ACC31D0 Colonial
 10
13.55573239765035
 20
26.53306846193061
 30
0.0
  0
POLYLINE
  5
324
102
{ACAD_REACTORS
330
32A
102
}
330
2
100
AcDbEntity
  8
0
100
AcDb2dPolyline
 66
     1
 10
0.0
 20
0.0
 30
0.0
 70
     1
  0
VERTEX
  5
325
330
324
100
AcDbEntity
  8
0
100
AcDbVertex
100
AcDb2dVertex
 10
13.55573239765035
 20
27.22400000000099
 30
0.0
  0
VERTEX
  5
326
330
324
100
AcDbEntity
  8
0
100
AcDbVertex
100
AcDb2dVertex
 10
13.55573239765035
 20
26.37480866619898
 30
0.0
  0
VERTEX
  5
327
330
324
100
AcDbEntity
  8
0
100
AcDbVertex
100
AcDb2dVertex
 10
12.08193999142086
 20
26.37480866619897
 30
0.0
  0
VERTEX
  5
328
330
324
100
AcDbEntity
  8
0
100
AcDbVertex
100
AcDb2dVertex
 10
12.08179286841158
 20
27.22400000000098
 30
0.0
  0
SEQEND
  5
329
330
324
100
AcDbEntity
  8
0
  0
HATCH
  5
32A
330
2
100
AcDbEntity
  8
0
100
AcDbHatch
 10
0.0
 20
0.0
 30
0.0
210
0.0
220
0.0
230
1.0
  2
WOOD
 70
     0
 71
     1
 91
        1
 92
        1
 93
        4
 72
     1
 10
13.55573239765035
 20
27.22400000000099
 11
13.55573239765035
 21
26.37480866619898
 72
     1
 10
13.55573239765035
 20
26.37480866619898
 11
12.08193999142086
 21
26.37480866619897
 72
     1
 10
12.08193999142086
 20
26.37480866619897
 11
12.08179286841158
 21
27.22400000000098
 72
     1
 10
12.08179286841158
 20
27.22400000000098
 11
13.55573239765035
 21
27.22400000000099
 97
        1
330
324
 75
     0
 76
     1
 52
135.0
 41
0.14
 77
     0
 78
    12
 53
225.0
 43
-9.565835019633142
 44
3.343194794475037
 45
-0.7919595949289332
 46
0.0000000000000001
 79
     2
 49
0.5600000000000001
 49
-5.04
 53
225.0
 43
-10.85276936139266
 44
2.254250351447754
 45
-0.7919595949289332
 46
0.0000000000000001
 79
     2
 49
0.5600000000000001
 49
-2.24
 53
198.43494882
 43
-9.169855222168676
 44
2.94721499701057
 45
-0.7919595586260602
 46
-0.0000000442314982
 79
     2
 49
1.25219808
 49
-11.26978258
 53
239.03624347
 43
-7.783925931043045
 44
4.72912408560067
 45
-0.7919596908495017
 46
-0.0000000240384627
 79
     2
 49
0.5772348400000001
 49
-4.04064346
 53
239.03624347
 43
-8.476890576605862
 44
3.83816954130562
 45
-0.7919596908495017
 46
-0.0000000240384627
 79
     2
 49
0.5772348400000001
 49
-4.04064346
 53
239.03624347
 43
-8.080910779141396
 44
5.818068528627954
 45
-0.7919596908495017
 46
-0.0000000240384627
 79
     2
 49
0.5772348400000001
 49
-4.04064346
 53
210.96375653
 43
-10.35779461456208
 44
2.551235199546104
 45
-0.7919596908495016
 46
0.0000000240384629
 79
     2
 49
0.5772348400000001
 49
-22.51215666
 53
210.96375653
 43
-17.48543096892247
 44
-1.408562775098561
 45
-0.7919596908495016
 46
0.0000000240384629
 79
     2
 49
0.5772348400000001
 49
-22.51215666
 53
210.96375653
 43
-23.82110772835394
 44
-5.368360749743228
 45
-0.7919596908495016
 46
0.0000000240384629
 79
     2
 49
0.5772348400000001
 49
-22.51215666
 53
251.56505118
 43
-11.54573400695548
 44
1.363295807152704
 45
-0.7919595586260602
 46
0.0000000442314984
 79
     2
 49
0.6260990400000001
 49
-11.89588162
 53
251.56505118
 43
-9.169855222168676
 44
9.282891756442037
 45
-0.7919595586260602
 46
0.0000000442314984
 79
     2
 49
0.6260990400000001
 49
-11.89588162
 53
251.56505118
 43
-10.75377441202654
 44
5.32309378179737
 45
-0.7919595586260602
 46
0.0000000442314984
 79
     2
 49
0.6260990400000001
 49
-11.89588162
 98
        1
 10
39.85310100796963
 20
6.849000000000986
  0
POLYLINE
  5
3F2
330
2
100
AcDbEntity
  8
0
100
AcDb2dPolyline
 66
     1
 10
0.0
 20
0.0
 30
0.0
  0
VERTEX
  5
3F3
330
3F2
100
AcDbEntity
  8
0
100
AcDbVertex
100
AcDb2dVertex
 10
3.681939991420858
 20
23.11300000000124
 30
0.0
  0
VERTEX
  5
3F4
330
3F2
100
AcDbEntity
  8
0
100
AcDbVertex
100
AcDb2dVertex
 10
7.081939991420862
 20
23.1130000000012
 30
0.0
  0
VERTEX
  5
3F5
330
3F2
100
AcDbEntity
  8
0
100
AcDbVertex
100
AcDb2dVertex
 10
7.144439991420862
 20
23.3630000000012
 30
0.0
  0
VERTEX
  5
3F6
330
3F2
100
AcDbEntity
  8
0
100
AcDbVertex
100
AcDb2dVertex
 10
7.269439991420862
 20
22.8630000000012
 30
0.0
  0
VERTEX
  5
3F7
330
3F2
100
AcDbEntity
  8
0
100
AcDbVertex
100
AcDb2dVertex
 10
7.331939991420862
 20
23.1130000000012
 30
0.0
  0
VERTEX
  5
3F8
330
3F2
100
AcDbEntity
  8
0
100
AcDbVertex
100
AcDb2dVertex
 10
12.35943161509269
 20
23.1130000000012
 30
0.0
  0
VERTEX
  5
3F9
330
3F2
100
AcDbEntity
  8
0
100
AcDbVertex
100
AcDb2dVertex
 10
12.4219316150927
 20
23.3630000000012
 30
0.0
  0
VERTEX
  5
3FA
330
3F2
100
AcDbEntity
  8
0
100
AcDbVertex
100
AcDb2dVertex
 10
12.5469316150927
 20
22.8630000000012
 30
0.0
  0
VERTEX
  5
3FB
330
3F2
100
AcDbEntity
  8
0
100
AcDbVertex
100
AcDb2dVertex
 10
12.6094316150927
 20
23.1130000000012
 30
0.0
  0
VERTEX
  5
3FC
330
3F2
100
AcDbEntity
  8
0
100
AcDbVertex
100
AcDb2dVertex
 10
14.91091413644849
 20
23.1130000000012
 30
0.0
  0
SEQEND
  5
3FD
330
3F2
100
AcDbEntity
  8
0
  0
MTEXT
  5
40A
330
2
100
AcDbEntity
  8
0
100
AcDbMText
 10
24.12495000000204
 20
17.11295000000322
 30
0.0
 40
0.28
 41
1.40369753947796
 71
     5
 72
     5
  1
JAMB
 73
     1
 44
1.0
1001
ACAD
1000
MTEXTBEGIN
1070
    73
1070
     1
1070
    44
1040
1.0
1070
    74
1070
     0
1000
MTEXTEND
  0
MTEXT
  5
40B
330
2
100
AcDbEntity
  8
0
100
AcDbMText
 10
10.28178636547853
 20
22.61297500000221
 30
0.0
 40
0.28
 41
1.40369753947796
 71
     5
 72
     5
  1
HEAD
 73
     1
 44
1.0
1001
ACAD
1000
MTEXTBEGIN
1070
    73
1070
     1
1070
    44
1040
1.0
1070
    74
1070
     0
1000
MTEXTEND
  0
DIMENSION
  5
40C
330
2
100
AcDbEntity
  8
0
100
AcDbDimension
  2
*D12
 10
5.056939991420855
 20
27.7380000000012
 30
0.0
 11
5.076267676115818
 21
28.81614900933687
 31
0.0
 70
   160
 71
     5
 42
0.5000000000000214
  3
3 inch Scale
100
AcDbAlignedDimension
 13
7.580503688253525
 23
27.23800000000118
 33
0.0
 14
7.580503688253523
 24
27.7380000000012
 34
0.0
 50
90.0
100
AcDbRotatedDimension
  0
DIMENSION
  5
41A
330
2
100
AcDbEntity
  8
0
100
AcDbDimension
  2
*D11
 10
4.056939991420854
 20
27.7380000000012
 30
0.0
 11
3.787069595786476
 21
24.90824990941364
 31
0.0
 70
   160
  1
ROUGH OPENING
 71
     5
 42
4.624999999999996
  3
3 inch Scale
100
AcDbAlignedDimension
 13
5.642492493388857
 23
23.11300000000121
 33
0.0
 14
7.580503688253523
 24
27.7380000000012
 34
0.0
 50
90.0
100
AcDbRotatedDimension
1001
ACAD
1000
DSTYLE
1002
{
1070
    75
1070
     1
1070
   343
1005
25E
1070
   173
1070
     1
1070
   344
1005
0
1002
}
  0
DIMENSION
  5
425
330
2
100
AcDbEntity
  8
0
100
AcDbDimension
  2
*D16
 10
5.056939991420849
 20
27.2380000000012
 30
0.0
 11
4.791939991420854
 21
24.07826560521434
 31
0.0
 70
   160
  1
FRAME
 71
     5
 42
4.124999999999989
  3
3 inch Scale
100
AcDbAlignedDimension
 13
5.935050098280616
 23
23.1130000000012
 33
0.0
 14
7.580503688253525
 24
27.2380000000012
 34
0.0
 50
90.0
100
AcDbRotatedDimension
1001
ACAD
1000
DSTYLE
1002
{
1070
    75
1070
     1
1070
   343
1005
25E
1070
   173
1070
     1
1070
   344
1005
0
1002
}
  0
DIMENSION
  5
430
330
2
100
AcDbEntity
  8
0
100
AcDbDimension
  2
*D17
 10
21.74995000000203
 20
13.61295000000322
 30
0.0
 11
25.34348211445725
 21
13.34795000000322
 31
0.0
 70
   160
  1
FRAME
 71
     5
 42
4.369000000000596
  3
3 inch Scale
100
AcDbAlignedDimension
 13
26.11895000000263
 23
17.03482500000321
 33
0.0
 14
21.74995000000203
 24
18.68027858997612
 34
0.0
 50
180.0
100
AcDbRotatedDimension
1001
ACAD
1000
DSTYLE
1002
{
1070
    75
1070
     1
1070
   173
1070
     1
1070
   343
1005
25E
1002
}
  0
DIMENSION
  5
43B
330
2
100
AcDbEntity
  8
0
100
AcDbDimension
  2
*D18
 10
21.49995000000203
 20
12.61295000000322
 30
0.0
 11
24.3297000905896
 21
12.34307960436883
 31
0.0
 70
   160
  1
ROUGH OPENING
 71
     5
 42
4.619000000000603
  3
3 inch Scale
100
AcDbAlignedDimension
 13
26.11895000000263
 23
17.03482500000321
 33
0.0
 14
21.49995000000203
 24
18.68027858997613
 34
0.0
 50
180.0
100
AcDbRotatedDimension
1001
ACAD
1000
DSTYLE
1002
{
1070
    75
1070
     1
1070
   173
1070
     1
1070
   343
1005
25E
1002
}
  0
DIMENSION
  5
446
330
2
100
AcDbEntity
  8
0
100
AcDbDimension
  2
*D19
 10
21.49995000000203
 20
13.61295000000322
 30
0.0
 11
20.46555582434033
 21
13.61295000000322
 31
0.0
 70
   160
 71
     5
 42
0.2500000000000071
  3
3 inch Scale
100
AcDbAlignedDimension
 13
21.74995000000203
 23
18.68027858997612
 33
0.0
 14
21.49995000000203
 24
18.68027858997613
 34
0.0
 50
180.0
100
AcDbRotatedDimension
  0
INSERT
  5
454
330
2
100
AcDbEntity
  8
0
100
AcDbBlockReference
  2
10DRjambwoodsiding
 10
21.74995000000203
 20
18.79449105434867
 30
0.0
 50
90.0
  0
POINT
  5
98F
330
2
100
AcDbEntity
  8
0
100
AcDbPoint
 10
7.581939991420862
 20
16.86295000000322
 30
0.0
  0
LINE
  5
A46
330
2
100
AcDbEntity
  8
0
  6
Continuous
100
AcDbLine
 10
9.555732703172379
 20
27.875
 30
0.0
 11
9.055732703172379
 21
28.375
 31
0.0
  0
LINE
  5
A49
330
2
100
AcDbEntity
  8
0
  6
Continuous
100
AcDbLine
 10
9.555732703172379
 20
28.53059159102154
 30
0.0
 11
9.055732703172379
 21
29.03059159102154
 31
0.0
  0
LINE
  5
A4A
330
2
100
AcDbEntity
  8
0
  6
Continuous
100
AcDbLine
 10
11.55573270317238
 20
27.875
 30
0.0
 11
11.05573270317238
 21
28.375
 31
0.0
  0
LINE
  5
A4C
330
2
100
AcDbEntity
  8
0
  6
Continuous
100
AcDbLine
 10
11.55573270317238
 20
28.53059159102154
 30
0.0
 11
11.05573270317238
 21
29.03059159102154
 31
0.0
  0
POINT
  5
A5F
330
2
100
AcDbEntity
  8
0
100
AcDbPoint
 10
7.581939991420862
 20
27.23800000000118
 30
0.0
  0
INSERT
  5
C17
330
2
100
AcDbEntity
  8
0
100
AcDbBlockReference
  2
TSE10SDWDH
 10
-1.0
 20
0.25
 30
0.0
  0
INSERT
  5
CCD
330
2
100
AcDbEntity
  8
0
100
AcDbBlockReference
  2
TSE10SDWDS
 10
7.581939991420862
 20
16.86295000000322
 30
0.0
  0
POLYLINE
  5
1033
330
2
100
AcDbEntity
  8
0
  6
Continuous
100
AcDb2dPolyline
 66
     1
 10
0.0
 20
0.0
 30
0.0
  0
VERTEX
  5
1034
330
1033
100
AcDbEntity
  8
0
  6
Continuous
100
AcDbVertex
100
AcDb2dVertex
 10
6.206939991420862
 20
31.74999999999999
 30
0.0
  0
VERTEX
  5
1035
330
1033
100
AcDbEntity
  8
0
  6
Continuous
100
AcDbVertex
100
AcDb2dVertex
 10
6.90693999142085
 20
31.74999999999999
 30
0.0
  0
VERTEX
  5
1036
330
1033
100
AcDbEntity
  8
0
  6
Continuous
100
AcDbVertex
100
AcDb2dVertex
 10
7.006939991420845
 20
31.99999999999999
 30
0.0
  0
VERTEX
  5
1037
330
1033
100
AcDbEntity
  8
0
  6
Continuous
100
AcDbVertex
100
AcDb2dVertex
 10
7.106939991420867
 20
31.49999999999999
 30
0.0
  0
VERTEX
  5
1038
330
1033
100
AcDbEntity
  8
0
  6
Continuous
100
AcDbVertex
100
AcDb2dVertex
 10
7.206939991420862
 20
31.74999999999999
 30
0.0
  0
VERTEX
  5
1039
330
1033
100
AcDbEntity
  8
0
  6
Continuous
100
AcDbVertex
100
AcDb2dVertex
 10
12.3344316150927
 20
31.74999999999999
 30
0.0
  0
VERTEX
  5
103A
330
1033
100
AcDbEntity
  8
0
  6
Continuous
100
AcDbVertex
100
AcDb2dVertex
 10
12.4344316150927
 20
31.99999999999999
 30
0.0
  0
VERTEX
  5
103B
330
1033
100
AcDbEntity
  8
0
  6
Continuous
100
AcDbVertex
100
AcDb2dVertex
 10
12.53443161509269
 20
31.49999999999999
 30
0.0
  0
VERTEX
  5
103C
330
1033
100
AcDbEntity
  8
0
  6
Continuous
100
AcDbVertex
100
AcDb2dVertex
 10
12.63443161509269
 20
31.74999999999999
 30
0.0
  0
VERTEX
  5
103D
330
1033
100
AcDbEntity
  8
0
  6
Continuous
100
AcDbVertex
100
AcDb2dVertex
 10
14.91091413644849
 20
31.74999999999999
 30
0.0
  0
SEQEND
  5
103E
330
1033
100
AcDbEntity
  8
0
  6
Continuous
  0
POLYLINE
  5
115D
330
2
100
AcDbEntity
  8
0
  6
Continuous
100
AcDb2dPolyline
 66
     1
 10
0.0
 20
0.0
 30
0.0
  0
VERTEX
  5
115E
330
115D
100
AcDbEntity
  8
0
  6
Continuous
100
AcDbVertex
100
AcDb2dVertex
 10
6.275704884561108
 20
12.36295000000322
 30
0.0
  0
VERTEX
  5
115F
330
115D
100
AcDbEntity
  8
0
  6
Continuous
100
AcDbVertex
100
AcDb2dVertex
 10
7.125704884561102
 20
12.36295000000322
 30
0.0
  0
VERTEX
  5
1160
330
115D
100
AcDbEntity
  8
0
  6
Continuous
100
AcDbVertex
100
AcDb2dVertex
 10
7.225704884561096
 20
12.61295000000322
 30
0.0
  0
VERTEX
  5
1161
330
115D
100
AcDbEntity
  8
0
  6
Continuous
100
AcDbVertex
100
AcDb2dVertex
 10
7.325704884561119
 20
12.11295000000322
 30
0.0
  0
VERTEX
  5
1162
330
115D
100
AcDbEntity
  8
0
  6
Continuous
100
AcDbVertex
100
AcDb2dVertex
 10
7.425704884561113
 20
12.36295000000322
 30
0.0
  0
VERTEX
  5
1163
330
115D
100
AcDbEntity
  8
0
  6
Continuous
100
AcDbVertex
100
AcDb2dVertex
 10
12.40319650823295
 20
12.36295000000322
 30
0.0
  0
VERTEX
  5
1164
330
115D
100
AcDbEntity
  8
0
  6
Continuous
100
AcDbVertex
100
AcDb2dVertex
 10
12.50319650823294
 20
12.61295000000322
 30
0.0
  0
VERTEX
  5
1165
330
115D
100
AcDbEntity
  8
0
  6
Continuous
100
AcDbVertex
100
AcDb2dVertex
 10
12.60319650823294
 20
12.11295000000322
 30
0.0
  0
VERTEX
  5
1166
330
115D
100
AcDbEntity
  8
0
  6
Continuous
100
AcDbVertex
100
AcDb2dVertex
 10
12.70319650823293
 20
12.36295000000322
 30
0.0
  0
VERTEX
  5
1167
330
115D
100
AcDbEntity
  8
0
  6
Continuous
100
AcDbVertex
100
AcDb2dVertex
 10
15.08193999142086
 20
12.36295000000322
 30
0.0
  0
SEQEND
  5
1168
330
115D
100
AcDbEntity
  8
0
  6
Continuous
  0
POLYLINE
  5
132F
330
2
100
AcDbEntity
  8
0
100
AcDb2dPolyline
 66
     1
 10
0.0
 20
0.0
 30
0.0
  0
VERTEX
  5
1330
330
132F
100
AcDbEntity
  8
0
100
AcDbVertex
100
AcDb2dVertex
 10
17.5
 20
17.44352490172261
 30
0.0
  0
VERTEX
  5
1331
330
132F
100
AcDbEntity
  8
0
100
AcDbVertex
100
AcDb2dVertex
 10
17.5
 20
18.19352490172261
 30
0.0
  0
VERTEX
  5
1332
330
132F
100
AcDbEntity
  8
0
100
AcDbVertex
100
AcDb2dVertex
 10
17.25
 20
18.25602490172261
 30
0.0
  0
VERTEX
  5
1333
330
132F
100
AcDbEntity
  8
0
100
AcDbVertex
100
AcDb2dVertex
 10
17.75
 20
18.38102490172261
 30
0.0
  0
VERTEX
  5
1334
330
132F
100
AcDbEntity
  8
0
100
AcDbVertex
100
AcDb2dVertex
 10
17.5
 20
18.44352490172261
 30
0.0
  0
VERTEX
  5
1335
330
132F
100
AcDbEntity
  8
0
100
AcDbVertex
100
AcDb2dVertex
 10
17.5
 20
23.12320705570238
 30
0.0
  0
VERTEX
  5
1336
330
132F
100
AcDbEntity
  8
0
100
AcDbVertex
100
AcDb2dVertex
 10
17.25
 20
23.18570705570238
 30
0.0
  0
VERTEX
  5
1337
330
132F
100
AcDbEntity
  8
0
100
AcDbVertex
100
AcDb2dVertex
 10
17.75
 20
23.31070705570238
 30
0.0
  0
VERTEX
  5
1338
330
132F
100
AcDbEntity
  8
0
100
AcDbVertex
100
AcDb2dVertex
 10
17.5
 20
23.37320705570238
 30
0.0
  0
VERTEX
  5
1339
330
132F
100
AcDbEntity
  8
0
100
AcDbVertex
100
AcDb2dVertex
 10
17.5
 20
25.7879635571638
 30
0.0
  0
SEQEND
  5
133A
330
132F
100
AcDbEntity
  8
0
  0
POLYLINE
  5
1466
330
2
100
AcDbEntity
  8
0
100
AcDb2dPolyline
 66
     1
 10
0.0
 20
0.0
 30
0.0
  0
VERTEX
  5
1467
330
1466
100
AcDbEntity
  8
0
100
AcDbVertex
100
AcDb2dVertex
 10
26.12495000000203
 20
12.23795000000322
 30
0.0
  0
VERTEX
  5
1468
330
1466
100
AcDbEntity
  8
0
100
AcDbVertex
100
AcDb2dVertex
 10
26.12495000000203
 20
18.1935249017226
 30
0.0
  0
VERTEX
  5
1469
330
1466
100
AcDbEntity
  8
0
100
AcDbVertex
100
AcDb2dVertex
 10
25.87495000000203
 20
18.2560249017226
 30
0.0
  0
VERTEX
  5
146A
330
1466
100
AcDbEntity
  8
0
100
AcDbVertex
100
AcDb2dVertex
 10
26.37495000000204
 20
18.3810249017226
 30
0.0
  0
VERTEX
  5
146B
330
1466
100
AcDbEntity
  8
0
100
AcDbVertex
100
AcDb2dVertex
 10
26.12495000000203
 20
18.4435249017226
 30
0.0
  0
VERTEX
  5
146C
330
1466
100
AcDbEntity
  8
0
100
AcDbVertex
100
AcDb2dVertex
 10
26.12495000000203
 20
23.12320705570237
 30
0.0
  0
VERTEX
  5
146D
330
1466
100
AcDbEntity
  8
0
100
AcDbVertex
100
AcDb2dVertex
 10
25.87495000000203
 20
23.18570705570238
 30
0.0
  0
VERTEX
  5
146E
330
1466
100
AcDbEntity
  8
0
100
AcDbVertex
100
AcDb2dVertex
 10
26.37495000000204
 20
23.31070705570237
 30
0.0
  0
VERTEX
  5
146F
330
1466
100
AcDbEntity
  8
0
100
AcDbVertex
100
AcDb2dVertex
 10
26.12495000000203
 20
23.37320705570237
 30
0.0
  0
VERTEX
  5
1470
330
1466
100
AcDbEntity
  8
0
100
AcDbVertex
100
AcDb2dVertex
 10
26.12495000000203
 20
25.7879635571638
 30
0.0
  0
SEQEND
  5
1471
330
1466
100
AcDbEntity
  8
0
  0
INSERT
  5
24CE
330
2
100
AcDbEntity
  8
0
100
AcDbBlockReference
  2
TSE 10 SD JV
 10
21.74995000000203
 20
18.79449105434867
 30
0.0
 50
90.0
  0
INSERT
  5
24CF
330
2
100
AcDbEntity
  8
0
100
AcDbBlockReference
  2
TSE 10 SD SV
 10
7.581939991420862
 20
16.86295000000322
 30
0.0
  0
INSERT
  5
24D0
330
2
100
AcDbEntity
  8
0
100
AcDbBlockReference
  2
TSE 10 SD HV
 10
7.580503688253525
 20
27.2380000000012
 30
0.0
  0
ENDSEC
  0
SECTION
  2
OBJECTS
  0
DICTIONARY
  5
8
330
0
100
AcDbDictionary
281
     1
  3
ACAD_COLOR
350
31
  3
ACAD_GROUP
350
2D
  3
ACAD_LAYOUT
350
D
  3
ACAD_MATERIAL
350
30
  3
ACAD_MLEADERSTYLE
350
2386
  3
ACAD_MLINESTYLE
350
2E
  3
ACAD_PLOTSETTINGS
350
2F
  3
ACAD_PLOTSTYLENAME
350
7
  3
ACAD_SCALELIST
350
2364
  3
ACAD_TABLESTYLE
350
2362
  3
ACAD_VISUALSTYLE
350
2351
  3
ACDB_RECOMPOSE_DATA
350
2861
  3
AcDbVariableDictionary
350
8F5
  3
AEC_PROPERTY_SET_DEFS
350
2B18
  3
AVAT_FILE_STORE
350
8FD
  3
DWGPROPS
350
2BD9
1001
ADE
1000
ADE02C004
1000
[Query]
1000
CaseSensitiveMatch=0
1000
SaveCurrQueryInSession=1
1000
MkSelSetWithQryObj=0
1000
ShowBlockAsInsPt=0
1000
CreateAssociativeHatchObjects=0
1000
ReferenceBoundaryForAreaLocation=1
1000
ShowImageAsBoundary=1
1000
DefaultJoinOperator=2
1000
ColorForAdd=red
1000
ColorForRemove=red
1000
BlockLocnForQuery=1
1000
TextLocnForQuery=1
1000
[Save Back]
1000
RedefineBlockDefinitions=1
1000
RedefineLayerDefinitions=1
1000
RedefineTextStyleDefinitions=1
1000
RemoveUnusedGroups=1
1000
EraseSavedBackObjects=1
1000
RemoveLockAfterSave=1
1000
CreateHistoryFileOfChanges=0
1000
CreateBackupFileOfSourceDwg=1
1000
DontAddObjectsToSaveSet=0
1000
MarkObjectsForEditingWithoutPrompting=0
1000
[Coordinate Transformation]
1000
RestoreLastActiveDwgsOnStartup=1
1000
ActivateDwgsOnAttach=1
1000
AdjustSizesAndScalesForChangesInUnits=1
1000
AdjustRotationsForMapDistortions=1
1000
AdjustSizesAndScalesForMapDistortions=1
1000
AdjustElevations=1
1000
AdjustZeroRotationObjects=1
1000
ReconnectDbOnWSOpen=1
1000
NoOfSQLConditionsInHistory=10
  0
DICTIONARY
  5
2862
330
20
100
AcDbDictionary
280
     1
281
     1
  0
DICTIONARY
  5
14
330
13
100
AcDbDictionary
280
     1
281
     1
  3
ACAD_LAYERFILTERS
360
15
  3
ACAD_LAYERSTATES
360
16
  0
DICTIONARY
  5
2831
330
5
100
AcDbDictionary
280
     1
281
     1
  3
ADSK_XREC_LAYER_RECONCILED
360
2832
  0
DICTIONARY
  5
2839
330
154
100
AcDbDictionary
280
     1
281
     1
  3
ADSK_XREC_LAYER_RECONCILED
360
283A
  0
DICTIONARY
  5
283D
330
63
100
AcDbDictionary
280
     1
281
     1
  3
ADSK_XREC_LAYER_RECONCILED
360
283E
  0
DICTIONARY
  5
283F
330
71
100
AcDbDictionary
280
     1
281
     1
  3
ADSK_XREC_LAYER_RECONCILED
360
2840
  0
DICTIONARY
  5
2841
330
60
100
AcDbDictionary
280
     1
281
     1
  3
ADSK_XREC_LAYER_RECONCILED
360
2842
  0
DICTIONARY
  5
2843
330
41
100
AcDbDictionary
280
     1
281
     1
  3
ADSK_XREC_LAYER_RECONCILED
360
2844
  0
DICTIONARY
  5
2845
330
1C1
100
AcDbDictionary
280
     1
281
     1
  3
ADSK_XREC_LAYER_RECONCILED
360
2846
  0
DICTIONARY
  5
2847
330
35
100
AcDbDictionary
280
     1
281
     1
  3
ADSK_XREC_LAYER_RECONCILED
360
2848
  0
DICTIONARY
  5
2849
330
5A
100
AcDbDictionary
280
     1
281
     1
  3
ADSK_XREC_LAYER_RECONCILED
360
284A
  0
DICTIONARY
  5
24BC
330
24BB
100
AcDbDictionary
280
     1
281
     1
  3
ADSK_XREC_LAYER_RECONCILED
360
2851
  0
DICTIONARY
  5
24BE
330
24BD
100
AcDbDictionary
280
     1
281
     1
  3
ADSK_XREC_LAYER_RECONCILED
360
2852
  0
DICTIONARY
  5
3
330
2
100
AcDbDictionary
280
     1
281
     1
  3
ACAD_SORTENTS
360
5E8
  0
DICTIONARY
  5
3A6
330
3A5
100
AcDbDictionary
280
     1
281
     1
  3
ACAD_SORTENTS
360
3A7
  0
DICTIONARY
  5
456
330
455
100
AcDbDictionary
280
     1
281
     1
  3
ACAD_SORTENTS
360
2082
  0
DICTIONARY
  5
560
330
55F
100
AcDbDictionary
280
     1
281
     1
  3
ACAD_SORTENTS
360
561
  0
DICTIONARY
  5
17F4
330
304
100
AcDbDictionary
280
     1
281
     1
  3
ACAD_SORTENTS
360
17F5
  0
DICTIONARY
  5
300
330
2FF
100
AcDbDictionary
280
     1
281
     1
  3
ACAD_SORTENTS
360
1881
  0
DICTIONARY
  5
10B4
330
B95
100
AcDbDictionary
280
     1
281
     1
  3
ACAD_SORTENTS
360
2ADF
  0
DICTIONARY
  5
1210
330
C18
100
AcDbDictionary
280
     1
281
     1
  3
ACAD_SORTENTS
360
29E8
  0
DICTIONARY
  5
189A
330
1899
100
AcDbDictionary
280
     1
281
     1
  3
ACAD_SORTENTS
360
1B39
  0
DICTIONARY
  5
238E
330
238D
100
AcDbDictionary
280
     1
281
     1
  3
ACAD_SORTENTS
360
2683
  0
DICTIONARY
  5
23DE
330
23DD
100
AcDbDictionary
280
     1
281
     1
  3
ACAD_SORTENTS
360
259A
  0
DICTIONARY
  5
2433
330
2432
100
AcDbDictionary
280
     1
281
     1
  3
ACAD_SORTENTS
360
27A8
  0
DICTIONARY
  5
31
102
{ACAD_REACTORS
330
8
102
}
330
8
100
AcDbDictionary
281
     1
  0
DICTIONARY
  5
2D
102
{ACAD_REACTORS
330
8
102
}
330
8
100
AcDbDictionary
281
     1
  0
DICTIONARY
  5
D
102
{ACAD_REACTORS
330
8
102
}
330
8
100
AcDbDictionary
281
     1
  3
Layout1
350
2AED
  3
Model
350
C
  0
DICTIONARY
  5
30
102
{ACAD_REACTORS
330
8
102
}
330
8
100
AcDbDictionary
281
     1
  3
ByBlock
350
2341
  3
ByLayer
350
2339
  3
Global
350
2349
  0
DICTIONARY
  5
2386
102
{ACAD_REACTORS
330
8
102
}
330
8
100
AcDbDictionary
281
     1
  3
Standard
350
2387
  0
DICTIONARY
  5
2E
102
{ACAD_REACTORS
330
8
102
}
330
8
100
AcDbDictionary
281
     1
  3
Standard
350
32
  0
DICTIONARY
  5
2F
102
{ACAD_REACTORS
330
8
102
}
330
8
100
AcDbDictionary
281
     1
  0
ACDBDICTIONARYWDFLT
  5
7
102
{ACAD_REACTORS
330
8
102
}
330
8
100
AcDbDictionary
281
     1
  3
Normal
350
6
100
AcDbDictionaryWithDefault
340
6
  0
DICTIONARY
  5
2364
102
{ACAD_REACTORS
330
8
102
}
330
8
100
AcDbDictionary
281
     1
  3
*A1
350
24C2
  3
A0
350
2365
  3
A1
350
2366
  3
A2
350
2367
  3
A3
350
2368
  3
A4
350
2369
  3
A5
350
236A
  3
A6
350
236B
  3
A7
350
236C
  3
A8
350
236D
  3
A9
350
236E
  3
B0
350
236F
  3
B1
350
2370
  3
B2
350
2371
  3
B3
350
2372
  3
B4
350
2373
  3
B5
350
2374
  3
B6
350
2375
  3
B7
350
2376
  3
B8
350
2377
  3
B9
350
2378
  3
C0
350
2379
  3
C1
350
237A
  3
C2
350
237B
  3
C3
350
237C
  3
C4
350
237D
  3
C5
350
237E
  3
C6
350
237F
  3
C7
350
2380
  3
C8
350
2381
  3
C9
350
2382
  3
D0
350
2383
  3
D1
350
2384
  3
D2
350
2385
  0
DICTIONARY
  5
2362
102
{ACAD_REACTORS
330
8
102
}
330
8
100
AcDbDictionary
281
     1
  3
Standard
350
2363
  0
DICTIONARY
  5
2351
102
{ACAD_REACTORS
330
8
102
}
330
8
100
AcDbDictionary
281
     1
  3
2dWireframe
350
2357
  3
3D Hidden
350
2359
  3
3dWireframe
350
2358
  3
Basic
350
2356
  3
Brighten
350
235D
  3
ColorChange
350
2361
  3
Conceptual
350
235A
  3
Dim
350
235C
  3
Facepattern
350
2360
  3
Flat
350
2352
  3
FlatWithEdges
350
2353
  3
Gouraud
350
2354
  3
GouraudWithEdges
350
2355
  3
Linepattern
350
235F
  3
Realistic
350
235B
  3
Thicken
350
235E
  0
XRECORD
  5
2861
102
{ACAD_REACTORS
330
8
102
}
330
8
100
AcDbXrecord
280
     1
 90
        1
330
2363
  0
DICTIONARY
  5
8F5
102
{ACAD_REACTORS
330
8
102
}
330
8
100
AcDbDictionary
281
     1
  3
CANNOSCALE
350
286A
  3
CMLEADERSTYLE
350
2869
  3
CTABLESTYLE
350
2868
  3
DIMASSOC
350
8F7
  3
HIDETEXT
350
8F6
  3
INDEXCTL
350
2BD7
  3
PROJECTNAME
350
8F8
  3
SORTENTS
350
2BD6
  0
DICTIONARY
  5
2B18
102
{ACAD_REACTORS
330
8
102
}
330
8
100
AcDbDictionary
281
     1
  0
DICTIONARY
  5
8FD
102
{ACAD_REACTORS
330
8
102
}
330
8
100
AcDbDictionary
281
     1
  0
XRECORD
  5
2BD9
102
{ACAD_REACTORS
330
8
102
}
330
8
100
AcDbXrecord
280
     1
  1
DWGPROPS COOKIE
  2

  3

  4

  6

  7

  8
rohwertl
  9

300
=
301
=
302
=
303
=
304
=
305
=
306
=
307
=
308
=
309
=
 40
4.213521296296296
 41
2453963.430150475
 42
2455447.478778206
  1

 90
        0
  0
DICTIONARY
  5
15
102
{ACAD_REACTORS
330
14
102
}
330
14
100
AcDbDictionary
281
     1
  0
DICTIONARY
  5
16
102
{ACAD_REACTORS
330
14
102
}
330
14
100
AcDbDictionary
281
     1
  0
XRECORD
  5
2832
102
{ACAD_REACTORS
330
2831
102
}
330
2831
100
AcDbXrecord
280
     1
290
     1
  0
XRECORD
  5
283A
102
{ACAD_REACTORS
330
2839
102
}
330
2839
100
AcDbXrecord
280
     1
290
     1
  0
XRECORD
  5
283E
102
{ACAD_REACTORS
330
283D
102
}
330
283D
100
AcDbXrecord
280
     1
290
     1
  0
XRECORD
  5
2840
102
{ACAD_REACTORS
330
283F
102
}
330
283F
100
AcDbXrecord
280
     1
290
     1
  0
XRECORD
  5
2842
102
{ACAD_REACTORS
330
2841
102
}
330
2841
100
AcDbXrecord
280
     1
290
     1
  0
XRECORD
  5
2844
102
{ACAD_REACTORS
330
2843
102
}
330
2843
100
AcDbXrecord
280
     1
290
     1
  0
XRECORD
  5
2846
102
{ACAD_REACTORS
330
2845
102
}
330
2845
100
AcDbXrecord
280
     1
290
     1
  0
XRECORD
  5
2848
102
{ACAD_REACTORS
330
2847
102
}
330
2847
100
AcDbXrecord
280
     1
290
     1
  0
XRECORD
  5
284A
102
{ACAD_REACTORS
330
2849
102
}
330
2849
100
AcDbXrecord
280
     1
290
     1
  0
XRECORD
  5
2851
102
{ACAD_REACTORS
330
24BC
102
}
330
24BC
100
AcDbXrecord
280
     1
290
     1
  0
XRECORD
  5
2852
102
{ACAD_REACTORS
330
24BE
102
}
330
24BE
100
AcDbXrecord
280
     1
290
     1
  0
SORTENTSTABLE
  5
5E8
102
{ACAD_REACTORS
330
3
102
}
330
3
100
AcDbSortentsTable
330
2
331
32A
  5
324
331
324
  5
323
331
24D0
  5
24D0
331
A49
  5
A49
331
40A
  5
3F2
331
3F2
  5
32C
331
CCD
  5
CCD
331
425
  5
40C
331
2F7
  5
2F5
331
132F
  5
132F
331
277
  5
277
331
A4A
  5
A4A
331
40B
  5
3FE
331
454
  5
43B
331
446
  5
430
331
2FE
  5
2F8
331
C17
  5
C17
331
A5F
  5
A5F
331
2F8
  5
2F7
331
1033
  5
1033
331
41A
  5
40B
331
40C
  5
40A
331
98F
  5
98F
331
26C
  5
26C
331
1466
  5
1466
331
43B
  5
425
331
25B
  5
25B
331
A4C
  5
A4C
331
A46
  5
A46
331
115D
  5
115D
331
430
  5
41A
331
24CE
  5
24CE
331
323
  5
2FE
331
24CF
  5
24CF
331
25D
  5
25D
  0
SORTENTSTABLE
  5
3A7
102
{ACAD_REACTORS
330
3A6
102
}
330
3A6
100
AcDbSortentsTable
330
3A5
  0
SORTENTSTABLE
  5
2082
102
{ACAD_REACTORS
330
456
102
}
330
456
100
AcDbSortentsTable
330
455
  0
SORTENTSTABLE
  5
561
102
{ACAD_REACTORS
330
560
102
}
330
560
100
AcDbSortentsTable
330
55F
  0
SORTENTSTABLE
  5
17F5
102
{ACAD_REACTORS
330
17F4
102
}
330
17F4
100
AcDbSortentsTable
330
304
  0
SORTENTSTABLE
  5
1881
102
{ACAD_REACTORS
330
300
102
}
330
300
100
AcDbSortentsTable
330
2FF
  0
SORTENTSTABLE
  5
2ADF
102
{ACAD_REACTORS
330
10B4
102
}
330
10B4
100
AcDbSortentsTable
330
B95
331
BFF
  5
C01
331
2AD3
  5
BFC
331
BFD
  5
BFF
331
BFB
  5
BFD
331
19DC
  5
2AD9
331
C08
  5
19DC
331
C02
  5
196A
331
196A
  5
2AD3
331
C00
  5
C02
331
BFE
  5
C00
331
BFC
  5
BFE
331
2AD9
  5
BFB
331
C01
  5
C08
  0
SORTENTSTABLE
  5
29E8
102
{ACAD_REACTORS
330
1210
102
}
330
1210
100
AcDbSortentsTable
330
C18
331
C64
  5
C66
331
C7E
  5
C80
331
C98
  5
C9A
331
29BC
  5
C65
331
C8B
  5
C8D
331
CA5
  5
CA7
331
C7C
  5
C7E
331
C89
  5
C8B
331
CA3
  5
CA5
331
C96
  5
C98
331
C7A
  5
C7C
331
C6D
  5
C72
331
C87
  5
C89
331
CA1
  5
CA3
331
C94
  5
C96
331
C78
  5
C7A
331
C85
  5
C87
331
2323
  5
29BC
331
C9F
  5
CA1
331
C92
  5
C94
331
29C1
  5
C64
331
C83
  5
C85
331
2321
  5
2323
331
C9D
  5
C9F
331
C76
  5
C78
331
C90
  5
C92
331
CAA
  5
CBA
331
C81
  5
C83
331
C9B
  5
C9D
331
C8E
  5
C90
331
CA8
  5
CAA
331
C65
  5
C6D
331
CBA
  5
16C2
331
C7F
  5
C81
331
C99
  5
C9B
331
C72
  5
C77
331
C8C
  5
C8E
331
CA6
  5
CA8
331
C7D
  5
C7F
331
16C2
  5
2322
331
C8A
  5
C8C
331
CA4
  5
CA6
331
C97
  5
C99
331
C7B
  5
C7D
331
C6E
  5
C76
331
C88
  5
C8A
331
CA2
  5
CA4
331
CB4
  5
CBB
331
C95
  5
C97
331
C79
  5
C7B
331
C86
  5
C88
331
2324
  5
29C1
331
CA0
  5
CA2
331
C93
  5
C95
331
C84
  5
C86
331
2322
  5
2324
331
C9E
  5
CA0
331
C77
  5
C79
331
C91
  5
C93
331
C82
  5
C84
331
C9C
  5
C9E
331
C8F
  5
C91
331
CA9
  5
CB4
331
C66
  5
C6E
331
CBB
  5
2321
331
C80
  5
C82
331
C9A
  5
C9C
331
C8D
  5
C8F
331
CA7
  5
CA9
  0
SORTENTSTABLE
  5
1B39
102
{ACAD_REACTORS
330
189A
102
}
330
189A
100
AcDbSortentsTable
330
1899
  0
SORTENTSTABLE
  5
2683
102
{ACAD_REACTORS
330
238E
102
}
330
238E
100
AcDbSortentsTable
330
238D
  0
SORTENTSTABLE
  5
259A
102
{ACAD_REACTORS
330
23DE
102
}
330
23DE
100
AcDbSortentsTable
330
23DD
  0
SORTENTSTABLE
  5
27A8
102
{ACAD_REACTORS
330
2433
102
}
330
2433
100
AcDbSortentsTable
330
2432
331
2447
  5
2448
331
2446
  5
2447
331
2445
  5
2446
331
2444
  5
2445
331
2443
  5
2444
331
2442
  5
2443
331
2441
  5
2442
331
248F
  5
2490
331
2440
  5
2441
331
248E
  5
248F
331
244B
  5
247F
331
243F
  5
2440
331
248D
  5
248E
331
244A
  5
244B
331
243E
  5
243F
331
248C
  5
248D
331
2449
  5
244A
331
243D
  5
243E
331
248B
  5
248C
331
2448
  5
2449
331
243C
  5
243D
331
248A
  5
248B
331
249D
  5
2437
331
243B
  5
243C
331
2489
  5
248A
331
249C
  5
2436
331
243A
  5
243B
331
2488
  5
2489
331
249B
  5
249C
331
2439
  5
243A
331
2487
  5
2488
331
249A
  5
249B
331
2486
  5
2487
331
2438
  5
2439
331
2499
  5
249A
331
2485
  5
2486
331
2437
  5
2438
331
2498
  5
2499
331
2484
  5
2485
331
2436
  5
249D
331
2497
  5
2498
331
2483
  5
2484
331
2496
  5
2497
331
2482
  5
2483
331
2495
  5
2496
331
2481
  5
2482
331
2494
  5
2495
331
2480
  5
2481
331
2493
  5
2494
331
247F
  5
2480
331
2492
  5
2493
331
2491
  5
2492
331
2490
  5
2491
  0
LAYOUT
  5
2AED
102
{ACAD_XDICTIONARY
360
2BE0
102
}
102
{ACAD_REACTORS
330
D
102
}
330
D
100
AcDbPlotSettings
  1

  2
pdfFactory Pro
  4

  6

 40
0.0
 41
0.0
 42
0.0
 43
0.0
 44
0.0
 45
0.0
 46
0.0
 47
0.0
 48
0.0
 49
0.0
140
0.0
141
0.0
142
1.0
143
1.0
 70
   688
 72
     0
 73
     0
 74
     5
  7
PellaCAD 2000.ctb
 75
    16
147
1.0
148
0.0
149
0.0
100
AcDbLayout
  1
Layout1
 70
     1
 71
     1
 10
0.0
 20
0.0
 11
12.0
 21
9.0
 12
0.0
 22
0.0
 32
0.0
 14
0.0
 24
0.0
 34
0.0
 15
0.0
 25
0.0
 35
0.0
146
0.0
 13
0.0
 23
0.0
 33
0.0
 16
1.0
 26
0.0
 36
0.0
 17
0.0
 27
1.0
 37
0.0
 76
     0
330
2AEC
  0
LAYOUT
  5
C
102
{ACAD_XDICTIONARY
360
2BDA
102
}
102
{ACAD_REACTORS
330
D
102
}
330
D
100
AcDbPlotSettings
  1

  2
pdfFactory Pro
  4
Letter
  6

 40
7.143749713897705
 41
7.143756389617919
 42
7.14373779296875
 43
7.14373779296875
 44
215.8999938964844
 45
279.3999938964844
 46
-4172.303552225297
 47
-3362.883336105818
 48
0.0
 49
0.0
140
0.0
141
0.0
142
1.0
143
1.0
 70
 11956
 72
     0
 73
     0
 74
     1
  7
PellaCAD 2000.ctb
 75
    16
147
1.0
148
0.260774110343357
149
4383.221787653484
100
AcDbLayout
  1
Model
 70
     1
 71
     0
 10
0.0
 20
0.0
 11
12.0
 21
9.0
 12
0.0
 22
0.0
 32
0.0
 14
0.0
 24
0.0
 34
0.0
 15
0.0
 25
0.0
 35
0.0
146
0.0
 13
0.0
 23
0.0
 33
0.0
 16
1.0
 26
0.0
 36
0.0
 17
0.0
 27
1.0
 37
0.0
 76
     0
330
2
331
2330
  0
MATERIAL
  5
2341
102
{ACAD_XDICTIONARY
360
2342
102
}
102
{ACAD_REACTORS
330
30
102
}
330
30
100
AcDbMaterial
  1
ByBlock
 72
     0
 43
0.0208333333333333
 43
0.0
 43
0.0
 43
0.0
 43
0.0
 43
0.0208333333333333
 43
0.0
 43
0.0
 43
0.0
 43
0.0
 43
1.0
 43
0.0
 43
0.0
 43
0.0
 43
0.0
 43
1.0
 77
     0
 47
0.0208333333333333
 47
0.0
 47
0.0
 47
0.0
 47
0.0
 47
0.0208333333333333
 47
0.0
 47
0.0
 47
0.0
 47
0.0
 47
1.0
 47
0.0
 47
0.0
 47
0.0
 47
0.0
 47
1.0
171
     0
 49
0.0208333333333333
 49
0.0
 49
0.0
 49
0.0
 49
0.0
 49
0.0208333333333333
 49
0.0
 49
0.0
 49
0.0
 49
0.0
 49
1.0
 49
0.0
 49
0.0
 49
0.0
 49
0.0
 49
1.0
175
     0
142
0.0208333333333333
142
0.0
142
0.0
142
0.0
142
0.0
142
0.0208333333333333
142
0.0
142
0.0
142
0.0
142
0.0
142
1.0
142
0.0
142
0.0
142
0.0
142
0.0
142
1.0
179
     0
144
0.0208333333333333
144
0.0
144
0.0
144
0.0
144
0.0
144
0.0208333333333333
144
0.0
144
0.0
144
0.0
144
0.0
144
1.0
144
0.0
144
0.0
144
0.0
144
0.0
144
1.0
147
0.0208333333333333
147
0.0
147
0.0
147
0.0
147
0.0
147
0.0208333333333333
147
0.0
147
0.0
147
0.0
147
0.0
147
1.0
147
0.0
147
0.0
147
0.0
147
0.0
147
1.0
  0
MATERIAL
  5
2339
102
{ACAD_XDICTIONARY
360
233A
102
}
102
{ACAD_REACTORS
330
30
102
}
330
30
100
AcDbMaterial
  1
ByLayer
 72
     0
 43
0.0208333333333333
 43
0.0
 43
0.0
 43
0.0
 43
0.0
 43
0.0208333333333333
 43
0.0
 43
0.0
 43
0.0
 43
0.0
 43
1.0
 43
0.0
 43
0.0
 43
0.0
 43
0.0
 43
1.0
 77
     0
 47
0.0208333333333333
 47
0.0
 47
0.0
 47
0.0
 47
0.0
 47
0.0208333333333333
 47
0.0
 47
0.0
 47
0.0
 47
0.0
 47
1.0
 47
0.0
 47
0.0
 47
0.0
 47
0.0
 47
1.0
171
     0
 49
0.0208333333333333
 49
0.0
 49
0.0
 49
0.0
 49
0.0
 49
0.0208333333333333
 49
0.0
 49
0.0
 49
0.0
 49
0.0
 49
1.0
 49
0.0
 49
0.0
 49
0.0
 49
0.0
 49
1.0
175
     0
142
0.0208333333333333
142
0.0
142
0.0
142
0.0
142
0.0
142
0.0208333333333333
142
0.0
142
0.0
142
0.0
142
0.0
142
1.0
142
0.0
142
0.0
142
0.0
142
0.0
142
1.0
179
     0
144
0.0208333333333333
144
0.0
144
0.0
144
0.0
144
0.0
144
0.0208333333333333
144
0.0
144
0.0
144
0.0
144
0.0
144
1.0
144
0.0
144
0.0
144
0.0
144
0.0
144
1.0
147
0.0208333333333333
147
0.0
147
0.0
147
0.0
147
0.0
147
0.0208333333333333
147
0.0
147
0.0
147
0.0
147
0.0
147
1.0
147
0.0
147
0.0
147
0.0
147
0.0
147
1.0
  0
MATERIAL
  5
2349
102
{ACAD_XDICTIONARY
360
234A
102
}
102
{ACAD_REACTORS
330
30
102
}
330
30
100
AcDbMaterial
  1
Global
 72
     0
 43
0.0208333333333333
 43
0.0
 43
0.0
 43
0.0
 43
0.0
 43
0.0208333333333333
 43
0.0
 43
0.0
 43
0.0
 43
0.0
 43
1.0
 43
0.0
 43
0.0
 43
0.0
 43
0.0
 43
1.0
 77
     0
 47
0.0208333333333333
 47
0.0
 47
0.0
 47
0.0
 47
0.0
 47
0.0208333333333333
 47
0.0
 47
0.0
 47
0.0
 47
0.0
 47
1.0
 47
0.0
 47
0.0
 47
0.0
 47
0.0
 47
1.0
171
     0
 49
0.0208333333333333
 49
0.0
 49
0.0
 49
0.0
 49
0.0
 49
0.0208333333333333
 49
0.0
 49
0.0
 49
0.0
 49
0.0
 49
1.0
 49
0.0
 49
0.0
 49
0.0
 49
0.0
 49
1.0
175
     0
142
0.0208333333333333
142
0.0
142
0.0
142
0.0
142
0.0
142
0.0208333333333333
142
0.0
142
0.0
142
0.0
142
0.0
142
1.0
142
0.0
142
0.0
142
0.0
142
0.0
142
1.0
179
     0
144
0.0208333333333333
144
0.0
144
0.0
144
0.0
144
0.0
144
0.0208333333333333
144
0.0
144
0.0
144
0.0
144
0.0
144
1.0
144
0.0
144
0.0
144
0.0
144
0.0
144
1.0
147
0.0208333333333333
147
0.0
147
0.0
147
0.0
147
0.0
147
0.0208333333333333
147
0.0
147
0.0
147
0.0
147
0.0
147
1.0
147
0.0
147
0.0
147
0.0
147
0.0
147
1.0
  0
MLEADERSTYLE
  5
2387
102
{ACAD_REACTORS
330
2386
102
}
330
2386
100
AcDbMLeaderStyle
170
     2
171
     1
172
     0
 90
        2
 40
0.0
 41
0.0
173
     1
 91
-1056964608
340
1C
 92
       -2
290
     1
 42
0.09
291
     1
 43
0.36
  3
Standard
 44
0.18
300

342
18
174
     1
178
     6
175
     1
176
     0
 93
-1056964608
 45
0.18
292
     0
297
     0
 46
0.18
 94
-1056964608
 47
1.0
 49
1.0
140
1.0
293
     1
141
0.0
294
     1
177
     0
142
1.0
295
     0
296
     0
143
0.125
1001
ACAD_MLEADERVER
1070
     2
  0
MLINESTYLE
  5
32
102
{ACAD_REACTORS
330
2E
102
}
330
2E
100
AcDbMlineStyle
  2
STANDARD
 70
     0
  3

 62
   256
 51
90.0
 52
90.0
 71
     2
 49
0.5
 62
   256
  6
BYLAYER
 49
-0.5
 62
   256
  6
BYLAYER
  0
ACDBPLACEHOLDER
  5
6
102
{ACAD_REACTORS
330
7
102
}
330
7
  0
SCALE
  5
24C2
102
{ACAD_REACTORS
330
2364
102
}
330
2364
100
AcDbScale
 70
     0
300
1" = 1'
140
1.0
141
1.0
290
     0
  0
SCALE
  5
2365
102
{ACAD_REACTORS
330
2364
102
}
330
2364
100
AcDbScale
 70
     0
300
1:1
140
1.0
141
1.0
290
     1
  0
SCALE
  5
2366
102
{ACAD_REACTORS
330
2364
102
}
330
2364
100
AcDbScale
 70
     0
300
1:2
140
1.0
141
2.0
290
     0
  0
SCALE
  5
2367
102
{ACAD_REACTORS
330
2364
102
}
330
2364
100
AcDbScale
 70
     0
300
1:4
140
1.0
141
4.0
290
     0
  0
SCALE
  5
2368
102
{ACAD_REACTORS
330
2364
102
}
330
2364
100
AcDbScale
 70
     0
300
1:5
140
1.0
141
5.0
290
     0
  0
SCALE
  5
2369
102
{ACAD_REACTORS
330
2364
102
}
330
2364
100
AcDbScale
 70
     0
300
1:8
140
1.0
141
8.0
290
     0
  0
SCALE
  5
236A
102
{ACAD_REACTORS
330
2364
102
}
330
2364
100
AcDbScale
 70
     0
300
1:10
140
1.0
141
10.0
290
     0
  0
SCALE
  5
236B
102
{ACAD_REACTORS
330
2364
102
}
330
2364
100
AcDbScale
 70
     0
300
1:16
140
1.0
141
16.0
290
     0
  0
SCALE
  5
236C
102
{ACAD_REACTORS
330
2364
102
}
330
2364
100
AcDbScale
 70
     0
300
1:20
140
1.0
141
20.0
290
     0
  0
SCALE
  5
236D
102
{ACAD_REACTORS
330
2364
102
}
330
2364
100
AcDbScale
 70
     0
300
1:30
140
1.0
141
30.0
290
     0
  0
SCALE
  5
236E
102
{ACAD_REACTORS
330
2364
102
}
330
2364
100
AcDbScale
 70
     0
300
1:40
140
1.0
141
40.0
290
     0
  0
SCALE
  5
236F
102
{ACAD_REACTORS
330
2364
102
}
330
2364
100
AcDbScale
 70
     0
300
1:50
140
1.0
141
50.0
290
     0
  0
SCALE
  5
2370
102
{ACAD_REACTORS
330
2364
102
}
330
2364
100
AcDbScale
 70
     0
300
1:100
140
1.0
141
100.0
290
     0
  0
SCALE
  5
2371
102
{ACAD_REACTORS
330
2364
102
}
330
2364
100
AcDbScale
 70
     0
300
2:1
140
2.0
141
1.0
290
     0
  0
SCALE
  5
2372
102
{ACAD_REACTORS
330
2364
102
}
330
2364
100
AcDbScale
 70
     0
300
4:1
140
4.0
141
1.0
290
     0
  0
SCALE
  5
2373
102
{ACAD_REACTORS
330
2364
102
}
330
2364
100
AcDbScale
 70
     0
300
8:1
140
8.0
141
1.0
290
     0
  0
SCALE
  5
2374
102
{ACAD_REACTORS
330
2364
102
}
330
2364
100
AcDbScale
 70
     0
300
10:1
140
10.0
141
1.0
290
     0
  0
SCALE
  5
2375
102
{ACAD_REACTORS
330
2364
102
}
330
2364
100
AcDbScale
 70
     0
300
100:1
140
100.0
141
1.0
290
     0
  0
SCALE
  5
2376
102
{ACAD_REACTORS
330
2364
102
}
330
2364
100
AcDbScale
 70
     0
300
1/128" = 1'-0"
140
0.0078125
141
12.0
290
     0
  0
SCALE
  5
2377
102
{ACAD_REACTORS
330
2364
102
}
330
2364
100
AcDbScale
 70
     0
300
1/64" = 1'-0"
140
0.015625
141
12.0
290
     0
  0
SCALE
  5
2378
102
{ACAD_REACTORS
330
2364
102
}
330
2364
100
AcDbScale
 70
     0
300
1/32" = 1'-0"
140
0.03125
141
12.0
290
     0
  0
SCALE
  5
2379
102
{ACAD_REACTORS
330
2364
102
}
330
2364
100
AcDbScale
 70
     0
300
1/16" = 1'-0"
140
0.0625
141
12.0
290
     0
  0
SCALE
  5
237A
102
{ACAD_REACTORS
330
2364
102
}
330
2364
100
AcDbScale
 70
     0
300
3/32" = 1'-0"
140
0.09375
141
12.0
290
     0
  0
SCALE
  5
237B
102
{ACAD_REACTORS
330
2364
102
}
330
2364
100
AcDbScale
 70
     0
300
1/8" = 1'-0"
140
0.125
141
12.0
290
     0
  0
SCALE
  5
237C
102
{ACAD_REACTORS
330
2364
102
}
330
2364
100
AcDbScale
 70
     0
300
3/16" = 1'-0"
140
0.1875
141
12.0
290
     0
  0
SCALE
  5
237D
102
{ACAD_REACTORS
330
2364
102
}
330
2364
100
AcDbScale
 70
     0
300
1/4" = 1'-0"
140
0.25
141
12.0
290
     0
  0
SCALE
  5
237E
102
{ACAD_REACTORS
330
2364
102
}
330
2364
100
AcDbScale
 70
     0
300
3/8" = 1'-0"
140
0.375
141
12.0
290
     0
  0
SCALE
  5
237F
102
{ACAD_REACTORS
330
2364
102
}
330
2364
100
AcDbScale
 70
     0
300
1/2" = 1'-0"
140
0.5
141
12.0
290
     0
  0
SCALE
  5
2380
102
{ACAD_REACTORS
330
2364
102
}
330
2364
100
AcDbScale
 70
     0
300
3/4" = 1'-0"
140
0.75
141
12.0
290
     0
  0
SCALE
  5
2381
102
{ACAD_REACTORS
330
2364
102
}
330
2364
100
AcDbScale
 70
     0
300
1" = 1'-0"
140
1.0
141
12.0
290
     0
  0
SCALE
  5
2382
102
{ACAD_REACTORS
330
2364
102
}
330
2364
100
AcDbScale
 70
     0
300
1-1/2" = 1'-0"
140
1.5
141
12.0
290
     0
  0
SCALE
  5
2383
102
{ACAD_REACTORS
330
2364
102
}
330
2364
100
AcDbScale
 70
     0
300
3" = 1'-0"
140
3.0
141
12.0
290
     0
  0
SCALE
  5
2384
102
{ACAD_REACTORS
330
2364
102
}
330
2364
100
AcDbScale
 70
     0
300
6" = 1'-0"
140
6.0
141
12.0
290
     0
  0
SCALE
  5
2385
102
{ACAD_REACTORS
330
2364
102
}
330
2364
100
AcDbScale
 70
     0
300
1'-0" = 1'-0"
140
12.0
141
12.0
290
     0
  0
TABLESTYLE
  5
2363
102
{ACAD_XDICTIONARY
360
285F
102
}
102
{ACAD_REACTORS
330
2362
102
}
330
2362
100
AcDbTableStyle
  3
Standard
 70
     0
 71
     0
 40
0.06
 41
0.06
280
     0
281
     0
  7
Standard
140
0.18
170
     2
 62
     0
 63
     7
283
     0
274
    -2
284
     1
 64
     0
275
    -2
285
     1
 65
     0
276
    -2
286
     1
 66
     0
277
    -2
287
     1
 67
     0
278
    -2
288
     1
 68
     0
279
    -2
289
     1
 69
     0
  7
Standard
140
0.25
170
     5
 62
     0
 63
     7
283
     0
274
    -2
284
     1
 64
     0
275
    -2
285
     1
 65
     0
276
    -2
286
     1
 66
     0
277
    -2
287
     1
 67
     0
278
    -2
288
     1
 68
     0
279
    -2
289
     1
 69
     0
  7
Standard
140
0.18
170
     5
 62
     0
 63
     7
283
     0
274
    -2
284
     1
 64
     0
275
    -2
285
     1
 65
     0
276
    -2
286
     1
 66
     0
277
    -2
287
     1
 67
     0
278
    -2
288
     1
 68
     0
279
    -2
289
     1
 69
     0
  0
VISUALSTYLE
  5
2357
102
{ACAD_REACTORS
330
2351
102
}
330
2351
100
AcDbVisualStyle
  2
2dWireframe
 70
     4
 71
     0
 72
     2
 73
     0
 90
        0
 40
-0.6
 41
-30.0
 62
     5
 63
     7
 74
     1
 91
        4
 64
     7
 65
   257
 75
     1
175
     1
 42
1.0
 92
        0
 66
   257
 43
1.0
 76
     1
 77
     6
 78
     2
 67
     7
 79
     5
170
     0
171
     0
290
     0
174
     0
 93
        1
 44
0.0
173
     0
291
     0
 45
0.0
1001
ACAD
1000
AcDbSavedByObjectVersion
1070
     0
  0
VISUALSTYLE
  5
2359
102
{ACAD_REACTORS
330
2351
102
}
330
2351
100
AcDbVisualStyle
  2
3D Hidden
 70
     6
 71
     1
 72
     2
 73
     2
 90
        0
 40
-0.6
 41
-30.0
 62
     5
 63
     7
 74
     2
 91
        2
 64
     7
 65
   257
 75
     2
175
     1
 42
40.0
 92
        0
 66
   257
 43
1.0
 76
     1
 77
     6
 78
     2
 67
     7
 79
     3
170
     0
171
     0
290
     0
174
     0
 93
        1
 44
0.0
173
     0
291
     0
 45
0.0
1001
ACAD
1000
AcDbSavedByObjectVersion
1070
     0
  0
VISUALSTYLE
  5
2358
102
{ACAD_REACTORS
330
2351
102
}
330
2351
100
AcDbVisualStyle
  2
3dWireframe
 70
     5
 71
     0
 72
     2
 73
     0
 90
        0
 40
-0.6
 41
-30.0
 62
     5
 63
     7
 74
     1
 91
        4
 64
     7
 65
   257
 75
     1
175
     1
 42
1.0
 92
        0
 66
   257
 43
1.0
 76
     1
 77
     6
 78
     2
 67
     7
 79
     5
170
     0
171
     0
290
     0
174
     0
 93
        1
 44
0.0
173
     0
291
     0
 45
0.0
1001
ACAD
1000
AcDbSavedByObjectVersion
1070
     0
  0
VISUALSTYLE
  5
2356
102
{ACAD_REACTORS
330
2351
102
}
330
2351
100
AcDbVisualStyle
  2
Basic
 70
     7
 71
     1
 72
     0
 73
     1
 90
        0
 40
-0.6
 41
-30.0
 62
     5
 63
     7
 74
     0
 91
        4
 64
     7
 65
   257
 75
     1
175
     1
 42
1.0
 92
        8
 66
     7
 43
1.0
 76
     1
 77
     6
 78
     2
 67
     7
 79
     5
170
     0
171
     0
290
     0
174
     0
 93
        1
 44
0.0
173
     0
291
     1
 45
0.0
1001
ACAD
1000
AcDbSavedByObjectVersion
1070
     0
  0
VISUALSTYLE
  5
235D
102
{ACAD_REACTORS
330
2351
102
}
330
2351
100
AcDbVisualStyle
  2
Brighten
 70
    12
 71
     2
 72
     2
 73
     0
 90
        0
 40
-0.6
 41
-30.0
 62
     5
 63
     7
 74
     1
 91
        4
 64
     7
 65
   257
 75
     1
175
     1
 42
1.0
 92
        8
 66
     7
 43
1.0
 76
     1
 77
     6
 78
     2
 67
     7
 79
     5
170
     0
171
     0
290
     0
174
     0
 93
        1
 44
50.0
173
     0
291
     1
 45
0.0
1001
ACAD
1000
AcDbSavedByObjectVersion
1070
     0
  0
VISUALSTYLE
  5
2361
102
{ACAD_REACTORS
330
2351
102
}
330
2351
100
AcDbVisualStyle
  2
ColorChange
 70
    16
 71
     2
 72
     2
 73
     3
 90
        0
 40
-0.6
 41
-30.0
 62
     5
 63
     8
 74
     1
 91
        4
 64
     7
 65
   257
 75
     1
175
     1
 42
1.0
 92
        8
 66
     8
 43
1.0
 76
     1
 77
     6
 78
     2
 67
     7
 79
     5
170
     0
171
     0
290
     0
174
     0
 93
        1
 44
0.0
173
     0
291
     1
 45
0.0
1001
ACAD
1000
AcDbSavedByObjectVersion
1070
     0
  0
VISUALSTYLE
  5
235A
102
{ACAD_REACTORS
330
2351
102
}
330
2351
100
AcDbVisualStyle
  2
Conceptual
 70
     9
 71
     3
 72
     2
 73
     0
 90
        0
 40
-0.6
 41
-30.0
 62
     5
 63
     7
 74
     2
 91
        2
 64
     7
 65
   257
 75
     1
175
     1
 42
40.0
 92
        8
 66
     7
 43
1.0
 76
     1
 77
     6
 78
     2
 67
     7
 79
     3
170
     0
171
     0
290
     0
174
     0
 93
        1
 44
0.0
173
     0
291
     0
 45
0.0
1001
ACAD
1000
AcDbSavedByObjectVersion
1070
     0
  0
VISUALSTYLE
  5
235C
102
{ACAD_REACTORS
330
2351
102
}
330
2351
100
AcDbVisualStyle
  2
Dim
 70
    11
 71
     2
 72
     2
 73
     0
 90
        0
 40
-0.6
 41
-30.0
 62
     5
 63
     7
 74
     1
 91
        4
 64
     7
 65
   257
 75
     1
175
     1
 42
1.0
 92
        8
 66
     7
 43
1.0
 76
     1
 77
     6
 78
     2
 67
     7
 79
     5
170
     0
171
     0
290
     0
174
     0
 93
        1
 44
-50.0
173
     0
291
     1
 45
0.0
1001
ACAD
1000
AcDbSavedByObjectVersion
1070
     0
  0
VISUALSTYLE
  5
2360
102
{ACAD_REACTORS
330
2351
102
}
330
2351
100
AcDbVisualStyle
  2
Facepattern
 70
    15
 71
     2
 72
     2
 73
     0
 90
        0
 40
-0.6
 41
-30.0
 62
     5
 63
     7
 74
     1
 91
        4
 64
     7
 65
   257
 75
     1
175
     1
 42
1.0
 92
        8
 66
     7
 43
1.0
 76
     1
 77
     6
 78
     2
 67
     7
 79
     5
170
     0
171
     0
290
     0
174
     0
 93
        1
 44
0.0
173
     0
291
     1
 45
0.0
1001
ACAD
1000
AcDbSavedByObjectVersion
1070
     0
  0
VISUALSTYLE
  5
2352
102
{ACAD_REACTORS
330
2351
102
}
330
2351
100
AcDbVisualStyle
  2
Flat
 70
     0
 71
     2
 72
     1
 73
     1
 90
        2
 40
-0.6
 41
30.0
 62
     5
 63
     7
 74
     0
 91
        4
 64
     7
 65
   257
 75
     1
175
     1
 42
1.0
 92
        8
 66
     7
 43
1.0
 76
     1
 77
     6
 78
     2
 67
     7
 79
     5
170
     0
171
     0
290
     0
174
     0
 93
       13
 44
0.0
173
     0
291
     1
 45
0.0
1001
ACAD
1000
AcDbSavedByObjectVersion
1070
     0
  0
VISUALSTYLE
  5
2353
102
{ACAD_REACTORS
330
2351
102
}
330
2351
100
AcDbVisualStyle
  2
FlatWithEdges
 70
     1
 71
     2
 72
     1
 73
     1
 90
        2
 40
-0.6
 41
30.0
 62
     5
 63
     7
 74
     1
 91
        4
 64
     7
 65
   257
 75
     1
175
     1
 42
1.0
 92
        0
 66
   257
 43
1.0
 76
     1
 77
     6
 78
     2
 67
     7
 79
     5
170
     0
171
     0
290
     0
174
     0
 93
       13
 44
0.0
173
     0
291
     1
 45
0.0
1001
ACAD
1000
AcDbSavedByObjectVersion
1070
     0
  0
VISUALSTYLE
  5
2354
102
{ACAD_REACTORS
330
2351
102
}
330
2351
100
AcDbVisualStyle
  2
Gouraud
 70
     2
 71
     2
 72
     2
 73
     1
 90
        2
 40
-0.6
 41
30.0
 62
     5
 63
     7
 74
     0
 91
        4
 64
     7
 65
   257
 75
     1
175
     1
 42
1.0
 92
        0
 66
     7
 43
1.0
 76
     1
 77
     6
 78
     2
 67
     7
 79
     5
170
     0
171
     0
290
     0
174
     0
 93
       13
 44
0.0
173
     0
291
     1
 45
0.0
1001
ACAD
1000
AcDbSavedByObjectVersion
1070
     0
  0
VISUALSTYLE
  5
2355
102
{ACAD_REACTORS
330
2351
102
}
330
2351
100
AcDbVisualStyle
  2
GouraudWithEdges
 70
     3
 71
     2
 72
     2
 73
     1
 90
        2
 40
-0.6
 41
30.0
 62
     5
 63
     7
 74
     1
 91
        4
 64
     7
 65
   257
 75
     1
175
     1
 42
1.0
 92
        0
 66
   257
 43
1.0
 76
     1
 77
     6
 78
     2
 67
     7
 79
     5
170
     0
171
     0
290
     0
174
     0
 93
       13
 44
0.0
173
     0
291
     1
 45
0.0
1001
ACAD
1000
AcDbSavedByObjectVersion
1070
     0
  0
VISUALSTYLE
  5
235F
102
{ACAD_REACTORS
330
2351
102
}
330
2351
100
AcDbVisualStyle
  2
Linepattern
 70
    14
 71
     2
 72
     2
 73
     0
 90
        0
 40
-0.6
 41
-30.0
 62
     5
 63
     7
 74
     1
 91
        4
 64
     7
 65
   257
 75
     7
175
     7
 42
1.0
 92
        8
 66
     7
 43
1.0
 76
     1
 77
     6
 78
     2
 67
     7
 79
     5
170
     0
171
     0
290
     0
174
     0
 93
        1
 44
0.0
173
     0
291
     1
 45
0.0
1001
ACAD
1000
AcDbSavedByObjectVersion
1070
     0
  0
VISUALSTYLE
  5
235B
102
{ACAD_REACTORS
330
2351
102
}
330
2351
100
AcDbVisualStyle
  2
Realistic
 70
     8
 71
     2
 72
     2
 73
     0
 90
        0
 40
-0.6
 41
-30.0
 62
     5
 63
     7
 74
     1
 91
        0
 64
     7
 65
   257
 75
     1
175
     1
 42
1.0
 92
        8
 66
     8
 43
1.0
 76
     1
 77
     6
 78
     2
 67
     7
 79
     5
170
     0
171
     0
290
     0
174
     0
 93
       13
 44
0.0
173
     0
291
     0
 45
0.0
1001
ACAD
1000
AcDbSavedByObjectVersion
1070
     0
  0
VISUALSTYLE
  5
235E
102
{ACAD_REACTORS
330
2351
102
}
330
2351
100
AcDbVisualStyle
  2
Thicken
 70
    13
 71
     2
 72
     2
 73
     0
 90
        0
 40
-0.6
 41
-30.0
 62
     5
 63
     7
 74
     1
 91
        4
 64
     7
 65
   257
 75
     1
175
     1
 42
1.0
 92
       12
 66
     7
 43
1.0
 76
     1
 77
     6
 78
     2
 67
     7
 79
     5
170
     0
171
     0
290
     0
174
     0
 93
        1
 44
0.0
173
     0
291
     1
 45
0.0
1001
ACAD
1000
AcDbSavedByObjectVersion
1070
     0
  0
DICTIONARYVAR
  5
286A
102
{ACAD_REACTORS
330
8F5
102
}
330
8F5
100
DictionaryVariables
280
     0
  1
1:1
  0
DICTIONARYVAR
  5
2869
102
{ACAD_REACTORS
330
8F5
102
}
330
8F5
100
DictionaryVariables
280
     0
  1
STANDARD
  0
DICTIONARYVAR
  5
2868
102
{ACAD_REACTORS
330
8F5
102
}
330
8F5
100
DictionaryVariables
280
     0
  1
STANDARD
  0
DICTIONARYVAR
  5
8F7
102
{ACAD_REACTORS
330
8F5
102
}
330
8F5
100
DictionaryVariables
280
     0
  1
2
  0
DICTIONARYVAR
  5
8F6
102
{ACAD_REACTORS
330
8F5
102
}
330
8F5
100
DictionaryVariables
280
     0
  1
1
  0
DICTIONARYVAR
  5
2BD7
102
{ACAD_REACTORS
330
8F5
102
}
330
8F5
100
DictionaryVariables
280
     0
  1
0
  0
DICTIONARYVAR
  5
8F8
102
{ACAD_REACTORS
330
8F5
102
}
330
8F5
100
DictionaryVariables
280
     0
  1

  0
DICTIONARYVAR
  5
2BD6
102
{ACAD_REACTORS
330
8F5
102
}
330
8F5
100
DictionaryVariables
280
     0
  1
127
  0
DICTIONARY
  5
2BE0
330
2AED
100
AcDbDictionary
280
     1
281
     1
  3
ACAD_XREC_ROUNDTRIP
360
2BE1
  0
DICTIONARY
  5
2BDA
330
C
100
AcDbDictionary
280
     1
281
     1
  3
ACAD_XREC_ROUNDTRIP
360
2BDB
  0
DICTIONARY
  5
2342
330
2341
100
AcDbDictionary
280
     1
281
     1
  3
ACAD_XREC_ROUNDTRIP
360
2BDD
  3
BUMPTILE
360
2344
  3
DIFFUSETILE
360
2343
  3
OPACITYTILE
360
2347
  3
REFLECTIONTILE
360
2346
  3
REFRACTIONTILE
360
2348
  3
SPECULARTILE
360
2345
  0
DICTIONARY
  5
233A
330
2339
100
AcDbDictionary
280
     1
281
     1
  3
ACAD_XREC_ROUNDTRIP
360
2BDC
  3
BUMPTILE
360
233C
  3
DIFFUSETILE
360
233B
  3
OPACITYTILE
360
233F
  3
REFLECTIONTILE
360
233E
  3
REFRACTIONTILE
360
2340
  3
SPECULARTILE
360
233D
  0
DICTIONARY
  5
234A
330
2349
100
AcDbDictionary
280
     1
281
     1
  3
ACAD_XREC_ROUNDTRIP
360
2BDE
  3
BUMPTILE
360
234C
  3
DIFFUSETILE
360
234B
  3
OPACITYTILE
360
234F
  3
REFLECTIONTILE
360
234E
  3
REFRACTIONTILE
360
2350
  3
SPECULARTILE
360
234D
  0
DICTIONARY
  5
285F
330
2363
100
AcDbDictionary
280
     1
281
     1
  3
ACAD_ROUNDTRIP_2008_TABLESTYLE_CELLSTYLEMAP
360
2BD8
  3
ACAD_XREC_ROUNDTRIP
360
2BDF
  0
XRECORD
  5
2BE1
102
{ACAD_REACTORS
330
2BE0
102
}
330
2BE0
100
AcDbXrecord
280
     1
102
SHADEPLOT
 70
     0
102
SHADEPLOTRESLEVEL
 70
     2
102
SHADEPLOTCUSTOMDPI
 70
   300
  0
XRECORD
  5
2BDB
102
{ACAD_REACTORS
330
2BDA
102
}
330
2BDA
100
AcDbXrecord
280
     1
102
SHADEPLOT
 70
     0
102
SHADEPLOTRESLEVEL
 70
     2
102
SHADEPLOTCUSTOMDPI
 70
   300
  0
XRECORD
  5
2BDD
102
{ACAD_REACTORS
330
2342
102
}
330
2342
100
AcDbXrecord
280
     1
102
MATERIAL
148
0.0
149
0.0
149
0.0
 93
        0
 94
      127
282
     0
 72
     0
 77
     0
171
     0
175
     0
179
     0
273
     0
  0
XRECORD
  5
2344
102
{ACAD_REACTORS
330
2342
102
}
330
2342
100
AcDbXrecord
280
     1
270
     1
271
     1
  0
XRECORD
  5
2343
102
{ACAD_REACTORS
330
2342
102
}
330
2342
100
AcDbXrecord
280
     1
270
     1
271
     1
  0
XRECORD
  5
2347
102
{ACAD_REACTORS
330
2342
102
}
330
2342
100
AcDbXrecord
280
     1
270
     1
271
     1
  0
XRECORD
  5
2346
102
{ACAD_REACTORS
330
2342
102
}
330
2342
100
AcDbXrecord
280
     1
270
     1
271
     1
  0
XRECORD
  5
2348
102
{ACAD_REACTORS
330
2342
102
}
330
2342
100
AcDbXrecord
280
     1
270
     1
271
     1
  0
XRECORD
  5
2345
102
{ACAD_REACTORS
330
2342
102
}
330
2342
100
AcDbXrecord
280
     1
270
     1
271
     1
  0
XRECORD
  5
2BDC
102
{ACAD_REACTORS
330
233A
102
}
330
233A
100
AcDbXrecord
280
     1
102
MATERIAL
148
0.0
149
0.0
149
0.0
 93
        0
 94
      127
282
     0
 72
     0
 77
     0
171
     0
175
     0
179
     0
273
     0
  0
XRECORD
  5
233C
102
{ACAD_REACTORS
330
233A
102
}
330
233A
100
AcDbXrecord
280
     1
270
     1
271
     1
  0
XRECORD
  5
233B
102
{ACAD_REACTORS
330
233A
102
}
330
233A
100
AcDbXrecord
280
     1
270
     1
271
     1
  0
XRECORD
  5
233F
102
{ACAD_REACTORS
330
233A
102
}
330
233A
100
AcDbXrecord
280
     1
270
     1
271
     1
  0
XRECORD
  5
233E
102
{ACAD_REACTORS
330
233A
102
}
330
233A
100
AcDbXrecord
280
     1
270
     1
271
     1
  0
XRECORD
  5
2340
102
{ACAD_REACTORS
330
233A
102
}
330
233A
100
AcDbXrecord
280
     1
270
     1
271
     1
  0
XRECORD
  5
233D
102
{ACAD_REACTORS
330
233A
102
}
330
233A
100
AcDbXrecord
280
     1
270
     1
271
     1
  0
XRECORD
  5
2BDE
102
{ACAD_REACTORS
330
234A
102
}
330
234A
100
AcDbXrecord
280
     1
102
MATERIAL
148
0.0
149
0.0
149
0.0
 93
        0
 94
      127
282
     0
 72
     0
 77
     0
171
     0
175
     0
179
     0
273
     0
  0
XRECORD
  5
234C
102
{ACAD_REACTORS
330
234A
102
}
330
234A
100
AcDbXrecord
280
     1
270
     1
271
     1
  0
XRECORD
  5
234B
102
{ACAD_REACTORS
330
234A
102
}
330
234A
100
AcDbXrecord
280
     1
270
     1
271
     1
  0
XRECORD
  5
234F
102
{ACAD_REACTORS
330
234A
102
}
330
234A
100
AcDbXrecord
280
     1
270
     1
271
     1
  0
XRECORD
  5
234E
102
{ACAD_REACTORS
330
234A
102
}
330
234A
100
AcDbXrecord
280
     1
270
     1
271
     1
  0
XRECORD
  5
2350
102
{ACAD_REACTORS
330
234A
102
}
330
234A
100
AcDbXrecord
280
     1
270
     1
271
     1
  0
XRECORD
  5
234D
102
{ACAD_REACTORS
330
234A
102
}
330
234A
100
AcDbXrecord
280
     1
270
     1
271
     1
  0
CELLSTYLEMAP
  5
2BD8
102
{ACAD_REACTORS
330
285F
102
}
330
285F
100
AcDbCellStyleMap
 90
        3
300
CELLSTYLE
  1
TABLEFORMAT_BEGIN
 90
        5
170
     1
 91
        0
 92
    32768
 62
   257
 93
        1
300
CONTENTFORMAT
  1
CONTENTFORMAT_BEGIN
 90
        0
 91
        0
 92
      512
 93
        0
300

 40
0.0
140
1.0
 94
        5
 62
     0
340
18
144
0.25
309
CONTENTFORMAT_END
171
     0
 94
        0
309
TABLEFORMAT_END
  1
CELLSTYLE_BEGIN
 90
        1
 91
        1
300
_TITLE
309
CELLSTYLE_END
300
CELLSTYLE
  1
TABLEFORMAT_BEGIN
 90
        5
170
     1
 91
        0
 92
        0
 62
   257
 93
        1
300
CONTENTFORMAT
  1
CONTENTFORMAT_BEGIN
 90
        0
 91
        0
 92
      512
 93
        0
300

 40
0.0
140
1.0
 94
        5
 62
     0
340
18
144
0.18
309
CONTENTFORMAT_END
171
     0
 94
        0
309
TABLEFORMAT_END
  1
CELLSTYLE_BEGIN
 90
        2
 91
        1
300
_HEADER
309
CELLSTYLE_END
300
CELLSTYLE
  1
TABLEFORMAT_BEGIN
 90
        5
170
     1
 91
        0
 92
        0
 62
   257
 93
        1
300
CONTENTFORMAT
  1
CONTENTFORMAT_BEGIN
 90
        0
 91
        0
 92
      512
 93
        0
300

 40
0.0
140
1.0
 94
        2
 62
     0
340
18
144
0.18
309
CONTENTFORMAT_END
171
     0
 94
        0
309
TABLEFORMAT_END
  1
CELLSTYLE_BEGIN
 90
        3
 91
        2
300
_DATA
309
CELLSTYLE_END
  0
XRECORD
  5
2BDF
102
{ACAD_REACTORS
330
285F
102
}
330
285F
100
AcDbXrecord
280
     1
102
ACAD_ROUNDTRIP_PRE2007_TABLESTYLE
 90
      512
 91
        0
  1

 92
      512
 93
        0
  2

 94
      512
 95
        0
  3

  0
ENDSEC
  0
EOF
