  0
SECTION
  2
HEADER
  9
$ACADVER
  1
AC1015
  9
$ACADMAINTVER
 70
    18
  9
$DWGCODEPAGE
  3
ANSI_1252
  9
$INSBASE
 10
0.0
 20
0.0
 30
0.0
  9
$EXTMIN
 10
1.128808494023735
 20
9.162375099789187
 30
-0.0000000000000058
  9
$EXTMAX
 10
27.11664332379295
 20
30.07230245394373
 30
0.0000000000000104
  9
$LIMMIN
 10
0.0
 20
0.0
  9
$LIMMAX
 10
12.0
 20
9.0
  9
$ORTHOMODE
 70
     1
  9
$REGENMODE
 70
     1
  9
$FILLMODE
 70
     1
  9
$QTEXTMODE
 70
     0
  9
$MIRRTEXT
 70
     0
  9
$LTSCALE
 40
0.5
  9
$ATTMODE
 70
     1
  9
$TEXTSIZE
 40
1.9375
  9
$TRACEWID
 40
0.05
  9
$TEXTSTYLE
  7
ARCHQUIK
  9
$CLAYER
  8
Pel_Wall
  9
$CELTYPE
  6
ByLayer
  9
$CECOLOR
 62
   256
  9
$CELTSCALE
 40
1.0
  9
$DISPSILH
 70
     0
  9
$DIMSCALE
 40
0.7
  9
$DIMASZ
 40
2.0
  9
$DIMEXO
 40
0.0625
  9
$DIMDLI
 40
0.38
  9
$DIMRND
 40
0.0
  9
$DIMDLE
 40
0.0
  9
$DIMEXE
 40
0.1
  9
$DIMTP
 40
0.0
  9
$DIMTM
 40
0.0
  9
$DIMTXT
 40
1.919999999999999
  9
$DIMCEN
 40
0.125
  9
$DIMTSZ
 40
0.0
  9
$DIMTOL
 70
     0
  9
$DIMLIM
 70
     0
  9
$DIMTIH
 70
     1
  9
$DIMTOH
 70
     1
  9
$DIMSE1
 70
     0
  9
$DIMSE2
 70
     0
  9
$DIMTAD
 70
     0
  9
$DIMZIN
 70
     4
  9
$DIMBLK
  1

  9
$DIMASO
 70
     1
  9
$DIMSHO
 70
     1
  9
$DIMPOST
  1

  9
$DIMAPOST
  1

  9
$DIMALT
 70
     0
  9
$DIMALTD
 70
     2
  9
$DIMALTF
 40
25.4
  9
$DIMLFAC
 40
1.0
  9
$DIMTOFL
 70
     0
  9
$DIMTVP
 40
0.0
  9
$DIMTIX
 70
     0
  9
$DIMSOXD
 70
     0
  9
$DIMSAH
 70
     0
  9
$DIMBLK1
  1

  9
$DIMBLK2
  1

  9
$DIMSTYLE
  2
STANDARD
  9
$DIMCLRD
 70
    30
  9
$DIMCLRE
 70
     0
  9
$DIMCLRT
 70
     0
  9
$DIMTFAC
 40
1.0
  9
$DIMGAP
 40
0.09
  9
$DIMJUST
 70
     0
  9
$DIMSD1
 70
     0
  9
$DIMSD2
 70
     0
  9
$DIMTOLJ
 70
     1
  9
$DIMTZIN
 70
     0
  9
$DIMALTZ
 70
     0
  9
$DIMALTTZ
 70
     0
  9
$DIMUPT
 70
     0
  9
$DIMDEC
 70
     3
  9
$DIMTDEC
 70
     3
  9
$DIMALTU
 70
     2
  9
$DIMALTTD
 70
     2
  9
$DIMTXSTY
  7
Standard
  9
$DIMAUNIT
 70
     0
  9
$DIMADEC
 70
     3
  9
$DIMALTRND
 40
0.0
  9
$DIMAZIN
 70
     0
  9
$DIMDSEP
 70
    46
  9
$DIMATFIT
 70
     3
  9
$DIMFRAC
 70
     0
  9
$DIMLDRBLK
  1

  9
$DIMLUNIT
 70
     2
  9
$DIMLWD
 70
    -2
  9
$DIMLWE
 70
    -2
  9
$DIMTMOVE
 70
     0
  9
$LUNITS
 70
     2
  9
$LUPREC
 70
     4
  9
$SKETCHINC
 40
0.1
  9
$FILLETRAD
 40
0.25
  9
$AUNITS
 70
     0
  9
$AUPREC
 70
     3
  9
$MENU
  1
.
  9
$ELEVATION
 40
0.0
  9
$PELEVATION
 40
0.0
  9
$THICKNESS
 40
0.0
  9
$LIMCHECK
 70
     0
  9
$CHAMFERA
 40
0.5
  9
$CHAMFERB
 40
0.5
  9
$CHAMFERC
 40
1.0
  9
$CHAMFERD
 40
0.0
  9
$SKPOLY
 70
     0
  9
$TDCREATE
 40
2453963.430150475
  9
$TDUCREATE
 40
2453963.638483808
  9
$TDUPDATE
 40
2454183.558687164
  9
$TDUUPDATE
 40
2454183.767020498
  9
$TDINDWG
 40
3.0677228009
  9
$TDUSRTIMER
 40
3.0677226157
  9
$USRTIMER
 70
     1
  9
$ANGBASE
 50
0.0
  9
$ANGDIR
 70
     0
  9
$PDMODE
 70
    33
  9
$PDSIZE
 40
0.016
  9
$PLINEWID
 40
0.0
  9
$SPLFRAME
 70
     0
  9
$SPLINETYPE
 70
     6
  9
$SPLINESEGS
 70
     8
  9
$HANDSEED
  5
EB5
  9
$SURFTAB1
 70
     6
  9
$SURFTAB2
 70
     6
  9
$SURFTYPE
 70
     6
  9
$SURFU
 70
     6
  9
$SURFV
 70
     6
  9
$UCSBASE
  2

  9
$UCSNAME
  2

  9
$UCSORG
 10
0.0
 20
0.0
 30
0.0
  9
$UCSXDIR
 10
1.0
 20
0.0
 30
0.0
  9
$UCSYDIR
 10
0.0
 20
1.0
 30
0.0
  9
$UCSORTHOREF
  2

  9
$UCSORTHOVIEW
 70
     0
  9
$UCSORGTOP
 10
0.0
 20
0.0
 30
0.0
  9
$UCSORGBOTTOM
 10
0.0
 20
0.0
 30
0.0
  9
$UCSORGLEFT
 10
0.0
 20
0.0
 30
0.0
  9
$UCSORGRIGHT
 10
0.0
 20
0.0
 30
0.0
  9
$UCSORGFRONT
 10
0.0
 20
0.0
 30
0.0
  9
$UCSORGBACK
 10
0.0
 20
0.0
 30
0.0
  9
$PUCSBASE
  2

  9
$PUCSNAME
  2

  9
$PUCSORG
 10
0.0
 20
0.0
 30
0.0
  9
$PUCSXDIR
 10
1.0
 20
0.0
 30
0.0
  9
$PUCSYDIR
 10
0.0
 20
1.0
 30
0.0
  9
$PUCSORTHOREF
  2

  9
$PUCSORTHOVIEW
 70
     0
  9
$PUCSORGTOP
 10
0.0
 20
0.0
 30
0.0
  9
$PUCSORGBOTTOM
 10
0.0
 20
0.0
 30
0.0
  9
$PUCSORGLEFT
 10
0.0
 20
0.0
 30
0.0
  9
$PUCSORGRIGHT
 10
0.0
 20
0.0
 30
0.0
  9
$PUCSORGFRONT
 10
0.0
 20
0.0
 30
0.0
  9
$PUCSORGBACK
 10
0.0
 20
0.0
 30
0.0
  9
$USERI1
 70
     0
  9
$USERI2
 70
     0
  9
$USERI3
 70
     0
  9
$USERI4
 70
     0
  9
$USERI5
 70
     0
  9
$USERR1
 40
24.0
  9
$USERR2
 40
0.0
  9
$USERR3
 40
22.0
  9
$USERR4
 40
0.0
  9
$USERR5
 40
0.0
  9
$WORLDVIEW
 70
     1
  9
$SHADEDGE
 70
     3
  9
$SHADEDIF
 70
    70
  9
$TILEMODE
 70
     1
  9
$MAXACTVP
 70
    64
  9
$PINSBASE
 10
0.0
 20
0.0
 30
0.0
  9
$PLIMCHECK
 70
     0
  9
$PEXTMIN
 10
0.1638280817378204
 20
0.1427245921142595
 30
0.0
  9
$PEXTMAX
 10
7.923815681737822
 20
10.46520809211426
 30
0.0
  9
$PLIMMIN
 10
-0.2061782327781884
 20
-0.196033903813565
  9
$PLIMMAX
 10
8.293821526925919
 20
10.80396585589054
  9
$UNITMODE
 70
     0
  9
$VISRETAIN
 70
     1
  9
$PLINEGEN
 70
     0
  9
$PSLTSCALE
 70
     1
  9
$TREEDEPTH
 70
  3020
  9
$CMLSTYLE
  2
Standard
  9
$CMLJUST
 70
     0
  9
$CMLSCALE
 40
1.0
  9
$PROXYGRAPHICS
 70
     1
  9
$MEASUREMENT
 70
     0
  9
$CELWEIGHT
370
    -1
  9
$ENDCAPS
280
     0
  9
$JOINSTYLE
280
     0
  9
$LWDISPLAY
290
     0
  9
$INSUNITS
 70
     1
  9
$HYPERLINKBASE
  1

  9
$STYLESHEET
  1

  9
$XEDIT
290
     1
  9
$CEPSNTYPE
380
     0
  9
$PSTYLEMODE
290
     1
  9
$FINGERPRINTGUID
  2
{FDEAD576-A652-11D2-9A35-0060089B3A3F}
  9
$VERSIONGUID
  2
{CA227331-A559-44B0-B115-4A2AB0386BE3}
  9
$EXTNAMES
290
     1
  9
$PSVPSCALE
 40
0.0
  9
$OLESTARTUP
290
     0
  0
ENDSEC
  0
SECTION
  2
CLASSES
  0
CLASS
  1
ACDBDICTIONARYWDFLT
  2
AcDbDictionaryWithDefault
  3
ObjectDBX Classes
 90
        0
280
     0
281
     0
  0
CLASS
  1
ACDBPLACEHOLDER
  2
AcDbPlaceHolder
  3
ObjectDBX Classes
 90
        0
280
     0
281
     0
  0
CLASS
  1
LAYOUT
  2
AcDbLayout
  3
ObjectDBX Classes
 90
        0
280
     0
281
     0
  0
CLASS
  1
PLOTSETTINGS
  2
AcDbPlotSettings
  3
ObjectDBX Classes
 90
    32768
280
     0
281
     0
  0
CLASS
  1
AMLOADER
  2
AMLoader
  3
AMAcad
 90
    32768
280
     1
281
     0
  0
CLASS
  1
DICTIONARYVAR
  2
AcDbDictionaryVar
  3
ObjectDBX Classes
 90
        0
280
     0
281
     0
  0
CLASS
  1
SORTENTSTABLE
  2
AcDbSortentsTable
  3
ObjectDBX Classes
 90
        0
280
     0
281
     0
  0
CLASS
  1
DIMASSOC
  2
AcDbDimAssoc
  3
"AcDbDimAssoc|Product Desc:     AcDim ARX App For Dimension|Company:          Autodesk, Inc.|WEB Address:      www.autodesk.com"
 90
    32768
280
     0
281
     0
  0
ENDSEC
  0
SECTION
  2
TABLES
  0
TABLE
  2
VPORT
  5
20
330
0
100
AcDbSymbolTable
 70
     3
  0
VPORT
  5
EAD
330
20
100
AcDbSymbolTableRecord
100
AcDbViewportTableRecord
  2
*Active
 70
     0
 10
0.0
 20
0.0
 11
1.0
 21
1.0
 12
14.12272590890834
 22
19.61733877686646
 13
0.0
 23
0.0
 14
0.0625
 24
0.0625
 15
0.5
 25
0.5
 16
0.0
 26
0.0
 36
1.0
 17
0.0
 27
0.0
 37
0.0
 40
21.07810371357134
 41
1.459060402684563
 42
50.0
 43
0.0
 44
0.0
 50
0.0
 51
0.0
 71
     0
 72
  5000
 73
     1
 74
     0
 75
     0
 76
     0
 77
     0
 78
     0
281
     0
 65
     1
110
0.0
120
0.0
130
0.0
111
1.0
121
0.0
131
0.0
112
0.0
122
1.0
132
0.0
 79
     0
146
0.0
  0
ENDTAB
  0
TABLE
  2
LTYPE
  5
1B
330
0
100
AcDbSymbolTable
 70
     1
  0
LTYPE
  5
1C
330
1B
100
AcDbSymbolTableRecord
100
AcDbLinetypeTableRecord
  2
ByBlock
 70
     0
  3

 72
    65
 73
     0
 40
0.0
  0
LTYPE
  5
1D
330
1B
100
AcDbSymbolTableRecord
100
AcDbLinetypeTableRecord
  2
ByLayer
 70
     0
  3

 72
    65
 73
     0
 40
0.0
  0
LTYPE
  5
A
330
1B
100
AcDbSymbolTableRecord
100
AcDbLinetypeTableRecord
  2
Continuous
 70
     0
  3
Solid line
 72
    65
 73
     0
 40
0.0
  0
ENDTAB
  0
TABLE
  2
LAYER
  5
13
102
{ACAD_XDICTIONARY
360
14
102
}
330
0
100
AcDbSymbolTable
 70
    17
  0
LAYER
  5
5
330
13
100
AcDbSymbolTableRecord
100
AcDbLayerTableRecord
  2
0
 70
     0
 62
     7
  6
Continuous
370
    -3
390
6
  0
LAYER
  5
1AB
330
13
100
AcDbSymbolTableRecord
100
AcDbLayerTableRecord
  2
Pel_Wall
 70
     0
 62
     9
  6
Continuous
370
    -3
390
6
  0
LAYER
  5
8A
330
13
100
AcDbSymbolTableRecord
100
AcDbLayerTableRecord
  2
Pel_CS-IG
 70
     0
 62
     2
  6
Continuous
370
    -3
390
6
  0
LAYER
  5
118
330
13
100
AcDbSymbolTableRecord
100
AcDbLayerTableRecord
  2
Pel_CS-Hardware
 70
     0
 62
    53
  6
Continuous
370
    -3
390
6
  0
LAYER
  5
6C
330
13
100
AcDbSymbolTableRecord
100
AcDbLayerTableRecord
  2
Pel_CS-Sealant
 70
     0
 62
    40
  6
Continuous
370
    -3
390
6
  0
LAYER
  5
7F
330
13
100
AcDbSymbolTableRecord
100
AcDbLayerTableRecord
  2
Pel_CS-Cross Section
 70
     0
 62
     7
  6
Continuous
370
    -3
390
6
  0
LAYER
  5
222
330
13
100
AcDbSymbolTableRecord
100
AcDbLayerTableRecord
  2
Pel_Points
 70
     0
 62
     7
  6
Continuous
290
     0
370
    -3
390
6
  0
LAYER
  5
3A
330
13
100
AcDbSymbolTableRecord
100
AcDbLayerTableRecord
  2
Pel_CS-Weatherstrip
 70
     0
 62
     8
  6
Continuous
370
    -3
390
6
  0
LAYER
  5
11B
330
13
100
AcDbSymbolTableRecord
100
AcDbLayerTableRecord
  2
Pel_CS-Reinforcement
 70
     0
 62
   150
  6
Continuous
370
    -3
390
6
  0
LAYER
  5
1F8
330
13
100
AcDbSymbolTableRecord
100
AcDbLayerTableRecord
  2
Pel_wal
 70
     0
 62
     7
  6
Continuous
370
    -3
390
6
  0
LAYER
  5
6E
330
13
100
AcDbSymbolTableRecord
100
AcDbLayerTableRecord
  2
Pel_CS-Points
 70
     0
 62
     7
  6
Continuous
290
     0
370
    -3
390
6
  0
LAYER
  5
3E
330
13
100
AcDbSymbolTableRecord
100
AcDbLayerTableRecord
  2
Pel_CS-Clad
 70
     0
 62
    63
  6
Continuous
370
    -3
390
6
  0
LAYER
  5
7D
330
13
100
AcDbSymbolTableRecord
100
AcDbLayerTableRecord
  2
Pel_CS-Fill
 70
     0
 62
     9
  6
Continuous
370
    -3
390
6
  0
LAYER
  5
E1C
330
13
100
AcDbSymbolTableRecord
100
AcDbLayerTableRecord
  2
Defpoints
 70
     0
 62
     7
  6
Continuous
290
     0
370
    -3
390
6
  0
ENDTAB
  0
TABLE
  2
STYLE
  5
17
330
0
100
AcDbSymbolTable
 70
     3
  0
STYLE
  5
18
330
17
100
AcDbSymbolTableRecord
100
AcDbTextStyleTableRecord
  2
Standard
 70
     0
 40
0.0
 41
1.0
 50
0.0
 71
     0
 42
1.9375
  3
ARIAL.TTF
  4

1001
ACAD
1000
Arial
1071
       34
  0
STYLE
  5
3A0
330
17
100
AcDbSymbolTableRecord
100
AcDbTextStyleTableRecord
  2
Arial
 70
     0
 40
0.0
 41
1.0
 50
0.0
 71
     0
 42
0.2
  3
ARIAL.TTF
  4

1001
ACAD
1000
Arial
1071
       34
  0
STYLE
  5
25
330
17
100
AcDbSymbolTableRecord
100
AcDbTextStyleTableRecord
  2
ARCHQUIK
 70
     0
 40
0.0
 41
1.0
 50
0.0
 71
     0
 42
1.9375
  3
archquik.shx
  4

  0
ENDTAB
  0
TABLE
  2
VIEW
  5
1E
330
0
100
AcDbSymbolTable
 70
     0
  0
ENDTAB
  0
TABLE
  2
UCS
  5
1F
330
0
100
AcDbSymbolTable
 70
     0
  0
ENDTAB
  0
TABLE
  2
APPID
  5
22
330
0
100
AcDbSymbolTable
 70
     2
  0
APPID
  5
19
330
22
100
AcDbSymbolTableRecord
100
AcDbRegAppTableRecord
  2
ACAD
 70
     0
  0
APPID
  5
9
330
22
100
AcDbSymbolTableRecord
100
AcDbRegAppTableRecord
  2
ADE
 70
     0
  0
ENDTAB
  0
TABLE
  2
DIMSTYLE
  5
23
330
0
100
AcDbSymbolTable
 70
     2
100
AcDbDimStyleTable
 71
     1
340
2A
  0
DIMSTYLE
105
2A
102
{ACAD_REACTORS
330
A41
330
A42
330
A43
330
A44
330
A45
330
A32
330
A33
330
A34
330
DE0
102
}
330
23
100
AcDbSymbolTableRecord
100
AcDbDimStyleTableRecord
  2
3 inch Scale
 70
     0
  3
"\X
 41
0.5
 42
0.5
 43
0.2
 44
0.25
 73
     0
 74
     0
 77
     1
 78
    10
140
0.28
146
0.75
147
0.125
170
     1
171
     0
176
   256
177
   256
178
   255
179
     3
274
     0
276
     2
277
     5
279
     2
340
18
371
    -1
372
    -1
  0
DIMSTYLE
105
32
330
23
100
AcDbSymbolTableRecord
100
AcDbDimStyleTableRecord
  2
STANDARD
 70
     0
 40
0.7
 41
0.12
 44
0.1
 78
     4
140
0.12
141
0.125
271
     3
272
     3
340
18
  0
ENDTAB
  0
TABLE
  2
BLOCK_RECORD
  5
1
330
0
100
AcDbSymbolTable
 70
    25
  0
BLOCK_RECORD
  5
2
102
{ACAD_XDICTIONARY
360
3
102
}
330
1
100
AcDbSymbolTableRecord
100
AcDbBlockTableRecord
  2
*Model_Space
340
C
  0
BLOCK_RECORD
  5
E
102
{ACAD_XDICTIONARY
360
F
102
}
330
1
100
AcDbSymbolTableRecord
100
AcDbBlockTableRecord
  2
*Paper_Space
340
12
  0
BLOCK_RECORD
  5
32F
330
1
100
AcDbSymbolTableRecord
100
AcDbBlockTableRecord
  2
_None
340
0
  0
BLOCK_RECORD
  5
1BB
102
{ACAD_XDICTIONARY
360
1BC
102
}
330
1
100
AcDbSymbolTableRecord
100
AcDbBlockTableRecord
  2
2x
340
0
102
{BLKREFS
331
2AD
331
2AE
331
1BA
102
}
  0
BLOCK_RECORD
  5
1CA
102
{ACAD_XDICTIONARY
360
1CB
102
}
330
1
100
AcDbSymbolTableRecord
100
AcDbBlockTableRecord
  2
Insul1
340
0
102
{BLKREFS
331
2AF
331
1C9
102
}
  0
BLOCK_RECORD
  5
24A
330
1
100
AcDbSymbolTableRecord
100
AcDbBlockTableRecord
  2
*X3
340
0
102
{BLKREFS
331
249
102
}
  0
BLOCK_RECORD
  5
245
102
{ACAD_XDICTIONARY
360
246
102
}
330
1
100
AcDbSymbolTableRecord
100
AcDbBlockTableRecord
  2
ACC31D0 Colonial
340
0
102
{BLKREFS
331
297
331
286
331
244
102
}
  0
BLOCK_RECORD
  5
2D0
102
{ACAD_XDICTIONARY
360
2D1
102
}
330
1
100
AcDbSymbolTableRecord
100
AcDbBlockTableRecord
  2
10headvinylsiding1
340
0
102
{BLKREFS
331
2CF
102
}
  0
BLOCK_RECORD
  5
299
102
{ACAD_XDICTIONARY
360
29A
102
}
330
1
100
AcDbSymbolTableRecord
100
AcDbBlockTableRecord
  2
10jambvinylsiding
340
0
102
{BLKREFS
331
298
102
}
  0
BLOCK_RECORD
  5
227
102
{ACAD_XDICTIONARY
360
228
102
}
330
1
100
AcDbSymbolTableRecord
100
AcDbBlockTableRecord
  2
RECTANG
340
0
102
{BLKREFS
331
226
102
}
  0
BLOCK_RECORD
  5
224
330
1
100
AcDbSymbolTableRecord
100
AcDbBlockTableRecord
  2
Shim
340
0
102
{BLKREFS
331
223
331
2CD
102
}
  0
BLOCK_RECORD
  5
1F9
102
{ACAD_XDICTIONARY
360
1FA
102
}
330
1
100
AcDbSymbolTableRecord
100
AcDbBlockTableRecord
  2
.25foam9
340
0
102
{BLKREFS
331
1F7
331
32A
331
2CC
102
}
  0
BLOCK_RECORD
  5
272
102
{ACAD_XDICTIONARY
360
273
102
}
330
1
100
AcDbSymbolTableRecord
100
AcDbBlockTableRecord
  2
clip
340
0
102
{BLKREFS
331
28E
331
285
331
271
102
}
  0
BLOCK_RECORD
  5
1A6
102
{ACAD_XDICTIONARY
360
1A7
102
}
330
1
100
AcDbSymbolTableRecord
100
AcDbBlockTableRecord
  2
10sillvinyl
340
0
102
{BLKREFS
331
1A5
102
}
  0
BLOCK_RECORD
  5
16A
102
{ACAD_XDICTIONARY
360
16B
102
}
330
1
100
AcDbSymbolTableRecord
100
AcDbBlockTableRecord
  2
TSE10SHHF-J
340
0
102
{BLKREFS
331
169
102
}
  0
BLOCK_RECORD
  5
D6
102
{ACAD_XDICTIONARY
360
D7
102
}
330
1
100
AcDbSymbolTableRecord
100
AcDbBlockTableRecord
  2
TSE10SHLJV-J
340
0
102
{BLKREFS
331
D5
102
}
  0
BLOCK_RECORD
  5
C3
102
{ACAD_XDICTIONARY
360
C4
102
}
330
1
100
AcDbSymbolTableRecord
100
AcDbBlockTableRecord
  2
A$C708E12FD
340
0
102
{BLKREFS
331
864
102
}
  0
BLOCK_RECORD
  5
35
102
{ACAD_XDICTIONARY
360
36
102
}
330
1
100
AcDbSymbolTableRecord
100
AcDbBlockTableRecord
  2
TSE10SHSV-J
340
0
102
{BLKREFS
331
34
102
}
  0
BLOCK_RECORD
  5
A6A
330
1
100
AcDbSymbolTableRecord
100
AcDbBlockTableRecord
  2
*D16
340
0
  0
BLOCK_RECORD
  5
A77
330
1
100
AcDbSymbolTableRecord
100
AcDbBlockTableRecord
  2
*D17
340
0
  0
BLOCK_RECORD
  5
A81
330
1
100
AcDbSymbolTableRecord
100
AcDbBlockTableRecord
  2
*D18
340
0
  0
BLOCK_RECORD
  5
A8B
330
1
100
AcDbSymbolTableRecord
100
AcDbBlockTableRecord
  2
*D19
340
0
  0
BLOCK_RECORD
  5
A95
330
1
100
AcDbSymbolTableRecord
100
AcDbBlockTableRecord
  2
*D20
340
0
  0
BLOCK_RECORD
  5
A9F
330
1
100
AcDbSymbolTableRecord
100
AcDbBlockTableRecord
  2
*D21
340
0
  0
BLOCK_RECORD
  5
AA9
330
1
100
AcDbSymbolTableRecord
100
AcDbBlockTableRecord
  2
*D22
340
0
  0
BLOCK_RECORD
  5
AB3
330
1
100
AcDbSymbolTableRecord
100
AcDbBlockTableRecord
  2
*D23
340
0
  0
BLOCK_RECORD
  5
DE1
330
1
100
AcDbSymbolTableRecord
100
AcDbBlockTableRecord
  2
*D24
340
0
  0
ENDTAB
  0
ENDSEC
  0
SECTION
  2
BLOCKS
  0
BLOCK
  5
4
330
2
100
AcDbEntity
  8
0
100
AcDbBlockBegin
  2
*Model_Space
 70
     0
 10
0.0
 20
0.0
 30
0.0
  3
*Model_Space
  1

  0
ENDBLK
  5
B
330
2
100
AcDbEntity
  8
0
100
AcDbBlockEnd
  0
BLOCK
  5
10
330
E
100
AcDbEntity
 67
     1
  8
0
100
AcDbBlockBegin
  2
*Paper_Space
 70
     0
 10
0.0
 20
0.0
 30
0.0
  3
*Paper_Space
  1

  0
ENDBLK
  5
11
330
E
100
AcDbEntity
 67
     1
  8
0
100
AcDbBlockEnd
  0
BLOCK
  5
330
330
32F
100
AcDbEntity
  8
0
100
AcDbBlockBegin
  2
_None
 70
     0
 10
0.0
 20
0.0
 30
0.0
  3
_None
  1

  0
ENDBLK
  5
331
330
32F
100
AcDbEntity
  8
0
100
AcDbBlockEnd
  0
BLOCK
  5
1BE
330
1BB
100
AcDbEntity
  8
0
100
AcDbBlockBegin
  2
2x
 70
     0
 10
0.0
 20
0.0
 30
0.0
  3
2x
  1

  0
LINE
  5
1BF
330
1BB
100
AcDbEntity
  8
Pel_Wall
100
AcDbLine
 10
0.0
 20
0.0
 30
0.0
 11
1.0
 21
1.0
 31
0.0
  0
LINE
  5
1C0
330
1BB
100
AcDbEntity
  8
Pel_Wall
100
AcDbLine
 10
1.0
 20
0.0
 30
0.0
 11
0.0
 21
1.0
 31
0.0
  0
POLYLINE
  5
1C1
330
1BB
100
AcDbEntity
  8
Pel_Wall
100
AcDb2dPolyline
 66
     1
 10
0.0
 20
0.0
 30
0.0
 70
     1
  0
VERTEX
  5
561
330
1C1
100
AcDbEntity
  8
Pel_Wall
100
AcDbVertex
100
AcDb2dVertex
 10
0.0
 20
0.0
 30
0.0
  0
VERTEX
  5
562
330
1C1
100
AcDbEntity
  8
Pel_Wall
100
AcDbVertex
100
AcDb2dVertex
 10
1.0
 20
0.0
 30
0.0
  0
VERTEX
  5
563
330
1C1
100
AcDbEntity
  8
Pel_Wall
100
AcDbVertex
100
AcDb2dVertex
 10
1.0
 20
1.0
 30
0.0
  0
VERTEX
  5
564
330
1C1
100
AcDbEntity
  8
Pel_Wall
100
AcDbVertex
100
AcDb2dVertex
 10
0.0
 20
1.0
 30
0.0
  0
SEQEND
  5
565
330
1C1
100
AcDbEntity
  8
Pel_Wall
  0
ENDBLK
  5
1C7
330
1BB
100
AcDbEntity
  8
0
100
AcDbBlockEnd
  0
BLOCK
  5
1CD
330
1CA
100
AcDbEntity
  8
0
100
AcDbBlockBegin
  2
Insul1
 70
     0
 10
0.0
 20
0.0
 30
0.0
  3
Insul1
  1

  0
POLYLINE
  5
1CE
330
1CA
100
AcDbEntity
  8
Pel_Wall
100
AcDb2dPolyline
 66
     1
 10
0.0
 20
0.0
 30
0.0
  0
VERTEX
  5
1CF
330
1CE
100
AcDbEntity
  8
Pel_Wall
100
AcDbVertex
100
AcDb2dVertex
 10
0.0
 20
1.0
 30
0.0
 42
0.6166658403406798
  0
VERTEX
  5
1D0
330
1CE
100
AcDbEntity
  8
Pel_Wall
100
AcDbVertex
100
AcDb2dVertex
 10
0.3992063386936024
 20
0.7994072072739158
 30
0.0
  0
VERTEX
  5
1D1
330
1CE
100
AcDbEntity
  8
Pel_Wall
100
AcDbVertex
100
AcDb2dVertex
 10
0.6000015638841063
 20
0.9500011729035229
 30
0.0
 42
-1.999090727876019
  0
VERTEX
  5
1D2
330
1CE
100
AcDbEntity
  8
Pel_Wall
100
AcDbVertex
100
AcDb2dVertex
 10
0.6001440114443853
 20
0.5498920723858767
 30
0.0
  0
VERTEX
  5
1D3
330
1CE
100
AcDbEntity
  8
Pel_Wall
100
AcDbVertex
100
AcDb2dVertex
 10
0.4005222086914984
 20
0.6996072761465229
 30
0.0
 42
1.99179774169564
  0
VERTEX
  5
1D4
330
1CE
100
AcDbEntity
  8
Pel_Wall
100
AcDbVertex
100
AcDb2dVertex
 10
0.3992063386936024
 20
0.2994072072739158
 30
0.0
  0
VERTEX
  5
1D5
330
1CE
100
AcDbEntity
  8
Pel_Wall
100
AcDbVertex
100
AcDb2dVertex
 10
0.6000015638841063
 20
0.450001172903523
 30
0.0
 42
-1.999090727876017
  0
VERTEX
  5
1D6
330
1CE
100
AcDbEntity
  8
Pel_Wall
100
AcDbVertex
100
AcDb2dVertex
 10
0.6001440114443853
 20
0.0498920723858767
 30
0.0
  0
VERTEX
  5
1D7
330
1CE
100
AcDbEntity
  8
Pel_Wall
100
AcDbVertex
100
AcDb2dVertex
 10
0.4005222086914984
 20
0.1996072761465228
 30
0.0
 42
0.6171288319215243
  0
VERTEX
  5
1D8
330
1CE
100
AcDbEntity
  8
Pel_Wall
100
AcDbVertex
100
AcDb2dVertex
 10
0.0
 20
0.0
 30
0.0
 42
1.002620720669957
  0
SEQEND
  5
1D9
330
1CE
100
AcDbEntity
  8
Pel_Wall
  0
ENDBLK
  5
1DA
330
1CA
100
AcDbEntity
  8
0
100
AcDbBlockEnd
  0
BLOCK
  5
24B
330
24A
100
AcDbEntity
  8
0
100
AcDbBlockBegin
  2
*X3
 70
     1
 10
0.0
 20
0.0
 30
0.0
  3
*X3
  1

  0
LINE
  5
24C
330
24A
100
AcDbEntity
  8
0
 62
     0
100
AcDbLine
 10
0.4406854249492381
 20
0.125
 30
0.0
 11
0.2828427124746189
 21
0.2828427124746191
 31
0.0
  0
LINE
  5
24D
330
24A
100
AcDbEntity
  8
0
 62
     0
100
AcDbLine
 10
0.6830613898308695
 20
1.013994885016844
 30
0.0
 11
0.2828427124746191
 21
1.414213562373095
 31
0.0
  0
LINE
  5
24E
330
24A
100
AcDbEntity
  8
0
 62
     0
100
AcDbLine
 10
0.2828426492867644
 20
0.2828426606133703
 30
0.0
 11
0.0470007505934556
 21
0.9903683568135722
 31
0.0
  0
LINE
  5
24F
330
24A
100
AcDbEntity
  8
0
 62
     0
100
AcDbLine
 10
0.0027745262448629
 20
1.123047029881905
 30
0.0
 11
0.000000603657673
 21
1.131368797644889
 31
0.0
  0
LINE
  5
250
330
24A
100
AcDbEntity
  8
0
 62
     0
100
AcDbLine
 10
0.2828425860989089
 20
1.4142134586506
 30
0.0
 11
0.2150840799441012
 21
1.617488977149578
 31
0.0
  0
LINE
  5
251
330
24A
100
AcDbEntity
  8
0
 62
     0
100
AcDbLine
 10
0.2059361196546267
 20
-0.6178083589246591
 30
0.0
 11
0.0000000000379738
 21
0.0000000000303237
 31
0.0
  0
ENDBLK
  5
252
330
24A
100
AcDbEntity
  8
0
100
AcDbBlockEnd
  0
BLOCK
  5
248
330
245
100
AcDbEntity
  8
0
100
AcDbBlockBegin
  2
ACC31D0 Colonial
 70
     0
 10
0.0
 20
0.0
 30
0.0
  3
ACC31D0 Colonial
  1

  0
INSERT
  5
249
330
245
100
AcDbEntity
  8
0
 62
     2
100
AcDbBlockReference
  2
*X3
 10
0.0
 20
0.625
 30
0.0
1001
ACAD
1000
HATCH
1002
{
1070
    16
1000
WOOD
1040
0.2
1040
0.7853981633974483
1002
}
  0
POLYLINE
  5
253
330
245
100
AcDbEntity
  8
0
  6
Continuous
 62
     3
100
AcDb2dPolyline
 66
     1
 10
0.0
 20
0.0
 30
0.0
 70
     1
  0
VERTEX
  5
254
330
253
100
AcDbEntity
  8
0
  6
Continuous
 62
     3
100
AcDbVertex
100
AcDb2dVertex
 10
0.75
 20
2.223809
 30
0.0
  0
VERTEX
  5
255
330
253
100
AcDbEntity
  8
0
  6
Continuous
 62
     3
100
AcDbVertex
100
AcDb2dVertex
 10
0.75
 20
1.75
 30
0.0
  0
VERTEX
  5
256
330
253
100
AcDbEntity
  8
0
  6
Continuous
 62
     3
100
AcDbVertex
100
AcDb2dVertex
 10
0.6879999999999999
 20
1.75
 30
0.0
 42
-0.0714559852478829
  0
VERTEX
  5
257
330
253
100
AcDbEntity
  8
0
  6
Continuous
 62
     3
100
AcDbVertex
100
AcDb2dVertex
 10
0.6374578713513498
 20
1.398146600338594
 30
0.0
  0
VERTEX
  5
258
330
253
100
AcDbEntity
  8
0
  6
Continuous
 62
     3
100
AcDbVertex
100
AcDb2dVertex
 10
0.5505421286486503
 20
1.101853399661404
 30
0.0
 42
0.0714559852478834
  0
VERTEX
  5
259
330
253
100
AcDbEntity
  8
0
  6
Continuous
 62
     3
100
AcDbVertex
100
AcDb2dVertex
 10
0.5
 20
0.7499999999999999
 30
0.0
  0
VERTEX
  5
25A
330
253
100
AcDbEntity
  8
0
  6
Continuous
 62
     3
100
AcDbVertex
100
AcDb2dVertex
 10
0.4370000000000001
 20
0.75
 30
0.0
  0
VERTEX
  5
25B
330
253
100
AcDbEntity
  8
0
  6
Continuous
 62
     3
100
AcDbVertex
100
AcDb2dVertex
 10
0.4370000000000001
 20
0.3439999999999999
 30
0.0
  0
VERTEX
  5
25C
330
253
100
AcDbEntity
  8
0
  6
Continuous
 62
     3
100
AcDbVertex
100
AcDb2dVertex
 10
0.375
 20
0.3439999999999999
 30
0.0
 42
-0.1399088654239762
  0
VERTEX
  5
25D
330
253
100
AcDbEntity
  8
0
  6
Continuous
 62
     3
100
AcDbVertex
100
AcDb2dVertex
 10
0.3280000006036879
 20
0.1793214755818277
 30
0.0
 42
0.1399089885617641
  0
VERTEX
  5
25E
330
253
100
AcDbEntity
  8
0
  6
Continuous
 62
     3
100
AcDbVertex
100
AcDb2dVertex
 10
0.281
 20
0.0146430000000001
 30
0.0
  0
VERTEX
  5
25F
330
253
100
AcDbEntity
  8
0
  6
Continuous
 62
     3
100
AcDbVertex
100
AcDb2dVertex
 10
0.281
 20
0.009813
 30
0.0
  0
VERTEX
  5
260
330
253
100
AcDbEntity
  8
0
  6
Continuous
 62
     3
100
AcDbVertex
100
AcDb2dVertex
 10
0.0
 20
0.0
 30
0.0
  0
VERTEX
  5
261
330
253
100
AcDbEntity
  8
0
  6
Continuous
 62
     3
100
AcDbVertex
100
AcDb2dVertex
 10
0.0
 20
0.625
 30
0.0
 42
0.2280720461942016
  0
VERTEX
  5
262
330
253
100
AcDbEntity
  8
0
  6
Continuous
 62
     3
100
AcDbVertex
100
AcDb2dVertex
 10
0.047
 20
0.7226780000000001
 30
0.0
  0
VERTEX
  5
263
330
253
100
AcDbEntity
  8
0
  6
Continuous
 62
     3
100
AcDbVertex
100
AcDb2dVertex
 10
0.04700078348839
 20
1.654490721224876
 30
0.0
 42
0.2240766004830583
  0
VERTEX
  5
264
330
253
100
AcDbEntity
  8
0
  6
Continuous
 62
     3
100
AcDbVertex
100
AcDb2dVertex
 10
0.0000006110440668
 20
1.750328694738355
 30
0.0
  0
VERTEX
  5
265
330
253
100
AcDbEntity
  8
0
  6
Continuous
 62
     3
100
AcDbVertex
100
AcDb2dVertex
 10
0.0
 20
2.25
 30
0.0
  0
VERTEX
  5
266
330
253
100
AcDbEntity
  8
0
  6
Continuous
 62
     3
100
AcDbVertex
100
AcDb2dVertex
 10
0.75
 20
2.223809
 30
0.0
  0
SEQEND
  5
267
330
253
100
AcDbEntity
  8
0
  6
Continuous
 62
     3
  0
ENDBLK
  5
268
330
245
100
AcDbEntity
  8
0
100
AcDbBlockEnd
  0
BLOCK
  5
2D3
330
2D0
100
AcDbEntity
  8
0
100
AcDbBlockBegin
  2
10headvinylsiding1
 70
     0
 10
0.0
 20
0.0
 30
0.0
  3
10headvinylsiding1
  1

  0
POLYLINE
  5
2D4
102
{ACAD_REACTORS
330
2DA
102
}
330
2D0
100
AcDbEntity
  8
Pel_Wall
100
AcDb2dPolyline
 66
     1
 10
0.0
 20
0.0
 30
0.0
 70
     1
  0
VERTEX
  5
687
330
2D4
100
AcDbEntity
  8
Pel_Wall
100
AcDbVertex
100
AcDb2dVertex
 10
1.175687396715375
 20
0.25
 30
0.0
  0
VERTEX
  5
688
330
2D4
100
AcDbEntity
  8
Pel_Wall
100
AcDbVertex
100
AcDb2dVertex
 10
1.675687396715382
 20
0.25
 30
0.0
  0
VERTEX
  5
689
330
2D4
100
AcDbEntity
  8
Pel_Wall
100
AcDbVertex
100
AcDb2dVertex
 10
1.675687396715382
 20
4.213768087480623
 30
0.0
  0
VERTEX
  5
68A
330
2D4
100
AcDbEntity
  8
Pel_Wall
100
AcDbVertex
100
AcDb2dVertex
 10
1.175687396715375
 20
4.213768087480623
 30
0.0
  0
SEQEND
  5
68B
330
2D4
100
AcDbEntity
  8
Pel_Wall
  0
HATCH
  5
2DA
330
2D0
100
AcDbEntity
  8
Pel_Wall
100
AcDbHatch
 10
0.0
 20
0.0
 30
0.0
210
0.0
220
0.0
230
1.0
  2
PLY
 70
     0
 71
     1
 91
        1
 92
        1
 93
        4
 72
     1
 10
1.175687396715375
 20
0.25
 11
1.675687396715382
 21
0.25
 72
     1
 10
1.675687396715382
 20
0.25
 11
1.675687396715382
 21
4.213768087480623
 72
     1
 10
1.675687396715382
 20
4.213768087480623
 11
1.175687396715375
 21
4.213768087480623
 72
     1
 10
1.175687396715375
 20
4.213768087480623
 11
1.175687396715375
 21
0.25
 97
        1
330
2D4
 75
     0
 76
     1
 52
90.0
 41
1.0
 77
     0
 78
     2
 53
90.0
 43
-0.3243126032846249
 44
-0.125
 45
-0.125
 46
0.0
 79
     0
 53
135.0
 43
-0.1993126032846249
 44
-0.125
 45
-0.3535533905932738
 46
-0.3535533905932737
 79
     0
 98
        1
 10
-0.1993126032846249
 20
-0.125
  0
POLYLINE
  5
2DB
102
{ACAD_REACTORS
330
2E1
102
}
330
2D0
100
AcDbEntity
  8
Pel_Wall
100
AcDb2dPolyline
 66
     1
 10
0.0
 20
0.0
 30
0.0
 70
     1
  0
VERTEX
  5
68E
330
2DB
100
AcDbEntity
  8
Pel_Wall
100
AcDbVertex
100
AcDb2dVertex
 10
3.175687396715353
 20
0.25
 30
0.0
  0
VERTEX
  5
68F
330
2DB
100
AcDbEntity
  8
Pel_Wall
100
AcDbVertex
100
AcDb2dVertex
 10
3.675687396715353
 20
0.25
 30
0.0
  0
VERTEX
  5
690
330
2DB
100
AcDbEntity
  8
Pel_Wall
100
AcDbVertex
100
AcDb2dVertex
 10
3.675687396715382
 20
4.213768087480623
 30
0.0
  0
VERTEX
  5
691
330
2DB
100
AcDbEntity
  8
Pel_Wall
100
AcDbVertex
100
AcDb2dVertex
 10
3.175687396715382
 20
4.213768087480623
 30
0.0
  0
SEQEND
  5
692
330
2DB
100
AcDbEntity
  8
Pel_Wall
  0
HATCH
  5
2E1
330
2D0
100
AcDbEntity
  8
Pel_Wall
100
AcDbHatch
 10
0.0
 20
0.0
 30
0.0
210
0.0
220
0.0
230
1.0
  2
PLY
 70
     0
 71
     1
 91
        1
 92
        1
 93
        4
 72
     1
 10
3.175687396715353
 20
0.25
 11
3.675687396715353
 21
0.25
 72
     1
 10
3.675687396715353
 20
0.25
 11
3.675687396715382
 21
4.213768087480623
 72
     1
 10
3.675687396715382
 20
4.213768087480623
 11
3.175687396715382
 21
4.213768087480623
 72
     1
 10
3.175687396715382
 20
4.213768087480623
 11
3.175687396715353
 21
0.25
 97
        1
330
2DB
 75
     0
 76
     1
 52
90.0
 41
1.0
 77
     0
 78
     2
 53
90.0
 43
-0.2618126032846249
 44
-0.125
 45
-0.125
 46
0.0
 79
     0
 53
135.0
 43
-0.1368126032846249
 44
-0.125
 45
-0.3535533905932738
 46
-0.3535533905932737
 79
     0
 98
        1
 10
-0.1368126032846249
 20
-0.125
  0
POLYLINE
  5
2E2
102
{ACAD_REACTORS
330
30C
102
}
330
2D0
100
AcDbEntity
  8
Pel_Wall
100
AcDb2dPolyline
 66
     1
 10
0.0
 20
0.0
 30
0.0
 70
     1
  0
VERTEX
  5
695
330
2E2
100
AcDbEntity
  8
Pel_Wall
100
AcDbVertex
100
AcDb2dVertex
 10
5.175687396715382
 20
4.213768087480623
 30
0.0
  0
VERTEX
  5
696
330
2E2
100
AcDbEntity
  8
Pel_Wall
100
AcDbVertex
100
AcDb2dVertex
 10
5.800687396715382
 20
4.213768087480623
 30
0.0
  0
VERTEX
  5
697
330
2E2
100
AcDbEntity
  8
Pel_Wall
100
AcDbVertex
100
AcDb2dVertex
 10
5.800687396715382
 20
0.25
 30
0.0
  0
VERTEX
  5
698
330
2E2
100
AcDbEntity
  8
Pel_Wall
100
AcDbVertex
100
AcDb2dVertex
 10
5.800687396715382
 20
0.25
 30
0.0
  0
VERTEX
  5
699
330
2E2
100
AcDbEntity
  8
Pel_Wall
100
AcDbVertex
100
AcDb2dVertex
 10
5.175687396715382
 20
0.25
 30
0.0
  0
VERTEX
  5
69A
330
2E2
100
AcDbEntity
  8
Pel_Wall
100
AcDbVertex
100
AcDb2dVertex
 10
5.175687396715382
 20
0.25
 30
0.0
  0
SEQEND
  5
69B
330
2E2
100
AcDbEntity
  8
Pel_Wall
  0
HATCH
  5
30C
330
2D0
100
AcDbEntity
  8
Pel_Wall
100
AcDbHatch
 10
0.0
 20
0.0
 30
0.0
210
0.0
220
0.0
230
1.0
  2
GYP
 70
     0
 71
     1
 91
        1
 92
        1
 93
        4
 72
     1
 10
5.175687396715382
 20
4.213768087480623
 11
5.800687396715382
 21
4.213768087480623
 72
     1
 10
5.800687396715382
 20
4.213768087480623
 11
5.800687396715382
 21
0.25
 72
     1
 10
5.800687396715382
 20
0.25
 11
5.175687396715382
 21
0.25
 72
     1
 10
5.175687396715382
 20
0.25
 11
5.175687396715382
 21
4.213768087480623
 97
        1
330
2E2
 75
     0
 76
     1
 52
0.0
 41
1.0
 77
     0
 78
     3
 53
0.0
 43
-16.77503770156201
 44
-27.76823191252117
 45
0.18
 46
0.5
 79
     2
 49
0.0
 49
-0.3
 53
30.0
 43
-16.74503770156201
 44
-27.64823191252117
 45
-0.094115427318801
 46
0.5230127018922194
 79
     2
 49
0.0
 49
-0.3
 53
60.0
 43
-16.71503770156201
 44
-27.58823191252117
 45
-0.3430127018922193
 46
0.405884572681199
 79
     2
 49
0.0
 49
-0.3
 98
        1
 10
-16.77503770156201
 20
-27.76823191252117
  0
LINE
  5
30D
330
2D0
100
AcDbEntity
  8
Pel_Wall
  6
Continuous
100
AcDbLine
 10
2.368961178192201
 20
0.8174057854251799
 30
0.0
 11
3.118961178192201
 21
0.8174057854251799
 31
0.0
  0
LINE
  5
30E
330
2D0
100
AcDbEntity
  8
Pel_Wall
  6
Continuous
100
AcDbLine
 10
1.993961178192201
 20
0.8174057854251799
 30
0.0
 11
2.243961178192201
 21
0.8174057854251799
 31
0.0
  0
LINE
  5
30F
330
2D0
100
AcDbEntity
  8
Pel_Wall
  6
Continuous
100
AcDbLine
 10
0.9939611781921939
 20
0.8174057854251799
 30
0.0
 11
1.868961178192201
 21
0.8174057854251799
 31
0.0
  0
POLYLINE
  5
310
330
2D0
100
AcDbEntity
  8
Pel_Wall
  6
Continuous
100
AcDb2dPolyline
 66
     1
 10
0.0
 20
0.0
 30
0.0
  0
VERTEX
  5
6A1
330
310
100
AcDbEntity
  8
Pel_Wall
  6
Continuous
100
AcDbVertex
100
AcDb2dVertex
 10
0.8563624949959844
 20
0.0887680874806272
 30
0.0
  0
VERTEX
  5
6A2
330
310
100
AcDbEntity
  8
Pel_Wall
  6
Continuous
100
AcDbVertex
100
AcDb2dVertex
 10
0.8563624949959844
 20
1.155989447030624
 30
0.0
  0
VERTEX
  5
6A3
330
310
100
AcDbEntity
  8
Pel_Wall
  6
Continuous
100
AcDbVertex
100
AcDb2dVertex
 10
0.9188624949959844
 20
1.280989447030624
 30
0.0
  0
VERTEX
  5
6A4
330
310
100
AcDbEntity
  8
Pel_Wall
  6
Continuous
100
AcDbVertex
100
AcDb2dVertex
 10
0.9188624949959844
 20
4.213768087480623
 30
0.0
  0
SEQEND
  5
6A5
330
310
100
AcDbEntity
  8
Pel_Wall
  6
Continuous
  0
POLYLINE
  5
316
330
2D0
100
AcDbEntity
  8
Pel_Wall
  6
Continuous
100
AcDb2dPolyline
 66
     1
 10
0.0
 20
0.0
 30
0.0
  0
VERTEX
  5
6A7
330
316
100
AcDbEntity
  8
Pel_Wall
  6
Continuous
100
AcDbVertex
100
AcDb2dVertex
 10
0.8763624949959876
 20
0.0887680874806272
 30
0.0
  0
VERTEX
  5
6A8
330
316
100
AcDbEntity
  8
Pel_Wall
  6
Continuous
100
AcDbVertex
100
AcDb2dVertex
 10
0.8763624949959876
 20
1.151268087480627
 30
0.0
  0
VERTEX
  5
6A9
330
316
100
AcDbEntity
  8
Pel_Wall
  6
Continuous
100
AcDbVertex
100
AcDb2dVertex
 10
0.9388624949959876
 20
1.276268087480627
 30
0.0
  0
VERTEX
  5
6AA
330
316
100
AcDbEntity
  8
Pel_Wall
  6
Continuous
100
AcDbVertex
100
AcDb2dVertex
 10
0.9388624949959876
 20
4.213768087480623
 30
0.0
  0
SEQEND
  5
6AB
330
316
100
AcDbEntity
  8
Pel_Wall
  6
Continuous
  0
POLYLINE
  5
31C
330
2D0
100
AcDbEntity
  8
Pel_Wall
  6
Continuous
100
AcDb2dPolyline
 66
     1
 10
0.0
 20
0.0
 30
0.0
  0
VERTEX
  5
6AD
330
31C
100
AcDbEntity
  8
Pel_Wall
  6
Continuous
100
AcDbVertex
100
AcDb2dVertex
 10
0.9813624949959844
 20
0.0887680874806272
 30
0.0
  0
VERTEX
  5
6AE
330
31C
100
AcDbEntity
  8
Pel_Wall
  6
Continuous
100
AcDbVertex
100
AcDb2dVertex
 10
0.9813624949959844
 20
1.155989447030624
 30
0.0
  0
VERTEX
  5
6AF
330
31C
100
AcDbEntity
  8
Pel_Wall
  6
Continuous
100
AcDbVertex
100
AcDb2dVertex
 10
1.043862494995984
 20
1.280989447030624
 30
0.0
  0
VERTEX
  5
6B0
330
31C
100
AcDbEntity
  8
Pel_Wall
  6
Continuous
100
AcDbVertex
100
AcDb2dVertex
 10
1.043862494995984
 20
2.963768087480627
 30
0.0
  0
SEQEND
  5
6B1
330
31C
100
AcDbEntity
  8
Pel_Wall
  6
Continuous
  0
POLYLINE
  5
322
330
2D0
100
AcDbEntity
  8
Pel_Wall
  6
Continuous
100
AcDb2dPolyline
 66
     1
 10
0.0
 20
0.0
 30
0.0
  0
VERTEX
  5
6B3
330
322
100
AcDbEntity
  8
Pel_Wall
  6
Continuous
100
AcDbVertex
100
AcDb2dVertex
 10
1.001362494995987
 20
0.0887680874806272
 30
0.0
  0
VERTEX
  5
6B4
330
322
100
AcDbEntity
  8
Pel_Wall
  6
Continuous
100
AcDbVertex
100
AcDb2dVertex
 10
1.001362494995987
 20
1.151268087480627
 30
0.0
  0
VERTEX
  5
6B5
330
322
100
AcDbEntity
  8
Pel_Wall
  6
Continuous
100
AcDbVertex
100
AcDb2dVertex
 10
1.063862494995987
 20
1.276268087480627
 30
0.0
  0
VERTEX
  5
6B6
330
322
100
AcDbEntity
  8
Pel_Wall
  6
Continuous
100
AcDbVertex
100
AcDb2dVertex
 10
1.063862494995987
 20
2.963768087480627
 30
0.0
  0
SEQEND
  5
6B7
330
322
100
AcDbEntity
  8
Pel_Wall
  6
Continuous
  0
LINE
  5
328
330
2D0
100
AcDbEntity
  8
Pel_Wall
  6
Continuous
100
AcDbLine
 10
1.056461178192193
 20
0.69240578542518
 30
0.0
 11
1.056461178192193
 21
0.9424057854251799
 31
0.0
  0
INSERT
  5
32A
330
2D0
100
AcDbEntity
  8
Pel_wal
 62
     4
100
AcDbBlockReference
  2
.25foam9
 10
1.426544817596393
 20
-0.0274350038488507
 30
0.0
  0
POINT
  5
32B
330
2D0
100
AcDbEntity
  8
Pel_Points
100
AcDbPoint
 10
0.0
 20
0.0
 30
0.0
  0
POLYLINE
  5
538
330
2D0
100
AcDbEntity
  8
Pel_Wall
100
AcDb2dPolyline
 66
     1
 10
0.0
 20
0.0
 30
0.0
  0
VERTEX
  5
6BC
330
538
100
AcDbEntity
  8
Pel_Wall
100
AcDbVertex
100
AcDb2dVertex
 10
0.8381274814583683
 20
4.213768087480623
 30
0.0
 42
-0.0527444548561763
  0
VERTEX
  5
6BD
330
538
100
AcDbEntity
  8
Pel_Wall
100
AcDbVertex
100
AcDb2dVertex
 10
0.3651459837997208
 20
0.4403058632964161
 30
0.0
 42
0.5032064810093599
  0
VERTEX
  5
6BE
330
538
100
AcDbEntity
  8
Pel_Wall
100
AcDbVertex
100
AcDb2dVertex
 10
0.4129999999999967
 20
0.3758147234687925
 30
0.0
  0
VERTEX
  5
6BF
330
538
100
AcDbEntity
  8
Pel_Wall
100
AcDbVertex
100
AcDb2dVertex
 10
0.7303771082497406
 20
0.3758147234687925
 30
0.0
 42
0.4142135623730898
  0
VERTEX
  5
6C0
330
538
100
AcDbEntity
  8
Pel_Wall
100
AcDbVertex
100
AcDb2dVertex
 10
0.7803771082497378
 20
0.4258147234687897
 30
0.0
  0
VERTEX
  5
6C1
330
538
100
AcDbEntity
  8
Pel_Wall
100
AcDbVertex
100
AcDb2dVertex
 10
0.7803771082497378
 20
0.8258147234687953
 30
0.0
  0
VERTEX
  5
6C2
330
538
100
AcDbEntity
  8
Pel_Wall
100
AcDbVertex
100
AcDb2dVertex
 10
0.8303771082497348
 20
0.8258147234687953
 30
0.0
  0
VERTEX
  5
6C3
330
538
100
AcDbEntity
  8
Pel_Wall
100
AcDbVertex
100
AcDb2dVertex
 10
0.8303771082497348
 20
0.4258147234687897
 30
0.0
 42
-0.4142135623730925
  0
VERTEX
  5
6C4
330
538
100
AcDbEntity
  8
Pel_Wall
100
AcDbVertex
100
AcDb2dVertex
 10
0.7303771082497406
 20
0.3258147234687954
 30
0.0
  0
VERTEX
  5
6C5
330
538
100
AcDbEntity
  8
Pel_Wall
100
AcDbVertex
100
AcDb2dVertex
 10
0.4129999999999967
 20
0.3258147234687954
 30
0.0
 42
-0.5032064810093663
  0
VERTEX
  5
6C6
330
538
100
AcDbEntity
  8
Pel_Wall
100
AcDbVertex
100
AcDb2dVertex
 10
0.317291967599445
 20
0.4547970031240283
 30
0.0
 42
0.0535590291793596
  0
VERTEX
  5
6C7
330
538
100
AcDbEntity
  8
Pel_Wall
100
AcDbVertex
100
AcDb2dVertex
 10
0.7849520144714362
 20
4.213768087480623
 30
0.0
  0
SEQEND
  5
6C8
330
538
100
AcDbEntity
  8
Pel_Wall
  0
POLYLINE
  5
5FF
330
2D0
100
AcDbEntity
  8
Pel_Wall
100
AcDb2dPolyline
 66
     1
 10
0.0
 20
0.0
 30
0.0
  0
VERTEX
  5
673
330
5FF
100
AcDbEntity
  8
Pel_Wall
100
AcDbVertex
100
AcDb2dVertex
 10
1.675687396715382
 20
4.213768087480623
 30
0.0
  0
VERTEX
  5
674
330
5FF
100
AcDbEntity
  8
Pel_Wall
100
AcDbVertex
100
AcDb2dVertex
 10
1.675687396715382
 20
0.25
 30
0.0
  0
VERTEX
  5
675
330
5FF
100
AcDbEntity
  8
Pel_Wall
100
AcDbVertex
100
AcDb2dVertex
 10
3.175687396715353
 20
0.25
 30
0.0
  0
VERTEX
  5
676
330
5FF
100
AcDbEntity
  8
Pel_Wall
100
AcDbVertex
100
AcDb2dVertex
 10
3.175687396715382
 20
4.213768087480623
 30
0.0
  0
VERTEX
  5
677
330
5FF
100
AcDbEntity
  8
Pel_Wall
100
AcDbVertex
100
AcDb2dVertex
 10
1.675687396715382
 20
4.213768087480623
 30
0.0
  0
VERTEX
  5
678
330
5FF
100
AcDbEntity
  8
Pel_Wall
100
AcDbVertex
100
AcDb2dVertex
 10
1.675687396715382
 20
0.25
 30
0.0
  0
VERTEX
  5
679
330
5FF
100
AcDbEntity
  8
Pel_Wall
100
AcDbVertex
100
AcDb2dVertex
 10
2.738400112218172
 20
4.213768087480623
 30
0.0
  0
VERTEX
  5
67A
330
5FF
100
AcDbEntity
  8
Pel_Wall
100
AcDbVertex
100
AcDb2dVertex
 10
3.175687396715382
 20
4.213768087480623
 30
0.0
  0
VERTEX
  5
67B
330
5FF
100
AcDbEntity
  8
Pel_Wall
100
AcDbVertex
100
AcDb2dVertex
 10
3.175687396715353
 20
0.25
 30
0.0
  0
VERTEX
  5
67C
330
5FF
100
AcDbEntity
  8
Pel_Wall
100
AcDbVertex
100
AcDb2dVertex
 10
2.112987396715382
 20
4.213768087480623
 30
0.0
  0
SEQEND
  5
67D
330
5FF
100
AcDbEntity
  8
Pel_Wall
  0
LINE
  5
67E
330
2D0
100
AcDbEntity
  8
Pel_Wall
100
AcDbLine
 10
3.675687396715382
 20
4.213768087480623
 30
0.0
 11
3.675687396715382
 21
0.25
 31
0.0
  0
LINE
  5
67F
330
2D0
100
AcDbEntity
  8
Pel_Wall
100
AcDbLine
 10
3.675687396715382
 20
0.25
 30
0.0
 11
5.175687396715353
 21
0.25
 31
0.0
  0
LINE
  5
680
330
2D0
100
AcDbEntity
  8
Pel_Wall
100
AcDbLine
 10
5.175687396715353
 20
0.25
 30
0.0
 11
5.175687396715382
 21
4.213768087480623
 31
0.0
  0
LINE
  5
681
330
2D0
100
AcDbEntity
  8
Pel_Wall
100
AcDbLine
 10
3.675687396715382
 20
4.213768087480623
 30
0.0
 11
3.675687396715382
 21
0.25
 31
0.0
  0
LINE
  5
682
330
2D0
100
AcDbEntity
  8
Pel_Wall
100
AcDbLine
 10
3.675687396715382
 20
0.25
 30
0.0
 11
4.691695505118769
 21
4.039566510273232
 31
0.0
  0
LINE
  5
683
330
2D0
100
AcDbEntity
  8
Pel_Wall
100
AcDbLine
 10
4.773145110816919
 20
4.213768087480623
 30
0.0
 11
5.175687396715382
 21
4.213768087480623
 31
0.0
  0
LINE
  5
684
330
2D0
100
AcDbEntity
  8
Pel_Wall
100
AcDbLine
 10
5.175687396715382
 20
4.213768087480623
 30
0.0
 11
5.175687396715353
 21
0.25
 31
0.0
  0
LINE
  5
685
330
2D0
100
AcDbEntity
  8
Pel_Wall
100
AcDbLine
 10
5.175687396715353
 20
0.25
 30
0.0
 11
4.112987396715382
 21
4.213768087480623
 31
0.0
  0
ENDBLK
  5
32C
330
2D0
100
AcDbEntity
  8
0
100
AcDbBlockEnd
  0
BLOCK
  5
29C
330
299
100
AcDbEntity
  8
0
100
AcDbBlockBegin
  2
10jambvinylsiding
 70
     0
 10
0.0
 20
0.0
 30
0.0
  3
10jambvinylsiding
  1

  0
POLYLINE
  5
29D
102
{ACAD_REACTORS
330
2B0
102
}
330
299
100
AcDbEntity
  8
Pel_Wall
100
AcDb2dPolyline
 66
     1
 10
0.0
 20
0.0
 30
0.0
 70
     1
  0
VERTEX
  5
46E
330
29D
100
AcDbEntity
  8
Pel_Wall
100
AcDbVertex
100
AcDb2dVertex
 10
5.189645581040522
 20
5.250000000000003
 30
0.0
  0
VERTEX
  5
46F
330
29D
100
AcDbEntity
  8
Pel_Wall
100
AcDbVertex
100
AcDb2dVertex
 10
5.814645581040522
 20
5.250000000000003
 30
0.0
  0
VERTEX
  5
470
330
29D
100
AcDbEntity
  8
Pel_Wall
100
AcDbVertex
100
AcDb2dVertex
 10
5.814645581040522
 20
0.3125000000000035
 30
0.0
  0
VERTEX
  5
471
330
29D
100
AcDbEntity
  8
Pel_Wall
100
AcDbVertex
100
AcDb2dVertex
 10
5.814645581040522
 20
0.3125000000000035
 30
0.0
  0
VERTEX
  5
472
330
29D
100
AcDbEntity
  8
Pel_Wall
100
AcDbVertex
100
AcDb2dVertex
 10
5.189645581040522
 20
0.3124500000020269
 30
0.0
  0
VERTEX
  5
473
330
29D
100
AcDbEntity
  8
Pel_Wall
100
AcDbVertex
100
AcDb2dVertex
 10
5.189645581040522
 20
0.3124500000020269
 30
0.0
  0
SEQEND
  5
474
330
29D
100
AcDbEntity
  8
Pel_Wall
  0
HATCH
  5
2A5
330
299
100
AcDbEntity
  8
Pel_Wall
100
AcDbHatch
 10
0.0
 20
0.0
 30
0.0
210
0.0
220
0.0
230
1.0
  2
PLY
 70
     0
 71
     1
 91
        1
 92
        1
 93
        4
 72
     1
 10
1.216049659344051
 20
0.3124500000020269
 11
1.689645581040522
 21
0.3124500000020269
 72
     1
 10
1.689645581040522
 20
0.3124500000020269
 11
1.689645581040522
 21
5.25000000000001
 72
     1
 10
1.689645581040522
 20
5.25000000000001
 11
1.216049659344051
 21
5.250000000000003
 72
     1
 10
1.216049659344051
 20
5.250000000000003
 11
1.216049659344051
 21
0.3124500000020269
 97
        1
330
2A6
 75
     0
 76
     1
 52
90.0
 41
1.0
 77
     0
 78
     2
 53
90.0
 43
-0.3103544189594771
 44
-0.1250499999979731
 45
-0.125
 46
0.0
 79
     0
 53
135.0
 43
-0.1853544189594771
 44
-0.1250499999979731
 45
-0.3535533905932738
 46
-0.3535533905932737
 79
     0
 98
        1
 10
-0.1853544189594771
 20
-0.1250499999979731
  0
POLYLINE
  5
2A6
102
{ACAD_REACTORS
330
2A5
102
}
330
299
100
AcDbEntity
  8
Pel_Wall
100
AcDb2dPolyline
 66
     1
 10
0.0
 20
0.0
 30
0.0
 70
     1
  0
VERTEX
  5
477
330
2A6
100
AcDbEntity
  8
Pel_Wall
100
AcDbVertex
100
AcDb2dVertex
 10
1.216049659344051
 20
0.3124500000020269
 30
0.0
  0
VERTEX
  5
478
330
2A6
100
AcDbEntity
  8
Pel_Wall
100
AcDbVertex
100
AcDb2dVertex
 10
1.689645581040522
 20
0.3124500000020269
 30
0.0
  0
VERTEX
  5
479
330
2A6
100
AcDbEntity
  8
Pel_Wall
100
AcDbVertex
100
AcDb2dVertex
 10
1.689645581040522
 20
5.25000000000001
 30
0.0
  0
VERTEX
  5
47A
330
2A6
100
AcDbEntity
  8
Pel_Wall
100
AcDbVertex
100
AcDb2dVertex
 10
1.216049659344051
 20
5.250000000000003
 30
0.0
  0
SEQEND
  5
47B
330
2A6
100
AcDbEntity
  8
Pel_Wall
  0
LWPOLYLINE
  5
2AC
330
299
100
AcDbEntity
  8
Pel_Wall
100
AcDbPolyline
 90
        4
 70
     1
 43
0.0
 10
0.8252290483800521
 20
5.250000000000003
 10
0.8252290483800646
 20
0.3124500000020269
 10
0.3252290483800646
 20
0.3124500000020269
 10
0.3252290483800522
 20
5.250000000000003
  0
INSERT
  5
2AD
330
299
100
AcDbEntity
  8
Pel_Wall
100
AcDbBlockReference
  2
2x
 10
1.689645581040522
 20
0.3124500000020269
 30
0.0
 41
3.5
 42
1.5
  0
INSERT
  5
2AE
330
299
100
AcDbEntity
  8
Pel_Wall
100
AcDbBlockReference
  2
2x
 10
1.689645581040522
 20
1.812450000002026
 30
0.0
 41
3.5
 42
1.5
  0
INSERT
  5
2AF
330
299
100
AcDbEntity
  8
Pel_Wall
100
AcDbBlockReference
  2
Insul1
 10
5.189645581040522
 20
3.312450000002026
 30
0.0
 41
-3.5
 42
1.875
  0
HATCH
  5
2B0
330
299
100
AcDbEntity
  8
0
100
AcDbHatch
 10
0.0
 20
0.0
 30
0.0
210
0.0
220
0.0
230
1.0
  2
GYP
 70
     0
 71
     1
 91
        1
 92
        1
 93
        4
 72
     1
 10
5.189645581040522
 20
5.250000000000003
 11
5.814645581040522
 21
5.250000000000003
 72
     1
 10
5.814645581040522
 20
5.250000000000003
 11
5.814645581040522
 21
0.3125000000000035
 72
     1
 10
5.814645581040522
 20
0.3125000000000035
 11
5.189645581040522
 21
0.3124500000020269
 72
     1
 10
5.189645581040522
 20
0.3124500000020269
 11
5.189645581040522
 21
5.250000000000003
 97
        1
330
29D
 75
     0
 76
     1
 52
0.0
 41
1.0
 77
     0
 78
     3
 53
0.0
 43
-14.69852951724009
 44
-17.86300000000119
 45
0.18
 46
0.5
 79
     2
 49
0.0
 49
-0.3
 53
30.0
 43
-14.66852951724009
 44
-17.74300000000119
 45
-0.094115427318801
 46
0.5230127018922194
 79
     2
 49
0.0
 49
-0.3
 53
60.0
 43
-14.63852951724009
 44
-17.68300000000119
 45
-0.3430127018922193
 46
0.405884572681199
 79
     2
 49
0.0
 49
-0.3
 98
        1
 10
-14.69852951724009
 20
-17.86300000000119
  0
POLYLINE
  5
2B1
330
299
100
AcDbEntity
  8
Pel_Wall
  6
Continuous
100
AcDb2dPolyline
 66
     1
 10
0.0
 20
0.0
 30
0.0
  0
VERTEX
  5
482
330
2B1
100
AcDbEntity
  8
Pel_Wall
  6
Continuous
100
AcDbVertex
100
AcDb2dVertex
 10
1.150222676755639
 20
5.250000000000003
 30
0.0
  0
VERTEX
  5
483
330
2B1
100
AcDbEntity
  8
Pel_Wall
  6
Continuous
100
AcDbVertex
100
AcDb2dVertex
 10
1.150222676755639
 20
0.230000000000004
 30
0.0
  0
VERTEX
  5
484
330
2B1
100
AcDbEntity
  8
Pel_Wall
  6
Continuous
100
AcDbVertex
100
AcDb2dVertex
 10
2.622568040459476
 20
0.230000000000004
 30
0.0
  0
SEQEND
  5
485
330
2B1
100
AcDbEntity
  8
Pel_Wall
  6
Continuous
  0
POLYLINE
  5
2B6
330
299
100
AcDbEntity
  8
Pel_Wall
  6
Continuous
100
AcDb2dPolyline
 66
     1
 10
0.0
 20
0.0
 30
0.0
  0
VERTEX
  5
456
330
2B6
100
AcDbEntity
  8
Pel_Wall
  6
Continuous
100
AcDbVertex
100
AcDb2dVertex
 10
1.170222676755635
 20
5.250000000000003
 30
0.0
  0
VERTEX
  5
457
330
2B6
100
AcDbEntity
  8
Pel_Wall
  6
Continuous
100
AcDbVertex
100
AcDb2dVertex
 10
1.170222676755635
 20
0.2500000000000035
 30
0.0
  0
VERTEX
  5
458
330
2B6
100
AcDbEntity
  8
Pel_Wall
  6
Continuous
100
AcDbVertex
100
AcDb2dVertex
 10
2.622568040459476
 20
0.2500000000000035
 30
0.0
  0
SEQEND
  5
459
330
2B6
100
AcDbEntity
  8
Pel_Wall
  6
Continuous
  0
POLYLINE
  5
2BB
330
299
100
AcDbEntity
  8
Pel_Wall
  6
Continuous
100
AcDb2dPolyline
 66
     1
 10
0.0
 20
0.0
 30
0.0
  0
VERTEX
  5
45B
330
2BB
100
AcDbEntity
  8
Pel_Wall
  6
Continuous
100
AcDbVertex
100
AcDb2dVertex
 10
0.9841953755850596
 20
0.0000000000000036
 30
0.0
  0
VERTEX
  5
45C
330
2BB
100
AcDbEntity
  8
Pel_Wall
  6
Continuous
100
AcDbVertex
100
AcDb2dVertex
 10
0.9841953755850596
 20
1.571851193213436
 30
0.0
  0
VERTEX
  5
45D
330
2BB
100
AcDbEntity
  8
Pel_Wall
  6
Continuous
100
AcDbVertex
100
AcDb2dVertex
 10
1.046695375585059
 20
1.696851193213436
 30
0.0
  0
VERTEX
  5
45E
330
2BB
100
AcDbEntity
  8
Pel_Wall
  6
Continuous
100
AcDbVertex
100
AcDb2dVertex
 10
1.046695375585059
 20
3.000000000000003
 30
0.0
  0
SEQEND
  5
45F
330
2BB
100
AcDbEntity
  8
Pel_Wall
  6
Continuous
  0
LINE
  5
2C1
330
299
100
AcDbEntity
  8
Pel_Wall
  6
Continuous
100
AcDbLine
 10
1.026189999500473
 20
0.6905676875769906
 30
0.0
 11
1.026189999500473
 21
0.9405676875769906
 31
0.0
  0
LINE
  5
2C2
330
299
100
AcDbEntity
  8
Pel_Wall
  6
Continuous
100
AcDbLine
 10
2.030956841286638
 20
0.8155676875769906
 30
0.0
 11
2.468456841286638
 21
0.8155676875769906
 31
0.0
  0
LINE
  5
2C3
330
299
100
AcDbEntity
  8
Pel_Wall
  6
Continuous
100
AcDbLine
 10
2.680033523916002
 20
0.8155676875769906
 30
0.0
 11
3.555033523915994
 21
0.8155676875769906
 31
0.0
  0
LINE
  5
2C4
330
299
100
AcDbEntity
  8
Pel_Wall
  6
Continuous
100
AcDbLine
 10
0.9636899995004739
 20
0.8155676875769906
 30
0.0
 11
1.838689999500473
 21
0.8155676875769906
 31
0.0
  0
POLYLINE
  5
2C5
330
299
100
AcDbEntity
  8
Pel_Wall
  6
Continuous
100
AcDb2dPolyline
 66
     1
 10
0.0
 20
0.0
 30
0.0
  0
VERTEX
  5
465
330
2C5
100
AcDbEntity
  8
Pel_Wall
  6
Continuous
100
AcDbVertex
100
AcDb2dVertex
 10
0.9641953755850636
 20
0.0000000000000036
 30
0.0
  0
VERTEX
  5
466
330
2C5
100
AcDbEntity
  8
Pel_Wall
  6
Continuous
100
AcDbVertex
100
AcDb2dVertex
 10
0.9641953755850636
 20
1.576572552763433
 30
0.0
  0
VERTEX
  5
467
330
2C5
100
AcDbEntity
  8
Pel_Wall
  6
Continuous
100
AcDbVertex
100
AcDb2dVertex
 10
1.026695375585063
 20
1.701572552763433
 30
0.0
  0
VERTEX
  5
468
330
2C5
100
AcDbEntity
  8
Pel_Wall
  6
Continuous
100
AcDbVertex
100
AcDb2dVertex
 10
1.026695375585063
 20
3.000000000000003
 30
0.0
  0
SEQEND
  5
469
330
2C5
100
AcDbEntity
  8
Pel_Wall
  6
Continuous
  0
POINT
  5
2CB
330
299
100
AcDbEntity
  8
Pel_Points
100
AcDbPoint
 10
0.0
 20
0.0000000000000036
 30
0.0
  0
INSERT
  5
2CC
330
299
100
AcDbEntity
  8
Pel_wal
 62
     4
100
AcDbBlockReference
  2
.25foam9
 10
1.507831591894451
 20
-0.0262237321549606
 30
0.0
  0
INSERT
  5
2CD
330
299
100
AcDbEntity
  8
0
100
AcDbBlockReference
  2
Shim
 10
2.526585572461392
 20
0.0000000000000036
 30
0.0
 41
-1.473754691610672
 42
0.21875
 43
1.473754691610672
  0
ENDBLK
  5
2CE
330
299
100
AcDbEntity
  8
0
100
AcDbBlockEnd
  0
BLOCK
  5
22A
330
227
100
AcDbEntity
  8
0
100
AcDbBlockBegin
  2
RECTANG
 70
     0
 10
0.0
 20
0.0
 30
0.0
  3
RECTANG
  1

  0
LINE
  5
22B
330
227
100
AcDbEntity
  8
0
100
AcDbLine
 10
0.0
 20
0.0
 30
0.0
 11
1.00000000000004
 21
0.0
 31
0.0
  0
LINE
  5
22C
330
227
100
AcDbEntity
  8
0
100
AcDbLine
 10
1.00000000000004
 20
0.0
 30
0.0
 11
1.00000000000004
 21
1.00000000000004
 31
0.0
  0
LINE
  5
22D
330
227
100
AcDbEntity
  8
0
100
AcDbLine
 10
1.00000000000004
 20
1.00000000000004
 30
0.0
 11
0.0
 21
1.00000000000004
 31
0.0
  0
LINE
  5
22E
330
227
100
AcDbEntity
  8
0
100
AcDbLine
 10
0.0
 20
1.00000000000004
 30
0.0
 11
0.0
 21
0.0
 31
0.0
  0
ENDBLK
  5
22F
330
227
100
AcDbEntity
  8
0
100
AcDbBlockEnd
  0
BLOCK
  5
225
330
224
100
AcDbEntity
  8
0
100
AcDbBlockBegin
  2
Shim
 70
     0
 10
0.0
 20
0.0
 30
0.0
  3
Shim
  1

  0
INSERT
  5
226
330
224
100
AcDbEntity
  8
Pel_Wall
100
AcDbBlockReference
  2
RECTANG
 10
0.0
 20
0.0
 30
0.0
  0
LINE
  5
230
330
224
100
AcDbEntity
  8
Pel_Wall
100
AcDbLine
 10
0.0
 20
0.0
 30
0.0
 11
1.0
 21
1.0
 31
0.0
  0
ENDBLK
  5
231
330
224
100
AcDbEntity
  8
0
100
AcDbBlockEnd
  0
BLOCK
  5
1FC
330
1F9
100
AcDbEntity
  8
0
 62
     4
100
AcDbBlockBegin
  2
.25foam9
 70
     0
 10
0.0
 20
0.0
 30
0.0
  3
.25foam9
  1

  0
SPLINE
  5
1FD
330
1F9
100
AcDbEntity
  8
Pel_wal
 62
     9
100
AcDbSpline
210
0.0
220
0.0
230
1.0
 70
    11
 71
     3
 72
    25
 73
    21
 74
     0
 42
0.0000000001
 43
0.0000000001
 40
0.0
 40
0.0
 40
0.0
 40
0.0
 40
0.0629554322876937
 40
0.158093302027984
 40
0.3666917292501777
 40
0.5784791336554056
 40
0.7355935303893651
 40
0.92015700109171
 40
0.9998917151712305
 40
1.084210485759284
 40
1.213963102362994
 40
1.314826092548635
 40
1.415272472028991
 40
1.637307026429963
 40
1.855898558905747
 40
2.026708445463031
 40
2.170524664608772
 40
2.273030982295876
 40
2.389147774011812
 40
2.478484947992602
 40
2.478484947992602
 40
2.478484947992602
 40
2.478484947992602
 10
-0.0052838773256099
 20
0.0877084049702148
 30
0.0
 10
0.0035736244217688
 20
0.0734402401887735
 30
0.0
 10
0.0410098883507359
 20
0.0425355671215684
 30
0.0
 10
0.161673954858081
 20
0.0153473068188248
 30
0.0
 10
0.3342086191525055
 20
0.0205204788290558
 30
0.0
 10
0.5258756454575249
 20
0.0157140236885169
 30
0.0
 10
0.7122585185560837
 20
0.0146081299101013
 30
0.0
 10
0.8466601511271392
 20
0.0217282685982099
 30
0.0
 10
0.9742661938488836
 20
0.0212597469187159
 30
0.0
 10
1.022167587561014
 20
0.0976050032300577
 30
0.0
 10
1.020051897079476
 20
0.1732764017321955
 30
0.0
 10
0.9846296782744303
 20
0.2628534772182576
 30
0.0
 10
0.8301470276118081
 20
0.2817640156416488
 30
0.0
 10
0.656947986136558
 20
0.2757931292397586
 30
0.0
 10
0.4506428829072249
 20
0.2766697230848081
 30
0.0
 10
0.2741929830495238
 20
0.2792244776232451
 30
0.0
 10
0.1329265682900029
 20
0.2828276832810133
 30
0.0
 10
0.0194821735985187
 20
0.2378090678745295
 30
0.0
 10
-0.0221579206999465
 20
0.1619446210323332
 30
0.0
 10
-0.0178531528573061
 20
0.1079557048956872
 30
0.0
 10
-0.0052838773256099
 20
0.0877084049702148
 30
0.0
  0
ELLIPSE
  5
1FE
330
1F9
100
AcDbEntity
  8
Pel_wal
 62
     9
100
AcDbEllipse
 10
0.1513811950251238
 20
0.2052604425052209
 30
0.0
 11
-0.0339494177336768
 21
0.0000000000000027
 31
0.0
210
0.0
220
0.0
230
1.0
 40
0.7499999999999738
 41
3.141592653589897
 42
9.424777960769482
  0
ELLIPSE
  5
1FF
330
1F9
100
AcDbEntity
  8
Pel_wal
 62
     9
100
AcDbEllipse
 10
0.0665181591414239
 20
0.169481735214049
 30
0.0
 11
0.0166728848683988
 21
0.0000000000000105
 31
0.0
210
0.0
220
0.0
230
1.0
 40
0.7500000000000001
 41
-0.0000000000008402
 42
6.283185307178746
  0
ELLIPSE
  5
200
330
1F9
100
AcDbEntity
  8
Pel_wal
 62
     9
100
AcDbEllipse
 10
0.0877358301306686
 20
0.0992500143103143
 30
0.0
 11
-0.0339494177336768
 21
0.0000000000000027
 31
0.0
210
0.0
220
0.0
230
1.0
 40
0.7499999999999738
 41
3.141592653589897
 42
9.424777960769482
  0
ELLIPSE
  5
201
330
1F9
100
AcDbEntity
  8
Pel_wal
 62
     9
100
AcDbEllipse
 10
0.2556913726259609
 20
0.0700969587813347
 30
0.0
 11
-0.0339494177336768
 21
0.0000000000000027
 31
0.0
210
0.0
220
0.0
230
1.0
 40
0.7499999999999738
 41
3.141592653589897
 42
9.424777960769482
  0
ELLIPSE
  5
202
330
1F9
100
AcDbEntity
  8
Pel_wal
 62
     9
100
AcDbEllipse
 10
0.2928189508249943
 20
0.1535799832096245
 30
0.0
 11
-0.0339494177336768
 21
0.0000000000000027
 31
0.0
210
0.0
220
0.0
230
1.0
 40
0.7499999999999738
 41
3.141592653589897
 42
9.424777960769482
  0
ELLIPSE
  5
203
330
1F9
100
AcDbEntity
  8
Pel_wal
 62
     9
100
AcDbEllipse
 10
0.393591893918483
 20
0.2291126010737798
 30
0.0
 11
-0.0339494177336768
 21
0.0000000000000027
 31
0.0
210
0.0
220
0.0
230
1.0
 40
0.7499999999999738
 41
3.141592653589897
 42
9.424777960769482
  0
ELLIPSE
  5
204
330
1F9
100
AcDbEntity
  8
Pel_wal
 62
     9
100
AcDbEllipse
 10
0.411270418381946
 20
0.1257526213590836
 30
0.0
 11
-0.0339494177336768
 21
0.0000000000000027
 31
0.0
210
0.0
220
0.0
230
1.0
 40
0.7499999999999738
 41
3.141592653589897
 42
9.424777960769482
  0
ELLIPSE
  5
205
330
1F9
100
AcDbEntity
  8
Pel_wal
 62
     9
100
AcDbEllipse
 10
0.4979020715193201
 20
0.0621456133408742
 30
0.0
 11
-0.0339494177336768
 21
0.0000000000000027
 31
0.0
210
0.0
220
0.0
230
1.0
 40
0.7499999999999738
 41
3.141592653589897
 42
9.424777960769482
  0
ELLIPSE
  5
206
330
1F9
100
AcDbEntity
  8
Pel_wal
 62
     9
100
AcDbEllipse
 10
0.5633160536674496
 20
0.1602056349718168
 30
0.0
 11
-0.0339494177336768
 21
0.0000000000000027
 31
0.0
210
0.0
220
0.0
230
1.0
 40
0.7499999999999738
 41
3.141592653589897
 42
9.424777960769482
  0
ELLIPSE
  5
207
330
1F9
100
AcDbEntity
  8
Pel_wal
 62
     9
100
AcDbEllipse
 10
0.6658576140146124
 20
0.2238126429900262
 30
0.0
 11
-0.0339494177336768
 21
0.0000000000000027
 31
0.0
210
0.0
220
0.0
230
1.0
 40
0.7499999999999738
 41
3.141592653589897
 42
9.424777960769482
  0
ELLIPSE
  5
208
330
1F9
100
AcDbEntity
  8
Pel_wal
 62
     9
100
AcDbEllipse
 10
0.6623222915256975
 20
0.1337030279230476
 30
0.0
 11
-0.0339494177336768
 21
0.0000000000000027
 31
0.0
210
0.0
220
0.0
230
1.0
 40
0.7499999999999738
 41
3.141592653589897
 42
9.424777960769482
  0
ELLIPSE
  5
209
330
1F9
100
AcDbEntity
  8
Pel_wal
 62
     9
100
AcDbEllipse
 10
0.7065205147025609
 20
0.0621456133408742
 30
0.0
 11
-0.0339494177336768
 21
0.0000000000000027
 31
0.0
210
0.0
220
0.0
230
1.0
 40
0.7499999999999738
 41
3.141592653589897
 42
9.424777960769482
  0
ELLIPSE
  5
20A
330
1F9
100
AcDbEntity
  8
Pel_wal
 62
     9
100
AcDbEllipse
 10
0.8355817737631241
 20
0.0714217135832769
 30
0.0
 11
-0.0339494177336768
 21
0.0000000000000027
 31
0.0
210
0.0
220
0.0
230
1.0
 40
0.7499999999999738
 41
3.141592653589897
 42
9.424777960769482
  0
ELLIPSE
  5
20B
330
1F9
100
AcDbEntity
  8
Pel_wal
 62
     9
100
AcDbEllipse
 10
0.8179013372812278
 20
0.1734569384962015
 30
0.0
 11
-0.0339494177336768
 21
0.0000000000000027
 31
0.0
210
0.0
220
0.0
230
1.0
 40
0.7499999999999738
 41
3.141592653589897
 42
9.424777960769482
  0
ELLIPSE
  5
20C
330
1F9
100
AcDbEntity
  8
Pel_wal
 62
     9
100
AcDbEllipse
 10
0.9133722526505607
 20
0.2238126429900262
 30
0.0
 11
-0.0339494177336768
 21
0.0000000000000027
 31
0.0
210
0.0
220
0.0
230
1.0
 40
0.7499999999999738
 41
3.141592653589897
 42
9.424777960769482
  0
ELLIPSE
  5
20D
330
1F9
100
AcDbEntity
  8
Pel_wal
 62
     9
100
AcDbEllipse
 10
0.9469625963422458
 20
0.1045499723940679
 30
0.0
 11
-0.0339494177336768
 21
0.0000000000000027
 31
0.0
210
0.0
220
0.0
230
1.0
 40
0.7499999999999738
 41
3.141592653589897
 42
9.424777960769482
  0
ELLIPSE
  5
20E
330
1F9
100
AcDbEntity
  8
Pel_wal
 62
     9
100
AcDbEllipse
 10
0.1637557797459976
 20
0.0541942679002432
 30
0.0
 11
0.0166728848683988
 21
0.0000000000000105
 31
0.0
210
0.0
220
0.0
230
1.0
 40
0.7500000000000001
 41
-0.0000000000008402
 42
6.283185307178746
  0
ELLIPSE
  5
20F
330
1F9
100
AcDbEntity
  8
Pel_wal
 62
     9
100
AcDbEllipse
 10
0.195579418202442
 20
0.1111756241562602
 30
0.0
 11
0.0166728848683988
 21
0.0000000000000105
 31
0.0
210
0.0
220
0.0
230
1.0
 40
0.7500000000000001
 41
-0.0000000000008402
 42
6.283185307178746
  0
ELLIPSE
  5
210
330
1F9
100
AcDbEntity
  8
Pel_wal
 62
     9
100
AcDbEllipse
 10
0.2415462586329795
 20
0.1933338937826079
 30
0.0
 11
0.0166728848683988
 21
0.0000000000000105
 31
0.0
210
0.0
220
0.0
230
1.0
 40
0.7500000000000001
 41
-0.0000000000008402
 42
6.283185307178746
  0
ELLIPSE
  5
211
330
1F9
100
AcDbEntity
  8
Pel_wal
 62
     9
100
AcDbEllipse
 10
0.2203304996621682
 20
0.2516400048405671
 30
0.0
 11
0.0166728848683988
 21
0.0000000000000105
 31
0.0
210
0.0
220
0.0
230
1.0
 40
0.7500000000000001
 41
-0.0000000000008402
 42
6.283185307178746
  0
ELLIPSE
  5
212
330
1F9
100
AcDbEntity
  8
Pel_wal
 62
     9
100
AcDbEllipse
 10
0.3228720600093311
 20
0.2383887013161825
 30
0.0
 11
0.0166728848683988
 21
0.0000000000000105
 31
0.0
210
0.0
220
0.0
230
1.0
 40
0.7500000000000001
 41
-0.0000000000008402
 42
6.283185307178746
  0
ELLIPSE
  5
213
330
1F9
100
AcDbEntity
  8
Pel_wal
 62
     9
100
AcDbEllipse
 10
0.3458545242153832
 20
0.0422686580542973
 30
0.0
 11
0.0166728848683988
 21
0.0000000000000105
 31
0.0
210
0.0
220
0.0
230
1.0
 40
0.7500000000000001
 41
-0.0000000000008402
 42
6.283185307178746
  0
ELLIPSE
  5
214
330
1F9
100
AcDbEntity
  8
Pel_wal
 62
     9
100
AcDbEllipse
 10
0.443092144819957
 20
0.1827330387384336
 30
0.0
 11
0.0166728848683988
 21
0.0000000000000105
 31
0.0
210
0.0
220
0.0
230
1.0
 40
0.7500000000000001
 41
-0.0000000000008402
 42
6.283185307178746
  0
ELLIPSE
  5
215
330
1F9
100
AcDbEntity
  8
Pel_wal
 62
     9
100
AcDbEllipse
 10
0.5244179461958538
 20
0.2463391078801465
 30
0.0
 11
0.0166728848683988
 21
0.0000000000000105
 31
0.0
210
0.0
220
0.0
230
1.0
 40
0.7500000000000001
 41
-0.0000000000008402
 42
6.283185307178746
  0
ELLIPSE
  5
216
330
1F9
100
AcDbEntity
  8
Pel_wal
 62
     9
100
AcDbEllipse
 10
0.5385630601888352
 20
0.1191260307202242
 30
0.0
 11
0.0166728848683988
 21
0.0000000000000105
 31
0.0
210
0.0
220
0.0
230
1.0
 40
0.7500000000000001
 41
-0.0000000000008402
 42
6.283185307178746
  0
ELLIPSE
  5
217
330
1F9
100
AcDbEntity
  8
Pel_wal
 62
     9
100
AcDbEllipse
 10
0.6075123648258796
 20
0.0475686161380509
 30
0.0
 11
0.0166728848683988
 21
0.0000000000000105
 31
0.0
210
0.0
220
0.0
230
1.0
 40
0.7500000000000001
 41
-0.0000000000008402
 42
6.283185307178746
  0
ELLIPSE
  5
218
330
1F9
100
AcDbEntity
  8
Pel_wal
 62
     9
100
AcDbEllipse
 10
0.7595580001113831
 20
0.1018995239138576
 30
0.0
 11
0.0166728848683988
 21
0.0000000000000105
 31
0.0
210
0.0
220
0.0
230
1.0
 40
0.7500000000000001
 41
-0.0000000000008402
 42
6.283185307178746
  0
ELLIPSE
  5
219
330
1F9
100
AcDbEntity
  8
Pel_wal
 62
     9
100
AcDbEllipse
 10
0.7224304219123497
 20
0.1893586905006259
 30
0.0
 11
0.0166728848683988
 21
0.0000000000000105
 31
0.0
210
0.0
220
0.0
230
1.0
 40
0.7500000000000001
 41
-0.0000000000008402
 42
6.283185307178746
  0
ELLIPSE
  5
21A
330
1F9
100
AcDbEntity
  8
Pel_wal
 62
     9
100
AcDbEllipse
 10
0.8232033650058383
 20
0.2423639045981645
 30
0.0
 11
0.0166728848683988
 21
0.0000000000000105
 31
0.0
210
0.0
220
0.0
230
1.0
 40
0.7500000000000001
 41
-0.0000000000008402
 42
6.283185307178746
  0
ELLIPSE
  5
21B
330
1F9
100
AcDbEntity
  8
Pel_wal
 62
     9
100
AcDbEllipse
 10
0.885082024664598
 20
0.1747816932979731
 30
0.0
 11
0.0166728848683988
 21
0.0000000000000105
 31
0.0
210
0.0
220
0.0
230
1.0
 40
0.7500000000000001
 41
-0.0000000000008402
 42
6.283185307178746
  0
ELLIPSE
  5
21C
330
1F9
100
AcDbEntity
  8
Pel_wal
 62
     9
100
AcDbEllipse
 10
0.9717117657835387
 20
0.1761073869762413
 30
0.0
 11
0.0166728848683988
 21
0.0000000000000105
 31
0.0
210
0.0
220
0.0
230
1.0
 40
0.7500000000000001
 41
-0.0000000000008402
 42
6.283185307178746
  0
ELLIPSE
  5
21D
330
1F9
100
AcDbEntity
  8
Pel_wal
 62
     9
100
AcDbEllipse
 10
0.8780094676683347
 20
0.1151508274382422
 30
0.0
 11
0.0166728848683988
 21
0.0000000000000105
 31
0.0
210
0.0
220
0.0
230
1.0
 40
0.7500000000000001
 41
-0.0000000000008402
 42
6.283185307178746
  0
ELLIPSE
  5
21E
330
1F9
100
AcDbEntity
  8
Pel_wal
 62
     9
100
AcDbEllipse
 10
0.9169056631210423
 20
0.0449191065345076
 30
0.0
 11
0.0166728848683988
 21
0.0000000000000105
 31
0.0
210
0.0
220
0.0
230
1.0
 40
0.7500000000000001
 41
-0.0000000000008402
 42
6.283185307178746
  0
POINT
  5
21F
330
1F9
100
AcDbEntity
  8
Pel_wal
 62
     9
100
AcDbPoint
 10
0.0
 20
0.0165330302862117
 30
0.0
  0
ENDBLK
  5
220
330
1F9
100
AcDbEntity
  8
0
 62
     4
100
AcDbBlockEnd
  0
BLOCK
  5
275
330
272
100
AcDbEntity
  8
0
100
AcDbBlockBegin
  2
clip
 70
     0
 10
0.0
 20
0.0
 30
0.0
  3
clip
  1

  0
LINE
  5
276
330
272
100
AcDbEntity
  8
0
 62
     4
100
AcDbLine
 10
0.2912668743715585
 20
0.0000000451817641
 30
0.0
 11
0.2312668743711583
 21
0.0000000451817641
 31
0.0
  0
LINE
  5
277
330
272
100
AcDbEntity
  8
0
 62
     4
100
AcDbLine
 10
0.2312668743711583
 20
0.0000000451817641
 30
0.0
 11
0.2312668743711583
 21
0.4800000451817823
 31
0.0
  0
LINE
  5
278
330
272
100
AcDbEntity
  8
0
 62
     4
100
AcDbLine
 10
0.1652668743713548
 20
0.3800000451817596
 30
0.0
 11
0.0732668743712566
 21
0.2700000451818028
 31
0.0
  0
LINE
  5
279
330
272
100
AcDbEntity
  8
0
 62
     4
100
AcDbLine
 10
0.0732668743712566
 20
0.2700000451818028
 30
0.0
 11
0.063266874371493
 21
0.2700000451818028
 31
0.0
  0
LINE
  5
27A
330
272
100
AcDbEntity
  8
0
 62
     4
100
AcDbLine
 10
0.063266874371493
 20
0.2700000451818028
 30
0.0
 11
0.0006976791692068
 21
0.5125037505250134
 31
0.0
  0
LINE
  5
27B
330
272
100
AcDbEntity
  8
0
 62
     4
100
AcDbLine
 10
0.0968503565472929
 20
0.3800000451818164
 30
0.0
 11
0.1652668743713548
 21
0.3800000451817596
 31
0.0
  0
LINE
  5
27C
330
272
100
AcDbEntity
  8
0
 62
     4
100
AcDbLine
 10
0.0710490208052761
 20
0.4800000451817823
 30
0.0
 11
0.0968503565472929
 21
0.3800000451818164
 31
0.0
  0
LINE
  5
27D
330
272
100
AcDbEntity
  8
0
 62
     4
100
AcDbLine
 10
0.2312668743711583
 20
0.4800000451817823
 30
0.0
 11
0.0710490208052761
 21
0.4800000451817823
 31
0.0
  0
ARC
  5
27E
330
272
100
AcDbEntity
  8
0
 62
     4
100
AcDbCircle
 10
0.0220000439453543
 20
0.5180000451817933
 30
0.0
 40
0.0219999999999942
100
AcDbArc
 50
89.99999999997395
 51
194.4675459077045
  0
LINE
  5
27F
330
272
100
AcDbEntity
  8
0
 62
     4
100
AcDbLine
 10
0.0220000439453543
 20
0.5400000451817846
 30
0.0
 11
0.2312668743711583
 21
0.5400000451817846
 31
0.0
  0
LINE
  5
280
330
272
100
AcDbEntity
  8
0
 62
     4
100
AcDbLine
 10
0.2912668743715585
 20
1.080000045181805
 30
0.0
 11
0.2312668743711583
 21
1.080000045181805
 31
0.0
  0
LINE
  5
281
330
272
100
AcDbEntity
  8
0
 62
     4
100
AcDbLine
 10
0.2912668743715585
 20
0.000000045181821
 30
0.0
 11
0.2912668743715585
 21
1.080000045181805
 31
0.0
  0
LINE
  5
282
330
272
100
AcDbEntity
  8
0
 62
     4
100
AcDbLine
 10
0.2312668743711583
 20
1.080000045181805
 30
0.0
 11
0.2312668743711583
 21
0.5400000451817846
 31
0.0
  0
ENDBLK
  5
283
330
272
100
AcDbEntity
  8
0
100
AcDbBlockEnd
  0
BLOCK
  5
1A9
330
1A6
100
AcDbEntity
  8
0
100
AcDbBlockBegin
  2
10sillvinyl
 70
     0
 10
0.0
 20
0.0
 30
0.0
  3
10sillvinyl
  1

  0
HATCH
  5
1AA
330
1A6
100
AcDbEntity
  8
Pel_Wall
100
AcDbHatch
 10
0.0
 20
0.0
 30
0.0
210
0.0
220
0.0
230
1.0
  2
PLY
 70
     0
 71
     1
 91
        1
 92
        1
 93
        4
 72
     1
 10
1.274911147718519
 20
-5.274999999999996
 11
1.774911147718519
 21
-5.274999999999996
 72
     1
 10
1.774911147718519
 20
-5.274999999999996
 11
1.774911147718519
 21
-0.3999999999999968
 72
     1
 10
1.774911147718519
 20
-0.3999999999999968
 11
1.274911147718519
 21
-0.3999999999999968
 72
     1
 10
1.274911147718519
 20
-0.3999999999999968
 11
1.274911147718519
 21
-5.274999999999996
 97
        1
330
1AC
 75
     0
 76
     1
 52
90.0
 41
1.0
 77
     0
 78
     2
 53
270.0
 43
-827.4750888522815
 44
153.6555555555547
 45
-0.125
 46
0.0
 79
     0
 53
225.0
 43
-827.3500888522814
 44
153.6555555555547
 45
-0.3535533905932738
 46
0.3535533905932737
 79
     0
 98
        1
 10
-827.3500888522814
 20
153.6555555555547
  0
POLYLINE
  5
1AC
102
{ACAD_REACTORS
330
1AA
102
}
330
1A6
100
AcDbEntity
  8
Pel_Wall
100
AcDb2dPolyline
 66
     1
 10
0.0
 20
0.0
 30
0.0
 70
     1
  0
VERTEX
  5
1AD
330
1AC
100
AcDbEntity
  8
Pel_Wall
100
AcDbVertex
100
AcDb2dVertex
 10
1.274911147718519
 20
-5.274999999999996
 30
0.0
  0
VERTEX
  5
1AE
330
1AC
100
AcDbEntity
  8
Pel_Wall
100
AcDbVertex
100
AcDb2dVertex
 10
1.774911147718519
 20
-5.274999999999996
 30
0.0
  0
VERTEX
  5
1AF
330
1AC
100
AcDbEntity
  8
Pel_Wall
100
AcDbVertex
100
AcDb2dVertex
 10
1.774911147718519
 20
-0.3999999999999968
 30
0.0
  0
VERTEX
  5
1B0
330
1AC
100
AcDbEntity
  8
Pel_Wall
100
AcDbVertex
100
AcDb2dVertex
 10
1.274911147718519
 20
-0.3999999999999968
 30
0.0
  0
SEQEND
  5
1B1
330
1AC
100
AcDbEntity
  8
Pel_Wall
  0
POLYLINE
  5
1B2
102
{ACAD_REACTORS
330
1C8
102
}
330
1A6
100
AcDbEntity
  8
Pel_Wall
100
AcDb2dPolyline
 66
     1
 10
0.0
 20
0.0
 30
0.0
 70
     1
  0
VERTEX
  5
1B3
330
1B2
100
AcDbEntity
  8
Pel_Wall
100
AcDbVertex
100
AcDb2dVertex
 10
5.274911147718519
 20
-5.274999999999996
 30
0.0
  0
VERTEX
  5
1B4
330
1B2
100
AcDbEntity
  8
Pel_Wall
100
AcDbVertex
100
AcDb2dVertex
 10
5.899911147718519
 20
-5.274999999999993
 30
0.0
  0
VERTEX
  5
1B5
330
1B2
100
AcDbEntity
  8
Pel_Wall
100
AcDbVertex
100
AcDb2dVertex
 10
5.899911147718519
 20
-0.3999999999999968
 30
0.0
  0
VERTEX
  5
1B6
330
1B2
100
AcDbEntity
  8
Pel_Wall
100
AcDbVertex
100
AcDb2dVertex
 10
5.899911147718519
 20
-0.3999999999999968
 30
0.0
  0
VERTEX
  5
1B7
330
1B2
100
AcDbEntity
  8
Pel_Wall
100
AcDbVertex
100
AcDb2dVertex
 10
5.274911147718519
 20
-0.3999999999999968
 30
0.0
  0
VERTEX
  5
1B8
330
1B2
100
AcDbEntity
  8
Pel_Wall
100
AcDbVertex
100
AcDb2dVertex
 10
5.274911147718519
 20
-0.3999999999999968
 30
0.0
  0
SEQEND
  5
1B9
330
1B2
100
AcDbEntity
  8
Pel_Wall
  0
INSERT
  5
1BA
330
1A6
100
AcDbEntity
  8
Pel_Wall
100
AcDbBlockReference
  2
2x
 10
1.774911147718519
 20
-0.3999999999999968
 30
0.0
 41
-3.5
 42
1.5
 43
5.525426194272476
 50
180.0
  0
HATCH
  5
1C8
330
1A6
100
AcDbEntity
  8
Pel_Wall
100
AcDbHatch
 10
0.0
 20
0.0
 30
0.0
210
0.0
220
0.0
230
1.0
  2
GYP
 70
     0
 71
     1
 91
        1
 92
        1
 93
        4
 72
     1
 10
5.274911147718519
 20
-5.274999999999996
 11
5.899911147718519
 21
-5.274999999999993
 72
     1
 10
5.899911147718519
 20
-5.274999999999993
 11
5.899911147718519
 21
-0.3999999999999968
 72
     1
 10
5.899911147718519
 20
-0.3999999999999968
 11
5.274911147718519
 21
-0.3999999999999968
 72
     1
 10
5.274911147718519
 20
-0.3999999999999968
 11
5.274911147718519
 21
-5.274999999999996
 97
        1
330
1B2
 75
     0
 76
     1
 52
0.0
 41
1.0
 77
     0
 78
     3
 53
0.0
 43
-3.44383885228148
 44
0.5001504765552145
 45
0.18
 46
0.5
 79
     2
 49
0.0
 49
-0.3
 53
30.0
 43
-3.413838852281479
 44
0.6201504765552138
 45
-0.094115427318801
 46
0.5230127018922194
 79
     2
 49
0.0
 49
-0.3
 53
60.0
 43
-3.383838852281478
 44
0.6801504765552143
 45
-0.3430127018922193
 46
0.405884572681199
 79
     2
 49
0.0
 49
-0.3
 98
        1
 10
-3.44383885228148
 20
0.5001504765552145
  0
INSERT
  5
1C9
330
1A6
100
AcDbEntity
  8
Pel_Wall
100
AcDbBlockReference
  2
Insul1
 10
5.274911147718519
 20
-1.899999999999996
 30
0.0
 41
3.5
 42
3.25
 50
180.0
  0
LINE
  5
1DB
330
1A6
100
AcDbEntity
  8
Pel_Wall
  6
Continuous
100
AcDbLine
 10
0.9742962873573546
 20
-0.8585137151526307
 30
0.0
 11
1.706621152267324
 21
-0.8585137151526307
 31
0.0
  0
LINE
  5
1DC
330
1A6
100
AcDbEntity
  8
Pel_Wall
  6
Continuous
100
AcDbLine
 10
1.036796287357354
 20
-0.9835137151526307
 30
0.0
 11
1.036796287357354
 21
-0.7335137151526308
 31
0.0
  0
LINE
  5
1DD
330
1A6
100
AcDbEntity
  8
Pel_Wall
  6
Continuous
100
AcDbLine
 10
2.206621152267324
 20
-0.8585137151526307
 30
0.0
 11
2.956621152267324
 21
-0.8585137151526307
 31
0.0
  0
LINE
  5
1DE
330
1A6
100
AcDbEntity
  8
Pel_Wall
  6
Continuous
100
AcDbLine
 10
1.831621152267324
 20
-0.8585137151526307
 30
0.0
 11
2.081621152267324
 21
-0.8585137151526307
 31
0.0
  0
POLYLINE
  5
1DF
330
1A6
100
AcDbEntity
  8
Pel_Wall
  6
Continuous
100
AcDb2dPolyline
 66
     1
 10
0.0
 20
0.0
 30
0.0
  0
VERTEX
  5
1E0
330
1DF
100
AcDbEntity
  8
Pel_Wall
  6
Continuous
100
AcDbVertex
100
AcDb2dVertex
 10
2.699154750443206
 20
-0.3174999999999937
 30
0.0
  0
VERTEX
  5
1E1
330
1DF
100
AcDbEntity
  8
Pel_Wall
  6
Continuous
100
AcDbVertex
100
AcDb2dVertex
 10
1.214833013869558
 20
-0.3174999999999972
 30
0.0
  0
VERTEX
  5
1E2
330
1DF
100
AcDbEntity
  8
Pel_Wall
  6
Continuous
100
AcDbVertex
100
AcDb2dVertex
 10
1.214833013869558
 20
-5.274999999999996
 30
0.0
  0
SEQEND
  5
1E3
330
1DF
100
AcDbEntity
  8
Pel_Wall
  6
Continuous
  0
POLYLINE
  5
1E4
330
1A6
100
AcDbEntity
  8
Pel_Wall
  6
Continuous
100
AcDb2dPolyline
 66
     1
 10
0.0
 20
0.0
 30
0.0
  0
VERTEX
  5
1E5
330
1E4
100
AcDbEntity
  8
Pel_Wall
  6
Continuous
100
AcDbVertex
100
AcDb2dVertex
 10
2.699154750443206
 20
-0.3374999999999932
 30
0.0
  0
VERTEX
  5
1E6
330
1E4
100
AcDbEntity
  8
Pel_Wall
  6
Continuous
100
AcDbVertex
100
AcDb2dVertex
 10
1.234833013869554
 20
-0.3374999999999968
 30
0.0
  0
VERTEX
  5
1E7
330
1E4
100
AcDbEntity
  8
Pel_Wall
  6
Continuous
100
AcDbVertex
100
AcDb2dVertex
 10
1.234833013869554
 20
-5.274999999999996
 30
0.0
  0
SEQEND
  5
1E8
330
1E4
100
AcDbEntity
  8
Pel_Wall
  6
Continuous
  0
POLYLINE
  5
1E9
330
1A6
100
AcDbEntity
  8
Pel_Wall
  6
Continuous
100
AcDb2dPolyline
 66
     1
 10
0.0
 20
0.0
 30
0.0
  0
VERTEX
  5
1EA
330
1E9
100
AcDbEntity
  8
Pel_Wall
  6
Continuous
100
AcDbVertex
100
AcDb2dVertex
 10
2.618406280783354
 20
-0.2549999999999972
 30
0.0
  0
VERTEX
  5
1EB
330
1E9
100
AcDbEntity
  8
Pel_Wall
  6
Continuous
100
AcDbVertex
100
AcDb2dVertex
 10
1.152333013869558
 20
-0.2549999999999972
 30
0.0
  0
VERTEX
  5
1EC
330
1E9
100
AcDbEntity
  8
Pel_Wall
  6
Continuous
100
AcDbVertex
100
AcDb2dVertex
 10
1.152333013869558
 20
-2.337499999999996
 30
0.0
  0
VERTEX
  5
1ED
330
1E9
100
AcDbEntity
  8
Pel_Wall
  6
Continuous
100
AcDbVertex
100
AcDb2dVertex
 10
1.152333013869558
 20
-2.337499999999996
 30
0.0
  0
VERTEX
  5
1EE
330
1E9
100
AcDbEntity
  8
Pel_Wall
  6
Continuous
100
AcDbVertex
100
AcDb2dVertex
 10
1.152333013869558
 20
-2.337499999999996
 30
0.0
  0
SEQEND
  5
1EF
330
1E9
100
AcDbEntity
  8
Pel_Wall
  6
Continuous
  0
POLYLINE
  5
1F0
330
1A6
100
AcDbEntity
  8
Pel_Wall
  6
Continuous
100
AcDb2dPolyline
 66
     1
 10
0.0
 20
0.0
 30
0.0
  0
VERTEX
  5
1F1
330
1F0
100
AcDbEntity
  8
Pel_Wall
100
AcDbVertex
100
AcDb2dVertex
 10
2.618406280783354
 20
-0.2749999999999968
 30
0.0
  0
VERTEX
  5
1F2
330
1F0
100
AcDbEntity
  8
Pel_Wall
100
AcDbVertex
100
AcDb2dVertex
 10
1.172333013869554
 20
-0.2749999999999968
 30
0.0
  0
VERTEX
  5
1F3
330
1F0
100
AcDbEntity
  8
Pel_Wall
100
AcDbVertex
100
AcDb2dVertex
 10
1.172333013869554
 20
-2.337499999999996
 30
0.0
  0
VERTEX
  5
1F4
330
1F0
100
AcDbEntity
  8
Pel_Wall
100
AcDbVertex
100
AcDb2dVertex
 10
1.172333013869554
 20
-2.337499999999996
 30
0.0
  0
VERTEX
  5
1F5
330
1F0
100
AcDbEntity
  8
Pel_Wall
100
AcDbVertex
100
AcDb2dVertex
 10
1.172333013869554
 20
-2.337499999999996
 30
0.0
  0
SEQEND
  5
1F6
330
1F0
100
AcDbEntity
  8
Pel_Wall
  6
Continuous
  0
INSERT
  5
1F7
330
1A6
100
AcDbEntity
  8
Pel_wal
 62
     4
100
AcDbBlockReference
  2
.25foam9
 10
1.581315779547459
 20
-0.276455546953315
 30
0.0
  0
POINT
  5
221
330
1A6
100
AcDbEntity
  8
Pel_Points
100
AcDbPoint
 10
0.0
 20
0.0
 30
0.0
  0
INSERT
  5
223
330
1A6
100
AcDbEntity
  8
0
100
AcDbBlockReference
  2
Shim
 10
2.605863835390891
 20
0.0000000000000071
 30
0.0
 41
1.448017529908938
 42
0.2431094046593856
 43
1.448017529908938
 50
180.0
  0
POLYLINE
  5
232
330
1A6
100
AcDbEntity
  8
Pel_Wall
100
AcDb2dPolyline
 66
     1
 10
0.0
 20
0.0
 30
0.0
  0
VERTEX
  5
233
330
232
100
AcDbEntity
  8
Pel_Wall
100
AcDbVertex
100
AcDb2dVertex
 10
0.2443760468618947
 20
-5.274999999999998
 30
0.0
 42
0.0414281355104112
  0
VERTEX
  5
234
330
232
100
AcDbEntity
  8
Pel_Wall
100
AcDbVertex
100
AcDb2dVertex
 10
0.8374143134196359
 20
-1.31069179738246
 30
0.0
 42
0.4303548136986456
  0
VERTEX
  5
235
330
232
100
AcDbEntity
  8
Pel_Wall
100
AcDbVertex
100
AcDb2dVertex
 10
0.7874893529339105
 20
-1.257953491245743
 30
0.0
  0
VERTEX
  5
236
330
232
100
AcDbEntity
  8
Pel_Wall
100
AcDbVertex
100
AcDb2dVertex
 10
0.2603106528208841
 20
-1.257953491245743
 30
0.0
 42
-0.5032064810093642
  0
VERTEX
  5
237
330
232
100
AcDbEntity
  8
Pel_Wall
100
AcDbVertex
100
AcDb2dVertex
 10
0.1646026204203324
 20
-1.12897121159051
 30
0.0
 42
0.0535839369619859
  0
VERTEX
  5
238
330
232
100
AcDbEntity
  8
Pel_Wall
100
AcDbVertex
100
AcDb2dVertex
 10
0.5911993496004869
 20
-0.0000000000000018
 30
0.0
  0
SEQEND
  5
239
330
232
100
AcDbEntity
  8
Pel_Wall
  0
POLYLINE
  5
23A
330
1A6
100
AcDbEntity
  8
Pel_Wall
100
AcDb2dPolyline
 66
     1
 10
0.0
 20
0.0
 30
0.0
  0
VERTEX
  5
23B
330
23A
100
AcDbEntity
  8
Pel_Wall
100
AcDbVertex
100
AcDb2dVertex
 10
0.6552466939668023
 20
-0.0000000000000018
 30
0.0
 42
-0.0586594620963975
  0
VERTEX
  5
23C
330
23A
100
AcDbEntity
  8
Pel_Wall
100
AcDbVertex
100
AcDb2dVertex
 10
0.2124566366206082
 20
-1.143462351418122
 30
0.0
 42
0.5032064810093626
  0
VERTEX
  5
23D
330
23A
100
AcDbEntity
  8
Pel_Wall
100
AcDbVertex
100
AcDb2dVertex
 10
0.2603106528208841
 20
-1.207953491245746
 30
0.0
  0
VERTEX
  5
23E
330
23A
100
AcDbEntity
  8
Pel_Wall
100
AcDbVertex
100
AcDb2dVertex
 10
0.7874893529339105
 20
-1.207953491245746
 30
0.0
 42
-0.4303548136986371
  0
VERTEX
  5
23F
330
23A
100
AcDbEntity
  8
Pel_Wall
100
AcDbVertex
100
AcDb2dVertex
 10
0.8873392739053755
 20
-1.313430103519181
 30
0.0
 42
-0.0397436746041886
  0
VERTEX
  5
240
330
23A
100
AcDbEntity
  8
Pel_Wall
100
AcDbVertex
100
AcDb2dVertex
 10
0.2952639203278835
 20
-5.274999999999998
 30
0.0
  0
VERTEX
  5
241
330
23A
100
AcDbEntity
  8
Pel_Wall
100
AcDbVertex
100
AcDb2dVertex
 10
0.2443760468618947
 20
-5.274999999999998
 30
0.0
 42
0.0161349525268513
  0
SEQEND
  5
242
330
23A
100
AcDbEntity
  8
Pel_Wall
  0
ENDBLK
  5
243
330
1A6
100
AcDbEntity
  8
0
100
AcDbBlockEnd
  0
BLOCK
  5
16D
330
16A
100
AcDbEntity
  8
0
100
AcDbBlockBegin
  2
TSE10SHHF-J
 70
     0
 10
0.0
 20
0.0
 30
0.0
  3
TSE10SHHF-J
  1

  0
LINE
  5
16E
330
16A
100
AcDbEntity
  8
Pel_CS-Sealant
100
AcDbLine
 10
0.3757500000000213
 20
-1.4375
 30
0.0
 11
0.3430000000000213
 21
-1.4375
 31
0.0
  0
LINE
  5
16F
330
16A
100
AcDbEntity
  8
Pel_CS-Sealant
100
AcDbLine
 10
0.8102500000000283
 20
-1.4375
 30
0.0
 11
0.8430000000000283
 21
-1.4375
 31
0.0
  0
ARC
  5
170
330
16A
100
AcDbEntity
  8
Pel_CS-Sealant
100
AcDbCircle
 10
0.5929999999999876
 20
0.5863021856022073
 30
0.0
 40
1.630695913509721
100
AcDbArc
 50
261.181275842964
 51
278.8187241570384
  0
ARC
  5
171
330
16A
100
AcDbEntity
  8
Pel_CS-Sealant
100
AcDbCircle
 10
0.5930000000000053
 20
0.570955963518415
 30
0.0
 40
1.640349691425935
100
AcDbArc
 50
261.233585816161
 51
278.7664141838405
  0
ARC
  5
172
330
16A
100
AcDbEntity
  8
Pel_CS-Sealant
100
AcDbCircle
 10
0.5929999999999876
 20
0.5556101585692233
 30
0.0
 40
1.650003886476739
100
AcDbArc
 50
261.285278668164
 51
278.7147213318384
  0
LINE
  5
173
330
16A
100
AcDbEntity
  8
Pel_CS-Sealant
100
AcDbLine
 10
0.3757500000000213
 20
-1.122500000000002
 30
0.0
 11
0.3430000000000213
 21
-1.122500000000002
 31
0.0
  0
LINE
  5
174
330
16A
100
AcDbEntity
  8
Pel_CS-Sealant
100
AcDbLine
 10
0.8102500000000283
 20
-1.122500000000002
 30
0.0
 11
0.8430000000000283
 21
-1.122500000000002
 31
0.0
  0
LWPOLYLINE
  5
175
330
16A
100
AcDbEntity
  8
Pel_CS-Weatherstrip
  6
Continuous
100
AcDbPolyline
 90
        4
 70
     1
 43
0.0
 10
1.030000000000015
 20
-1.125000000000028
 10
0.9680000000000177
 20
-1.125000000000028
 10
0.9680000000000177
 20
-1.500000000000028
 10
1.030000000000015
 20
-1.500000000000028
  0
LWPOLYLINE
  5
176
330
16A
100
AcDbEntity
  8
Pel_CS-Cross Section
  6
Continuous
 62
     4
100
AcDbPolyline
 90
      142
 70
     1
 43
0.0
 10
2.630000000000002
 20
0.0
 10
1.152999999999998
 20
0.0
 42
-0.4142135623730951
 10
1.123000000000001
 20
0.0299999999999976
 10
1.123000000000001
 20
1.594999999999998
 42
1.0
 10
1.063000000000002
 20
1.594999999999998
 10
1.063
 20
0.0300000000000011
 42
-0.4142135623730864
 10
1.033000000000001
 20
0.0
 10
0.3280000000000012
 20
0.0
 42
-0.4142135623730604
 10
0.3130000000000024
 20
0.0150000000000006
 10
0.3130000000000024
 20
0.7199999999999989
 42
0.1011114215733001
 10
0.3105957660594605
 20
0.7317674846756504
 10
0.2530000000000001
 20
0.6741717186161936
 10
0.2530000000000001
 20
0.0150000000000006
 42
-0.4142135623730604
 10
0.2380000000000013
 20
0.0
 10
0.0713681214588888
 20
0.0
 42
-0.0682301863561021
 10
0.0673310440127466
 20
0.0005534777301293
 10
0.0673310440127466
 20
-0.0621086418843646
 42
-0.1349744624600708
 10
0.0750000000000011
 20
-0.0599999999999987
 10
0.8599999999999994
 20
-0.0599999999999987
 42
-0.3314654104347612
 10
0.8743714154684312
 20
-0.0707032084721604
 10
0.9156285845315679
 20
-0.0707032084721604
 42
-0.3314654104347612
 10
0.9299999999999997
 20
-0.0599999999999987
 10
1.381999999999997
 20
-0.0599999999999987
 42
-0.2809646916873393
 10
1.395338127121675
 20
-0.0681374665839769
 10
1.448661872878325
 20
-0.0681374665839769
 42
-0.2809646916873234
 10
1.461999999999999
 20
-0.0599999999999987
 10
2.355
 20
-0.0599999999999987
 42
-0.4142135623730604
 10
2.37
 20
-0.0749999999999993
 10
2.37
 20
-0.222999999999999
 42
0.4142135623730951
 10
2.445
 20
-0.2979999999999983
 10
2.634999999999998
 20
-0.2979999999999983
 42
-0.4142135623730951
 10
2.649999999999998
 20
-0.3129999999999988
 10
2.649999999999998
 20
-0.8449999999999988
 42
-0.4142135623730951
 10
2.634999999999998
 20
-0.8599999999999994
 10
1.461999999999999
 20
-0.8599999999999994
 42
-0.4142135623731298
 10
1.446999999999999
 20
-0.8449999999999988
 10
1.446999999999999
 20
-0.0749999999999993
 42
-0.1193580537004335
 10
1.448661872878322
 20
-0.0681374665839769
 10
1.395338127121675
 20
-0.0681374665839769
 42
-0.1193580537004335
 10
1.396999999999998
 20
-0.0749999999999993
 10
1.396999999999998
 20
-0.8449999999999988
 42
-0.4142135623730604
 10
1.381999999999997
 20
-0.8599999999999994
 10
1.368484692283495
 20
-0.8599999999999994
 42
0.3178372451957879
 10
1.29777401416484
 20
-0.9100000000000001
 42
-0.317837245195743
 10
1.283631878541108
 20
-0.9199999999999981
 10
1.105
 20
-0.9199999999999981
 42
-0.4142135623730604
 10
1.089999999999999
 20
-0.9050000000000011
 10
1.089999999999999
 20
-0.7650000000000006
 42
0.4142135623730985
 10
1.015
 20
-0.6899999999999978
 10
0.9299999999999997
 20
-0.6899999999999978
 42
-0.4142135623730777
 10
0.9149999999999991
 20
-0.6750000000000007
 10
0.9149999999999991
 20
-0.0749999999999993
 42
-0.07275858272187
 10
0.9156285845315679
 20
-0.0707032084721604
 10
0.8743714154684312
 20
-0.0707032084721604
 42
-0.0727585827219019
 10
0.875
 20
-0.0749999999999993
 10
0.875
 20
-0.6749999999999972
 42
-0.4142135623730951
 10
0.8599999999999994
 20
-0.6899999999999978
 10
0.6850000000000005
 20
-0.6899999999999978
 42
0.4142135623731022
 10
0.6099999999999995
 20
-0.7650000000000006
 10
0.6099999999999995
 20
-0.7999999999999972
 42
-0.4142135623730951
 10
0.5950000000000007
 20
-0.8149999999999977
 10
0.3099999999999987
 20
-0.8149999999999977
 42
-0.4142135623730777
 10
0.2949999999999981
 20
-0.8000000000000007
 10
0.2949999999999981
 20
-0.6499999999999915
 42
0.4142135623730951
 10
0.2099999999999991
 20
-0.5649999999999942
 10
0.0749999999999993
 20
-0.5649999999999942
 42
-0.4142135623730431
 10
0.0600000000000005
 20
-0.5499999999999972
 10
0.0600000000000005
 20
-0.0750000000000029
 42
-0.2644539420347681
 10
0.0673310440127466
 20
-0.0621086418843646
 10
0.0673310440127466
 20
0.0005534777301293
 42
-0.2443089518302645
 10
0.05722598583516
 20
0.009999999999998
 42
0.2870002859234644
 10
-0.0050272233395141
 20
0.0595216157840248
 42
-0.3126767901424603
 10
-0.0178855818594741
 20
0.0707787759621006
 10
-0.0951182351347146
 20
0.378887765092049
 42
0.2674253991233651
 10
-0.1471445827797488
 20
0.432732189096079
 42
-0.334402084591262
 10
-0.1579999999999995
 20
0.4471482368756128
 10
-0.1579999999999995
 20
0.6750000000000007
 42
-0.4142135623731125
 10
-0.1429999999999989
 20
0.6900000000000013
 10
0.2380000000000013
 20
0.6900000000000013
 42
-0.4142135623730951
 10
0.2530000000000001
 20
0.6750000000000007
 10
0.2530000000000001
 20
0.6741717186161936
 10
0.3105957660594605
 20
0.7317674846756504
 42
0.3005160126628783
 10
0.283000000000003
 20
0.75
 10
-0.1879999999999988
 20
0.75
 42
0.4142135623730951
 10
-0.218
 20
0.7199999999999989
 10
-0.218
 20
0.3900000000000006
 42
0.4142135623730951
 10
-0.2029999999999994
 20
0.375
 10
-0.1677040744954237
 20
0.375
 42
-0.3439753268884086
 10
-0.153154222186668
 20
0.3636471629787259
 10
-0.064845777813332
 20
0.0113528370212706
 42
0.3439753268883663
 10
-0.0502959255045763
 20
0.0
 10
-0.0150000000000006
 20
0.0
 42
-0.4142135623730778
 10
0.0
 20
-0.0150000000000006
 10
0.0
 20
-0.8599999999999958
 42
0.4142135623730777
 10
0.0150000000000006
 20
-0.8749999999999928
 10
0.0700000000000003
 20
-0.8749999999999928
 42
0.9458235162657063
 10
0.0733333333333342
 20
-0.8151857602999967
 42
-0.3819660112501165
 10
0.0599999999999987
 20
-0.8002786404499993
 10
0.0599999999999987
 20
-0.6499999999999951
 42
-0.4142135623731054
 10
0.0850000000000009
 20
-0.6249999999999929
 10
0.2100000000000008
 20
-0.6249999999999929
 42
-0.4142135623730847
 10
0.2349999999999994
 20
-0.6499999999999951
 10
0.2349999999999994
 20
-0.8599999999999958
 42
0.4142135623730432
 10
0.25
 20
-0.8749999999999928
 10
0.6550000000000012
 20
-0.875
 42
0.4142135623730604
 10
0.6700000000000017
 20
-0.8599999999999994
 10
0.6700000000000017
 20
-0.7650000000000006
 42
-0.4142135623731298
 10
0.6850000000000005
 20
-0.75
 10
1.015
 20
-0.75
 42
-0.4142135623730951
 10
1.030000000000001
 20
-0.7650000000000006
 10
1.029999999999999
 20
-1.544169251100598
 10
1.089999999999999
 20
-1.484169251100599
 10
1.089999999999999
 20
-0.9750000000000014
 42
-0.4142135623730951
 10
1.105
 20
-0.9600000000000008
 10
1.280000000000001
 20
-0.9600000000000008
 42
-0.4142135623730604
 10
1.295000000000001
 20
-0.9749999999999978
 10
1.295000000000001
 20
-1.484999999999999
 42
-0.4142135623730951
 10
1.280000000000001
 20
-1.5
 10
1.105
 20
-1.5
 42
-0.4142135623730604
 10
1.089999999999999
 20
-1.484999999999999
 10
1.089999999999999
 20
-1.484169251100599
 10
1.030024395573803
 20
-1.544144855526795
 42
0.4310207701261786
 10
1.045000000000001
 20
-1.560000000000002
 10
1.325000000000002
 20
-1.560000000000002
 42
0.4142135623730864
 10
1.355
 20
-1.530000000000001
 10
1.355
 20
-0.9349999999999987
 42
-0.4142135623731125
 10
1.37
 20
-0.9199999999999981
 10
2.695
 20
-0.9199999999999981
 42
0.4142135623730951
 10
2.71
 20
-0.9049999999999975
 10
2.71
 20
-0.2530000000000001
 42
0.4142135623730951
 10
2.695
 20
-0.2379999999999995
 10
2.445
 20
-0.2379999999999995
 42
-0.4142135623730604
 10
2.429999999999999
 20
-0.2230000000000025
 10
2.429999999999999
 20
-0.0750000000000029
 42
-0.4142135623731298
 10
2.445
 20
-0.0599999999999987
 10
2.553
 20
-0.0599999999999987
 42
-0.4142135623731472
 10
2.568000000000001
 20
-0.0750000000000029
 10
2.568000000000001
 20
-0.105000000000004
 10
2.593000000000003
 20
-0.1050000000000004
 10
2.637500000000002
 20
-0.0793079130210615
 42
0.2679491924311458
 10
2.644999999999999
 20
-0.0663175319642946
 10
2.644999999999999
 20
-0.0150000000000006
 42
0.4142135623730432
  0
LWPOLYLINE
  5
177
330
16A
100
AcDbEntity
  8
Pel_CS-IG
  6
Continuous
100
AcDbPolyline
 90
        4
 70
     0
 43
0.0
 10
0.3430000000000204
 20
-4.515000000000004
 10
0.3430000000000213
 20
-0.9999999999999928
 10
0.2180000000000284
 20
-0.9999999999999928
 10
0.2180000000000275
 20
-4.515000000000004
  0
LWPOLYLINE
  5
178
330
16A
100
AcDbEntity
  8
Pel_CS-IG
  6
Continuous
100
AcDbPolyline
 90
        4
 70
     0
 43
0.0
 10
0.9680000000000275
 20
-4.515000000000004
 10
0.9680000000000283
 20
-1.0
 10
0.8430000000000283
 20
-0.9999999999999928
 10
0.8430000000000275
 20
-4.515000000000004
  0
HATCH
  5
179
330
16A
100
AcDbEntity
  8
Pel_CS-Sealant
100
AcDbHatch
 10
0.0
 20
0.0
 30
0.0
210
0.0
220
0.0
230
1.0
  2
DASH
 70
     0
 71
     0
 91
        2
 92
        1
 93
        4
 72
     1
 10
0.3746250000000266
 20
-1.188191049788841
 11
0.811375000000023
 21
-1.188191049788841
 72
     1
 10
0.811375000000023
 20
-1.188191049788841
 11
0.811375000000023
 21
-1.138499999999996
 72
     1
 10
0.811375000000023
 20
-1.138499999999996
 11
0.3746250000000266
 21
-1.138500000000007
 72
     1
 10
0.3746250000000266
 20
-1.138500000000007
 11
0.3746250000000266
 21
-1.188191049788841
 97
        0
 92
       49
 93
        1
 72
     1
 10
0.3746250000000266
 20
-1.188191049788841
 11
0.811375000000023
 21
-1.188191049788841
 97
        0
 75
     0
 76
     1
 52
30.0
 41
0.15
 77
     0
 78
     1
 53
330.0
 43
-5.251156177407562
 44
1.098326799724603
 45
0.0068629763209582
 46
-0.0256129763209582
 79
     2
 49
0.01875
 49
-0.01875
 98
        1
 10
-5.251156177407562
 20
1.098326799724603
  0
LWPOLYLINE
  5
17A
330
16A
100
AcDbEntity
  8
Pel_CS-Sealant
100
AcDbPolyline
 90
        4
 70
     1
 43
0.0
 10
0.3746250000000266
 20
-1.188191049788841
 10
0.811375000000023
 20
-1.188191049788841
 10
0.811375000000023
 20
-1.138499999999996
 10
0.3746250000000266
 20
-1.138500000000007
  0
LWPOLYLINE
  5
17B
330
16A
100
AcDbEntity
  8
Pel_CS-IG
 62
     2
100
AcDbPolyline
 90
       16
 70
   129
 43
0.0
 10
0.4586250000000263
 20
-1.437500000000007
 10
0.3686250000000264
 20
-1.437500000000007
 42
-0.4142135623731017
 10
0.3586250000000213
 20
-1.427500000000009
 10
0.3586250000000284
 20
-1.132500000000007
 42
-0.4142135623730873
 10
0.3686250000000264
 20
-1.122500000000005
 10
0.8173750000000232
 20
-1.122499999999995
 42
-0.4142135623731013
 10
0.8273750000000248
 20
-1.132499999999996
 10
0.8273750000000248
 20
-1.427499999999998
 42
-0.4142135623730894
 10
0.8173750000000232
 20
-1.4375
 10
0.7273750000000235
 20
-1.437500000000007
 10
0.7273750000000235
 20
-1.421500000000001
 10
0.811375000000023
 20
-1.421499999999998
 10
0.811375000000023
 20
-1.138499999999996
 10
0.3746250000000266
 20
-1.138500000000007
 10
0.3746250000000266
 20
-1.421500000000008
 10
0.4586250000000263
 20
-1.421500000000005
  0
POINT
  5
17D
330
16A
100
AcDbEntity
  8
Pel_CS-Points
100
AcDbPoint
 10
0.0
 20
0.0
 30
0.0
  0
LWPOLYLINE
  5
17F
330
16A
100
AcDbEntity
  8
Pel_CS-Cross Section
 62
     4
100
AcDbPolyline
 90
       13
 70
     1
 43
0.0
 10
0.1350000000000513
 20
-0.7703907306373026
 10
0.2416421551932082
 20
-0.6560247286422652
 42
0.9999999999999996
 10
0.2233578448068947
 20
-0.6389752713577366
 10
0.0900000000000532
 20
-0.7819919191140415
 10
0.1100000000000527
 20
-0.7999999999999972
 10
0.1100000000000527
 20
-0.875
 10
0.0320839747917177
 20
-0.875
 42
0.4387364446152711
 10
0.0201252798600216
 20
-0.8879947942151886
 42
0.1028671740245727
 10
0.1936017249854949
 20
-1.473579765626951
 42
1.000000000000018
 10
0.2156243986744393
 20
-1.4617475281551
 42
-0.1004471373057855
 10
0.0462782269400215
 20
-0.8999999999999985
 10
0.1100000000000527
 20
-0.8999999999999985
 42
0.4142135623730847
 10
0.1350000000000513
 20
-0.875
  0
ENDBLK
  5
180
330
16A
100
AcDbEntity
  8
0
100
AcDbBlockEnd
  0
BLOCK
  5
D9
330
D6
100
AcDbEntity
  8
0
100
AcDbBlockBegin
  2
TSE10SHLJV-J
 70
     0
 10
0.0
 20
0.0
 30
0.0
  3
TSE10SHLJV-J
  1

  0
CIRCLE
  5
DA
330
D6
100
AcDbEntity
  8
Pel_CS-Weatherstrip
100
AcDbCircle
 10
0.6669999999999768
 20
-2.235000000000017
 30
0.0
 40
0.018
  0
CIRCLE
  5
DB
330
D6
100
AcDbEntity
  8
Pel_CS-Weatherstrip
100
AcDbCircle
 10
0.6669999999999768
 20
-2.110000000000017
 30
0.0
 40
0.018
  0
CIRCLE
  5
DC
330
D6
100
AcDbEntity
  8
Pel_CS-Weatherstrip
100
AcDbCircle
 10
0.6669999999999768
 20
-2.485000000000017
 30
0.0
 40
0.018
  0
CIRCLE
  5
DD
330
D6
100
AcDbEntity
  8
Pel_CS-Weatherstrip
100
AcDbCircle
 10
0.6669999999999768
 20
-2.735000000000017
 30
0.0
 40
0.018
  0
CIRCLE
  5
DE
330
D6
100
AcDbEntity
  8
Pel_CS-Weatherstrip
100
AcDbCircle
 10
0.6669999999999768
 20
-2.610000000000017
 30
0.0
 40
0.018
  0
CIRCLE
  5
DF
330
D6
100
AcDbEntity
  8
Pel_CS-Weatherstrip
100
AcDbCircle
 10
0.6669999999999768
 20
-2.360000000000017
 30
0.0
 40
0.018
  0
CIRCLE
  5
E0
330
D6
100
AcDbEntity
  8
Pel_CS-Weatherstrip
100
AcDbCircle
 10
0.6669999999999768
 20
-1.610000000000017
 30
0.0
 40
0.018
  0
CIRCLE
  5
E1
330
D6
100
AcDbEntity
  8
Pel_CS-Weatherstrip
100
AcDbCircle
 10
0.6669999999999768
 20
-1.485000000000017
 30
0.0
 40
0.018
  0
CIRCLE
  5
E2
330
D6
100
AcDbEntity
  8
Pel_CS-Weatherstrip
100
AcDbCircle
 10
0.6669999999999768
 20
-1.985000000000017
 30
0.0
 40
0.018
  0
CIRCLE
  5
E3
330
D6
100
AcDbEntity
  8
Pel_CS-Weatherstrip
100
AcDbCircle
 10
0.6669999999999768
 20
-1.860000000000017
 30
0.0
 40
0.018
  0
CIRCLE
  5
E4
330
D6
100
AcDbEntity
  8
Pel_CS-Weatherstrip
100
AcDbCircle
 10
0.6669999999999768
 20
-1.735000000000017
 30
0.0
 40
0.018
  0
POINT
  5
E5
330
D6
100
AcDbEntity
  8
Pel_CS-Points
100
AcDbPoint
 10
0.0
 20
-0.0000000000000036
 30
0.0
 50
360.0
  0
POLYLINE
  5
E6
102
{ACAD_REACTORS
330
115
102
}
330
D6
100
AcDbEntity
  8
Pel_CS-Clad
100
AcDb2dPolyline
 66
     1
 10
0.0
 20
0.0
 30
0.0
 70
     1
  0
VERTEX
  5
CF9
330
E6
100
AcDbEntity
  8
Pel_CS-Clad
100
AcDbVertex
100
AcDb2dVertex
 10
0.7049999999999699
 20
-0.7650000000000042
 30
0.0
  0
VERTEX
  5
CFA
330
E6
100
AcDbEntity
  8
Pel_CS-Clad
100
AcDbVertex
100
AcDb2dVertex
 10
0.964999999999982
 20
-0.7650000000000042
 30
0.0
 42
-0.4142135623732505
  0
VERTEX
  5
CFB
330
E6
100
AcDbEntity
  8
Pel_CS-Clad
100
AcDbVertex
100
AcDb2dVertex
 10
0.9849999999999816
 20
-0.7850000000000144
 30
0.0
  0
VERTEX
  5
CFC
330
E6
100
AcDbEntity
  8
Pel_CS-Clad
100
AcDbVertex
100
AcDb2dVertex
 10
0.9849999999999816
 20
-1.385000000000015
 30
0.0
 42
-0.4142135623731472
  0
VERTEX
  5
CFD
330
E6
100
AcDbEntity
  8
Pel_CS-Clad
100
AcDbVertex
100
AcDb2dVertex
 10
0.964999999999982
 20
-1.405000000000018
 30
0.0
  0
VERTEX
  5
CFE
330
E6
100
AcDbEntity
  8
Pel_CS-Clad
100
AcDbVertex
100
AcDb2dVertex
 10
0.9249999999999793
 20
-1.405000000000018
 30
0.0
  0
VERTEX
  5
CFF
330
E6
100
AcDbEntity
  8
Pel_CS-Clad
100
AcDbVertex
100
AcDb2dVertex
 10
0.9249999999999793
 20
-1.495000000000015
 30
0.0
 42
-0.4142135623731472
  0
VERTEX
  5
D00
330
E6
100
AcDbEntity
  8
Pel_CS-Clad
100
AcDbVertex
100
AcDb2dVertex
 10
0.9049999999999798
 20
-1.515000000000018
 30
0.0
  0
VERTEX
  5
D01
330
E6
100
AcDbEntity
  8
Pel_CS-Clad
100
AcDbVertex
100
AcDb2dVertex
 10
0.704999999999977
 20
-1.515000000000018
 30
0.0
 42
-0.4142135623730951
  0
VERTEX
  5
D02
330
E6
100
AcDbEntity
  8
Pel_CS-Clad
100
AcDbVertex
100
AcDb2dVertex
 10
0.6849999999999774
 20
-1.495000000000015
 30
0.0
  0
VERTEX
  5
D03
330
E6
100
AcDbEntity
  8
Pel_CS-Clad
100
AcDbVertex
100
AcDb2dVertex
 10
0.6849999999999774
 20
-1.475000000000019
 30
0.0
 42
-0.4142135623731472
  0
VERTEX
  5
D04
330
E6
100
AcDbEntity
  8
Pel_CS-Clad
100
AcDbVertex
100
AcDb2dVertex
 10
0.704999999999977
 20
-1.455000000000016
 30
0.0
  0
VERTEX
  5
D05
330
E6
100
AcDbEntity
  8
Pel_CS-Clad
100
AcDbVertex
100
AcDb2dVertex
 10
0.7523836048657416
 20
-1.455000000000016
 30
0.0
 42
-0.0578233517657538
  0
VERTEX
  5
D06
330
E6
100
AcDbEntity
  8
Pel_CS-Clad
100
AcDbVertex
100
AcDb2dVertex
 10
0.7546734674554294
 20
-1.455265703450169
 30
0.0
  0
VERTEX
  5
D07
330
E6
100
AcDbEntity
  8
Pel_CS-Clad
100
AcDbVertex
100
AcDb2dVertex
 10
0.7546734674554294
 20
-1.475000000000019
 30
0.0
  0
VERTEX
  5
D08
330
E6
100
AcDbEntity
  8
Pel_CS-Clad
100
AcDbVertex
100
AcDb2dVertex
 10
0.704999999999977
 20
-1.475000000000019
 30
0.0
  0
VERTEX
  5
D09
330
E6
100
AcDbEntity
  8
Pel_CS-Clad
100
AcDbVertex
100
AcDb2dVertex
 10
0.704999999999977
 20
-1.495000000000008
 30
0.0
  0
VERTEX
  5
D0A
330
E6
100
AcDbEntity
  8
Pel_CS-Clad
100
AcDbVertex
100
AcDb2dVertex
 10
0.9049999999999798
 20
-1.495000000000022
 30
0.0
  0
VERTEX
  5
D0B
330
E6
100
AcDbEntity
  8
Pel_CS-Clad
100
AcDbVertex
100
AcDb2dVertex
 10
0.9049999999999762
 20
-1.385000000000015
 30
0.0
  0
VERTEX
  5
D0C
330
E6
100
AcDbEntity
  8
Pel_CS-Clad
100
AcDbVertex
100
AcDb2dVertex
 10
0.9649999999999749
 20
-1.385000000000015
 30
0.0
  0
VERTEX
  5
D0D
330
E6
100
AcDbEntity
  8
Pel_CS-Clad
100
AcDbVertex
100
AcDb2dVertex
 10
0.964999999999982
 20
-0.7850000000000144
 30
0.0
  0
VERTEX
  5
D0E
330
E6
100
AcDbEntity
  8
Pel_CS-Clad
100
AcDbVertex
100
AcDb2dVertex
 10
0.7049999999999806
 20
-0.7850000000000144
 30
0.0
  0
VERTEX
  5
D0F
330
E6
100
AcDbEntity
  8
Pel_CS-Clad
100
AcDbVertex
100
AcDb2dVertex
 10
0.704999999999977
 20
-1.298750000000008
 30
0.0
  0
VERTEX
  5
D10
330
E6
100
AcDbEntity
  8
Pel_CS-Clad
100
AcDbVertex
100
AcDb2dVertex
 10
0.8849999999999802
 20
-1.298750000000016
 30
0.0
 42
-0.4142135623731472
  0
VERTEX
  5
D11
330
E6
100
AcDbEntity
  8
Pel_CS-Clad
100
AcDbVertex
100
AcDb2dVertex
 10
0.9049999999999798
 20
-1.318750000000019
 30
0.0
  0
VERTEX
  5
D12
330
E6
100
AcDbEntity
  8
Pel_CS-Clad
100
AcDbVertex
100
AcDb2dVertex
 10
0.9049999999999798
 20
-1.495000000000022
 30
0.0
  0
VERTEX
  5
D13
330
E6
100
AcDbEntity
  8
Pel_CS-Clad
100
AcDbVertex
100
AcDb2dVertex
 10
0.704999999999977
 20
-1.495000000000008
 30
0.0
  0
VERTEX
  5
D14
330
E6
100
AcDbEntity
  8
Pel_CS-Clad
100
AcDbVertex
100
AcDb2dVertex
 10
0.704999999999977
 20
-1.475000000000019
 30
0.0
  0
VERTEX
  5
D15
330
E6
100
AcDbEntity
  8
Pel_CS-Clad
100
AcDbVertex
100
AcDb2dVertex
 10
0.8849999999999837
 20
-1.475000000000019
 30
0.0
  0
VERTEX
  5
D16
330
E6
100
AcDbEntity
  8
Pel_CS-Clad
100
AcDbVertex
100
AcDb2dVertex
 10
0.8849999999999766
 20
-1.318750000000019
 30
0.0
  0
VERTEX
  5
D17
330
E6
100
AcDbEntity
  8
Pel_CS-Clad
100
AcDbVertex
100
AcDb2dVertex
 10
0.704999999999977
 20
-1.318750000000019
 30
0.0
 42
-0.4142135623730951
  0
VERTEX
  5
D18
330
E6
100
AcDbEntity
  8
Pel_CS-Clad
100
AcDbVertex
100
AcDb2dVertex
 10
0.6849999999999774
 20
-1.298750000000016
 30
0.0
  0
VERTEX
  5
D19
330
E6
100
AcDbEntity
  8
Pel_CS-Clad
100
AcDbVertex
100
AcDb2dVertex
 10
0.6849999999999774
 20
-0.7850000000000144
 30
0.0
 42
-0.4142135623731472
  0
SEQEND
  5
D1A
330
E6
100
AcDbEntity
  8
Pel_CS-Clad
  0
CIRCLE
  5
109
330
D6
100
AcDbEntity
  8
Pel_CS-Sealant
100
AcDbCircle
 10
0.8068749999999766
 20
-1.396875000000015
 30
0.0
 40
0.0575000000000001
  0
HATCH
  5
10A
330
D6
100
AcDbEntity
  8
Pel_CS-Weatherstrip
100
AcDbHatch
 10
0.0
 20
0.0
 30
0.0
210
0.0
220
0.0
230
1.0
  2
SOLID
 70
     1
 71
     0
 91
        1
 92
        1
 93
        1
 72
     2
 10
0.6669999999999768
 20
-2.735000000000017
 40
0.018
 50
0.0
 51
360.0
 73
     1
 97
        0
 75
     0
 76
     1
 98
        1
 10
0.0000000000000018
 20
-1.25
  0
HATCH
  5
10B
330
D6
100
AcDbEntity
  8
Pel_CS-Weatherstrip
100
AcDbHatch
 10
0.0
 20
0.0
 30
0.0
210
0.0
220
0.0
230
1.0
  2
SOLID
 70
     1
 71
     0
 91
        1
 92
        1
 93
        1
 72
     2
 10
0.6669999999999768
 20
-2.610000000000017
 40
0.018
 50
0.0
 51
360.0
 73
     1
 97
        0
 75
     0
 76
     1
 98
        1
 10
0.0000000000000018
 20
-1.125
  0
HATCH
  5
10C
330
D6
100
AcDbEntity
  8
Pel_CS-Weatherstrip
100
AcDbHatch
 10
0.0
 20
0.0
 30
0.0
210
0.0
220
0.0
230
1.0
  2
SOLID
 70
     1
 71
     0
 91
        1
 92
        1
 93
        1
 72
     2
 10
0.6669999999999768
 20
-2.485000000000017
 40
0.018
 50
0.0
 51
360.0
 73
     1
 97
        0
 75
     0
 76
     1
 98
        1
 10
0.0000000000000018
 20
-1.0
  0
HATCH
  5
10D
330
D6
100
AcDbEntity
  8
Pel_CS-Weatherstrip
100
AcDbHatch
 10
0.0
 20
0.0
 30
0.0
210
0.0
220
0.0
230
1.0
  2
SOLID
 70
     1
 71
     0
 91
        1
 92
        1
 93
        1
 72
     2
 10
0.6669999999999768
 20
-2.360000000000017
 40
0.018
 50
0.0
 51
360.0
 73
     1
 97
        0
 75
     0
 76
     1
 98
        1
 10
0.0000000000000018
 20
-0.875
  0
HATCH
  5
10E
330
D6
100
AcDbEntity
  8
Pel_CS-Weatherstrip
100
AcDbHatch
 10
0.0
 20
0.0
 30
0.0
210
0.0
220
0.0
230
1.0
  2
SOLID
 70
     1
 71
     0
 91
        1
 92
        1
 93
        1
 72
     2
 10
0.6669999999999768
 20
-2.235000000000017
 40
0.018
 50
0.0
 51
360.0
 73
     1
 97
        0
 75
     0
 76
     1
 98
        1
 10
0.0000000000000018
 20
-0.75
  0
HATCH
  5
10F
330
D6
100
AcDbEntity
  8
Pel_CS-Weatherstrip
100
AcDbHatch
 10
0.0
 20
0.0
 30
0.0
210
0.0
220
0.0
230
1.0
  2
SOLID
 70
     1
 71
     0
 91
        1
 92
        1
 93
        1
 72
     2
 10
0.6669999999999768
 20
-2.110000000000017
 40
0.018
 50
0.0
 51
360.0
 73
     1
 97
        0
 75
     0
 76
     1
 98
        1
 10
0.0000000000000018
 20
-0.625
  0
HATCH
  5
110
330
D6
100
AcDbEntity
  8
Pel_CS-Weatherstrip
100
AcDbHatch
 10
0.0
 20
0.0
 30
0.0
210
0.0
220
0.0
230
1.0
  2
SOLID
 70
     1
 71
     0
 91
        1
 92
        1
 93
        1
 72
     2
 10
0.6669999999999768
 20
-1.985000000000017
 40
0.018
 50
0.0
 51
360.0
 73
     1
 97
        0
 75
     0
 76
     1
 98
        1
 10
0.0000000000000018
 20
-0.5
  0
HATCH
  5
111
330
D6
100
AcDbEntity
  8
Pel_CS-Weatherstrip
100
AcDbHatch
 10
0.0
 20
0.0
 30
0.0
210
0.0
220
0.0
230
1.0
  2
SOLID
 70
     1
 71
     0
 91
        1
 92
        1
 93
        1
 72
     2
 10
0.6669999999999768
 20
-1.860000000000017
 40
0.018
 50
0.0
 51
360.0
 73
     1
 97
        0
 75
     0
 76
     1
 98
        1
 10
0.0000000000000018
 20
-0.375
  0
HATCH
  5
112
330
D6
100
AcDbEntity
  8
Pel_CS-Weatherstrip
100
AcDbHatch
 10
0.0
 20
0.0
 30
0.0
210
0.0
220
0.0
230
1.0
  2
SOLID
 70
     1
 71
     0
 91
        1
 92
        1
 93
        1
 72
     2
 10
0.6669999999999768
 20
-1.735000000000017
 40
0.018
 50
0.0
 51
360.0
 73
     1
 97
        0
 75
     0
 76
     1
 98
        1
 10
0.0000000000000018
 20
-0.25
  0
HATCH
  5
113
330
D6
100
AcDbEntity
  8
Pel_CS-Weatherstrip
100
AcDbHatch
 10
0.0
 20
0.0
 30
0.0
210
0.0
220
0.0
230
1.0
  2
SOLID
 70
     1
 71
     0
 91
        1
 92
        1
 93
        1
 72
     2
 10
0.6669999999999768
 20
-1.610000000000017
 40
0.018
 50
0.0
 51
360.0
 73
     1
 97
        0
 75
     0
 76
     1
 98
        1
 10
0.0000000000000018
 20
-0.125
  0
HATCH
  5
114
330
D6
100
AcDbEntity
  8
Pel_CS-Weatherstrip
100
AcDbHatch
 10
0.0
 20
0.0
 30
0.0
210
0.0
220
0.0
230
1.0
  2
SOLID
 70
     1
 71
     0
 91
        1
 92
        1
 93
        1
 72
     2
 10
0.6669999999999768
 20
-1.485000000000017
 40
0.018
 50
0.0
 51
360.0
 73
     1
 97
        0
 75
     0
 76
     1
 98
        1
 10
0.0000000000000018
 20
0.0
  0
HATCH
  5
115
330
D6
100
AcDbEntity
  8
Pel_CS-Fill
100
AcDbHatch
 10
0.0
 20
0.0
 30
0.0
210
0.0
220
0.0
230
1.0
  2
SOLID
 70
     1
 71
     1
 91
        1
 92
        1
 93
       33
 72
     1
 10
0.7049999999999699
 20
-0.7650000000000042
 11
0.964999999999982
 21
-0.7650000000000042
 72
     2
 10
0.964999999999982
 20
-0.7850000000000037
 40
0.0199999999999996
 50
270.0
 51
360.0000000000305
 73
     0
 72
     1
 10
0.9849999999999816
 20
-0.7850000000000144
 11
0.9849999999999816
 21
-1.385000000000015
 72
     2
 10
0.964999999999982
 20
-1.385000000000019
 40
0.0199999999999996
 50
359.9999999999898
 51
450.0
 73
     0
 72
     1
 10
0.964999999999982
 20
-1.405000000000018
 11
0.9249999999999793
 21
-1.405000000000018
 72
     1
 10
0.9249999999999793
 20
-1.405000000000018
 11
0.9249999999999793
 21
-1.495000000000015
 72
     2
 10
0.9049999999999798
 20
-1.495000000000018
 40
0.0199999999999996
 50
359.9999999999898
 51
450.0
 73
     0
 72
     1
 10
0.9049999999999798
 20
-1.515000000000018
 11
0.704999999999977
 21
-1.515000000000018
 72
     2
 10
0.704999999999977
 20
-1.495000000000018
 40
0.0200000000000014
 50
90.00000000000509
 51
180.0000000000051
 73
     0
 72
     1
 10
0.6849999999999774
 20
-1.495000000000015
 11
0.6849999999999774
 21
-1.475000000000019
 72
     2
 10
0.704999999999977
 20
-1.475000000000015
 40
0.0199999999999996
 50
179.9999999999898
 51
270.0
 73
     0
 72
     1
 10
0.704999999999977
 20
-1.455000000000016
 11
0.7523836048657416
 21
-1.455000000000016
 72
     2
 10
0.7523836048657398
 20
-1.465000000000017
 40
0.0100000000000011
 50
270.0000000000025
 51
283.2373959307805
 73
     0
 72
     1
 10
0.7546734674554294
 20
-1.455265703450169
 11
0.7546734674554294
 21
-1.475000000000019
 72
     1
 10
0.7546734674554294
 20
-1.475000000000019
 11
0.704999999999977
 21
-1.475000000000019
 72
     1
 10
0.704999999999977
 20
-1.475000000000019
 11
0.704999999999977
 21
-1.495000000000008
 72
     1
 10
0.704999999999977
 20
-1.495000000000008
 11
0.9049999999999798
 21
-1.495000000000022
 72
     1
 10
0.9049999999999798
 20
-1.495000000000022
 11
0.9049999999999762
 21
-1.385000000000015
 72
     1
 10
0.9049999999999762
 20
-1.385000000000015
 11
0.9649999999999749
 21
-1.385000000000015
 72
     1
 10
0.9649999999999749
 20
-1.385000000000015
 11
0.964999999999982
 21
-0.7850000000000144
 72
     1
 10
0.964999999999982
 20
-0.7850000000000144
 11
0.7049999999999806
 21
-0.7850000000000144
 72
     1
 10
0.7049999999999806
 20
-0.7850000000000144
 11
0.704999999999977
 21
-1.298750000000008
 72
     1
 10
0.704999999999977
 20
-1.298750000000008
 11
0.8849999999999802
 21
-1.298750000000016
 72
     2
 10
0.8849999999999802
 20
-1.318750000000015
 40
0.0199999999999996
 50
270.0
 51
360.0000000000102
 73
     0
 72
     1
 10
0.9049999999999798
 20
-1.318750000000019
 11
0.9049999999999798
 21
-1.495000000000022
 72
     1
 10
0.9049999999999798
 20
-1.495000000000022
 11
0.704999999999977
 21
-1.495000000000008
 72
     1
 10
0.704999999999977
 20
-1.495000000000008
 11
0.704999999999977
 21
-1.475000000000019
 72
     1
 10
0.704999999999977
 20
-1.475000000000019
 11
0.8849999999999837
 21
-1.475000000000019
 72
     1
 10
0.8849999999999837
 20
-1.475000000000019
 11
0.8849999999999766
 21
-1.318750000000019
 72
     1
 10
0.8849999999999766
 20
-1.318750000000019
 11
0.704999999999977
 21
-1.318750000000019
 72
     2
 10
0.704999999999977
 20
-1.298750000000019
 40
0.0200000000000014
 50
90.00000000000509
 51
180.0000000000051
 73
     0
 72
     1
 10
0.6849999999999774
 20
-1.298750000000016
 11
0.6849999999999774
 21
-0.7850000000000144
 72
     2
 10
0.704999999999977
 20
-0.7850000000000037
 40
0.0199999999999996
 50
179.9999999999694
 51
269.9999999999796
 73
     0
 97
        1
330
E6
 75
     0
 76
     1
 98
        1
 10
0.0000000000000018
 20
0.0
  0
LWPOLYLINE
  5
116
330
D6
100
AcDbEntity
  8
Pel_CS-Clad
  6
Continuous
100
AcDbPolyline
 90
       12
 70
     1
 43
0.0
 10
1.699499999999979
 20
-0.2979999999999912
 10
1.699499999999979
 20
-0.7729999999999926
 42
0.4142135623730951
 10
1.731499999999982
 20
-0.8049999999999961
 10
2.173499999999975
 20
-0.8049999999999961
 42
0.4142135623730951
 10
2.205499999999979
 20
-0.7729999999999997
 10
2.205499999999979
 20
-0.2979999999999912
 10
2.233499999999978
 20
-0.2979999999999912
 10
2.233499999999978
 20
-0.7729999999999997
 42
-0.4142135623730951
 10
2.173499999999975
 20
-0.8329999999999948
 10
1.731499999999982
 20
-0.8329999999999948
 42
-0.4142135623730951
 10
1.67149999999998
 20
-0.7729999999999926
 10
1.67149999999998
 20
-0.2979999999999912
  0
CIRCLE
  5
117
330
D6
100
AcDbEntity
  8
Pel_CS-Hardware
  6
Continuous
100
AcDbCircle
 10
1.952499999999979
 20
-0.5549999999999962
 30
0.0
 40
0.25
  0
CIRCLE
  5
119
330
D6
100
AcDbEntity
  8
Pel_CS-Hardware
  6
Continuous
100
AcDbCircle
 10
1.952499999999979
 20
-0.5549999999999962
 30
0.0
 40
0.21
  0
LWPOLYLINE
  5
11A
330
D6
100
AcDbEntity
  8
Pel_CS-Reinforcement
100
AcDbPolyline
 90
       10
 70
     1
 43
0.0
 10
1.783000000000015
 20
-1.494999999999986
 10
1.783000000000015
 20
-1.089999999999992
 10
1.735000000000013
 20
-1.089999999999992
 10
1.735000000000013
 20
-1.494999999999986
 42
0.4142135623730969
 10
1.783000000000015
 20
-1.542999999999988
 10
2.351999999999982
 20
-1.542999999999981
 42
0.4142135623730925
 10
2.399999999999977
 20
-1.494999999999986
 10
2.399999999999984
 20
-1.184999999999991
 10
2.351999999999982
 20
-1.184999999999984
 10
2.351999999999982
 20
-1.494999999999993
  0
LWPOLYLINE
  5
11C
330
D6
100
AcDbEntity
  8
Pel_CS-Cross Section
 62
     4
100
AcDbPolyline
 90
      193
 70
     1
 43
0.0
 10
2.644999999999999
 20
-0.0150000000000006
 42
0.4142135623730951
 10
2.629999999999999
 20
0.0
 10
1.153
 20
0.0
 42
-0.4142135623730919
 10
1.123000000000001
 20
0.0299999999999976
 10
1.122999999999999
 20
1.594999999999998
 42
1.0
 10
1.062999999999998
 20
1.594999999999998
 10
1.062999999999998
 20
0.0299999999999976
 42
-0.4142135623730952
 10
1.032999999999999
 20
0.0
 10
0.3279999999999994
 20
0.0
 42
-0.4142135623730951
 10
0.3130000000000006
 20
0.014999999999997
 10
0.2529999999999983
 20
0.014999999999997
 42
-0.4142135623730604
 10
0.2380000000000013
 20
0.0
 10
0.0713681214588888
 20
0.0
 42
-0.317837245195783
 10
0.0572259858351583
 20
0.009999999999998
 42
0.2870002859234582
 10
-0.0050272233395141
 20
0.0595216157840213
 42
-0.3126767901425002
 10
-0.0178855818594741
 20
0.0707787759621006
 10
-0.0951182351347146
 20
0.378887765092049
 42
0.2674253991233558
 10
-0.1471445827797471
 20
0.432732189096079
 42
-0.3344020845912994
 10
-0.1579999999999995
 20
0.4471482368756128
 10
-0.1580000000000012
 20
0.6750000000000007
 42
-0.4142135623730951
 10
-0.1430000000000007
 20
0.6900000000000013
 10
0.2380000000000013
 20
0.6900000000000013
 42
-0.4142135623730951
 10
0.2530000000000019
 20
0.6750000000000007
 10
0.2529999999999983
 20
0.014999999999997
 10
0.3130000000000006
 20
0.014999999999997
 10
0.3129999999999988
 20
0.7199999999999989
 42
0.4142135623730951
 10
0.2829999999999995
 20
0.7499999999999965
 10
-0.1880000000000006
 20
0.75
 42
0.4142135623730919
 10
-0.218
 20
0.7199999999999989
 10
-0.2180000000000017
 20
0.389999999999997
 42
0.4142135623730951
 10
-0.2030000000000012
 20
0.3749999999999964
 10
-0.1677040744954237
 20
0.375
 42
-0.3439753268883856
 10
-0.1531542221866697
 20
0.3636471629787294
 10
-0.064845777813332
 20
0.0113528370212706
 42
0.343975326888363
 10
-0.0502959255045781
 20
0.0
 10
-0.0150000000000006
 20
0.0
 42
-0.4142135623730989
 10
0.0
 20
-0.0150000000000006
 10
-0.0000000000000018
 20
-0.8599999999999958
 42
0.4142135623730604
 10
0.014999999999997
 20
-0.8749999999999964
 10
0.0699999999999985
 20
-0.8749999999999964
 42
0.9458235162657196
 10
0.0733333333333324
 20
-0.8151857603000003
 42
-0.3819660112501055
 10
0.0599999999999987
 20
-0.8002786404499993
 10
0.0599999999999987
 20
-0.6499999999999951
 42
-0.4142135623730744
 10
0.0849999999999973
 20
-0.6249999999999965
 10
0.2099999999999991
 20
-0.6249999999999965
 42
-0.4142135623730978
 10
0.2349999999999994
 20
-0.6499999999999986
 10
0.2349999999999994
 20
-0.8599999999999958
 42
0.1740892375618164
 10
0.238426034553985
 20
-0.8695416625309455
 10
0.2984260345539837
 20
-0.8095416625309468
 42
-0.1740892375617844
 10
0.2949999999999981
 20
-0.8000000000000007
 10
0.2949999999999981
 20
-0.6499999999999951
 42
0.4142135623730951
 10
0.2099999999999991
 20
-0.5649999999999942
 10
0.0749999999999993
 20
-0.5649999999999978
 42
-0.4142135623730951
 10
0.0599999999999987
 20
-0.5499999999999972
 10
0.0599999999999987
 20
-0.0750000000000029
 42
-0.4142135623730951
 10
0.0750000000000011
 20
-0.0599999999999987
 10
0.8599999999999994
 20
-0.0599999999999987
 42
-0.4142135623730662
 10
0.875
 20
-0.0750000000000029
 10
0.9149999999999991
 20
-0.0750000000000029
 42
-0.4142135623730662
 10
0.9299999999999997
 20
-0.0599999999999987
 10
1.376999999999998
 20
-0.0599999999999987
 42
-0.4142135623730951
 10
1.391999999999999
 20
-0.0750000000000029
 10
1.391999999999999
 20
-0.8450000000000024
 42
-0.4142135623730951
 10
1.376999999999998
 20
-0.8599999999999994
 10
1.368484692283495
 20
-0.8600000000000029
 42
0.3178372451957612
 10
1.297774014164843
 20
-0.9100000000000001
 42
-0.3178372451958395
 10
1.283631878541108
 20
-0.9199999999999981
 10
1.104999999999996
 20
-0.9200000000000017
 10
1.105
 20
-0.9600000000000008
 10
1.279999999999999
 20
-0.9600000000000008
 42
-0.41421356237308
 10
1.294999999999998
 20
-0.9750000000000014
 10
1.295000000000001
 20
-1.355
 42
-0.4142135623730604
 10
1.280000000000001
 20
-1.37
 10
1.105000000000002
 20
-1.37
 10
1.105
 20
-1.419999999999998
 10
1.154999999999999
 20
-1.419999999999998
 42
-0.4142135623730951
 10
1.169999999999999
 20
-1.434999999999998
 10
1.169999999999999
 20
-1.485000000000002
 10
1.214999999999999
 20
-1.485000000000002
 10
1.214999999999999
 20
-1.434999999999998
 42
-0.4142135623730951
 10
1.23
 20
-1.420000000000001
 10
1.279999999999999
 20
-1.420000000000001
 42
-0.4142135623730951
 10
1.294999999999998
 20
-1.434999999999998
 10
1.295000000000001
 20
-1.485000000000002
 42
-0.4142135623730951
 10
1.279999999999999
 20
-1.500000000000003
 10
1.23
 20
-1.500000000000003
 42
-0.4142135623730951
 10
1.214999999999999
 20
-1.485000000000002
 10
1.169999999999999
 20
-1.485000000000002
 42
-0.4142135623730951
 10
1.154999999999999
 20
-1.5
 10
1.104999999999998
 20
-1.500000000000003
 42
-0.4142135623730692
 10
1.089999999999999
 20
-1.485000000000002
 10
1.089999999999998
 20
-1.434999999999998
 42
-0.4142135623731299
 10
1.105
 20
-1.419999999999998
 10
1.105
 20
-1.37
 42
-0.4142135623731299
 10
1.089999999999998
 20
-1.355
 10
1.089999999999999
 20
-0.9750000000000014
 42
-0.4142135623730604
 10
1.104999999999996
 20
-0.9600000000000008
 10
1.104999999999996
 20
-0.9200000000000017
 42
-0.4142135623730604
 10
1.089999999999999
 20
-0.9050000000000011
 10
1.089999999999998
 20
-0.7650000000000042
 42
0.4142135623730951
 10
1.015
 20
-0.6900000000000013
 10
0.9299999999999997
 20
-0.6900000000000013
 42
-0.4142135623730951
 10
0.9149999999999991
 20
-0.6750000000000007
 10
0.9149999999999973
 20
-0.0750000000000029
 10
0.8750000000000017
 20
-0.0750000000000029
 10
0.875
 20
-0.6750000000000007
 42
-0.4142135623730951
 10
0.8599999999999994
 20
-0.6900000000000013
 10
0.6850000000000005
 20
-0.6900000000000013
 42
0.4142135623730951
 10
0.6100000000000012
 20
-0.7650000000000042
 10
0.6099999999999995
 20
-0.8000000000000007
 42
-0.4142135623730951
 10
0.5950000000000007
 20
-0.8150000000000012
 10
0.3099999999999987
 20
-0.8150000000000012
 42
-0.2239735635373553
 10
0.2984260345539837
 20
-0.8095416625309468
 10
0.2384260345539868
 20
-0.8695416625309455
 42
0.2239735635373553
 10
0.2500000000000018
 20
-0.8749999999999964
 10
0.6549999999999994
 20
-0.875
 42
0.4142135623730995
 10
0.67
 20
-0.8599999999999994
 10
0.67
 20
-0.7650000000000042
 42
-0.4142135623730951
 10
0.6850000000000005
 20
-0.75
 10
1.014999999999998
 20
-0.7500000000000036
 42
-0.4142135623730995
 10
1.029999999999999
 20
-0.7650000000000042
 10
1.029999999999999
 20
-1.545000000000001
 42
0.4142135623730604
 10
1.044999999999998
 20
-1.559999999999998
 10
1.325000000000002
 20
-1.560000000000002
 42
0.4142135623730909
 10
1.355
 20
-1.530000000000001
 10
1.355
 20
-0.9349999999999987
 42
-0.4142135623730951
 10
1.37
 20
-0.9199999999999981
 10
1.608775010008006
 20
-0.9200000000000017
 42
-0.2277350772923937
 10
1.620484381255003
 20
-0.9256250000000001
 42
0.7088115080035222
 10
1.664999999999999
 20
-0.9100000000000001
 10
1.664999999999999
 20
-0.875
 42
0.4142135623730604
 10
1.649999999999998
 20
-0.8600000000000029
 10
1.466999999999998
 20
-0.8599999999999994
 42
-0.4142135623730995
 10
1.451999999999998
 20
-0.8449999999999988
 10
1.451999999999998
 20
-0.3129999999999988
 42
-0.4142135623730604
 10
1.466999999999998
 20
-0.2980000000000018
 10
2.436999999999997
 20
-0.2980000000000018
 42
-0.414213562373081
 10
2.451999999999998
 20
-0.3129999999999988
 10
2.451999999999998
 20
-0.8450000000000024
 42
-0.4142135623730951
 10
2.436999999999997
 20
-0.8600000000000029
 10
2.254999999999999
 20
-0.8599999999999994
 42
0.4142135623730995
 10
2.239999999999998
 20
-0.875
 10
2.239999999999998
 20
-0.9100000000000001
 42
0.7088115080035222
 10
2.284515618744993
 20
-0.9256250000000001
 42
-0.2277350772924248
 10
2.296224989991991
 20
-0.9199999999999981
 10
2.695
 20
-0.9199999999999981
 42
0.4142135623731125
 10
2.71
 20
-0.9050000000000011
 10
2.71
 20
-0.2530000000000037
 42
0.2116057437081317
 10
2.705077463437934
 20
-0.2418894315781266
 10
2.645077463437935
 20
-0.3018894315781289
 42
-0.2116057437081142
 10
2.649999999999998
 20
-0.3129999999999988
 10
2.649999999999998
 20
-0.7149999999999999
 42
-0.4142135623730951
 10
2.634999999999998
 20
-0.7300000000000005
 10
2.526999999999997
 20
-0.730000000000004
 10
2.526999999999993
 20
-0.7800000000000047
 10
2.634999999999998
 20
-0.7800000000000047
 42
-0.4142135623730951
 10
2.649999999999998
 20
-0.7950000000000017
 10
2.649999999999998
 20
-0.8450000000000024
 42
-0.4142135623730951
 10
2.634999999999998
 20
-0.8599999999999994
 10
2.527000000000001
 20
-0.8599999999999994
 42
-0.4142135623730951
 10
2.512
 20
-0.8450000000000024
 10
2.512
 20
-0.7950000000000017
 42
-0.4142135623730604
 10
2.526999999999997
 20
-0.7800000000000047
 10
2.526999999999997
 20
-0.7300000000000005
 42
-0.4142135623730604
 10
2.512
 20
-0.7149999999999999
 10
2.512
 20
-0.3129999999999988
 42
-0.4142135623730951
 10
2.527000000000001
 20
-0.2979999999999983
 10
2.634999999999998
 20
-0.2979999999999983
 42
-0.1862803516338766
 10
2.645077463437935
 20
-0.3018894315781289
 10
2.705077463437934
 20
-0.2418894315781266
 42
0.1862803516338797
 10
2.695
 20
-0.2379999999999995
 10
2.469999999999998
 20
-0.2380000000000031
 42
-0.352818936575057
 10
2.430912945443086
 20
-0.2064971857732409
 10
2.37
 20
-0.2197391304347818
 10
2.369999999999997
 20
-0.2230000000000025
 42
-0.4142135623730951
 10
2.355
 20
-0.2380000000000031
 10
1.466999999999998
 20
-0.2380000000000031
 42
-0.4142135623730951
 10
1.451999999999998
 20
-0.2230000000000025
 10
1.451999999999998
 20
-0.0749999999999993
 42
-0.4142135623730951
 10
1.466999999999998
 20
-0.0600000000000023
 10
2.354999999999996
 20
-0.0600000000000023
 42
-0.4142135623730951
 10
2.369999999999997
 20
-0.0749999999999993
 10
2.369999999999997
 20
-0.2197391304347818
 10
2.430912945443086
 20
-0.2064971857732409
 42
-0.0535663163749303
 10
2.429999999999999
 20
-0.1980000000000039
 10
2.429999999999999
 20
-0.0749999999999993
 42
-0.4142135623730951
 10
2.445
 20
-0.0599999999999987
 10
2.552999999999997
 20
-0.0599999999999987
 42
-0.4142135623731125
 10
2.567999999999997
 20
-0.0749999999999993
 10
2.567999999999997
 20
-0.1050000000000004
 10
2.592999999999999
 20
-0.1050000000000004
 10
2.637499999999999
 20
-0.0793079130210615
 42
0.2679491924311266
 10
2.644999999999999
 20
-0.0663175319642946
  0
LWPOLYLINE
  5
11E
330
D6
100
AcDbEntity
  8
Pel_CS-Cross Section
 62
     4
100
AcDbPolyline
 90
       59
 70
     1
 43
0.0
 10
2.262499999999992
 20
-0.9999999999999857
 10
1.474999999999987
 20
-0.9999999999999893
 42
0.4142135623730931
 10
1.414999999999984
 20
-1.059999999999991
 10
1.414999999999984
 20
-1.102499999999988
 10
1.459999999999986
 20
-1.102499999999984
 10
1.459999999999986
 20
-1.059999999999991
 10
1.509999999999983
 20
-1.059999999999991
 10
1.509999999999983
 20
-1.269999999999992
 10
1.45999999999999
 20
-1.269999999999981
 10
1.459999999999986
 20
-1.227499999999984
 10
1.414999999999984
 20
-1.227499999999988
 10
1.414999999999984
 20
-1.609999999999995
 42
0.4142135623729911
 10
1.429999999999981
 20
-1.624999999999989
 10
1.479999999999989
 20
-1.624999999999996
 42
0.8937924126323798
 10
1.486666666666657
 20
-1.565750118708631
 42
-0.3500011104185865
 10
1.474999999999987
 20
-1.551125178062974
 10
1.474999999999987
 20
-1.354999999999993
 42
-0.4142135623731026
 10
1.499999999999985
 20
-1.329999999999994
 10
1.505366523876688
 20
-1.329999999999994
 42
-0.0918870916679591
 10
1.514325722615325
 20
-1.331660489337561
 10
1.628959198738641
 20
-1.375664158032396
 42
-0.3105082534627774
 10
1.645000000000003
 20
-1.39900366869482
 10
1.645000000000003
 20
-1.609999999999988
 42
0.1044615359720018
 10
1.646281348233003
 20
-1.616066184442932
 10
1.706281348233005
 20
-1.556066184442929
 42
-0.1044615359719121
 10
1.705000000000005
 20
-1.549999999999993
 10
1.705000000000005
 20
-1.399003668694827
 42
0.3105082534628309
 10
1.650461275711357
 20
-1.319649332442562
 10
1.579624480756805
 20
-1.29245763450233
 42
-0.3105082534628289
 10
1.569999999999978
 20
-1.278453928104877
 10
1.569999999999978
 20
-1.074999999999992
 42
-0.4142135623730951
 10
1.584999999999979
 20
-1.059999999999991
 10
2.144999999999981
 20
-1.059999999999991
 42
-0.4142135623730778
 10
2.159999999999982
 20
-1.074999999999992
 10
2.159999999999982
 20
-1.094999999999988
 42
0.4142135623731038
 10
2.219999999999984
 20
-1.15499999999999
 10
2.414999999999984
 20
-1.15499999999999
 42
-0.4142135623730778
 10
2.429999999999985
 20
-1.169999999999991
 10
2.429999999999985
 20
-1.549999999999993
 42
-0.4142135623730604
 10
2.414999999999984
 20
-1.564999999999994
 10
1.720000000000005
 20
-1.564999999999994
 42
-0.2969051242860407
 10
1.706281348233005
 20
-1.556066184442929
 10
1.646281348233003
 20
-1.616066184442932
 42
0.2969051242859246
 10
1.660000000000003
 20
-1.624999999999989
 10
2.414999999999984
 20
-1.624999999999989
 42
-0.4142135623730866
 10
2.429999999999985
 20
-1.639999999999989
 10
2.429999999999985
 20
-2.234999999999988
 42
0.4142135623730258
 10
2.444999999999986
 20
-2.249999999999982
 10
2.474999999999987
 20
-2.249999999999982
 42
0.4142135623730171
 10
2.48999999999998
 20
-2.234999999999985
 10
2.489999999999987
 20
-1.059999999999991
 42
0.4142135623730298
 10
2.429999999999999
 20
-0.9999999999999964
 10
2.387499999999992
 20
-0.9999999999999857
 10
2.387499999999988
 20
-1.044999999999991
 10
2.429999999999989
 20
-1.044999999999991
 10
2.429999999999978
 20
-1.094999999999995
 10
2.219999999999984
 20
-1.094999999999988
 10
2.219999999999984
 20
-1.044999999999991
 10
2.262499999999988
 20
-1.044999999999991
  0
POLYLINE
  5
11F
330
D6
100
AcDbEntity
  8
Pel_CS-Weatherstrip
100
AcDb2dPolyline
 66
     1
 10
0.0
 20
0.0
 30
0.0
  0
VERTEX
  5
D2F
330
11F
100
AcDbEntity
  8
Pel_CS-Weatherstrip
100
AcDbVertex
100
AcDb2dVertex
 10
2.237062558138077
 20
-1.060000013999992
 30
0.0
  0
VERTEX
  5
D30
330
11F
100
AcDbEntity
  8
Pel_CS-Weatherstrip
100
AcDbVertex
100
AcDb2dVertex
 10
2.283307147776454
 20
-1.060000013999992
 30
0.0
  0
VERTEX
  5
D31
330
11F
100
AcDbEntity
  8
Pel_CS-Weatherstrip
100
AcDbVertex
100
AcDb2dVertex
 10
2.234520200544253
 20
-0.9222299250618313
 30
0.0
  0
VERTEX
  5
D32
330
11F
100
AcDbEntity
  8
Pel_CS-Weatherstrip
100
AcDbVertex
100
AcDb2dVertex
 10
2.266841641222626
 20
-0.934932074875693
 30
0.0
  0
VERTEX
  5
D33
330
11F
100
AcDbEntity
  8
Pel_CS-Weatherstrip
100
AcDbVertex
100
AcDb2dVertex
 10
2.283307147776454
 20
-1.060000013999992
 30
0.0
  0
VERTEX
  5
D34
330
11F
100
AcDbEntity
  8
Pel_CS-Weatherstrip
100
AcDbVertex
100
AcDb2dVertex
 10
2.294149888925268
 20
-0.9199999999999981
 30
0.0
  0
VERTEX
  5
D35
330
11F
100
AcDbEntity
  8
Pel_CS-Weatherstrip
100
AcDbVertex
100
AcDb2dVertex
 10
2.324536130028185
 20
-0.9199999999999981
 30
0.0
  0
VERTEX
  5
D36
330
11F
100
AcDbEntity
  8
Pel_CS-Weatherstrip
100
AcDbVertex
100
AcDb2dVertex
 10
2.283307147776454
 20
-1.060000013999992
 30
0.0
  0
VERTEX
  5
D37
330
11F
100
AcDbEntity
  8
Pel_CS-Weatherstrip
100
AcDbVertex
100
AcDb2dVertex
 10
2.365765112279916
 20
-1.060000013999992
 30
0.0
  0
VERTEX
  5
D38
330
11F
100
AcDbEntity
  8
Pel_CS-Weatherstrip
100
AcDbVertex
100
AcDb2dVertex
 10
2.324536130028185
 20
-0.9199999999999981
 30
0.0
  0
VERTEX
  5
D39
330
11F
100
AcDbEntity
  8
Pel_CS-Weatherstrip
100
AcDbVertex
100
AcDb2dVertex
 10
2.354922371131102
 20
-0.9199999999999981
 30
0.0
  0
VERTEX
  5
D3A
330
11F
100
AcDbEntity
  8
Pel_CS-Weatherstrip
100
AcDbVertex
100
AcDb2dVertex
 10
2.365765112279916
 20
-1.060000013999992
 30
0.0
  0
VERTEX
  5
D3B
330
11F
100
AcDbEntity
  8
Pel_CS-Weatherstrip
100
AcDbVertex
100
AcDb2dVertex
 10
2.383902888581459
 20
-0.9199999999999981
 30
0.0
  0
VERTEX
  5
D3C
330
11F
100
AcDbEntity
  8
Pel_CS-Weatherstrip
100
AcDbVertex
100
AcDb2dVertex
 10
2.414552059512125
 20
-0.9199999999999981
 30
0.0
  0
VERTEX
  5
D3D
330
11F
100
AcDbEntity
  8
Pel_CS-Weatherstrip
100
AcDbVertex
100
AcDb2dVertex
 10
2.365765112279916
 20
-1.060000013999992
 30
0.0
  0
VERTEX
  5
D3E
330
11F
100
AcDbEntity
  8
Pel_CS-Weatherstrip
100
AcDbVertex
100
AcDb2dVertex
 10
2.423840281824247
 20
-1.060000013999992
 30
0.0
  0
VERTEX
  5
D3F
330
11F
100
AcDbEntity
  8
Pel_CS-Weatherstrip
100
AcDbVertex
100
AcDb2dVertex
 10
2.423840281824247
 20
-1.094999999999988
 30
0.0
  0
VERTEX
  5
D40
330
11F
100
AcDbEntity
  8
Pel_CS-Weatherstrip
100
AcDbVertex
100
AcDb2dVertex
 10
2.237062558138077
 20
-1.094999999999988
 30
0.0
  0
VERTEX
  5
D41
330
11F
100
AcDbEntity
  8
0
100
AcDbVertex
100
AcDb2dVertex
 10
2.237062558138077
 20
-1.060000013999992
 30
0.0
  0
SEQEND
  5
D42
330
11F
100
AcDbEntity
  8
Pel_CS-Weatherstrip
  0
POLYLINE
  5
134
330
D6
100
AcDbEntity
  8
Pel_CS-Weatherstrip
100
AcDb2dPolyline
 66
     1
 10
0.0
 20
0.0
 30
0.0
  0
VERTEX
  5
D44
330
134
100
AcDbEntity
  8
Pel_CS-Weatherstrip
100
AcDbVertex
100
AcDb2dVertex
 10
1.472770088938133
 20
-1.253287128208622
 30
0.0
  0
VERTEX
  5
D45
330
134
100
AcDbEntity
  8
Pel_CS-Weatherstrip
100
AcDbVertex
100
AcDb2dVertex
 10
1.472770088938133
 20
-1.207042538570245
 30
0.0
  0
VERTEX
  5
D46
330
134
100
AcDbEntity
  8
Pel_CS-Weatherstrip
100
AcDbVertex
100
AcDb2dVertex
 10
1.355
 20
-1.248747114351825
 30
0.0
  0
VERTEX
  5
D47
330
134
100
AcDbEntity
  8
Pel_CS-Weatherstrip
100
AcDbVertex
100
AcDb2dVertex
 10
1.355
 20
-1.222547264920045
 30
0.0
  0
VERTEX
  5
D48
330
134
100
AcDbEntity
  8
Pel_CS-Weatherstrip
100
AcDbVertex
100
AcDb2dVertex
 10
1.472770088938133
 20
-1.207042538570245
 30
0.0
  0
VERTEX
  5
D49
330
134
100
AcDbEntity
  8
Pel_CS-Weatherstrip
100
AcDbVertex
100
AcDb2dVertex
 10
1.355
 20
-1.197773831557924
 30
0.0
  0
VERTEX
  5
D4A
330
134
100
AcDbEntity
  8
Pel_CS-Weatherstrip
100
AcDbVertex
100
AcDb2dVertex
 10
1.355
 20
-1.165813556318514
 30
0.0
  0
VERTEX
  5
D4B
330
134
100
AcDbEntity
  8
Pel_CS-Weatherstrip
100
AcDbVertex
100
AcDb2dVertex
 10
1.472770088938133
 20
-1.207042538570245
 30
0.0
  0
VERTEX
  5
D4C
330
134
100
AcDbEntity
  8
Pel_CS-Weatherstrip
100
AcDbVertex
100
AcDb2dVertex
 10
1.472770088938133
 20
-1.124584574066783
 30
0.0
  0
VERTEX
  5
D4D
330
134
100
AcDbEntity
  8
Pel_CS-Weatherstrip
100
AcDbVertex
100
AcDb2dVertex
 10
1.355
 20
-1.165813556318514
 30
0.0
  0
VERTEX
  5
D4E
330
134
100
AcDbEntity
  8
Pel_CS-Weatherstrip
100
AcDbVertex
100
AcDb2dVertex
 10
1.355
 20
-1.133853281079101
 30
0.0
  0
VERTEX
  5
D4F
330
134
100
AcDbEntity
  8
Pel_CS-Weatherstrip
100
AcDbVertex
100
AcDb2dVertex
 10
1.472770088938133
 20
-1.124584574066783
 30
0.0
  0
VERTEX
  5
D50
330
134
100
AcDbEntity
  8
Pel_CS-Weatherstrip
100
AcDbVertex
100
AcDb2dVertex
 10
1.355
 20
-1.109079847716991
 30
0.0
  0
VERTEX
  5
D51
330
134
100
AcDbEntity
  8
Pel_CS-Weatherstrip
100
AcDbVertex
100
AcDb2dVertex
 10
1.355
 20
-1.082879998285193
 30
0.0
  0
VERTEX
  5
D52
330
134
100
AcDbEntity
  8
Pel_CS-Weatherstrip
100
AcDbVertex
100
AcDb2dVertex
 10
1.472770088938133
 20
-1.124584574066783
 30
0.0
  0
VERTEX
  5
D53
330
134
100
AcDbEntity
  8
Pel_CS-Weatherstrip
100
AcDbVertex
100
AcDb2dVertex
 10
1.472770088938133
 20
-1.066509404522452
 30
0.0
  0
VERTEX
  5
D54
330
134
100
AcDbEntity
  8
Pel_CS-Weatherstrip
100
AcDbVertex
100
AcDb2dVertex
 10
1.507770074938129
 20
-1.066509404522452
 30
0.0
  0
VERTEX
  5
D55
330
134
100
AcDbEntity
  8
Pel_CS-Weatherstrip
100
AcDbVertex
100
AcDb2dVertex
 10
1.507770074938129
 20
-1.253287128208622
 30
0.0
  0
VERTEX
  5
D56
330
134
100
AcDbEntity
  8
0
100
AcDbVertex
100
AcDb2dVertex
 10
1.472770088938133
 20
-1.253287128208622
 30
0.0
  0
SEQEND
  5
D57
330
134
100
AcDbEntity
  8
Pel_CS-Weatherstrip
  0
LWPOLYLINE
  5
14A
330
D6
100
AcDbEntity
  8
Pel_CS-Cross Section
 62
     4
100
AcDbPolyline
 90
       14
 70
   129
 43
0.0
 10
1.613003333947673
 20
-2.234316146045731
 42
-0.0998807877076541
 10
1.443034925868332
 20
-1.648627546340176
 10
1.512775634119439
 20
-1.644972590695108
 42
0.398959545973707
 10
1.53172891499458
 20
-1.625000000000017
 10
1.531728914994584
 20
-1.519139017402029
 10
1.64396612254308
 20
-1.401900986668145
 42
1.0
 10
1.629519225492366
 20
-1.388070326322157
 10
1.491728914994588
 20
-1.532000000000021
 10
1.511728914994584
 20
-1.550008080885977
 10
1.511728914994581
 20
-1.625000000000014
 10
1.436190284944295
 20
-1.628958811851031
 42
0.4576894237555402
 10
1.42226982372053
 20
-1.646895999462739
 42
0.1008918840847244
 10
1.596606276904005
 20
-2.245767631552279
 42
0.9914914112673672
 10
1.613041875079719
 20
-2.234372812235459
  0
LINE
  5
14B
330
D6
100
AcDbEntity
  8
Pel_CS-Weatherstrip
100
AcDbLine
 10
2.367999999999991
 20
-1.860000000000017
 30
0.0
 11
2.431728914994547
 21
-1.860000000000017
 31
0.0
  0
LINE
  5
14C
330
D6
100
AcDbEntity
  8
Pel_CS-Weatherstrip
100
AcDbLine
 10
2.367999999999991
 20
-2.235000000000017
 30
0.0
 11
2.431728914994547
 21
-2.235000000000017
 31
0.0
  0
LWPOLYLINE
  5
14E
330
D6
100
AcDbEntity
  8
Pel_CS-Cross Section
 62
     4
100
AcDbPolyline
 90
       14
 70
   129
 43
0.0
 10
1.613003333947673
 20
-2.234316146045731
 42
-0.0998807877076541
 10
1.443034925868332
 20
-1.648627546340176
 10
1.512775634119439
 20
-1.644972590695108
 42
0.398959545973707
 10
1.53172891499458
 20
-1.625000000000017
 10
1.531728914994584
 20
-1.519139017402029
 10
1.64396612254308
 20
-1.401900986668145
 42
1.0
 10
1.629519225492366
 20
-1.388070326322157
 10
1.491728914994588
 20
-1.532000000000021
 10
1.511728914994584
 20
-1.550008080885977
 10
1.511728914994581
 20
-1.625000000000014
 10
1.436190284944295
 20
-1.628958811851031
 42
0.4576894237555402
 10
1.42226982372053
 20
-1.646895999462739
 42
0.1008918840847244
 10
1.596606276904005
 20
-2.245767631552279
 42
0.9914914112673672
 10
1.613041875079719
 20
-2.234372812235459
  0
LINE
  5
14F
330
D6
100
AcDbEntity
  8
Pel_CS-Sealant
100
AcDbLine
 10
1.768499999999978
 20
-1.872500000000005
 30
0.0
 11
1.735749999999978
 21
-1.872500000000005
 31
0.0
  0
LINE
  5
150
330
D6
100
AcDbEntity
  8
Pel_CS-Sealant
100
AcDbLine
 10
1.768499999999978
 20
-2.18750000000001
 30
0.0
 11
1.735749999999978
 21
-2.18750000000001
 31
0.0
  0
ARC
  5
151
330
D6
100
AcDbEntity
  8
Pel_CS-Sealant
100
AcDbCircle
 10
1.992874999999944
 20
-0.0995500460264829
 30
0.0
 40
1.744843681881043
100
AcDbArc
 50
261.5258739320383
 51
278.4741260679632
  0
ARC
  5
152
330
D6
100
AcDbEntity
  8
Pel_CS-Sealant
100
AcDbCircle
 10
1.992874999999944
 20
-0.0847656507813106
 30
0.0
 40
1.73462807712622
100
AcDbArc
 50
261.4755975468654
 51
278.5244024531366
  0
ARC
  5
153
330
D6
100
AcDbEntity
  8
Pel_CS-Sealant
100
AcDbCircle
 10
1.992874999999944
 20
-0.0699808536619564
 30
0.0
 40
1.724412874245569
100
AcDbArc
 50
261.4247207582319
 51
278.57527924177
  0
HATCH
  5
154
330
D6
100
AcDbEntity
  8
Pel_CS-Sealant
100
AcDbHatch
 10
0.0
 20
0.0
 30
0.0
210
0.0
220
0.0
230
1.0
  2
DASH
 70
     0
 71
     0
 91
        2
 92
        1
 93
        4
 72
     1
 10
1.774499999999978
 20
-1.938191049788844
 11
2.211249999999974
 21
-1.938191049788844
 72
     1
 10
2.211249999999974
 20
-1.938191049788844
 11
2.211249999999974
 21
-1.8885
 72
     1
 10
2.211249999999974
 20
-1.888499999999996
 11
1.774499999999978
 21
-1.888500000000007
 72
     1
 10
1.774499999999978
 20
-1.888500000000011
 11
1.774499999999978
 21
-1.938191049788844
 97
        0
 92
       49
 93
        1
 72
     1
 10
1.774499999999978
 20
-1.938191049788844
 11
2.211249999999974
 21
-1.938191049788844
 97
        0
 75
     0
 76
     1
 52
30.0
 41
0.15
 77
     0
 78
     1
 53
330.0
 43
-3.85128117740761
 44
0.3483267997245996
 45
0.0068629763209582
 46
-0.0256129763209582
 79
     2
 49
0.01875
 49
-0.01875
 98
        1
 10
-3.85128117740761
 20
0.3483267997245996
  0
LWPOLYLINE
  5
155
330
D6
100
AcDbEntity
  8
Pel_CS-Sealant
100
AcDbPolyline
 90
        4
 70
     1
 43
0.0
 10
1.774499999999978
 20
-1.938191049788844
 10
2.211249999999974
 20
-1.938191049788844
 10
2.211249999999974
 20
-1.888499999999996
 10
1.774499999999978
 20
-1.888500000000011
  0
LWPOLYLINE
  5
156
330
D6
100
AcDbEntity
  8
Pel_CS-IG
100
AcDbPolyline
 90
       16
 70
   129
 43
0.0
 10
1.858499999999978
 20
-2.18750000000001
 10
1.768499999999978
 20
-2.18750000000001
 42
-0.4142135623731017
 10
1.758499999999973
 20
-2.177500000000012
 10
1.75849999999998
 20
-1.88250000000001
 42
-0.4142135623730873
 10
1.768499999999978
 20
-1.872500000000005
 10
2.217249999999975
 20
-1.872499999999998
 42
-0.4142135623731013
 10
2.227249999999976
 20
-1.882499999999996
 10
2.227249999999976
 20
-2.177499999999998
 42
-0.4142135623730894
 10
2.217249999999975
 20
-2.187500000000003
 10
2.127249999999975
 20
-2.18750000000001
 10
2.127249999999975
 20
-2.171500000000005
 10
2.211249999999974
 20
-2.171499999999998
 10
2.211249999999974
 20
-1.888499999999996
 10
1.774499999999978
 20
-1.888500000000011
 10
1.774499999999978
 20
-2.171500000000012
 10
1.858499999999978
 20
-2.171500000000005
  0
LINE
  5
157
330
D6
100
AcDbEntity
  8
Pel_CS-Sealant
100
AcDbLine
 10
2.217249999999975
 20
-1.872500000000005
 30
0.0
 11
2.249999999999975
 21
-1.872500000000005
 31
0.0
  0
LINE
  5
158
330
D6
100
AcDbEntity
  8
Pel_CS-Sealant
100
AcDbLine
 10
2.217249999999975
 20
-2.18750000000001
 30
0.0
 11
2.249999999999975
 21
-2.18750000000001
 31
0.0
  0
POLYLINE
  5
15B
330
D6
100
AcDbEntity
  8
Pel_CS-IG
100
AcDb2dPolyline
 66
     1
 10
0.0
 20
0.0
 30
0.0
  0
VERTEX
  5
D67
330
15B
100
AcDbEntity
  8
Pel_CS-IG
100
AcDbVertex
100
AcDb2dVertex
 10
1.617750000000036
 20
-4.50000000000001
 30
0.0
  0
VERTEX
  5
D68
330
15B
100
AcDbEntity
  8
Pel_CS-IG
100
AcDbVertex
100
AcDb2dVertex
 10
1.617750000000036
 20
-1.750000000000003
 30
0.0
  0
VERTEX
  5
D69
330
15B
100
AcDbEntity
  8
Pel_CS-IG
100
AcDbVertex
100
AcDb2dVertex
 10
1.735750000000038
 20
-1.750000000000003
 30
0.0
  0
VERTEX
  5
D6A
330
15B
100
AcDbEntity
  8
Pel_CS-IG
100
AcDbVertex
100
AcDb2dVertex
 10
1.735750000000038
 20
-4.50000000000001
 30
0.0
  0
SEQEND
  5
D6B
330
15B
100
AcDbEntity
  8
Pel_CS-IG
  0
POLYLINE
  5
161
330
D6
100
AcDbEntity
  8
Pel_CS-IG
100
AcDb2dPolyline
 66
     1
 10
0.0
 20
0.0
 30
0.0
  0
VERTEX
  5
D6D
330
161
100
AcDbEntity
  8
Pel_CS-IG
100
AcDbVertex
100
AcDb2dVertex
 10
2.36799999999998
 20
-4.50000000000001
 30
0.0
  0
VERTEX
  5
D6E
330
161
100
AcDbEntity
  8
Pel_CS-IG
100
AcDbVertex
100
AcDb2dVertex
 10
2.36799999999998
 20
-1.750000000000003
 30
0.0
  0
VERTEX
  5
D6F
330
161
100
AcDbEntity
  8
Pel_CS-IG
100
AcDbVertex
100
AcDb2dVertex
 10
2.249999999999985
 20
-1.750000000000003
 30
0.0
  0
VERTEX
  5
D70
330
161
100
AcDbEntity
  8
Pel_CS-IG
100
AcDbVertex
100
AcDb2dVertex
 10
2.249999999999978
 20
-4.50000000000001
 30
0.0
  0
SEQEND
  5
D71
330
161
100
AcDbEntity
  8
Pel_CS-IG
  0
LWPOLYLINE
  5
167
330
D6
100
AcDbEntity
  8
Pel_CS-Weatherstrip
  6
Continuous
100
AcDbPolyline
 90
        4
 70
     1
 43
0.0
 10
2.430000003769578
 20
-1.85999999766923
 10
2.36800000376958
 20
-1.85999999766923
 10
2.36800000376958
 20
-2.23499999766923
 10
2.430000003769578
 20
-2.23499999766923
  0
INSERT
  5
864
330
D6
100
AcDbEntity
  8
0
100
AcDbBlockReference
  2
A$C708E12FD
 10
0.6669999999999732
 20
-2.735000000000017
 30
0.0
  0
CIRCLE
  5
D74
330
D6
100
AcDbEntity
  8
Pel_CS-Weatherstrip
100
AcDbCircle
 10
0.6669999999999661
 20
-3.220000000000013
 30
0.0
 40
0.018
  0
CIRCLE
  5
D75
330
D6
100
AcDbEntity
  8
Pel_CS-Weatherstrip
100
AcDbCircle
 10
0.6669999999999661
 20
-3.345000000000013
 30
0.0
 40
0.018
  0
HATCH
  5
D76
330
D6
100
AcDbEntity
  8
Pel_CS-Weatherstrip
100
AcDbHatch
 10
0.0
 20
0.0
 30
0.0
210
0.0
220
0.0
230
1.0
  2
SOLID
 70
     1
 71
     0
 91
        1
 92
        1
 93
        1
 72
     2
 10
0.6669999999999661
 20
-3.220000000000013
 40
0.018
 50
-180.0
 51
180.0
 73
     1
 97
        0
 75
     0
 76
     1
 98
        1
 10
1.348999999999968
 20
-1.749999999999996
  0
HATCH
  5
D77
330
D6
100
AcDbEntity
  8
Pel_CS-Weatherstrip
100
AcDbHatch
 10
0.0
 20
0.0
 30
0.0
210
0.0
220
0.0
230
1.0
  2
SOLID
 70
     1
 71
     0
 91
        1
 92
        1
 93
        1
 72
     2
 10
0.6669999999999661
 20
-3.345000000000013
 40
0.018
 50
-180.0
 51
180.0
 73
     1
 97
        0
 75
     0
 76
     1
 98
        1
 10
1.348999999999968
 20
-1.874999999999996
  0
HATCH
  5
D78
330
D6
100
AcDbEntity
  8
Pel_CS-Weatherstrip
100
AcDbHatch
 10
0.0
 20
0.0
 30
0.0
210
0.0
220
0.0
230
1.0
  2
SOLID
 70
     1
 71
     0
 91
        1
 92
        1
 93
        1
 72
     2
 10
0.6669999999999661
 20
-3.970000000000013
 40
0.018
 50
-180.0
 51
180.0
 73
     1
 97
        0
 75
     0
 76
     1
 98
        1
 10
1.348999999999968
 20
-2.499999999999996
  0
HATCH
  5
D79
330
D6
100
AcDbEntity
  8
Pel_CS-Weatherstrip
100
AcDbHatch
 10
0.0
 20
0.0
 30
0.0
210
0.0
220
0.0
230
1.0
  2
SOLID
 70
     1
 71
     0
 91
        1
 92
        1
 93
        1
 72
     2
 10
0.6669999999999661
 20
-3.845000000000013
 40
0.018
 50
-180.0
 51
180.0
 73
     1
 97
        0
 75
     0
 76
     1
 98
        1
 10
1.348999999999968
 20
-2.374999999999996
  0
HATCH
  5
D7A
330
D6
100
AcDbEntity
  8
Pel_CS-Weatherstrip
100
AcDbHatch
 10
0.0
 20
0.0
 30
0.0
210
0.0
220
0.0
230
1.0
  2
SOLID
 70
     1
 71
     0
 91
        1
 92
        1
 93
        1
 72
     2
 10
0.6669999999999661
 20
-3.720000000000013
 40
0.018
 50
-180.0
 51
180.0
 73
     1
 97
        0
 75
     0
 76
     1
 98
        1
 10
1.348999999999968
 20
-2.249999999999996
  0
HATCH
  5
D7B
330
D6
100
AcDbEntity
  8
Pel_CS-Weatherstrip
100
AcDbHatch
 10
0.0
 20
0.0
 30
0.0
210
0.0
220
0.0
230
1.0
  2
SOLID
 70
     1
 71
     0
 91
        1
 92
        1
 93
        1
 72
     2
 10
0.6669999999999661
 20
-3.595000000000013
 40
0.018
 50
-180.0
 51
180.0
 73
     1
 97
        0
 75
     0
 76
     1
 98
        1
 10
1.348999999999968
 20
-2.124999999999996
  0
HATCH
  5
D7C
330
D6
100
AcDbEntity
  8
Pel_CS-Weatherstrip
100
AcDbHatch
 10
0.0
 20
0.0
 30
0.0
210
0.0
220
0.0
230
1.0
  2
SOLID
 70
     1
 71
     0
 91
        1
 92
        1
 93
        1
 72
     2
 10
0.6669999999999661
 20
-3.470000000000013
 40
0.018
 50
-180.0
 51
180.0
 73
     1
 97
        0
 75
     0
 76
     1
 98
        1
 10
1.348999999999968
 20
-1.999999999999996
  0
CIRCLE
  5
D7D
330
D6
100
AcDbEntity
  8
Pel_CS-Weatherstrip
100
AcDbCircle
 10
0.6669999999999661
 20
-3.720000000000013
 30
0.0
 40
0.018
  0
CIRCLE
  5
D7E
330
D6
100
AcDbEntity
  8
Pel_CS-Weatherstrip
100
AcDbCircle
 10
0.6669999999999661
 20
-3.595000000000013
 30
0.0
 40
0.018
  0
CIRCLE
  5
D7F
330
D6
100
AcDbEntity
  8
Pel_CS-Weatherstrip
100
AcDbCircle
 10
0.6669999999999661
 20
-3.845000000000013
 30
0.0
 40
0.018
  0
CIRCLE
  5
D80
330
D6
100
AcDbEntity
  8
Pel_CS-Weatherstrip
100
AcDbCircle
 10
0.6669999999999661
 20
-3.970000000000013
 30
0.0
 40
0.018
  0
CIRCLE
  5
D81
330
D6
100
AcDbEntity
  8
Pel_CS-Weatherstrip
100
AcDbCircle
 10
0.6669999999999661
 20
-3.470000000000013
 30
0.0
 40
0.018
  0
HATCH
  5
D82
330
D6
100
AcDbEntity
  8
Pel_CS-Weatherstrip
100
AcDbHatch
 10
0.0
 20
0.0
 30
0.0
210
0.0
220
0.0
230
1.0
  2
SOLID
 70
     1
 71
     0
 91
        1
 92
        1
 93
        1
 72
     2
 10
0.6669999999999661
 20
-4.095000000000013
 40
0.018
 50
-180.0
 51
180.0
 73
     1
 97
        0
 75
     0
 76
     1
 98
        1
 10
1.348999999999968
 20
-2.624999999999996
  0
CIRCLE
  5
D83
330
D6
100
AcDbEntity
  8
Pel_CS-Weatherstrip
100
AcDbCircle
 10
0.6669999999999661
 20
-4.095000000000013
 30
0.0
 40
0.018
  0
HATCH
  5
D84
330
D6
100
AcDbEntity
  8
Pel_CS-Weatherstrip
100
AcDbHatch
 10
0.0
 20
0.0
 30
0.0
210
0.0
220
0.0
230
1.0
  2
SOLID
 70
     1
 71
     0
 91
        1
 92
        1
 93
        1
 72
     2
 10
0.6669999999999661
 20
-4.220000000000013
 40
0.018
 50
-180.0
 51
180.0
 73
     1
 97
        0
 75
     0
 76
     1
 98
        1
 10
1.348999999999968
 20
-2.749999999999996
  0
CIRCLE
  5
D85
330
D6
100
AcDbEntity
  8
Pel_CS-Weatherstrip
100
AcDbCircle
 10
0.6669999999999661
 20
-4.220000000000013
 30
0.0
 40
0.018
  0
HATCH
  5
D86
330
D6
100
AcDbEntity
  8
Pel_CS-Weatherstrip
100
AcDbHatch
 10
0.0
 20
0.0
 30
0.0
210
0.0
220
0.0
230
1.0
  2
SOLID
 70
     1
 71
     0
 91
        1
 92
        1
 93
        1
 72
     2
 10
0.6669999999999661
 20
-4.345000000000013
 40
0.018
 50
-180.0
 51
180.0
 73
     1
 97
        0
 75
     0
 76
     1
 98
        1
 10
1.348999999999968
 20
-2.874999999999996
  0
CIRCLE
  5
D87
330
D6
100
AcDbEntity
  8
Pel_CS-Weatherstrip
100
AcDbCircle
 10
0.6669999999999661
 20
-4.345000000000013
 30
0.0
 40
0.018
  0
HATCH
  5
D88
330
D6
100
AcDbEntity
  8
Pel_CS-Weatherstrip
100
AcDbHatch
 10
0.0
 20
0.0
 30
0.0
210
0.0
220
0.0
230
1.0
  2
SOLID
 70
     1
 71
     0
 91
        1
 92
        1
 93
        1
 72
     2
 10
0.6669999999999661
 20
-4.470000000000013
 40
0.018
 50
-180.0
 51
180.0
 73
     1
 97
        0
 75
     0
 76
     1
 98
        1
 10
1.348999999999968
 20
-2.999999999999996
  0
CIRCLE
  5
D89
330
D6
100
AcDbEntity
  8
Pel_CS-Weatherstrip
100
AcDbCircle
 10
0.6669999999999661
 20
-4.470000000000013
 30
0.0
 40
0.018
  0
ENDBLK
  5
168
330
D6
100
AcDbEntity
  8
0
100
AcDbBlockEnd
  0
BLOCK
  5
C5
330
C3
100
AcDbEntity
  8
0
100
AcDbBlockBegin
  2
A$C708E12FD
 70
     0
 10
0.0
 20
0.0
 30
0.0
  3
A$C708E12FD
  1

  0
CIRCLE
  5
C6
330
C3
100
AcDbEntity
  8
Pel_CS-Weatherstrip
100
AcDbCircle
 10
-0.0000000000000071
 20
-0.1099999999999959
 30
0.0
 40
0.018
  0
CIRCLE
  5
C7
330
C3
100
AcDbEntity
  8
Pel_CS-Weatherstrip
100
AcDbCircle
 10
-0.0000000000000071
 20
-0.2349999999999959
 30
0.0
 40
0.018
  0
HATCH
  5
C8
330
C3
100
AcDbEntity
  8
Pel_CS-Weatherstrip
100
AcDbHatch
 10
0.0
 20
0.0
 30
0.0
210
0.0
220
0.0
230
1.0
  2
SOLID
 70
     1
 71
     0
 91
        1
 92
        1
 93
        1
 72
     2
 10
-0.0000000000000071
 20
-0.1099999999999959
 40
0.018
 50
-180.0
 51
180.0
 73
     1
 97
        0
 75
     0
 76
     1
 98
        1
 10
0.6819999999999951
 20
1.36000000000002
  0
HATCH
  5
C9
330
C3
100
AcDbEntity
  8
Pel_CS-Weatherstrip
100
AcDbHatch
 10
0.0
 20
0.0
 30
0.0
210
0.0
220
0.0
230
1.0
  2
SOLID
 70
     1
 71
     0
 91
        1
 92
        1
 93
        1
 72
     2
 10
-0.0000000000000071
 20
-0.2349999999999959
 40
0.018
 50
-180.0
 51
180.0
 73
     1
 97
        0
 75
     0
 76
     1
 98
        1
 10
0.6819999999999951
 20
1.23500000000002
  0
HATCH
  5
CA
330
C3
100
AcDbEntity
  8
Pel_CS-Weatherstrip
100
AcDbHatch
 10
0.0
 20
0.0
 30
0.0
210
0.0
220
0.0
230
1.0
  2
SOLID
 70
     1
 71
     0
 91
        1
 92
        1
 93
        1
 72
     2
 10
-0.0000000000000071
 20
-0.8599999999999958
 40
0.018
 50
-180.0
 51
180.0
 73
     1
 97
        0
 75
     0
 76
     1
 98
        1
 10
0.6819999999999951
 20
0.6100000000000208
  0
HATCH
  5
CB
330
C3
100
AcDbEntity
  8
Pel_CS-Weatherstrip
100
AcDbHatch
 10
0.0
 20
0.0
 30
0.0
210
0.0
220
0.0
230
1.0
  2
SOLID
 70
     1
 71
     0
 91
        1
 92
        1
 93
        1
 72
     2
 10
-0.0000000000000071
 20
-0.7349999999999959
 40
0.018
 50
-180.0
 51
180.0
 73
     1
 97
        0
 75
     0
 76
     1
 98
        1
 10
0.6819999999999951
 20
0.7350000000000208
  0
HATCH
  5
CC
330
C3
100
AcDbEntity
  8
Pel_CS-Weatherstrip
100
AcDbHatch
 10
0.0
 20
0.0
 30
0.0
210
0.0
220
0.0
230
1.0
  2
SOLID
 70
     1
 71
     0
 91
        1
 92
        1
 93
        1
 72
     2
 10
-0.0000000000000071
 20
-0.6099999999999959
 40
0.018
 50
-180.0
 51
180.0
 73
     1
 97
        0
 75
     0
 76
     1
 98
        1
 10
0.6819999999999951
 20
0.8600000000000207
  0
HATCH
  5
CD
330
C3
100
AcDbEntity
  8
Pel_CS-Weatherstrip
100
AcDbHatch
 10
0.0
 20
0.0
 30
0.0
210
0.0
220
0.0
230
1.0
  2
SOLID
 70
     1
 71
     0
 91
        1
 92
        1
 93
        1
 72
     2
 10
-0.0000000000000071
 20
-0.4849999999999959
 40
0.018
 50
-180.0
 51
180.0
 73
     1
 97
        0
 75
     0
 76
     1
 98
        1
 10
0.6819999999999951
 20
0.9850000000000207
  0
HATCH
  5
CE
330
C3
100
AcDbEntity
  8
Pel_CS-Weatherstrip
100
AcDbHatch
 10
0.0
 20
0.0
 30
0.0
210
0.0
220
0.0
230
1.0
  2
SOLID
 70
     1
 71
     0
 91
        1
 92
        1
 93
        1
 72
     2
 10
-0.0000000000000071
 20
-0.3599999999999959
 40
0.018
 50
-180.0
 51
180.0
 73
     1
 97
        0
 75
     0
 76
     1
 98
        1
 10
0.6819999999999951
 20
1.11000000000002
  0
CIRCLE
  5
CF
330
C3
100
AcDbEntity
  8
Pel_CS-Weatherstrip
100
AcDbCircle
 10
-0.0000000000000071
 20
-0.6099999999999959
 30
0.0
 40
0.018
  0
CIRCLE
  5
D0
330
C3
100
AcDbEntity
  8
Pel_CS-Weatherstrip
100
AcDbCircle
 10
-0.0000000000000071
 20
-0.4849999999999959
 30
0.0
 40
0.018
  0
CIRCLE
  5
D1
330
C3
100
AcDbEntity
  8
Pel_CS-Weatherstrip
100
AcDbCircle
 10
-0.0000000000000071
 20
-0.7349999999999959
 30
0.0
 40
0.018
  0
CIRCLE
  5
D2
330
C3
100
AcDbEntity
  8
Pel_CS-Weatherstrip
100
AcDbCircle
 10
-0.0000000000000071
 20
-0.8599999999999958
 30
0.0
 40
0.018
  0
CIRCLE
  5
D3
330
C3
100
AcDbEntity
  8
Pel_CS-Weatherstrip
100
AcDbCircle
 10
-0.0000000000000071
 20
-0.3599999999999959
 30
0.0
 40
0.018
  0
ENDBLK
  5
D4
330
C3
100
AcDbEntity
  8
0
100
AcDbBlockEnd
  0
BLOCK
  5
38
330
35
100
AcDbEntity
  8
0
100
AcDbBlockBegin
  2
TSE10SHSV-J
 70
     0
 10
0.0
 20
0.0
 30
0.0
  3
TSE10SHSV-J
  1

  0
CIRCLE
  5
39
102
{ACAD_REACTORS
330
6F
102
}
330
35
100
AcDbEntity
  8
Pel_CS-Weatherstrip
100
AcDbCircle
 10
0.6669999999999803
 20
1.470000000000016
 30
0.0
 40
0.018
  0
CIRCLE
  5
3B
330
35
100
AcDbEntity
  8
Pel_CS-Weatherstrip
100
AcDbCircle
 10
0.6669999999999803
 20
1.595000000000016
 30
0.0
 40
0.018
  0
CIRCLE
  5
3C
330
35
100
AcDbEntity
  8
Pel_CS-Weatherstrip
100
AcDbCircle
 10
0.6669999999999803
 20
1.720000000000016
 30
0.0
 40
0.018
  0
POLYLINE
  5
3D
102
{ACAD_REACTORS
330
7C
102
}
330
35
100
AcDbEntity
  8
Pel_CS-Clad
100
AcDb2dPolyline
 66
     1
 10
0.0
 20
0.0
 30
0.0
 70
     1
  0
VERTEX
  5
BBB
330
3D
100
AcDbEntity
  8
Pel_CS-Clad
100
AcDbVertex
100
AcDb2dVertex
 10
0.7049999999999735
 20
0.7500000000000036
 30
0.0
  0
VERTEX
  5
BBC
330
3D
100
AcDbEntity
  8
Pel_CS-Clad
100
AcDbVertex
100
AcDb2dVertex
 10
0.9649999999999856
 20
0.7500000000000036
 30
0.0
 42
0.4142135623732505
  0
VERTEX
  5
BBD
330
3D
100
AcDbEntity
  8
Pel_CS-Clad
100
AcDbVertex
100
AcDb2dVertex
 10
0.9849999999999852
 20
0.7700000000000138
 30
0.0
  0
VERTEX
  5
BBE
330
3D
100
AcDbEntity
  8
Pel_CS-Clad
100
AcDbVertex
100
AcDb2dVertex
 10
0.9849999999999852
 20
1.370000000000015
 30
0.0
 42
0.4142135623731472
  0
VERTEX
  5
BBF
330
3D
100
AcDbEntity
  8
Pel_CS-Clad
100
AcDbVertex
100
AcDb2dVertex
 10
0.9649999999999856
 20
1.390000000000018
 30
0.0
  0
VERTEX
  5
BC0
330
3D
100
AcDbEntity
  8
Pel_CS-Clad
100
AcDbVertex
100
AcDb2dVertex
 10
0.9249999999999829
 20
1.390000000000018
 30
0.0
  0
VERTEX
  5
BC1
330
3D
100
AcDbEntity
  8
Pel_CS-Clad
100
AcDbVertex
100
AcDb2dVertex
 10
0.9249999999999829
 20
1.480000000000014
 30
0.0
 42
0.4142135623731472
  0
VERTEX
  5
BC2
330
3D
100
AcDbEntity
  8
Pel_CS-Clad
100
AcDbVertex
100
AcDb2dVertex
 10
0.9049999999999833
 20
1.500000000000017
 30
0.0
  0
VERTEX
  5
BC3
330
3D
100
AcDbEntity
  8
Pel_CS-Clad
100
AcDbVertex
100
AcDb2dVertex
 10
0.7049999999999806
 20
1.500000000000017
 30
0.0
 42
0.4142135623730951
  0
VERTEX
  5
BC4
330
3D
100
AcDbEntity
  8
Pel_CS-Clad
100
AcDbVertex
100
AcDb2dVertex
 10
0.684999999999981
 20
1.480000000000014
 30
0.0
  0
VERTEX
  5
BC5
330
3D
100
AcDbEntity
  8
Pel_CS-Clad
100
AcDbVertex
100
AcDb2dVertex
 10
0.684999999999981
 20
1.460000000000018
 30
0.0
 42
0.4142135623731472
  0
VERTEX
  5
BC6
330
3D
100
AcDbEntity
  8
Pel_CS-Clad
100
AcDbVertex
100
AcDb2dVertex
 10
0.7049999999999806
 20
1.440000000000015
 30
0.0
  0
VERTEX
  5
BC7
330
3D
100
AcDbEntity
  8
Pel_CS-Clad
100
AcDbVertex
100
AcDb2dVertex
 10
0.7523836048657451
 20
1.440000000000015
 30
0.0
 42
0.0578233517657538
  0
VERTEX
  5
BC8
330
3D
100
AcDbEntity
  8
Pel_CS-Clad
100
AcDbVertex
100
AcDb2dVertex
 10
0.754673467455433
 20
1.440265703450169
 30
0.0
  0
VERTEX
  5
BC9
330
3D
100
AcDbEntity
  8
Pel_CS-Clad
100
AcDbVertex
100
AcDb2dVertex
 10
0.754673467455433
 20
1.460000000000018
 30
0.0
  0
VERTEX
  5
BCA
330
3D
100
AcDbEntity
  8
Pel_CS-Clad
100
AcDbVertex
100
AcDb2dVertex
 10
0.7049999999999806
 20
1.460000000000018
 30
0.0
  0
VERTEX
  5
BCB
330
3D
100
AcDbEntity
  8
Pel_CS-Clad
100
AcDbVertex
100
AcDb2dVertex
 10
0.7049999999999806
 20
1.480000000000007
 30
0.0
  0
VERTEX
  5
BCC
330
3D
100
AcDbEntity
  8
Pel_CS-Clad
100
AcDbVertex
100
AcDb2dVertex
 10
0.9049999999999833
 20
1.480000000000021
 30
0.0
  0
VERTEX
  5
BCD
330
3D
100
AcDbEntity
  8
Pel_CS-Clad
100
AcDbVertex
100
AcDb2dVertex
 10
0.9049999999999798
 20
1.370000000000015
 30
0.0
  0
VERTEX
  5
BCE
330
3D
100
AcDbEntity
  8
Pel_CS-Clad
100
AcDbVertex
100
AcDb2dVertex
 10
0.9649999999999785
 20
1.370000000000015
 30
0.0
  0
VERTEX
  5
BCF
330
3D
100
AcDbEntity
  8
Pel_CS-Clad
100
AcDbVertex
100
AcDb2dVertex
 10
0.9649999999999856
 20
0.7700000000000138
 30
0.0
  0
VERTEX
  5
BD0
330
3D
100
AcDbEntity
  8
Pel_CS-Clad
100
AcDbVertex
100
AcDb2dVertex
 10
0.7049999999999841
 20
0.7700000000000138
 30
0.0
  0
VERTEX
  5
BD1
330
3D
100
AcDbEntity
  8
Pel_CS-Clad
100
AcDbVertex
100
AcDb2dVertex
 10
0.7049999999999806
 20
1.283750000000008
 30
0.0
  0
VERTEX
  5
BD2
330
3D
100
AcDbEntity
  8
Pel_CS-Clad
100
AcDbVertex
100
AcDb2dVertex
 10
0.8849999999999837
 20
1.283750000000015
 30
0.0
 42
0.4142135623731472
  0
VERTEX
  5
BD3
330
3D
100
AcDbEntity
  8
Pel_CS-Clad
100
AcDbVertex
100
AcDb2dVertex
 10
0.9049999999999833
 20
1.303750000000018
 30
0.0
  0
VERTEX
  5
BD4
330
3D
100
AcDbEntity
  8
Pel_CS-Clad
100
AcDbVertex
100
AcDb2dVertex
 10
0.9049999999999833
 20
1.480000000000021
 30
0.0
  0
VERTEX
  5
BD5
330
3D
100
AcDbEntity
  8
Pel_CS-Clad
100
AcDbVertex
100
AcDb2dVertex
 10
0.7049999999999806
 20
1.480000000000007
 30
0.0
  0
VERTEX
  5
BD6
330
3D
100
AcDbEntity
  8
Pel_CS-Clad
100
AcDbVertex
100
AcDb2dVertex
 10
0.7049999999999806
 20
1.460000000000018
 30
0.0
  0
VERTEX
  5
BD7
330
3D
100
AcDbEntity
  8
Pel_CS-Clad
100
AcDbVertex
100
AcDb2dVertex
 10
0.8849999999999873
 20
1.460000000000018
 30
0.0
  0
VERTEX
  5
BD8
330
3D
100
AcDbEntity
  8
Pel_CS-Clad
100
AcDbVertex
100
AcDb2dVertex
 10
0.8849999999999802
 20
1.303750000000018
 30
0.0
  0
VERTEX
  5
BD9
330
3D
100
AcDbEntity
  8
Pel_CS-Clad
100
AcDbVertex
100
AcDb2dVertex
 10
0.7049999999999806
 20
1.303750000000018
 30
0.0
 42
0.4142135623730951
  0
VERTEX
  5
BDA
330
3D
100
AcDbEntity
  8
Pel_CS-Clad
100
AcDbVertex
100
AcDb2dVertex
 10
0.684999999999981
 20
1.283750000000015
 30
0.0
  0
VERTEX
  5
BDB
330
3D
100
AcDbEntity
  8
Pel_CS-Clad
100
AcDbVertex
100
AcDb2dVertex
 10
0.684999999999981
 20
0.7700000000000138
 30
0.0
 42
0.4142135623731472
  0
SEQEND
  5
BDC
330
3D
100
AcDbEntity
  8
Pel_CS-Clad
  0
CIRCLE
  5
61
330
35
100
AcDbEntity
  8
Pel_CS-Weatherstrip
100
AcDbCircle
 10
0.6669999999999803
 20
2.970000000000016
 30
0.0
 40
0.018
  0
CIRCLE
  5
62
330
35
100
AcDbEntity
  8
Pel_CS-Weatherstrip
100
AcDbCircle
 10
0.6669999999999803
 20
2.845000000000016
 30
0.0
 40
0.018
  0
CIRCLE
  5
63
330
35
100
AcDbEntity
  8
Pel_CS-Weatherstrip
100
AcDbCircle
 10
0.6669999999999803
 20
2.220000000000016
 30
0.0
 40
0.018
  0
CIRCLE
  5
64
330
35
100
AcDbEntity
  8
Pel_CS-Weatherstrip
100
AcDbCircle
 10
0.6669999999999803
 20
2.345000000000016
 30
0.0
 40
0.018
  0
CIRCLE
  5
65
330
35
100
AcDbEntity
  8
Pel_CS-Weatherstrip
100
AcDbCircle
 10
0.6669999999999803
 20
2.470000000000016
 30
0.0
 40
0.018
  0
CIRCLE
  5
66
330
35
100
AcDbEntity
  8
Pel_CS-Weatherstrip
100
AcDbCircle
 10
0.6669999999999803
 20
2.595000000000016
 30
0.0
 40
0.018
  0
CIRCLE
  5
67
330
35
100
AcDbEntity
  8
Pel_CS-Weatherstrip
100
AcDbCircle
 10
0.6669999999999803
 20
2.720000000000016
 30
0.0
 40
0.018
  0
CIRCLE
  5
68
330
35
100
AcDbEntity
  8
Pel_CS-Weatherstrip
100
AcDbCircle
 10
0.6669999999999803
 20
2.095000000000016
 30
0.0
 40
0.018
  0
CIRCLE
  5
69
330
35
100
AcDbEntity
  8
Pel_CS-Weatherstrip
100
AcDbCircle
 10
0.6669999999999803
 20
1.845000000000016
 30
0.0
 40
0.018
  0
CIRCLE
  5
6A
330
35
100
AcDbEntity
  8
Pel_CS-Weatherstrip
100
AcDbCircle
 10
0.6669999999999803
 20
1.970000000000016
 30
0.0
 40
0.018
  0
CIRCLE
  5
6B
330
35
100
AcDbEntity
  8
Pel_CS-Sealant
100
AcDbCircle
 10
0.8068749999999802
 20
1.381875000000015
 30
0.0
 40
0.0575000000000001
  0
POINT
  5
6D
330
35
100
AcDbEntity
  8
Pel_CS-Points
100
AcDbPoint
 10
0.0
 20
0.0
 30
0.0
  0
HATCH
  5
6F
330
35
100
AcDbEntity
  8
Pel_CS-Weatherstrip
100
AcDbHatch
 10
0.0
 20
0.0
 30
0.0
210
0.0
220
0.0
230
1.0
  2
SOLID
 70
     1
 71
     1
 91
        1
 92
        1
 93
        1
 72
     2
 10
0.6669999999999803
 20
1.470000000000016
 40
0.018
 50
0.0
 51
360.0
 73
     1
 97
        1
330
39
 75
     0
 76
     1
 98
        1
 10
-0.0150000000000166
 20
0.0
  0
HATCH
  5
70
330
35
100
AcDbEntity
  8
Pel_CS-Weatherstrip
100
AcDbHatch
 10
0.0
 20
0.0
 30
0.0
210
0.0
220
0.0
230
1.0
  2
SOLID
 70
     1
 71
     0
 91
        1
 92
        1
 93
        1
 72
     2
 10
0.6669999999999803
 20
1.595000000000016
 40
0.018
 50
0.0
 51
360.0
 73
     1
 97
        0
 75
     0
 76
     1
 98
        1
 10
-0.0150000000000166
 20
0.125
  0
HATCH
  5
71
330
35
100
AcDbEntity
  8
Pel_CS-Weatherstrip
100
AcDbHatch
 10
0.0
 20
0.0
 30
0.0
210
0.0
220
0.0
230
1.0
  2
SOLID
 70
     1
 71
     0
 91
        1
 92
        1
 93
        1
 72
     2
 10
0.6669999999999803
 20
1.720000000000016
 40
0.018
 50
0.0
 51
360.0
 73
     1
 97
        0
 75
     0
 76
     1
 98
        1
 10
-0.0150000000000166
 20
0.25
  0
HATCH
  5
72
330
35
100
AcDbEntity
  8
Pel_CS-Weatherstrip
100
AcDbHatch
 10
0.0
 20
0.0
 30
0.0
210
0.0
220
0.0
230
1.0
  2
SOLID
 70
     1
 71
     0
 91
        1
 92
        1
 93
        1
 72
     2
 10
0.6669999999999803
 20
1.845000000000016
 40
0.018
 50
0.0
 51
360.0
 73
     1
 97
        0
 75
     0
 76
     1
 98
        1
 10
-0.0150000000000166
 20
0.375
  0
HATCH
  5
73
330
35
100
AcDbEntity
  8
Pel_CS-Weatherstrip
100
AcDbHatch
 10
0.0
 20
0.0
 30
0.0
210
0.0
220
0.0
230
1.0
  2
SOLID
 70
     1
 71
     0
 91
        1
 92
        1
 93
        1
 72
     2
 10
0.6669999999999803
 20
1.970000000000016
 40
0.018
 50
0.0
 51
360.0
 73
     1
 97
        0
 75
     0
 76
     1
 98
        1
 10
-0.0150000000000166
 20
0.5
  0
HATCH
  5
74
330
35
100
AcDbEntity
  8
Pel_CS-Weatherstrip
100
AcDbHatch
 10
0.0
 20
0.0
 30
0.0
210
0.0
220
0.0
230
1.0
  2
SOLID
 70
     1
 71
     0
 91
        1
 92
        1
 93
        1
 72
     2
 10
0.6669999999999803
 20
2.095000000000016
 40
0.018
 50
0.0
 51
360.0
 73
     1
 97
        0
 75
     0
 76
     1
 98
        1
 10
-0.0150000000000166
 20
0.625
  0
HATCH
  5
75
330
35
100
AcDbEntity
  8
Pel_CS-Weatherstrip
100
AcDbHatch
 10
0.0
 20
0.0
 30
0.0
210
0.0
220
0.0
230
1.0
  2
SOLID
 70
     1
 71
     0
 91
        1
 92
        1
 93
        1
 72
     2
 10
0.6669999999999803
 20
2.220000000000016
 40
0.018
 50
0.0
 51
360.0
 73
     1
 97
        0
 75
     0
 76
     1
 98
        1
 10
-0.0150000000000166
 20
0.75
  0
HATCH
  5
76
330
35
100
AcDbEntity
  8
Pel_CS-Weatherstrip
100
AcDbHatch
 10
0.0
 20
0.0
 30
0.0
210
0.0
220
0.0
230
1.0
  2
SOLID
 70
     1
 71
     0
 91
        1
 92
        1
 93
        1
 72
     2
 10
0.6669999999999803
 20
2.345000000000016
 40
0.018
 50
0.0
 51
360.0
 73
     1
 97
        0
 75
     0
 76
     1
 98
        1
 10
-0.0150000000000166
 20
0.875
  0
HATCH
  5
77
330
35
100
AcDbEntity
  8
Pel_CS-Weatherstrip
100
AcDbHatch
 10
0.0
 20
0.0
 30
0.0
210
0.0
220
0.0
230
1.0
  2
SOLID
 70
     1
 71
     0
 91
        1
 92
        1
 93
        1
 72
     2
 10
0.6669999999999803
 20
2.470000000000016
 40
0.018
 50
0.0
 51
360.0
 73
     1
 97
        0
 75
     0
 76
     1
 98
        1
 10
-0.0150000000000166
 20
1.0
  0
HATCH
  5
78
330
35
100
AcDbEntity
  8
Pel_CS-Weatherstrip
100
AcDbHatch
 10
0.0
 20
0.0
 30
0.0
210
0.0
220
0.0
230
1.0
  2
SOLID
 70
     1
 71
     0
 91
        1
 92
        1
 93
        1
 72
     2
 10
0.6669999999999803
 20
2.595000000000016
 40
0.018
 50
0.0
 51
360.0
 73
     1
 97
        0
 75
     0
 76
     1
 98
        1
 10
-0.0150000000000166
 20
1.125
  0
HATCH
  5
79
330
35
100
AcDbEntity
  8
Pel_CS-Weatherstrip
100
AcDbHatch
 10
0.0
 20
0.0
 30
0.0
210
0.0
220
0.0
230
1.0
  2
SOLID
 70
     1
 71
     0
 91
        1
 92
        1
 93
        1
 72
     2
 10
0.6669999999999803
 20
2.720000000000016
 40
0.018
 50
0.0
 51
360.0
 73
     1
 97
        0
 75
     0
 76
     1
 98
        1
 10
-0.0150000000000166
 20
1.25
  0
HATCH
  5
7A
330
35
100
AcDbEntity
  8
Pel_CS-Weatherstrip
100
AcDbHatch
 10
0.0
 20
0.0
 30
0.0
210
0.0
220
0.0
230
1.0
  2
SOLID
 70
     1
 71
     0
 91
        1
 92
        1
 93
        1
 72
     2
 10
0.6669999999999803
 20
2.845000000000016
 40
0.018
 50
0.0
 51
360.0
 73
     1
 97
        0
 75
     0
 76
     1
 98
        1
 10
-0.0150000000000166
 20
1.375
  0
HATCH
  5
7B
330
35
100
AcDbEntity
  8
Pel_CS-Weatherstrip
100
AcDbHatch
 10
0.0
 20
0.0
 30
0.0
210
0.0
220
0.0
230
1.0
  2
SOLID
 70
     1
 71
     0
 91
        1
 92
        1
 93
        1
 72
     2
 10
0.6669999999999803
 20
2.970000000000016
 40
0.018
 50
0.0
 51
360.0
 73
     1
 97
        0
 75
     0
 76
     1
 98
        1
 10
-0.0150000000000166
 20
1.5
  0
HATCH
  5
7C
330
35
100
AcDbEntity
  8
Pel_CS-Fill
100
AcDbHatch
 10
0.0
 20
0.0
 30
0.0
210
0.0
220
0.0
230
1.0
  2
SOLID
 70
     1
 71
     1
 91
        1
 92
        1
 93
       33
 72
     1
 10
0.7049999999999735
 20
0.7500000000000036
 11
0.9649999999999856
 21
0.7500000000000036
 72
     2
 10
0.9649999999999856
 20
0.7700000000000032
 40
0.0199999999999996
 50
270.0
 51
360.0000000000305
 73
     1
 72
     1
 10
0.9849999999999852
 20
0.7700000000000138
 11
0.9849999999999852
 21
1.370000000000015
 72
     2
 10
0.9649999999999856
 20
1.370000000000018
 40
0.0199999999999996
 50
359.9999999999898
 51
450.0
 73
     1
 72
     1
 10
0.9649999999999856
 20
1.390000000000018
 11
0.9249999999999829
 21
1.390000000000018
 72
     1
 10
0.9249999999999829
 20
1.390000000000018
 11
0.9249999999999829
 21
1.480000000000014
 72
     2
 10
0.9049999999999833
 20
1.480000000000018
 40
0.0199999999999996
 50
359.9999999999898
 51
450.0
 73
     1
 72
     1
 10
0.9049999999999833
 20
1.500000000000017
 11
0.7049999999999806
 21
1.500000000000017
 72
     2
 10
0.7049999999999823
 20
1.480000000000016
 40
0.0200000000000014
 50
90.00000000000509
 51
180.0000000000051
 73
     1
 72
     1
 10
0.684999999999981
 20
1.480000000000014
 11
0.684999999999981
 21
1.460000000000018
 72
     2
 10
0.7049999999999806
 20
1.460000000000015
 40
0.0199999999999996
 50
179.9999999999898
 51
270.0
 73
     1
 72
     1
 10
0.7049999999999806
 20
1.440000000000015
 11
0.7523836048657451
 21
1.440000000000015
 72
     2
 10
0.7523836048657451
 20
1.450000000000017
 40
0.0100000000000011
 50
270.0000000000025
 51
283.2373959307805
 73
     1
 72
     1
 10
0.754673467455433
 20
1.440265703450169
 11
0.754673467455433
 21
1.460000000000018
 72
     1
 10
0.754673467455433
 20
1.460000000000018
 11
0.7049999999999806
 21
1.460000000000018
 72
     1
 10
0.7049999999999806
 20
1.460000000000018
 11
0.7049999999999806
 21
1.480000000000007
 72
     1
 10
0.7049999999999806
 20
1.480000000000007
 11
0.9049999999999833
 21
1.480000000000021
 72
     1
 10
0.9049999999999833
 20
1.480000000000021
 11
0.9049999999999798
 21
1.370000000000015
 72
     1
 10
0.9049999999999798
 20
1.370000000000015
 11
0.9649999999999785
 21
1.370000000000015
 72
     1
 10
0.9649999999999785
 20
1.370000000000015
 11
0.9649999999999856
 21
0.7700000000000138
 72
     1
 10
0.9649999999999856
 20
0.7700000000000138
 11
0.7049999999999841
 21
0.7700000000000138
 72
     1
 10
0.7049999999999841
 20
0.7700000000000138
 11
0.7049999999999806
 21
1.283750000000008
 72
     1
 10
0.7049999999999806
 20
1.283750000000008
 11
0.8849999999999837
 21
1.283750000000015
 72
     2
 10
0.8849999999999837
 20
1.303750000000015
 40
0.0199999999999996
 50
270.0
 51
360.0000000000102
 73
     1
 72
     1
 10
0.9049999999999833
 20
1.303750000000018
 11
0.9049999999999833
 21
1.480000000000021
 72
     1
 10
0.9049999999999833
 20
1.480000000000021
 11
0.7049999999999806
 21
1.480000000000007
 72
     1
 10
0.7049999999999806
 20
1.480000000000007
 11
0.7049999999999806
 21
1.460000000000018
 72
     1
 10
0.7049999999999806
 20
1.460000000000018
 11
0.8849999999999873
 21
1.460000000000018
 72
     1
 10
0.8849999999999873
 20
1.460000000000018
 11
0.8849999999999802
 21
1.303750000000018
 72
     1
 10
0.8849999999999802
 20
1.303750000000018
 11
0.7049999999999806
 21
1.303750000000018
 72
     2
 10
0.7049999999999823
 20
1.283750000000017
 40
0.0200000000000014
 50
90.00000000000509
 51
180.0000000000051
 73
     1
 72
     1
 10
0.684999999999981
 20
1.283750000000015
 11
0.684999999999981
 21
0.7700000000000138
 72
     2
 10
0.7049999999999806
 20
0.7700000000000032
 40
0.0199999999999996
 50
179.9999999999694
 51
269.9999999999796
 73
     1
 97
        1
330
3D
 75
     0
 76
     1
 98
        1
 10
-0.0150000000000166
 20
0.0
  0
LWPOLYLINE
  5
7E
330
35
100
AcDbEntity
  8
Pel_CS-Cross Section
 62
     4
100
AcDbPolyline
 90
       13
 70
     1
 43
0.0
 10
1.546602312471204
 20
1.645390730637302
 10
1.653244467664361
 20
1.531024728642265
 42
-0.9999999999999996
 10
1.634960157278047
 20
1.513975271357736
 10
1.501602312471206
 20
1.656991919114041
 10
1.521602312471205
 20
1.674999999999997
 10
1.521602312471205
 20
1.75
 10
1.44368628726287
 20
1.75
 42
-0.4387364446152711
 10
1.431727592331174
 20
1.762994794215188
 42
-0.1028671740245727
 10
1.605204037456648
 20
2.348579765626951
 42
-1.000000000000018
 10
1.627226711145592
 20
2.3367475281551
 42
0.1004471373057855
 10
1.457880539411174
 20
1.774999999999998
 10
1.521602312471205
 20
1.774999999999998
 42
-0.4142135623730847
 10
1.546602312471204
 20
1.75
  0
LWPOLYLINE
  5
80
330
35
100
AcDbEntity
  8
Pel_CS-Weatherstrip
  6
Continuous
100
AcDbPolyline
 90
        4
 70
     1
 43
0.0
 10
2.439999999999963
 20
2.0
 10
2.377999999999966
 20
2.0
 10
2.377999999999966
 20
2.375
 10
2.439999999999963
 20
2.375
  0
LWPOLYLINE
  5
81
330
35
100
AcDbEntity
  8
Pel_CS-Sealant
100
AcDbPolyline
 90
        8
 70
     1
 43
0.006
 10
1.612058540207673
 20
1.783980333998805
 42
-0.6836320748339042
 10
1.642499999999975
 20
1.862121207941918
 10
2.424999999999975
 20
1.862121207941918
 42
-0.4142135623730951
 10
2.439999999999976
 20
1.847121207941917
 10
2.439999999999976
 20
1.772121207941921
 42
-0.4142135623730935
 10
2.424999999999975
 20
1.757121207941921
 10
1.647142987833174
 20
1.757121207941921
 42
-0.1879079936139291
 10
1.636995834569074
 20
1.761074249960877
  0
ARC
  5
82
330
35
100
AcDbEntity
  8
Pel_CS-Sealant
100
AcDbCircle
 10
2.002999999999925
 20
0.3193898414307554
 30
0.0
 40
1.650003886476739
100
AcDbArc
 50
81.28527866816154
 51
98.71472133183603
  0
ARC
  5
83
330
35
100
AcDbEntity
  8
Pel_CS-Sealant
100
AcDbCircle
 10
2.002999999999943
 20
0.3040440364815637
 30
0.0
 40
1.640349691425935
100
AcDbArc
 50
81.23358581615944
 51
98.76641418383895
  0
ARC
  5
84
330
35
100
AcDbEntity
  8
Pel_CS-Sealant
100
AcDbCircle
 10
2.002999999999925
 20
0.2886978143977714
 30
0.0
 40
1.630695913509721
100
AcDbArc
 50
81.18127584296162
 51
98.81872415703595
  0
LINE
  5
85
330
35
100
AcDbEntity
  8
Pel_CS-Sealant
100
AcDbLine
 10
1.785749999999959
 20
1.997499999999973
 30
0.0
 11
1.752999999999959
 21
1.997499999999973
 31
0.0
  0
LINE
  5
86
330
35
100
AcDbEntity
  8
Pel_CS-Sealant
100
AcDbLine
 10
1.785749999999959
 20
2.312499999999978
 30
0.0
 11
1.752999999999959
 21
2.312499999999978
 31
0.0
  0
LINE
  5
87
330
35
100
AcDbEntity
  8
Pel_CS-Sealant
  6
Continuous
100
AcDbLine
 10
2.220249999999966
 20
1.997499999999973
 30
0.0
 11
2.252999999999966
 21
1.997499999999973
 31
0.0
  0
LINE
  5
88
330
35
100
AcDbEntity
  8
Pel_CS-Sealant
  6
Continuous
100
AcDbLine
 10
2.220249999999966
 20
2.312499999999978
 30
0.0
 11
2.252999999999966
 21
2.312499999999978
 31
0.0
  0
LWPOLYLINE
  5
89
330
35
100
AcDbEntity
  8
Pel_CS-IG
  6
Continuous
100
AcDbPolyline
 90
        4
 70
     0
 43
0.0
 10
1.627999999999966
 20
4.5
 10
1.627999999999966
 20
1.874999999999964
 10
1.752999999999959
 20
1.874999999999964
 10
1.752999999999959
 20
4.5
  0
LWPOLYLINE
  5
8B
330
35
100
AcDbEntity
  8
Pel_CS-IG
  6
Continuous
100
AcDbPolyline
 90
        4
 70
     0
 43
0.0
 10
2.252999999999966
 20
4.5
 10
2.252999999999966
 20
1.874999999999964
 10
2.377999999999966
 20
1.874999999999971
 10
2.377999999999961
 20
4.5
  0
LWPOLYLINE
  5
8C
330
35
100
AcDbEntity
  8
Pel_CS-IG
100
AcDbPolyline
 90
       16
 70
   129
 43
0.0
 10
1.868624999999964
 20
2.312499999999978
 10
1.778624999999964
 20
2.312499999999978
 42
0.4142135623731017
 10
1.768624999999959
 20
2.30249999999998
 10
1.768624999999966
 20
2.007499999999978
 42
0.4142135623730873
 10
1.778624999999964
 20
1.997499999999977
 10
2.227374999999961
 20
1.997499999999966
 42
0.4142135623731013
 10
2.237374999999962
 20
2.007499999999968
 10
2.237374999999962
 20
2.30249999999997
 42
0.4142135623730894
 10
2.227374999999961
 20
2.312499999999971
 10
2.137374999999961
 20
2.312499999999978
 10
2.137374999999961
 20
2.296499999999973
 10
2.221374999999961
 20
2.296499999999969
 10
2.221374999999961
 20
2.013499999999968
 10
1.784624999999964
 20
2.013499999999979
 10
1.784624999999964
 20
2.29649999999998
 10
1.868624999999964
 20
2.296499999999976
  0
LWPOLYLINE
  5
8D
330
35
100
AcDbEntity
  8
Pel_CS-Sealant
100
AcDbPolyline
 90
        4
 70
     1
 43
0.0
 10
1.784624999999964
 20
2.063191049788812
 10
2.221374999999961
 20
2.063191049788812
 10
2.221374999999961
 20
2.013499999999968
 10
1.784624999999964
 20
2.013499999999979
  0
HATCH
  5
8E
330
35
100
AcDbEntity
  8
Pel_CS-Sealant
100
AcDbHatch
 10
0.0
 20
0.0
 30
0.0
210
0.0
220
0.0
230
1.0
  2
DASH
 70
     0
 71
     0
 91
        2
 92
        1
 93
        4
 72
     1
 10
1.784624999999964
 20
2.063191049788812
 11
2.221374999999961
 21
2.063191049788812
 72
     1
 10
2.221374999999961
 20
2.063191049788812
 11
2.221374999999961
 21
2.013499999999968
 72
     1
 10
2.221374999999961
 20
2.013499999999968
 11
1.784624999999964
 21
2.013499999999979
 72
     1
 10
1.784624999999964
 20
2.013499999999979
 11
1.784624999999964
 21
2.063191049788812
 97
        0
 92
       49
 93
        1
 72
     1
 10
1.784624999999964
 20
2.063191049788812
 11
2.221374999999961
 21
2.063191049788812
 97
        0
 75
     0
 76
     1
 52
30.0
 41
0.15
 77
     0
 78
     1
 53
30.00000000000003
 43
-3.841156177407622
 44
-0.2233267997246315
 45
0.0068629763209582
 46
0.0256129763209582
 79
     2
 49
0.01875
 49
-0.01875
 98
        1
 10
-3.841156177407622
 20
-0.2233267997246315
  0
POLYLINE
  5
8F
330
35
100
AcDbEntity
  8
Pel_CS-Weatherstrip
100
AcDb2dPolyline
 66
     1
 10
0.0
 20
0.0
 30
0.0
  0
VERTEX
  5
C07
330
8F
100
AcDbEntity
  8
Pel_CS-Weatherstrip
100
AcDbVertex
100
AcDb2dVertex
 10
1.482770088938103
 20
1.378287128208636
 30
0.0
  0
VERTEX
  5
C08
330
8F
100
AcDbEntity
  8
Pel_CS-Weatherstrip
100
AcDbVertex
100
AcDb2dVertex
 10
1.482770088938103
 20
1.332042538570259
 30
0.0
  0
VERTEX
  5
C09
330
8F
100
AcDbEntity
  8
Pel_CS-Weatherstrip
100
AcDbVertex
100
AcDb2dVertex
 10
1.354999999999998
 20
1.377288300077136
 30
0.0
  0
VERTEX
  5
C0A
330
8F
100
AcDbEntity
  8
Pel_CS-Weatherstrip
100
AcDbVertex
100
AcDb2dVertex
 10
1.354999999999998
 20
1.348863789895929
 30
0.0
  0
VERTEX
  5
C0B
330
8F
100
AcDbEntity
  8
Pel_CS-Weatherstrip
100
AcDbVertex
100
AcDb2dVertex
 10
1.482770088938103
 20
1.332042538570259
 30
0.0
  0
VERTEX
  5
C0C
330
8F
100
AcDbEntity
  8
Pel_CS-Weatherstrip
100
AcDbVertex
100
AcDb2dVertex
 10
1.354999999999998
 20
1.321986814489694
 30
0.0
  0
VERTEX
  5
C0D
330
8F
100
AcDbEntity
  8
Pel_CS-Weatherstrip
100
AcDbVertex
100
AcDb2dVertex
 10
1.354999999999997
 20
1.290813556318529
 30
0.0
  0
VERTEX
  5
C0E
330
8F
100
AcDbEntity
  8
Pel_CS-Weatherstrip
100
AcDbVertex
100
AcDb2dVertex
 10
1.482770088938103
 20
1.332042538570259
 30
0.0
  0
VERTEX
  5
C0F
330
8F
100
AcDbEntity
  8
Pel_CS-Weatherstrip
100
AcDbVertex
100
AcDb2dVertex
 10
1.482770088938103
 20
1.249584574066798
 30
0.0
  0
VERTEX
  5
C10
330
8F
100
AcDbEntity
  8
Pel_CS-Weatherstrip
100
AcDbVertex
100
AcDb2dVertex
 10
1.354999999999997
 20
1.290813556318529
 30
0.0
  0
VERTEX
  5
C11
330
8F
100
AcDbEntity
  8
Pel_CS-Weatherstrip
100
AcDbVertex
100
AcDb2dVertex
 10
1.354999999999997
 20
1.259640298147358
 30
0.0
  0
VERTEX
  5
C12
330
8F
100
AcDbEntity
  8
Pel_CS-Weatherstrip
100
AcDbVertex
100
AcDb2dVertex
 10
1.482770088938103
 20
1.249584574066798
 30
0.0
  0
VERTEX
  5
C13
330
8F
100
AcDbEntity
  8
Pel_CS-Weatherstrip
100
AcDbVertex
100
AcDb2dVertex
 10
1.354999999999997
 20
1.232763322741131
 30
0.0
  0
VERTEX
  5
C14
330
8F
100
AcDbEntity
  8
Pel_CS-Weatherstrip
100
AcDbVertex
100
AcDb2dVertex
 10
1.354999999999997
 20
1.204338812559909
 30
0.0
  0
VERTEX
  5
C15
330
8F
100
AcDbEntity
  8
Pel_CS-Weatherstrip
100
AcDbVertex
100
AcDb2dVertex
 10
1.482770088938103
 20
1.249584574066798
 30
0.0
  0
VERTEX
  5
C16
330
8F
100
AcDbEntity
  8
Pel_CS-Weatherstrip
100
AcDbVertex
100
AcDb2dVertex
 10
1.482770088938103
 20
1.191509404522467
 30
0.0
  0
VERTEX
  5
C17
330
8F
100
AcDbEntity
  8
Pel_CS-Weatherstrip
100
AcDbVertex
100
AcDb2dVertex
 10
1.517770074938098
 20
1.191509404522467
 30
0.0
  0
VERTEX
  5
C18
330
8F
100
AcDbEntity
  8
Pel_CS-Weatherstrip
100
AcDbVertex
100
AcDb2dVertex
 10
1.517770074938098
 20
1.378287128208636
 30
0.0
  0
VERTEX
  5
C19
330
8F
100
AcDbEntity
  8
0
100
AcDbVertex
100
AcDb2dVertex
 10
1.482770088938103
 20
1.378287128208636
 30
0.0
  0
SEQEND
  5
C1A
330
8F
100
AcDbEntity
  8
Pel_CS-Weatherstrip
  0
LWPOLYLINE
  5
A4
330
35
100
AcDbEntity
  8
Pel_CS-Cross Section
 62
     4
100
AcDbPolyline
 90
       94
 70
     1
 43
0.0
 10
1.484999999999955
 20
1.676125178062982
 42
-0.3500011104185663
 10
1.496666666666625
 20
1.690750118708635
 42
0.8937924126323794
 10
1.489999999999957
 20
1.749999999999992
 10
1.439999999999953
 20
1.749999999999992
 42
0.4142135623730951
 10
1.424999999999952
 20
1.734999999999992
 10
1.424999999999952
 20
1.352499999999992
 10
1.469999999999956
 20
1.352499999999992
 10
1.469999999999954
 20
1.394999999999988
 10
1.519999999999949
 20
1.394999999999996
 10
1.519999999999951
 20
1.184999999999995
 10
1.469999999999956
 20
1.184999999999995
 10
1.469999999999956
 20
1.227499999999992
 10
1.424999999999952
 20
1.227499999999992
 10
1.424999999999952
 20
1.184999999999995
 42
0.4142135623730819
 10
1.484999999999955
 20
1.124999999999992
 10
1.87249999999995
 20
1.124999999999992
 42
0.4142135623730951
 10
1.887499999999951
 20
1.139999999999993
 10
1.887499999999951
 20
1.169999999999994
 42
0.4142135623730951
 10
1.87249999999995
 20
1.184999999999995
 10
1.812499999999955
 20
1.184999999999995
 42
-0.4142135623730951
 10
1.797499999999955
 20
1.199999999999995
 10
1.797499999999955
 20
1.369999999999997
 42
-0.4142135623730951
 10
1.812499999999955
 20
1.384999999999998
 10
2.112499999999952
 20
1.38499999999999
 42
-0.1784395900594729
 10
2.122235628575699
 20
1.381411289858508
 10
2.164688559390478
 20
1.423864220673287
 42
0.194809557829822
 10
2.11249999999995
 20
1.444999999999993
 10
1.812499999999955
 20
1.444999999999993
 42
0.118159066029304
 10
1.778503112194576
 20
1.436852162414979
 42
-0.301511344577986
 10
1.7620299626209
 20
1.438758819994017
 10
1.757948497534526
 20
1.442202987648546
 10
1.729562989870416
 20
1.413817479984436
 10
1.736233237253975
 20
1.408188753583502
 42
-0.3015113445779063
 10
1.740882887701131
 20
1.392270815566298
 42
0.0755157870278402
 10
1.737499999999956
 20
1.370000000000233
 10
1.737499999999959
 20
1.199999999999995
 42
-0.4142135623730951
 10
1.722499999999959
 20
1.184999999999995
 10
1.594999999999954
 20
1.184999999999995
 42
-0.4142135623730951
 10
1.579999999999953
 20
1.199999999999995
 10
1.579999999999953
 20
1.403453928104873
 42
-0.3105082534628505
 10
1.589624480756775
 20
1.417457634502335
 10
1.660461275711325
 20
1.444649332442565
 42
0.0364636279492234
 10
1.671666249138146
 20
1.44991639797471
 42
-0.3129626543687265
 10
1.688692888645714
 20
1.448305948633942
 10
1.729562989870418
 20
1.413817479984434
 10
1.757948497534529
 20
1.442202987648546
 10
1.714489614012618
 20
1.478876015044477
 42
-0.3129626543682286
 10
1.710038878121464
 20
1.495389371760367
 42
0.0860476970752851
 10
1.714999999999973
 20
1.52400366869482
 10
1.714999999999973
 20
1.674999999999997
 42
-0.4142135623730951
 10
1.729999999999972
 20
1.689999999999997
 10
2.424999999999952
 20
1.689999999999997
 42
-0.4142135623730951
 10
2.439999999999953
 20
1.674999999999997
 10
2.439999999999953
 20
1.294999999999994
 42
-0.4142135623731473
 10
2.424999999999947
 20
1.279999999999986
 10
2.202499999999956
 20
1.279999999999994
 42
-0.4142135623730692
 10
2.187499999999955
 20
1.294999999999992
 10
2.187499999999948
 20
1.369999999999997
 42
0.203021628787307
 10
2.164688559390478
 20
1.423864220673287
 10
2.122235628575699
 20
1.381411289858508
 42
-0.2195468071307798
 10
2.127499999999953
 20
1.36999999999999
 10
2.127499999999953
 20
1.294999999999994
 42
0.25929068624906
 10
2.162916666666626
 20
1.231296313118981
 42
-0.2592906862487576
 10
2.169999999999957
 20
1.218555575742804
 10
2.169999999999957
 20
1.199999999999995
 42
-0.4142135623730951
 10
2.154999999999956
 20
1.184999999999995
 10
2.05249999999995
 20
1.184999999999995
 42
0.4142135623730951
 10
2.037499999999949
 20
1.169999999999994
 10
2.037499999999949
 20
1.139999999999993
 42
0.4142135623731644
 10
2.05249999999995
 20
1.124999999999992
 10
2.272499999999958
 20
1.124999999999992
 10
2.272499999999956
 20
1.169999999999994
 10
2.229999999999959
 20
1.169999999999994
 10
2.229999999999952
 20
1.219999999999991
 10
2.439999999999953
 20
1.219999999999991
 10
2.439999999999955
 20
1.169999999999994
 10
2.397499999999958
 20
1.169999999999994
 10
2.397499999999956
 20
1.124999999999992
 10
2.439999999999953
 20
1.124999999999992
 42
0.4142135623730907
 10
2.499999999999955
 20
1.184999999999995
 10
2.499999999999955
 20
2.359999999999992
 42
0.4142135623730951
 10
2.484999999999955
 20
2.374999999999992
 10
2.454999999999953
 20
2.374999999999992
 42
0.4142135623730951
 10
2.439999999999953
 20
2.359999999999992
 10
2.439999999999953
 20
1.764999999999993
 42
-0.4142135623730951
 10
2.424999999999952
 20
1.749999999999992
 10
1.669999999999971
 20
1.749999999999992
 42
0.4142135623730951
 10
1.65499999999997
 20
1.734999999999992
 10
1.654999999999974
 20
1.524003668694824
 42
-0.3105082534628305
 10
1.638959198738609
 20
1.500664158032392
 10
1.524325722615293
 20
1.456660489337565
 42
-0.0918870916678807
 10
1.515366523876663
 20
1.454999999999991
 10
1.509999999999957
 20
1.454999999999991
 42
-0.4142135623731159
 10
1.484999999999955
 20
1.479999999999996
  0
POLYLINE
  5
A5
330
35
100
AcDbEntity
  8
Pel_CS-Weatherstrip
100
AcDb2dPolyline
 66
     1
 10
0.0
 20
0.0
 30
0.0
  0
VERTEX
  5
C1D
330
A5
100
AcDbEntity
  8
Pel_CS-Weatherstrip
100
AcDbVertex
100
AcDb2dVertex
 10
2.615000014000001
 20
1.802906939439811
 30
0.0
  0
VERTEX
  5
C1E
330
A5
100
AcDbEntity
  8
Pel_CS-Weatherstrip
100
AcDbVertex
100
AcDb2dVertex
 10
2.615000014000001
 20
1.756662349801434
 30
0.0
  0
VERTEX
  5
C1F
330
A5
100
AcDbEntity
  8
Pel_CS-Weatherstrip
100
AcDbVertex
100
AcDb2dVertex
 10
2.499999999999955
 20
1.797385990600135
 30
0.0
  0
VERTEX
  5
C20
330
A5
100
AcDbEntity
  8
Pel_CS-Weatherstrip
100
AcDbVertex
100
AcDb2dVertex
 10
2.499999999999955
 20
1.771802388867131
 30
0.0
  0
VERTEX
  5
C21
330
A5
100
AcDbEntity
  8
Pel_CS-Weatherstrip
100
AcDbVertex
100
AcDb2dVertex
 10
2.615000014000001
 20
1.756662349801434
 30
0.0
  0
VERTEX
  5
C22
330
A5
100
AcDbEntity
  8
Pel_CS-Weatherstrip
100
AcDbVertex
100
AcDb2dVertex
 10
2.499999999999955
 20
1.747611652414772
 30
0.0
  0
VERTEX
  5
C23
330
A5
100
AcDbEntity
  8
Pel_CS-Weatherstrip
100
AcDbVertex
100
AcDb2dVertex
 10
2.499999999999955
 20
1.715433367549703
 30
0.0
  0
VERTEX
  5
C24
330
A5
100
AcDbEntity
  8
Pel_CS-Weatherstrip
100
AcDbVertex
100
AcDb2dVertex
 10
2.615000014000001
 20
1.756662349801434
 30
0.0
  0
VERTEX
  5
C25
330
A5
100
AcDbEntity
  8
Pel_CS-Weatherstrip
100
AcDbVertex
100
AcDb2dVertex
 10
2.615000014000001
 20
1.674204385297972
 30
0.0
  0
VERTEX
  5
C26
330
A5
100
AcDbEntity
  8
Pel_CS-Weatherstrip
100
AcDbVertex
100
AcDb2dVertex
 10
2.499999999999955
 20
1.715433367549703
 30
0.0
  0
VERTEX
  5
C27
330
A5
100
AcDbEntity
  8
Pel_CS-Weatherstrip
100
AcDbVertex
100
AcDb2dVertex
 10
2.499999999999955
 20
1.683255082684631
 30
0.0
  0
VERTEX
  5
C28
330
A5
100
AcDbEntity
  8
Pel_CS-Weatherstrip
100
AcDbVertex
100
AcDb2dVertex
 10
2.615000014000001
 20
1.674204385297972
 30
0.0
  0
VERTEX
  5
C29
330
A5
100
AcDbEntity
  8
Pel_CS-Weatherstrip
100
AcDbVertex
100
AcDb2dVertex
 10
2.499999999999955
 20
1.65906434623228
 30
0.0
  0
VERTEX
  5
C2A
330
A5
100
AcDbEntity
  8
Pel_CS-Weatherstrip
100
AcDbVertex
100
AcDb2dVertex
 10
2.499999999999955
 20
1.63348074449926
 30
0.0
  0
VERTEX
  5
C2B
330
A5
100
AcDbEntity
  8
Pel_CS-Weatherstrip
100
AcDbVertex
100
AcDb2dVertex
 10
2.615000014000001
 20
1.674204385297972
 30
0.0
  0
VERTEX
  5
C2C
330
A5
100
AcDbEntity
  8
Pel_CS-Weatherstrip
100
AcDbVertex
100
AcDb2dVertex
 10
2.615000014000001
 20
1.616129215753641
 30
0.0
  0
VERTEX
  5
C2D
330
A5
100
AcDbEntity
  8
Pel_CS-Weatherstrip
100
AcDbVertex
100
AcDb2dVertex
 10
2.649999999999996
 20
1.616129215753641
 30
0.0
  0
VERTEX
  5
C2E
330
A5
100
AcDbEntity
  8
Pel_CS-Weatherstrip
100
AcDbVertex
100
AcDb2dVertex
 10
2.649999999999996
 20
1.802906939439811
 30
0.0
  0
VERTEX
  5
C2F
330
A5
100
AcDbEntity
  8
0
100
AcDbVertex
100
AcDb2dVertex
 10
2.615000014000001
 20
1.802906939439811
 30
0.0
  0
SEQEND
  5
C30
330
A5
100
AcDbEntity
  8
Pel_CS-Weatherstrip
  0
LWPOLYLINE
  5
BA
330
35
100
AcDbEntity
  8
Pel_CS-Cross Section
 62
     4
100
AcDbPolyline
 90
      210
 70
     1
 43
0.0
 10
0.0
 20
0.0800000000000036
 10
0.0
 20
0.0149999999999988
 42
-0.4142135623730951
 10
-0.0150000000000006
 20
0.0
 10
-0.0502959255045763
 20
0.0
 42
0.3439753268883963
 10
-0.064845777813332
 20
-0.0113528370212723
 10
-0.1531542221866697
 20
-0.3636471629787294
 42
-0.3439753268883641
 10
-0.1677040744954237
 20
-0.375
 10
-0.2029999999999994
 20
-0.375
 42
0.4142135623730951
 10
-0.218
 20
-0.3900000000000006
 10
-0.218
 20
-0.7200000000000007
 42
0.4142135623730951
 10
-0.1880000000000006
 20
-0.75
 10
0.2829999999999995
 20
-0.75
 42
0.4142135623730951
 10
0.3129999999999988
 20
-0.7200000000000007
 10
0.3129999999999988
 20
-0.0150000000000006
 42
-0.4142135623730951
 10
0.3279999999999994
 20
0.0
 10
1.032999999999999
 20
-0.0000000000000018
 42
-0.4142135623730951
 10
1.062999999999998
 20
-0.0300000000000011
 10
1.062999999999998
 20
-1.595
 42
1.0
 10
1.122999999999997
 20
-1.595
 10
1.122999999999997
 20
-0.0300000000000011
 42
-0.4142135623730951
 10
1.153
 20
-0.0000000000000018
 10
1.379284809589961
 20
0.0
 10
1.448262174067197
 20
0.0689773644772345
 42
-0.1036598952584966
 10
1.446999999999997
 20
0.0750000000000011
 10
1.446999999999999
 20
0.8449999999999988
 42
-0.4142135623730951
 10
1.461999999999999
 20
0.8599999999999994
 10
2.442
 20
0.8599999999999994
 42
-0.4142135623730778
 10
2.456999999999998
 20
0.8450000000000006
 10
2.456999999999998
 20
0.3129499861033871
 42
-0.404482018210281
 10
2.442499999999999
 20
0.2979583217528248
 42
0.4044820182102973
 10
2.369999999999999
 20
0.2230000000000007
 10
2.369999999999999
 20
0.0749999999999975
 42
-0.4142135623730604
 10
2.355
 20
0.0599999999999987
 10
1.461999999999999
 20
0.0599999999999987
 42
-0.2977682904279643
 10
1.448262174067197
 20
0.0689773644772345
 10
1.379284809589963
 20
0.0
 10
2.629999999999999
 20
0.0
 42
0.4142135623730951
 10
2.644999999999999
 20
0.0149999999999988
 10
2.644999999999999
 20
0.0663175319642928
 42
0.2679491924311205
 10
2.637499999999999
 20
0.0793079130210615
 10
2.592999999999998
 20
0.1049999999999986
 10
2.567999999999999
 20
0.1049999999999986
 10
2.567999999999999
 20
0.0749999999999993
 42
-0.4142135623730951
 10
2.552999999999999
 20
0.0599999999999987
 10
2.444999999999998
 20
0.0599999999999987
 42
-0.4142135623730951
 10
2.429999999999997
 20
0.0749999999999993
 10
2.429999999999999
 20
0.2230000000000007
 42
-0.4142135623730951
 10
2.444999999999998
 20
0.2379999999999978
 10
2.522
 20
0.2379999999999978
 10
2.522
 20
0.298
 42
-0.4142135623731352
 10
2.506999999999997
 20
0.3129999999999988
 10
2.506999999999997
 20
0.7149999999999999
 42
-0.4142135623730951
 10
2.521999999999998
 20
0.7300000000000005
 10
2.522
 20
0.7799999999999994
 42
-0.4142135623731299
 10
2.506999999999997
 20
0.795
 10
2.506999999999997
 20
0.8450000000000006
 42
-0.4142135623730604
 10
2.521999999999996
 20
0.8599999999999994
 10
2.634999999999998
 20
0.8599999999999994
 42
-0.414213562373132
 10
2.65
 20
0.844999999999997
 10
2.649999999999998
 20
0.795
 42
-0.4142135623730951
 10
2.634999999999998
 20
0.7799999999999994
 10
2.522
 20
0.7799999999999994
 10
2.522
 20
0.7300000000000005
 10
2.634999999999998
 20
0.7300000000000005
 42
-0.4142135623731147
 10
2.65
 20
0.7149999999999999
 10
2.649999999999998
 20
0.3129999999999988
 42
-0.4142135623730778
 10
2.634999999999998
 20
0.298
 10
2.522
 20
0.2979999999999983
 10
2.522
 20
0.2379999999999978
 10
2.694999999999998
 20
0.2379999999999995
 42
0.4142135623730951
 10
2.709999999999997
 20
0.2530000000000001
 10
2.709999999999999
 20
0.9164589803375022
 42
0.2134217652833687
 10
2.704999999999998
 20
0.9276393202250012
 42
-0.4472135954999316
 10
2.704999999999998
 20
0.9723606797749955
 42
0.2134217652833902
 10
2.709999999999997
 20
0.9835410196624962
 10
2.709999999999997
 20
1.539999999999999
 10
2.654999999999997
 20
1.54
 10
2.654999999999997
 20
0.9299999999999997
 42
-0.4142135623731472
 10
2.639999999999997
 20
0.9149999999999973
 10
2.619999999999997
 20
0.9149999999999991
 42
-0.4142135623730821
 10
2.604999999999998
 20
0.9299999999999997
 10
2.604999999999998
 20
1.539999999999999
 42
-0.4142135623731297
 10
2.619999999999999
 20
1.554999999999999
 10
2.639999999999998
 20
1.554999999999997
 42
-0.4142135623730778
 10
2.654999999999997
 20
1.54
 10
2.709999999999997
 20
1.539999999999999
 10
2.709999999999999
 20
1.859999999999999
 42
0.4142135623730951
 10
2.694999999999998
 20
1.875
 10
2.564999999999999
 20
1.874999999999998
 42
0.4142135623730951
 10
2.55
 20
1.859999999999999
 10
2.549999999999997
 20
1.777499999999999
 10
2.599999999999997
 20
1.777499999999999
 10
2.599999999999997
 20
1.82
 10
2.649999999999996
 20
1.82
 10
2.65
 20
1.609999999999999
 10
2.600000000000001
 20
1.609999999999999
 10
2.599999999999997
 20
1.652499999999999
 10
2.549999999999997
 20
1.652499999999999
 10
2.549999999999997
 20
0.9349999999999987
 42
-0.4142135623730951
 10
2.535
 20
0.9199999999999981
 10
1.369999999999997
 20
0.9199999999999999
 42
-0.4142135623730951
 10
1.354999999999996
 20
0.9349999999999987
 10
1.354999999999998
 20
1.529999999999999
 42
0.1750577049008292
 10
1.348076027530433
 20
1.549170210051393
 10
1.292378173602106
 20
1.493472356123065
 42
-0.151191384335378
 10
1.294999999999998
 20
1.484999999999999
 10
1.294999999999998
 20
1.435
 42
-0.4142135623731297
 10
1.279999999999997
 20
1.420000000000001
 10
1.23
 20
1.419999999999999
 42
-0.4142135623730951
 10
1.214999999999999
 20
1.435
 10
1.214999999999999
 20
1.485000000000001
 10
1.169999999999998
 20
1.485000000000001
 10
1.169999999999998
 20
1.435
 42
-0.4142135623730951
 10
1.155000000000001
 20
1.420000000000001
 10
1.104999999999998
 20
1.419999999999999
 42
-0.4142135623730951
 10
1.089999999999998
 20
1.435
 10
1.089999999999998
 20
1.484999999999999
 42
-0.4142135623730951
 10
1.104999999999998
 20
1.499999999999998
 10
1.155000000000001
 20
1.5
 42
-0.4142135623730735
 10
1.169999999999998
 20
1.485000000000001
 10
1.215000000000001
 20
1.485000000000001
 42
-0.4142135623730388
 10
1.23
 20
1.499999999999998
 10
1.279999999999999
 20
1.5
 42
-0.2475210435055492
 10
1.292378173602106
 20
1.493472356123065
 10
1.348076027530433
 20
1.549170210051393
 42
0.2229868001580169
 10
1.324999999999999
 20
1.559999999999998
 10
1.044999999999999
 20
1.56
 42
0.4142135623730951
 10
1.029999999999999
 20
1.544999999999998
 10
1.029999999999999
 20
0.7649999999999988
 42
-0.4142135623730951
 10
1.015
 20
0.75
 10
0.9408788018656437
 20
0.75
 10
0.6850000000000005
 20
0.7499999999999983
 42
-0.4142135623730951
 10
0.67
 20
0.7649999999999988
 10
0.67
 20
0.8599999999999994
 42
0.4142135623730951
 10
0.6550000000000012
 20
0.875
 10
0.2499999999999982
 20
0.8749999999999946
 42
0.4142135623730951
 10
0.2349999999999976
 20
0.8599999999999941
 10
0.2349999999999994
 20
0.6499999999999951
 42
-0.4142135623730951
 10
0.2100000000000008
 20
0.6249999999999947
 10
0.0849999999999991
 20
0.6249999999999947
 42
-0.4142135623730951
 10
0.0599999999999987
 20
0.6499999999999951
 10
0.059999999999997
 20
0.8002786404499975
 42
-0.3819660112501025
 10
0.0733333333333306
 20
0.8151857602999967
 42
0.9458235162657217
 10
0.0699999999999985
 20
0.8749999999999946
 10
0.0149999999999988
 20
0.8749999999999946
 42
0.4142135623730951
 10
-0.0000000000000018
 20
0.8599999999999923
 10
0.0
 20
0.2050000000000018
 10
0.0599999999999987
 20
0.2050000000000107
 10
0.0599999999999987
 20
0.5499999999999954
 42
-0.4142135623730951
 10
0.0749999999999993
 20
0.564999999999996
 10
0.2099999999999991
 20
0.564999999999996
 42
0.414213562373097
 10
0.2949999999999981
 20
0.6499999999999951
 10
0.2949999999999999
 20
0.8000000000000007
 42
-0.4142135623731299
 10
0.3099999999999987
 20
0.8150000000000012
 10
0.5950000000000007
 20
0.8150000000000012
 42
-0.4142135623730995
 10
0.6100000000000012
 20
0.8000000000000007
 10
0.6100000000000012
 20
0.7649999999999988
 42
0.4142135623730951
 10
0.6850000000000005
 20
0.6899999999999995
 10
0.8599999999999994
 20
0.6899999999999995
 42
-0.2730483083132885
 10
0.8731305697645161
 20
0.6822517678988725
 42
-0.1268216821756646
 10
0.8749999999999982
 20
0.6750000000000007
 10
0.875
 20
0.0749999999999993
 10
0.9149999999999991
 20
0.0750000000000011
 10
0.9149999999999991
 20
0.674999999999999
 42
-0.4142135623730951
 10
0.9299999999999997
 20
0.6899999999999995
 10
1.015
 20
0.6899999999999995
 42
0.4142135623730974
 10
1.089999999999999
 20
0.7649999999999988
 10
1.089999999999998
 20
0.9049999999999993
 42
-0.4142135623731646
 10
1.105000000000002
 20
0.9199999999999999
 10
1.105000000000002
 20
0.959999999999999
 42
-0.4142135623731472
 10
1.089999999999998
 20
0.9750000000000014
 10
1.089999999999998
 20
1.354999999999998
 42
-0.4142135623730951
 10
1.105
 20
1.369999999999999
 10
1.279999999999999
 20
1.369999999999999
 42
-0.4142135623730864
 10
1.294999999999998
 20
1.354999999999998
 10
1.294999999999998
 20
0.9749999999999996
 42
-0.4142135623731299
 10
1.279999999999997
 20
0.959999999999999
 10
1.105000000000002
 20
0.959999999999999
 10
1.105000000000003
 20
0.9199999999999999
 10
1.283631878541108
 20
0.9199999999999999
 42
-0.317837245195797
 10
1.297774014164838
 20
0.9099999999999983
 42
0.3178372451957941
 10
1.368484692283496
 20
0.8599999999999994
 10
1.381999999999997
 20
0.8599999999999994
 42
-0.4142135623730951
 10
1.396999999999998
 20
0.8449999999999988
 10
1.396999999999998
 20
0.0749999999999993
 42
-0.4142135623730951
 10
1.381999999999997
 20
0.0599999999999987
 10
0.9299999999999979
 20
0.0599999999999987
 42
-0.41421356237308
 10
0.9150000000000009
 20
0.0750000000000011
 10
0.875
 20
0.0749999999999993
 42
-0.4142135623731063
 10
0.8599999999999994
 20
0.0599999999999987
 10
0.3118932697827201
 20
0.0599999999999987
 10
0.2480387917565388
 20
-0.0038544780261827
 42
-0.21251360040763
 10
0.2530000000000001
 20
-0.0150000000000006
 10
0.2530000000000001
 20
-0.6750000000000007
 42
-0.4142135623730604
 10
0.2380000000000013
 20
-0.6899999999999995
 10
-0.1430000000000007
 20
-0.6899999999999995
 42
-0.4142135623730995
 10
-0.1580000000000012
 20
-0.6750000000000007
 10
-0.1580000000000012
 20
-0.4471482368756146
 42
-0.3344020845912665
 10
-0.1471445827797488
 20
-0.432732189096079
 42
0.2674253991233656
 10
-0.0951182351347164
 20
-0.378887765092049
 10
-0.0178855818594759
 20
-0.0707787759621006
 42
-0.3126767901425391
 10
-0.0050272233395159
 20
-0.0595216157840213
 42
0.2870002859234612
 10
0.0572259858351583
 20
-0.0100000000000016
 42
-0.3178372451958297
 10
0.0713681214588906
 20
0.0
 10
0.2379999999999995
 20
0.0
 42
-0.1853815617422861
 10
0.2480387917565388
 20
-0.0038544780261827
 10
0.3118932697827201
 20
0.0599999999999987
 10
0.0749999999999993
 20
0.0599999999999987
 42
-0.4142135623731002
 10
0.0599999999999987
 20
0.0749999999999993
 10
0.0599999999999987
 20
0.080000000000009
  0
LINE
  5
BF
330
35
100
AcDbEntity
  8
Pel_CS-Cross Section
 62
     4
100
AcDbLine
 10
0.0
 20
0.2050000000000018
 30
0.0
 11
0.0
 21
0.0800000000000036
 31
0.0
  0
LINE
  5
C0
330
35
100
AcDbEntity
  8
Pel_CS-Cross Section
 62
     4
100
AcDbLine
 10
0.0599999999999987
 20
0.2050000000000107
 30
0.0
 11
0.0599999999999987
 21
0.080000000000009
 31
0.0
  0
HATCH
  5
C34
330
35
100
AcDbEntity
  8
Pel_CS-Weatherstrip
100
AcDbHatch
 10
0.0
 20
0.0
 30
0.0
210
0.0
220
0.0
230
1.0
  2
SOLID
 70
     1
 71
     0
 91
        1
 92
        1
 93
        1
 72
     3
 10
0.6669999999999803
 20
3.970000000000018
 11
0.0127279220613592
 21
0.0127279220613592
 40
0.9999999999998669
 50
44.99999999999998
 51
405.0
 73
     0
 97
        0
 75
     0
 76
     1
 98
        1
 10
-43.51978837597358
 20
-8.529999999999978
  0
HATCH
  5
C35
330
35
100
AcDbEntity
  8
Pel_CS-Weatherstrip
100
AcDbHatch
 10
0.0
 20
0.0
 30
0.0
210
0.0
220
0.0
230
1.0
  2
SOLID
 70
     1
 71
     0
 91
        1
 92
        1
 93
        1
 72
     3
 10
0.6669999999999803
 20
3.845000000000018
 11
0.0127279220613592
 21
0.0127279220613592
 40
0.9999999999998669
 50
44.99999999999998
 51
405.0
 73
     0
 97
        0
 75
     0
 76
     1
 98
        1
 10
-43.51978837597358
 20
-8.404999999999978
  0
HATCH
  5
C36
330
35
100
AcDbEntity
  8
Pel_CS-Weatherstrip
100
AcDbHatch
 10
0.0
 20
0.0
 30
0.0
210
0.0
220
0.0
230
1.0
  2
SOLID
 70
     1
 71
     0
 91
        1
 92
        1
 93
        1
 72
     3
 10
0.6669999999999803
 20
3.720000000000018
 11
0.0127279220613592
 21
0.0127279220613592
 40
0.9999999999998669
 50
44.99999999999998
 51
405.0
 73
     0
 97
        0
 75
     0
 76
     1
 98
        1
 10
-43.51978837597358
 20
-8.279999999999978
  0
CIRCLE
  5
C37
330
35
100
AcDbEntity
  8
Pel_CS-Weatherstrip
100
AcDbCircle
 10
0.6669999999999803
 20
3.970000000000018
 30
0.0
 40
0.018
  0
CIRCLE
  5
C38
330
35
100
AcDbEntity
  8
Pel_CS-Weatherstrip
100
AcDbCircle
 10
0.6669999999999803
 20
3.845000000000018
 30
0.0
 40
0.018
  0
CIRCLE
  5
C39
330
35
100
AcDbEntity
  8
Pel_CS-Weatherstrip
100
AcDbCircle
 10
0.6669999999999803
 20
3.720000000000018
 30
0.0
 40
0.018
  0
HATCH
  5
C3A
330
35
100
AcDbEntity
  8
Pel_CS-Weatherstrip
100
AcDbHatch
 10
0.0
 20
0.0
 30
0.0
210
0.0
220
0.0
230
1.0
  2
SOLID
 70
     1
 71
     0
 91
        1
 92
        1
 93
        1
 72
     3
 10
0.6669999999999803
 20
3.595000000000018
 11
0.0127279220613592
 21
0.0127279220613592
 40
0.9999999999998669
 50
44.99999999999998
 51
405.0
 73
     0
 97
        0
 75
     0
 76
     1
 98
        1
 10
-43.51978837597358
 20
-8.779999999999978
  0
HATCH
  5
C3B
330
35
100
AcDbEntity
  8
Pel_CS-Weatherstrip
100
AcDbHatch
 10
0.0
 20
0.0
 30
0.0
210
0.0
220
0.0
230
1.0
  2
SOLID
 70
     1
 71
     0
 91
        1
 92
        1
 93
        1
 72
     3
 10
0.6669999999999803
 20
3.470000000000018
 11
0.0127279220613592
 21
0.0127279220613592
 40
0.9999999999998669
 50
44.99999999999998
 51
405.0
 73
     0
 97
        0
 75
     0
 76
     1
 98
        1
 10
-43.51978837597358
 20
-8.654999999999978
  0
HATCH
  5
C3C
330
35
100
AcDbEntity
  8
Pel_CS-Weatherstrip
100
AcDbHatch
 10
0.0
 20
0.0
 30
0.0
210
0.0
220
0.0
230
1.0
  2
SOLID
 70
     1
 71
     0
 91
        1
 92
        1
 93
        1
 72
     3
 10
0.6669999999999803
 20
3.345000000000018
 11
0.0127279220613592
 21
0.0127279220613592
 40
0.9999999999998669
 50
44.99999999999998
 51
405.0
 73
     0
 97
        0
 75
     0
 76
     1
 98
        1
 10
-43.51978837597358
 20
-8.529999999999978
  0
HATCH
  5
C3D
330
35
100
AcDbEntity
  8
Pel_CS-Weatherstrip
100
AcDbHatch
 10
0.0
 20
0.0
 30
0.0
210
0.0
220
0.0
230
1.0
  2
SOLID
 70
     1
 71
     0
 91
        1
 92
        1
 93
        1
 72
     3
 10
0.6669999999999803
 20
3.220000000000018
 11
0.0127279220613592
 21
0.0127279220613592
 40
0.9999999999998669
 50
44.99999999999998
 51
405.0
 73
     0
 97
        0
 75
     0
 76
     1
 98
        1
 10
-43.51978837597358
 20
-8.404999999999978
  0
HATCH
  5
C3E
330
35
100
AcDbEntity
  8
Pel_CS-Weatherstrip
100
AcDbHatch
 10
0.0
 20
0.0
 30
0.0
210
0.0
220
0.0
230
1.0
  2
SOLID
 70
     1
 71
     0
 91
        1
 92
        1
 93
        1
 72
     3
 10
0.6669999999999803
 20
3.095000000000018
 11
0.0127279220613592
 21
0.0127279220613592
 40
0.9999999999998669
 50
44.99999999999998
 51
405.0
 73
     0
 97
        0
 75
     0
 76
     1
 98
        1
 10
-43.51978837597358
 20
-8.279999999999978
  0
CIRCLE
  5
C3F
330
35
100
AcDbEntity
  8
Pel_CS-Weatherstrip
100
AcDbCircle
 10
0.6669999999999803
 20
3.345000000000018
 30
0.0
 40
0.018
  0
CIRCLE
  5
C40
330
35
100
AcDbEntity
  8
Pel_CS-Weatherstrip
100
AcDbCircle
 10
0.6669999999999803
 20
3.220000000000018
 30
0.0
 40
0.018
  0
CIRCLE
  5
C41
330
35
100
AcDbEntity
  8
Pel_CS-Weatherstrip
100
AcDbCircle
 10
0.6669999999999803
 20
3.470000000000018
 30
0.0
 40
0.018
  0
CIRCLE
  5
C42
330
35
100
AcDbEntity
  8
Pel_CS-Weatherstrip
100
AcDbCircle
 10
0.6669999999999803
 20
3.595000000000018
 30
0.0
 40
0.018
  0
CIRCLE
  5
C43
330
35
100
AcDbEntity
  8
Pel_CS-Weatherstrip
100
AcDbCircle
 10
0.6669999999999803
 20
3.095000000000018
 30
0.0
 40
0.018
  0
HATCH
  5
C44
330
35
100
AcDbEntity
  8
Pel_CS-Weatherstrip
100
AcDbHatch
 10
0.0
 20
0.0
 30
0.0
210
0.0
220
0.0
230
1.0
  2
SOLID
 70
     1
 71
     0
 91
        1
 92
        1
 93
        1
 72
     3
 10
0.6669999999999803
 20
4.095000000000018
 11
0.0127279220613592
 21
0.0127279220613592
 40
0.9999999999998669
 50
44.99999999999998
 51
405.0
 73
     0
 97
        0
 75
     0
 76
     1
 98
        1
 10
-43.51978837597358
 20
-8.404999999999978
  0
CIRCLE
  5
C45
330
35
100
AcDbEntity
  8
Pel_CS-Weatherstrip
100
AcDbCircle
 10
0.6669999999999803
 20
4.095000000000018
 30
0.0
 40
0.018
  0
CIRCLE
  5
C46
330
35
100
AcDbEntity
  8
Pel_CS-Weatherstrip
100
AcDbCircle
 10
0.6669999999999803
 20
4.220000000000018
 30
0.0
 40
0.018
  0
CIRCLE
  5
C47
330
35
100
AcDbEntity
  8
Pel_CS-Weatherstrip
100
AcDbCircle
 10
0.6669999999999803
 20
4.345000000000018
 30
0.0
 40
0.018
  0
HATCH
  5
C48
330
35
100
AcDbEntity
  8
Pel_CS-Weatherstrip
100
AcDbHatch
 10
0.0
 20
0.0
 30
0.0
210
0.0
220
0.0
230
1.0
  2
SOLID
 70
     1
 71
     0
 91
        1
 92
        1
 93
        1
 72
     3
 10
0.6669999999999803
 20
4.220000000000018
 11
0.0127279220613592
 21
0.0127279220613592
 40
0.9999999999998669
 50
44.99999999999998
 51
405.0
 73
     0
 97
        0
 75
     0
 76
     1
 98
        1
 10
-43.51978837597358
 20
-8.279999999999978
  0
HATCH
  5
C49
330
35
100
AcDbEntity
  8
Pel_CS-Weatherstrip
100
AcDbHatch
 10
0.0
 20
0.0
 30
0.0
210
0.0
220
0.0
230
1.0
  2
SOLID
 70
     1
 71
     0
 91
        1
 92
        1
 93
        1
 72
     3
 10
0.6669999999999803
 20
4.345000000000018
 11
0.0127279220613592
 21
0.0127279220613592
 40
0.9999999999998669
 50
44.99999999999998
 51
405.0
 73
     0
 97
        0
 75
     0
 76
     1
 98
        1
 10
-43.51978837597358
 20
-8.154999999999978
  0
ENDBLK
  5
C1
330
35
100
AcDbEntity
  8
0
100
AcDbBlockEnd
  0
BLOCK
  5
A75
330
A6A
100
AcDbEntity
  8
0
100
AcDbBlockBegin
  2
*D16
 70
     1
 10
0.0
 20
0.0
 30
0.0
  3
*D16
  1

  0
LINE
  5
E73
330
A6A
100
AcDbEntity
  8
0
100
AcDbLine
 10
6.116182879626946
 20
25.59130532937188
 30
0.0
 11
2.366182879626945
 21
25.59130532937188
 31
0.0
  0
LINE
  5
E74
330
A6A
100
AcDbEntity
  8
0
100
AcDbLine
 10
6.116182879626946
 20
25.84130532937192
 30
0.0
 11
2.366182879626945
 21
25.84130532937192
 31
0.0
  0
LINE
  5
E75
330
A6A
100
AcDbEntity
  8
0
100
AcDbLine
 10
2.616182879626945
 20
25.09130532937188
 30
0.0
 11
2.616182879626945
 21
24.59130532937188
 31
0.0
  0
LINE
  5
E76
330
A6A
100
AcDbEntity
  8
0
100
AcDbLine
 10
2.616182879626946
 20
26.34130532937192
 30
0.0
 11
2.616182879626946
 21
26.84130532937192
 31
0.0
  0
MTEXT
  5
E77
330
A6A
100
AcDbEntity
  8
0
 62
   255
100
AcDbMText
 10
2.616182879626948
 20
26.84130532937192
 30
0.0
 40
0.28
 41
0.0
 71
     5
 72
     1
  1
\A1;1/4"\P [6]
 11
0.0000000000000001
 21
1.0
 31
0.0
 73
     1
 44
1.0
1001
ACAD
1000
MTEXTBEGIN
1070
    73
1070
     1
1070
    44
1040
1.0
1070
    74
1070
     0
1000
MTEXTEND
  0
SOLID
  5
E78
330
A6A
100
AcDbEntity
  8
0
100
AcDbTrace
 10
2.532849546293612
 20
25.09130532937188
 30
0.0
 11
2.699516212960279
 21
25.09130532937188
 31
0.0
 12
2.616182879626945
 22
25.59130532937188
 32
0.0
 13
2.616182879626945
 23
25.59130532937188
 33
0.0
  0
SOLID
  5
E79
330
A6A
100
AcDbEntity
  8
0
100
AcDbTrace
 10
2.532849546293612
 20
26.34130532937192
 30
0.0
 11
2.699516212960279
 21
26.34130532937192
 31
0.0
 12
2.616182879626945
 22
25.84130532937192
 32
0.0
 13
2.616182879626945
 23
25.84130532937192
 33
0.0
  0
POINT
  5
E7A
330
A6A
100
AcDbEntity
  8
Defpoints
 62
     0
100
AcDbPoint
 10
6.616182879626946
 20
25.59130532937188
 30
0.0
  0
POINT
  5
E7B
330
A6A
100
AcDbEntity
  8
Defpoints
 62
     0
100
AcDbPoint
 10
6.616182879626946
 20
25.84130532937192
 30
0.0
  0
POINT
  5
E7C
330
A6A
100
AcDbEntity
  8
Defpoints
 62
     0
100
AcDbPoint
 10
2.616182879626945
 20
25.84130532937192
 30
0.0
  0
ENDBLK
  5
A76
330
A6A
100
AcDbEntity
  8
0
100
AcDbBlockEnd
  0
BLOCK
  5
A7F
330
A77
100
AcDbEntity
  8
0
100
AcDbBlockBegin
  2
*D17
 70
     1
 10
0.0
 20
0.0
 30
0.0
  3
*D17
  1

  0
LINE
  5
E62
330
A77
100
AcDbEntity
  8
0
100
AcDbLine
 10
6.116182879626946
 20
25.84130532937192
 30
0.0
 11
1.366182879626945
 21
25.84130532937192
 31
0.0
  0
LINE
  5
E63
330
A77
100
AcDbEntity
  8
0
100
AcDbLine
 10
1.616182879626944
 20
21.09130532937189
 30
0.0
 11
1.616182879626945
 21
25.34130532937192
 31
0.0
  0
MTEXT
  5
E64
330
A77
100
AcDbEntity
  8
0
 62
   255
100
AcDbMText
 10
1.346312483992548
 20
22.93902817877393
 30
0.0
 40
0.28
 41
0.0
 71
     5
 72
     1
  1
\A1;ROUGH OPENING
 11
0.0000000000000001
 21
1.0
 31
0.0
 73
     1
 44
1.0
1001
ACAD
1000
MTEXTBEGIN
1070
    73
1070
     1
1070
    44
1040
1.0
1070
    74
1070
     0
1000
MTEXTEND
  0
SOLID
  5
E65
330
A77
100
AcDbEntity
  8
0
100
AcDbTrace
 10
1.532849546293611
 20
25.34130532937192
 30
0.0
 11
1.699516212960278
 21
25.34130532937192
 31
0.0
 12
1.616182879626945
 22
25.84130532937192
 32
0.0
 13
1.616182879626945
 23
25.84130532937192
 33
0.0
  0
POINT
  5
E66
330
A77
100
AcDbEntity
  8
Defpoints
 62
     0
100
AcDbPoint
 10
4.952187995604545
 20
21.09130532937189
 30
0.0
  0
POINT
  5
E67
330
A77
100
AcDbEntity
  8
Defpoints
 62
     0
100
AcDbPoint
 10
6.616182879626946
 20
25.84130532937192
 30
0.0
  0
POINT
  5
E68
330
A77
100
AcDbEntity
  8
Defpoints
 62
     0
100
AcDbPoint
 10
1.616182879626945
 20
25.84130532937192
 30
0.0
  0
ENDBLK
  5
A80
330
A77
100
AcDbEntity
  8
0
100
AcDbBlockEnd
  0
BLOCK
  5
A89
330
A81
100
AcDbEntity
  8
0
100
AcDbBlockBegin
  2
*D18
 70
     1
 10
0.0
 20
0.0
 30
0.0
  3
*D18
  1

  0
LINE
  5
E54
330
A81
100
AcDbEntity
  8
0
100
AcDbLine
 10
6.116182879626946
 20
25.59130532937189
 30
0.0
 11
2.366182879626946
 21
25.59130532937189
 31
0.0
  0
LINE
  5
E55
330
A81
100
AcDbEntity
  8
0
100
AcDbLine
 10
2.616182879626945
 20
21.09130532937189
 30
0.0
 11
2.616182879626946
 21
25.09130532937189
 31
0.0
  0
MTEXT
  5
E56
330
A81
100
AcDbEntity
  8
0
 62
   255
100
AcDbMText
 10
2.351182879626933
 20
21.93989788580946
 30
0.0
 40
0.28
 41
0.0
 71
     5
 72
     1
  1
\A1;FRAME
 11
0.0000000000000001
 21
1.0
 31
0.0
 73
     1
 44
1.0
1001
ACAD
1000
MTEXTBEGIN
1070
    73
1070
     1
1070
    44
1040
1.0
1070
    74
1070
     0
1000
MTEXTEND
  0
SOLID
  5
E57
330
A81
100
AcDbEntity
  8
0
100
AcDbTrace
 10
2.532849546293613
 20
25.09130532937189
 30
0.0
 11
2.69951621296028
 21
25.09130532937189
 31
0.0
 12
2.616182879626946
 22
25.59130532937189
 32
0.0
 13
2.616182879626946
 23
25.59130532937189
 33
0.0
  0
POINT
  5
E58
330
A81
100
AcDbEntity
  8
Defpoints
 62
     0
100
AcDbPoint
 10
4.952187995604545
 20
21.09130532937189
 30
0.0
  0
POINT
  5
E59
330
A81
100
AcDbEntity
  8
Defpoints
 62
     0
100
AcDbPoint
 10
6.616182879626946
 20
25.59130532937189
 30
0.0
  0
POINT
  5
E5A
330
A81
100
AcDbEntity
  8
Defpoints
 62
     0
100
AcDbPoint
 10
2.616182879626946
 20
25.59130532937189
 30
0.0
  0
ENDBLK
  5
A8A
330
A81
100
AcDbEntity
  8
0
100
AcDbBlockEnd
  0
BLOCK
  5
A93
330
A8B
100
AcDbEntity
  8
0
100
AcDbBlockBegin
  2
*D19
 70
     1
 10
0.0
 20
0.0
 30
0.0
  3
*D19
  1

  0
LINE
  5
E46
330
A8B
100
AcDbEntity
  8
0
100
AcDbLine
 10
6.116182879626946
 20
15.46650532937183
 30
0.0
 11
2.366182879626944
 21
15.46650532937184
 31
0.0
  0
LINE
  5
E47
330
A8B
100
AcDbEntity
  8
0
100
AcDbLine
 10
2.616182879626944
 20
15.96650532937183
 30
0.0
 11
2.616182879626945
 21
19.96650532937183
 31
0.0
  0
MTEXT
  5
E48
330
A8B
100
AcDbEntity
  8
0
 62
   255
100
AcDbMText
 10
2.351182879626932
 20
19.11806783566843
 30
0.0
 40
0.28
 41
0.0
 71
     5
 72
     1
  1
\A1;FRAME
 11
0.0000000000000001
 21
1.0
 31
0.0
 73
     1
 44
1.0
1001
ACAD
1000
MTEXTBEGIN
1070
    73
1070
     1
1070
    44
1040
1.0
1070
    74
1070
     0
1000
MTEXTEND
  0
SOLID
  5
E49
330
A8B
100
AcDbEntity
  8
0
100
AcDbTrace
 10
2.532849546293611
 20
15.96650532937183
 30
0.0
 11
2.699516212960278
 21
15.96650532937183
 31
0.0
 12
2.616182879626944
 22
15.46650532937184
 32
0.0
 13
2.616182879626944
 23
15.46650532937184
 33
0.0
  0
POINT
  5
E4A
330
A8B
100
AcDbEntity
  8
Defpoints
 62
     0
100
AcDbPoint
 10
6.616182879626946
 20
15.46650532937183
 30
0.0
  0
POINT
  5
E4B
330
A8B
100
AcDbEntity
  8
Defpoints
 62
     0
100
AcDbPoint
 10
4.84944460193398
 20
19.96650532937183
 30
0.0
  0
POINT
  5
E4C
330
A8B
100
AcDbEntity
  8
Defpoints
 62
     0
100
AcDbPoint
 10
2.616182879626945
 20
19.96650532937183
 30
0.0
  0
ENDBLK
  5
A94
330
A8B
100
AcDbEntity
  8
0
100
AcDbBlockEnd
  0
BLOCK
  5
A9D
330
A95
100
AcDbEntity
  8
0
100
AcDbBlockBegin
  2
*D20
 70
     1
 10
0.0
 20
0.0
 30
0.0
  3
*D20
  1

  0
LINE
  5
E38
330
A95
100
AcDbEntity
  8
0
100
AcDbLine
 10
6.116182879626946
 20
15.21650532937183
 30
0.0
 11
1.366182879626946
 21
15.21650532937183
 31
0.0
  0
LINE
  5
E39
330
A95
100
AcDbEntity
  8
0
100
AcDbLine
 10
1.616182879626947
 20
19.96650532937183
 30
0.0
 11
1.616182879626946
 21
15.71650532937183
 31
0.0
  0
MTEXT
  5
E3A
330
A95
100
AcDbEntity
  8
0
 62
   255
100
AcDbMText
 10
1.346312483992562
 20
18.09539081472273
 30
0.0
 40
0.28
 41
0.0
 71
     5
 72
     1
  1
\A1;ROUGH OPENING
 11
0.0000000000000001
 21
1.0
 31
0.0
 73
     1
 44
1.0
1001
ACAD
1000
MTEXTBEGIN
1070
    73
1070
     1
1070
    44
1040
1.0
1070
    74
1070
     0
1000
MTEXTEND
  0
SOLID
  5
E3B
330
A95
100
AcDbEntity
  8
0
100
AcDbTrace
 10
1.532849546293613
 20
15.71650532937183
 30
0.0
 11
1.699516212960279
 21
15.71650532937183
 31
0.0
 12
1.616182879626946
 22
15.21650532937183
 32
0.0
 13
1.616182879626946
 23
15.21650532937183
 33
0.0
  0
POINT
  5
E3C
330
A95
100
AcDbEntity
  8
Defpoints
 62
     0
100
AcDbPoint
 10
4.84944460193398
 20
19.96650532937183
 30
0.0
  0
POINT
  5
E3D
330
A95
100
AcDbEntity
  8
Defpoints
 62
     0
100
AcDbPoint
 10
6.616182879626946
 20
15.21650532937183
 30
0.0
  0
POINT
  5
E3E
330
A95
100
AcDbEntity
  8
Defpoints
 62
     0
100
AcDbPoint
 10
1.616182879626946
 20
15.21650532937183
 30
0.0
  0
ENDBLK
  5
A9E
330
A95
100
AcDbEntity
  8
0
100
AcDbBlockEnd
  0
BLOCK
  5
AA7
330
A9F
100
AcDbEntity
  8
0
100
AcDbBlockBegin
  2
*D21
 70
     1
 10
0.0
 20
0.0
 30
0.0
  3
*D21
  1

  0
LINE
  5
EA6
330
A9F
100
AcDbEntity
  8
0
100
AcDbLine
 10
22.36618287962695
 20
17.15236902620455
 30
0.0
 11
22.36618287962695
 21
13.52880532937189
 31
0.0
  0
LINE
  5
EA7
330
A9F
100
AcDbEntity
  8
0
100
AcDbLine
 10
26.86618287962696
 20
13.77880532937189
 30
0.0
 11
22.86618287962696
 21
13.77880532937189
 31
0.0
  0
MTEXT
  5
EA8
330
A9F
100
AcDbEntity
  8
0
 62
   255
100
AcDbMText
 10
26.01483143093294
 20
13.51380532937189
 30
0.0
 40
0.28
 41
0.0
 71
     5
 72
     1
  1
\A1;FRAME
 73
     1
 44
1.0
1001
ACAD
1000
MTEXTBEGIN
1070
    73
1070
     1
1070
    44
1040
1.0
1070
    74
1070
     0
1000
MTEXTEND
  0
SOLID
  5
EA9
330
A9F
100
AcDbEntity
  8
0
100
AcDbTrace
 10
22.86618287962696
 20
13.86213866270522
 30
0.0
 11
22.86618287962696
 21
13.69547199603856
 31
0.0
 12
22.36618287962695
 22
13.77880532937189
 32
0.0
 13
22.36618287962695
 23
13.77880532937189
 33
0.0
  0
POINT
  5
EAA
330
A9F
100
AcDbEntity
  8
Defpoints
 62
     0
100
AcDbPoint
 10
26.86618287962696
 20
16.00691543623165
 30
0.0
  0
POINT
  5
EAB
330
A9F
100
AcDbEntity
  8
Defpoints
 62
     0
100
AcDbPoint
 10
22.36618287962695
 20
17.65236902620455
 30
0.0
  0
POINT
  5
EAC
330
A9F
100
AcDbEntity
  8
Defpoints
 62
     0
100
AcDbPoint
 10
22.36618287962695
 20
13.77880532937189
 30
0.0
  0
ENDBLK
  5
AA8
330
A9F
100
AcDbEntity
  8
0
100
AcDbBlockEnd
  0
BLOCK
  5
AB1
330
AA9
100
AcDbEntity
  8
0
100
AcDbBlockBegin
  2
*D22
 70
     1
 10
0.0
 20
0.0
 30
0.0
  3
*D22
  1

  0
LINE
  5
E98
330
AA9
100
AcDbEntity
  8
0
100
AcDbLine
 10
22.11618287962695
 20
17.15236902620455
 30
0.0
 11
22.11618287962695
 21
12.52880532937189
 31
0.0
  0
LINE
  5
E99
330
AA9
100
AcDbEntity
  8
0
100
AcDbLine
 10
26.86618287962696
 20
12.77880532937189
 30
0.0
 11
22.61618287962695
 21
12.77880532937189
 31
0.0
  0
MTEXT
  5
E9A
330
AA9
100
AcDbEntity
  8
0
 62
   255
100
AcDbMText
 10
25.01778038016794
 20
12.5089349337375
 30
0.0
 40
0.28
 41
0.0
 71
     5
 72
     1
  1
\A1;ROUGH OPENING
 73
     1
 44
1.0
1001
ACAD
1000
MTEXTBEGIN
1070
    73
1070
     1
1070
    44
1040
1.0
1070
    74
1070
     0
1000
MTEXTEND
  0
SOLID
  5
E9B
330
AA9
100
AcDbEntity
  8
0
100
AcDbTrace
 10
22.61618287962695
 20
12.86213866270522
 30
0.0
 11
22.61618287962695
 21
12.69547199603856
 31
0.0
 12
22.11618287962695
 22
12.77880532937189
 32
0.0
 13
22.11618287962695
 23
12.77880532937189
 33
0.0
  0
POINT
  5
E9C
330
AA9
100
AcDbEntity
  8
Defpoints
 62
     0
100
AcDbPoint
 10
26.86618287962696
 20
16.00691543623165
 30
0.0
  0
POINT
  5
E9D
330
AA9
100
AcDbEntity
  8
Defpoints
 62
     0
100
AcDbPoint
 10
22.11618287962695
 20
17.65236902620455
 30
0.0
  0
POINT
  5
E9E
330
AA9
100
AcDbEntity
  8
Defpoints
 62
     0
100
AcDbPoint
 10
22.11618287962695
 20
12.77880532937189
 30
0.0
  0
ENDBLK
  5
AB2
330
AA9
100
AcDbEntity
  8
0
100
AcDbBlockEnd
  0
BLOCK
  5
ABE
330
AB3
100
AcDbEntity
  8
0
100
AcDbBlockBegin
  2
*D23
 70
     1
 10
0.0
 20
0.0
 30
0.0
  3
*D23
  1

  0
LINE
  5
E87
330
AB3
100
AcDbEntity
  8
0
100
AcDbLine
 10
22.36618287962695
 20
17.15236902620455
 30
0.0
 11
22.36618287962695
 21
13.52880532937189
 31
0.0
  0
LINE
  5
E88
330
AB3
100
AcDbEntity
  8
0
100
AcDbLine
 10
22.11618287962695
 20
17.15236902620455
 30
0.0
 11
22.11618287962695
 21
13.52880532937189
 31
0.0
  0
LINE
  5
E89
330
AB3
100
AcDbEntity
  8
0
100
AcDbLine
 10
22.86618287962696
 20
13.77880532937189
 30
0.0
 11
23.36618287962695
 21
13.77880532937189
 31
0.0
  0
LINE
  5
E8A
330
AB3
100
AcDbEntity
  8
0
100
AcDbLine
 10
21.61618287962695
 20
13.77880532937189
 30
0.0
 11
21.11618287962695
 21
13.77880532937189
 31
0.0
  0
MTEXT
  5
E8B
330
AB3
100
AcDbEntity
  8
0
 62
   255
100
AcDbMText
 10
21.08178870396525
 20
13.7788053293719
 30
0.0
 40
0.28
 41
0.0
 71
     5
 72
     1
  1
\A1;1/4"\P [6]
 73
     1
 44
1.0
1001
ACAD
1000
MTEXTBEGIN
1070
    73
1070
     1
1070
    44
1040
1.0
1070
    74
1070
     0
1000
MTEXTEND
  0
SOLID
  5
E8C
330
AB3
100
AcDbEntity
  8
0
100
AcDbTrace
 10
22.86618287962696
 20
13.86213866270522
 30
0.0
 11
22.86618287962696
 21
13.69547199603856
 31
0.0
 12
22.36618287962695
 22
13.77880532937189
 32
0.0
 13
22.36618287962695
 23
13.77880532937189
 33
0.0
  0
SOLID
  5
E8D
330
AB3
100
AcDbEntity
  8
0
100
AcDbTrace
 10
21.61618287962695
 20
13.86213866270522
 30
0.0
 11
21.61618287962695
 21
13.69547199603856
 31
0.0
 12
22.11618287962695
 22
13.77880532937189
 32
0.0
 13
22.11618287962695
 23
13.77880532937189
 33
0.0
  0
POINT
  5
E8E
330
AB3
100
AcDbEntity
  8
Defpoints
 62
     0
100
AcDbPoint
 10
22.36618287962695
 20
17.65236902620455
 30
0.0
  0
POINT
  5
E8F
330
AB3
100
AcDbEntity
  8
Defpoints
 62
     0
100
AcDbPoint
 10
22.11618287962695
 20
17.65236902620455
 30
0.0
  0
POINT
  5
E90
330
AB3
100
AcDbEntity
  8
Defpoints
 62
     0
100
AcDbPoint
 10
22.11618287962695
 20
13.77880532937189
 30
0.0
  0
ENDBLK
  5
ABF
330
AB3
100
AcDbEntity
  8
0
100
AcDbBlockEnd
  0
BLOCK
  5
DEC
330
DE1
100
AcDbEntity
  8
0
100
AcDbBlockBegin
  2
*D24
 70
     1
 10
0.0
 20
0.0
 30
0.0
  3
*D24
  1

  0
LINE
  5
E27
330
DE1
100
AcDbEntity
  8
0
100
AcDbLine
 10
6.116182879626946
 20
15.46650532937186
 30
0.0
 11
2.366182879626946
 21
15.46650532937186
 31
0.0
  0
LINE
  5
E28
330
DE1
100
AcDbEntity
  8
0
100
AcDbLine
 10
6.116182879626946
 20
15.21650532937182
 30
0.0
 11
2.366182879626946
 21
15.21650532937182
 31
0.0
  0
LINE
  5
E29
330
DE1
100
AcDbEntity
  8
0
100
AcDbLine
 10
2.616182879626946
 20
15.96650532937186
 30
0.0
 11
2.616182879626947
 21
16.46650532937186
 31
0.0
  0
LINE
  5
E2A
330
DE1
100
AcDbEntity
  8
0
100
AcDbLine
 10
2.616182879626946
 20
14.71650532937182
 30
0.0
 11
2.616182879626946
 21
14.21650532937182
 31
0.0
  0
MTEXT
  5
E2B
330
DE1
100
AcDbEntity
  8
0
 62
   255
100
AcDbMText
 10
2.616182879626948
 20
14.21650532937182
 30
0.0
 40
0.28
 41
0.0
 71
     5
 72
     1
  1
\A1;1/4"\P [6]
 11
0.0000000000000001
 21
1.0
 31
0.0
 73
     1
 44
1.0
1001
ACAD
1000
MTEXTBEGIN
1070
    73
1070
     1
1070
    44
1040
1.0
1070
    74
1070
     0
1000
MTEXTEND
  0
SOLID
  5
E2C
330
DE1
100
AcDbEntity
  8
0
100
AcDbTrace
 10
2.532849546293613
 20
15.96650532937186
 30
0.0
 11
2.69951621296028
 21
15.96650532937186
 31
0.0
 12
2.616182879626946
 22
15.46650532937186
 32
0.0
 13
2.616182879626946
 23
15.46650532937186
 33
0.0
  0
SOLID
  5
E2D
330
DE1
100
AcDbEntity
  8
0
100
AcDbTrace
 10
2.532849546293613
 20
14.71650532937182
 30
0.0
 11
2.69951621296028
 21
14.71650532937182
 31
0.0
 12
2.616182879626946
 22
15.21650532937182
 32
0.0
 13
2.616182879626946
 23
15.21650532937182
 33
0.0
  0
POINT
  5
E2E
330
DE1
100
AcDbEntity
  8
Defpoints
 62
     0
100
AcDbPoint
 10
6.616182879626946
 20
15.46650532937186
 30
0.0
  0
POINT
  5
E2F
330
DE1
100
AcDbEntity
  8
Defpoints
 62
     0
100
AcDbPoint
 10
6.616182879626946
 20
15.21650532937182
 30
0.0
  0
POINT
  5
E30
330
DE1
100
AcDbEntity
  8
Defpoints
 62
     0
100
AcDbPoint
 10
2.616182879626946
 20
15.21650532937182
 30
0.0
  0
ENDBLK
  5
DED
330
DE1
100
AcDbEntity
  8
0
100
AcDbBlockEnd
  0
ENDSEC
  0
SECTION
  2
ENTITIES
  0
INSERT
  5
34
330
2
100
AcDbEntity
  8
0
100
AcDbBlockReference
  2
TSE10SHSV-J
 10
6.616182879626947
 20
15.46650532937183
 30
0.0
  0
INSERT
  5
D5
330
2
100
AcDbEntity
  8
0
100
AcDbBlockReference
  2
TSE10SHLJV-J
 10
22.36618287962695
 20
17.65236902620455
 30
0.0
 50
90.0
  0
INSERT
  5
169
330
2
100
AcDbEntity
  8
0
100
AcDbBlockReference
  2
TSE10SHHF-J
 10
6.631182879626948
 20
25.60630532937189
 30
0.0
  0
INSERT
  5
1A5
330
2
100
AcDbEntity
  8
0
100
AcDbBlockReference
  2
10sillvinyl
 10
6.616182879626947
 20
15.46650532937184
 30
0.0
  0
INSERT
  5
244
330
2
100
AcDbEntity
  8
0
100
AcDbBlockReference
  2
ACC31D0 Colonial
 10
12.51609402734547
 20
16.14871628431334
 30
0.0
 41
-1.0
 50
180.0
  0
POLYLINE
  5
269
102
{ACAD_REACTORS
330
26F
102
}
330
2
100
AcDbEntity
  8
0
100
AcDb2dPolyline
 66
     1
 10
0.0
 20
0.0
 30
0.0
 70
     1
  0
VERTEX
  5
26A
330
269
100
AcDbEntity
  8
0
100
AcDbVertex
100
AcDb2dVertex
 10
12.51609402734547
 20
15.45778474624296
 30
0.0
  0
VERTEX
  5
26B
330
269
100
AcDbEntity
  8
0
100
AcDbVertex
100
AcDb2dVertex
 10
12.51609402734547
 20
16.30697608004498
 30
0.0
  0
VERTEX
  5
26C
330
269
100
AcDbEntity
  8
0
100
AcDbVertex
100
AcDb2dVertex
 10
9.328937873708937
 20
16.30697608004499
 30
0.0
  0
VERTEX
  5
26D
330
269
100
AcDbEntity
  8
0
100
AcDbVertex
100
AcDb2dVertex
 10
9.32879075069966
 20
15.45778474624297
 30
0.0
  0
SEQEND
  5
26E
330
269
100
AcDbEntity
  8
0
  0
HATCH
  5
26F
330
2
100
AcDbEntity
  8
0
100
AcDbHatch
 10
0.0
 20
0.0
 30
0.0
210
0.0
220
0.0
230
1.0
  2
WOOD
 70
     0
 71
     1
 91
        1
 92
        1
 93
        4
 72
     1
 10
12.51609402734547
 20
15.45778474624296
 11
12.51609402734547
 21
16.30697608004498
 72
     1
 10
12.51609402734547
 20
16.30697608004498
 11
9.328937873708937
 21
16.30697608004499
 72
     1
 10
9.328937873708937
 20
16.30697608004499
 11
9.32879075069966
 21
15.45778474624297
 72
     1
 10
9.32879075069966
 20
15.45778474624297
 11
12.51609402734547
 21
15.45778474624296
 97
        1
330
269
 75
     0
 76
     1
 52
135.0
 41
0.14
 77
     0
 78
    12
 53
135.0
 43
-12.33702273612731
 44
39.33858995176893
 45
-0.7919595949289332
 46
-0.0000000000000001
 79
     2
 49
0.5600000000000002
 49
-5.040000000000001
 53
135.0
 43
-13.62395707788683
 44
40.42753439479621
 45
-0.7919595949289332
 46
-0.0000000000000001
 79
     2
 49
0.5600000000000002
 49
-2.24
 53
161.56505118
 43
-11.94104293866284
 44
39.7345697492334
 45
-0.7919595586260602
 46
0.0000000442314982
 79
     2
 49
1.25219808
 49
-11.26978258
 53
120.96375653
 43
-10.55511364753721
 44
37.95266066064329
 45
-0.7919596908495017
 46
0.0000000240384627
 79
     2
 49
0.5772348400000002
 49
-4.04064346
 53
120.96375653
 43
-11.24807829310002
 44
38.84361520493835
 45
-0.7919596908495017
 46
0.0000000240384627
 79
     2
 49
0.5772348400000002
 49
-4.04064346
 53
120.96375653
 43
-10.85209849563556
 44
36.86371621761601
 45
-0.7919596908495017
 46
0.0000000240384627
 79
     2
 49
0.5772348400000002
 49
-4.04064346
 53
149.03624347
 43
-13.12898233105624
 44
40.13054954669786
 45
-0.7919596908495016
 46
-0.0000000240384629
 79
     2
 49
0.5772348400000001
 49
-22.51215666
 53
149.03624347
 43
-20.25661868541664
 44
44.09034752134252
 45
-0.7919596908495016
 46
-0.0000000240384629
 79
     2
 49
0.5772348400000001
 49
-22.51215666
 53
149.03624347
 43
-26.59229544484811
 44
48.0501454959872
 45
-0.7919596908495016
 46
-0.0000000240384629
 79
     2
 49
0.5772348400000001
 49
-22.51215666
 53
108.4349488199999
 43
-14.31692172344964
 44
41.31848893909126
 45
-0.7919595586260602
 46
-0.0000000442314984
 79
     2
 49
0.6260990399999998
 49
-11.89588161999999
 53
108.4349488199999
 43
-11.94104293866284
 44
33.39889298980192
 45
-0.7919595586260602
 46
-0.0000000442314984
 79
     2
 49
0.6260990399999998
 49
-11.89588161999999
 53
108.4349488199999
 43
-13.52496212852071
 44
37.35869096444659
 45
-0.7919595586260602
 46
-0.0000000442314984
 79
     2
 49
0.6260990399999998
 49
-11.89588161999999
 98
        1
 10
37.08191329147548
 20
35.83278474624298
  0
HATCH
  5
270
330
2
100
AcDbEntity
  8
0
100
AcDbHatch
 10
0.0
 20
0.0
 30
0.0
210
0.0
220
0.0
230
1.0
  2
LINE
 70
     0
 71
     0
 91
        1
 92
        7
 72
     1
 73
     1
 93
       13
 10
9.32879075069966
 20
15.45778474624302
 42
0.0
 10
9.32879075069966
 20
15.66705157666882
 42
0.4902604554738491
 10
9.301294456042889
 20
15.68835394144497
 42
0.0
 10
9.058790750699678
 20
15.62578474624268
 42
0.0
 10
9.058790750699685
 20
15.61578474624292
 42
0.0
 10
9.168790750699635
 20
15.52378474624281
 42
0.0
 10
9.168790750699699
 20
15.59220126406688
 42
0.0
 10
9.268790750699665
 20
15.6180025998089
 42
0.0
 10
9.268790750699665
 20
15.45778474624302
 42
0.0
 10
8.788790750699632
 20
15.45778474624301
 42
0.0
 10
8.788790750699639
 20
15.39778474624261
 42
0.0
 10
9.86879075069968
 20
15.39778474624261
 42
0.0
 10
9.86879075069968
 20
15.45778474624301
 42
0.0
 97
        0
 75
     0
 76
     1
 52
45.0
 41
0.25
 77
     0
 78
     1
 53
315.0
 43
-11.95916919317928
 44
42.701784746244
 45
-0.0220970869120796
 46
-0.0220970869120796
 79
     0
 47
0.0025246413765433
 98
        1
 10
9.31880001201663
 20
15.43175430198503
  0
INSERT
  5
271
330
2
100
AcDbEntity
  8
0
100
AcDbBlockReference
  2
clip
 10
8.788790705517875
 20
15.68905162061417
 30
0.0
 50
270.0
  0
HATCH
  5
284
330
2
100
AcDbEntity
  8
0
100
AcDbHatch
 10
0.0
 20
0.0
 30
0.0
210
0.0
220
0.0
230
1.0
  2
LINE
 70
     0
 71
     0
 91
        1
 92
        7
 72
     1
 73
     1
 93
       13
 10
22.56944971005321
 20
20.35982528182998
 42
-0.4902604554703939
 10
22.59075207482912
 20
20.3323289871732
 42
0.0
 10
22.52818287962683
 20
20.08982528183
 42
0.0
 10
22.51818287962707
 20
20.08982528183
 42
0.0
 10
22.42618287962697
 20
20.19982528182996
 42
0.0
 10
22.49459939745103
 20
20.19982528183001
 42
0.0
 10
22.52040073319304
 20
20.29982528182997
 42
0.0
 10
22.36018287962717
 20
20.29982528182998
 42
0.0
 10
22.36018287962717
 20
19.81982528182995
 42
0.0
 10
22.30018287962677
 20
19.81982528182995
 42
0.0
 10
22.30018287962677
 20
20.89982528183
 42
0.0
 10
22.36018287962716
 20
20.89982528183
 42
0.0
 10
22.36018287962715
 20
20.35982528182998
 42
0.0
 97
        0
 75
     0
 76
     1
 52
135.0
 41
0.25
 77
     0
 78
     1
 53
135.0
 43
49.60418287962815
 44
-0.9281346620489685
 45
-0.0220970869120796
 46
-0.0220970869120796
 79
     0
 47
0.0025246413765433
 98
        1
 10
22.33415243536919
 20
20.34983454314695
  0
INSERT
  5
285
330
2
100
AcDbEntity
  8
0
100
AcDbBlockReference
  2
clip
 10
22.59144975399832
 20
19.81982523664819
 30
0.0
 41
-1.0
  0
INSERT
  5
286
330
2
100
AcDbEntity
  8
0
100
AcDbBlockReference
  2
ACC31D0 Colonial
 10
23.05111441769749
 20
23.57042872926165
 30
0.0
 50
90.0
  0
POLYLINE
  5
287
102
{ACAD_REACTORS
330
28D
102
}
330
2
100
AcDbEntity
  8
0
100
AcDb2dPolyline
 66
     1
 10
0.0
 20
0.0
 30
0.0
 70
     1
  0
VERTEX
  5
288
330
287
100
AcDbEntity
  8
0
100
AcDbVertex
100
AcDb2dVertex
 10
22.36018287962711
 20
23.57042872926166
 30
0.0
  0
VERTEX
  5
289
330
287
100
AcDbEntity
  8
0
100
AcDbVertex
100
AcDb2dVertex
 10
23.20937421342912
 20
23.57042872926166
 30
0.0
  0
VERTEX
  5
28A
330
287
100
AcDbEntity
  8
0
100
AcDbVertex
100
AcDb2dVertex
 10
23.20937421342914
 20
20.35997240483926
 30
0.0
  0
VERTEX
  5
28B
330
287
100
AcDbEntity
  8
0
100
AcDbVertex
100
AcDb2dVertex
 10
22.36018287962712
 20
20.35982528182998
 30
0.0
  0
SEQEND
  5
28C
330
287
100
AcDbEntity
  8
0
  0
HATCH
  5
28D
330
2
100
AcDbEntity
  8
0
100
AcDbHatch
 10
0.0
 20
0.0
 30
0.0
210
0.0
220
0.0
230
1.0
  2
WOOD
 70
     0
 71
     1
 91
        1
 92
        1
 93
        4
 72
     1
 10
22.36018287962711
 20
23.57042872926166
 11
23.20937421342912
 21
23.57042872926166
 72
     1
 10
23.20937421342912
 20
23.57042872926166
 11
23.20937421342914
 21
20.35997240483926
 72
     1
 10
23.20937421342914
 20
20.35997240483926
 11
22.36018287962712
 21
20.35982528182998
 72
     1
 10
22.36018287962712
 20
20.35982528182998
 11
22.36018287962711
 21
23.57042872926166
 97
        1
330
287
 75
     0
 76
     1
 52
225.0
 41
0.14
 77
     0
 78
    12
 53
315.0
 43
46.24098808515306
 44
-1.305988204996985
 45
-0.0000000000000002
 46
-0.7919595949289332
 79
     2
 49
0.5600000000000001
 49
-5.04
 53
315.0
 43
47.32993252818035
 44
-2.592922546756504
 45
-0.0000000000000002
 46
-0.7919595949289332
 79
     2
 49
0.5600000000000001
 49
-2.24
 53
288.4349488200001
 43
46.63696788261753
 44
-0.9100084075325227
 45
0.0000000442314982
 46
-0.7919595586260602
 79
     2
 49
1.25219808
 49
-11.26978258
 53
329.03624347
 43
44.85505879402743
 44
0.4759208835931119
 45
0.0000000240384626
 46
-0.7919596908495017
 79
     2
 49
0.5772348400000001
 49
-4.04064346
 53
329.03624347
 43
45.74601333832248
 44
-0.2170437619697125
 45
0.0000000240384626
 46
-0.7919596908495017
 79
     2
 49
0.5772348400000001
 49
-4.04064346
 53
329.03624347
 43
43.76611435100015
 44
0.1789360354947576
 45
0.0000000240384626
 46
-0.7919596908495017
 79
     2
 49
0.5772348400000001
 49
-4.04064346
 53
300.96375653
 43
47.03294768008199
 44
-2.097947799925925
 45
-0.0000000240384629
 46
-0.7919596908495016
 79
     2
 49
0.5772348400000001
 49
-22.51215666
 53
300.96375653
 43
50.99274565472667
 44
-9.225584154286323
 45
-0.0000000240384629
 46
-0.7919596908495016
 79
     2
 49
0.5772348400000001
 49
-22.51215666
 53
300.96375653
 43
54.95254362937132
 44
-15.56126091371779
 45
-0.0000000240384629
 46
-0.7919596908495016
 79
     2
 49
0.5772348400000001
 49
-22.51215666
 53
341.56505118
 43
48.2208870724754
 44
-3.285887192319329
 45
-0.0000000442314984
 46
-0.7919595586260602
 79
     2
 49
0.6260990400000001
 49
-11.89588162
 53
341.56505118
 43
40.30129112318607
 44
-0.9100084075325227
 45
-0.0000000442314984
 46
-0.7919595586260602
 79
     2
 49
0.6260990400000001
 49
-11.89588162
 53
341.56505118
 43
44.26108909783073
 44
-2.493927597390388
 45
-0.0000000442314984
 46
-0.7919595586260602
 79
     2
 49
0.6260990400000001
 49
-11.89588162
 98
        1
 10
42.73518287962711
 20
48.11294782260579
  0
INSERT
  5
28E
330
2
100
AcDbEntity
  8
0
100
AcDbBlockReference
  2
clip
 10
8.798639090070587
 20
25.38103845500053
 30
0.0
 41
-1.0
 50
270.0
  0
HATCH
  5
28F
330
2
100
AcDbEntity
  8
0
100
AcDbHatch
 10
0.0
 20
0.0
 30
0.0
210
0.0
220
0.0
230
1.0
  2
LINE
 70
     0
 71
     0
 91
        1
 92
        7
 72
     1
 73
     1
 93
       13
 10
9.338639135252371
 20
25.40303849894565
 42
-0.4902604554703939
 10
9.3111428405956
 20
25.38173613416975
 42
0.0
 10
9.068639135252396
 20
25.44430532937203
 42
0.0
 10
9.068639135252389
 20
25.45430532937179
 42
0.0
 10
9.178639135252353
 20
25.54630532937189
 42
0.0
 10
9.17863913525241
 20
25.47788881154783
 42
0.0
 10
9.278639135252369
 20
25.45208747580581
 42
0.0
 10
9.278639135252369
 20
25.6123053293717
 42
0.0
 10
8.798639135252351
 20
25.6123053293717
 42
0.0
 10
8.798639135252351
 20
25.67230532937209
 42
0.0
 10
9.878639135252385
 20
25.67230532937209
 42
0.0
 10
9.878639135252385
 20
25.6123053293717
 42
0.0
 10
9.338639135252371
 20
25.6123053293717
 42
0.0
 97
        0
 75
     0
 76
     1
 52
45.0
 41
0.25
 77
     0
 78
     1
 53
45.0
 43
-11.94932080862657
 44
-1.63169467062929
 45
-0.0220970869120796
 46
0.0220970869120796
 79
     0
 47
0.0025246413765433
 98
        1
 10
9.328648396569342
 20
25.63833577362967
  0
HATCH
  5
290
330
2
100
AcDbEntity
  8
0
100
AcDbHatch
 10
0.0
 20
0.0
 30
0.0
210
0.0
220
0.0
230
1.0
  2
WOOD
 70
     0
 71
     1
 91
        1
 92
        1
 93
        4
 72
     1
 10
12.43186997082031
 20
25.61230532937174
 11
12.43186997082031
 21
24.76311399556973
 72
     1
 10
12.43186997082031
 20
24.76311399556973
 11
9.338786258261649
 21
24.76311399556972
 72
     1
 10
9.338786258261649
 20
24.76311399556972
 11
9.338639135252371
 21
25.61230532937174
 72
     1
 10
9.338639135252371
 20
25.61230532937174
 11
12.43186997082031
 21
25.61230532937174
 97
        1
330
291
 75
     0
 76
     1
 52
135.0
 41
0.14
 77
     0
 78
    12
 53
225.0
 43
-12.3271743515746
 44
1.731500123845789
 45
-0.7919595949289332
 46
0.0000000000000001
 79
     2
 49
0.5600000000000001
 49
-5.04
 53
225.0
 43
-13.61410869333411
 44
0.6425556808185063
 45
-0.7919595949289332
 46
0.0000000000000001
 79
     2
 49
0.5600000000000001
 49
-2.24
 53
198.43494882
 43
-11.93119455411013
 44
1.335520326381322
 45
-0.7919595586260602
 46
-0.0000000442314982
 79
     2
 49
1.25219808
 49
-11.26978258
 53
239.03624347
 43
-10.5452652629845
 44
3.117429414971422
 45
-0.7919596908495017
 46
-0.0000000240384627
 79
     2
 49
0.5772348400000001
 49
-4.04064346
 53
239.03624347
 43
-11.23822990854731
 44
2.226474870676372
 45
-0.7919596908495017
 46
-0.0000000240384627
 79
     2
 49
0.5772348400000001
 49
-4.04064346
 53
239.03624347
 43
-10.84225011108284
 44
4.206373857998706
 45
-0.7919596908495017
 46
-0.0000000240384627
 79
     2
 49
0.5772348400000001
 49
-4.04064346
 53
210.96375653
 43
-13.11913394650353
 44
0.9395405289168561
 45
-0.7919596908495016
 46
0.0000000240384629
 79
     2
 49
0.5772348400000001
 49
-22.51215666
 53
210.96375653
 43
-20.24677030086393
 44
-3.020257445727809
 45
-0.7919596908495016
 46
0.0000000240384629
 79
     2
 49
0.5772348400000001
 49
-22.51215666
 53
210.96375653
 43
-26.58244706029539
 44
-6.980055420372476
 45
-0.7919596908495016
 46
0.0000000240384629
 79
     2
 49
0.5772348400000001
 49
-22.51215666
 53
251.56505118
 43
-14.30707333889692
 44
-0.2483988634765435
 45
-0.7919595586260602
 46
0.0000000442314984
 79
     2
 49
0.6260990400000001
 49
-11.89588162
 53
251.56505118
 43
-11.93119455411013
 44
7.671197085812789
 45
-0.7919595586260602
 46
0.0000000442314984
 79
     2
 49
0.6260990400000001
 49
-11.89588162
 53
251.56505118
 43
-13.515113743968
 44
3.711399111168122
 45
-0.7919595586260602
 46
0.0000000442314984
 79
     2
 49
0.6260990400000001
 49
-11.89588162
 98
        1
 10
37.09176167602817
 20
5.237305329371737
  0
POLYLINE
  5
291
102
{ACAD_REACTORS
330
290
102
}
330
2
100
AcDbEntity
  8
0
100
AcDb2dPolyline
 66
     1
 10
0.0
 20
0.0
 30
0.0
 70
     1
  0
VERTEX
  5
292
330
291
100
AcDbEntity
  8
0
100
AcDbVertex
100
AcDb2dVertex
 10
12.43186997082031
 20
25.61230532937174
 30
0.0
  0
VERTEX
  5
293
330
291
100
AcDbEntity
  8
0
100
AcDbVertex
100
AcDb2dVertex
 10
12.43186997082031
 20
24.76311399556973
 30
0.0
  0
VERTEX
  5
294
330
291
100
AcDbEntity
  8
0
100
AcDbVertex
100
AcDb2dVertex
 10
9.338786258261649
 20
24.76311399556972
 30
0.0
  0
VERTEX
  5
295
330
291
100
AcDbEntity
  8
0
100
AcDbVertex
100
AcDb2dVertex
 10
9.338639135252371
 20
25.61230532937174
 30
0.0
  0
SEQEND
  5
296
330
291
100
AcDbEntity
  8
0
  0
INSERT
  5
297
330
2
100
AcDbEntity
  8
0
100
AcDbBlockReference
  2
ACC31D0 Colonial
 10
12.4318699708203
 20
24.92137379130137
 30
0.0
  0
INSERT
  5
298
330
2
100
AcDbEntity
  8
0
100
AcDbBlockReference
  2
10jambvinylsiding
 10
22.36618287962696
 20
17.65236902620455
 30
0.0
 50
90.0
  0
INSERT
  5
2CF
330
2
100
AcDbEntity
  8
0
100
AcDbBlockReference
  2
10headvinylsiding1
 10
6.631182879626948
 20
25.60630532937189
 30
0.0
  0
MTEXT
  5
3A2
330
2
100
AcDbEntity
  8
0
100
AcDbMText
 10
9.196180869131893
 20
9.53075430726821
 30
0.0
 40
0.28
 41
1.40369753947796
 71
     2
 72
     5
  1
SILL
  7
Arial
 73
     1
 44
1.0
1001
ACAD
1000
MTEXTBEGIN
1070
    73
1070
     1
1070
    44
1040
1.0
1070
    74
1070
     0
1000
MTEXTEND
  0
POLYLINE
  5
726
330
2
100
AcDbEntity
  8
0
100
AcDb2dPolyline
 66
     1
 10
0.0
 20
0.0
 30
0.0
  0
VERTEX
  5
727
330
726
100
AcDbEntity
  8
0
100
AcDbVertex
100
AcDb2dVertex
 10
5.403334495074233
 20
10.19150532937183
 30
0.0
  0
VERTEX
  5
728
330
726
100
AcDbEntity
  8
0
100
AcDbVertex
100
AcDb2dVertex
 10
6.302569601933981
 20
10.19150532937183
 30
0.0
  0
VERTEX
  5
729
330
726
100
AcDbEntity
  8
0
100
AcDbVertex
100
AcDb2dVertex
 10
6.365069601933981
 20
10.44150532937184
 30
0.0
  0
VERTEX
  5
72A
330
726
100
AcDbEntity
  8
0
100
AcDbVertex
100
AcDb2dVertex
 10
6.490069601933981
 20
9.941505329371837
 30
0.0
  0
VERTEX
  5
72B
330
726
100
AcDbEntity
  8
0
100
AcDbVertex
100
AcDb2dVertex
 10
6.552569601933981
 20
10.19150532937183
 30
0.0
  0
VERTEX
  5
72C
330
726
100
AcDbEntity
  8
0
100
AcDbVertex
100
AcDb2dVertex
 10
10.93782665763314
 20
10.19150532937183
 30
0.0
  0
VERTEX
  5
72D
330
726
100
AcDbEntity
  8
0
100
AcDbVertex
100
AcDb2dVertex
 10
11.00032665763314
 20
10.44150532937184
 30
0.0
  0
VERTEX
  5
72E
330
726
100
AcDbEntity
  8
0
100
AcDbVertex
100
AcDb2dVertex
 10
11.12532665763314
 20
9.941505329371837
 30
0.0
  0
VERTEX
  5
72F
330
726
100
AcDbEntity
  8
0
100
AcDbVertex
100
AcDb2dVertex
 10
11.18782665763314
 20
10.19150532937183
 30
0.0
  0
VERTEX
  5
730
330
726
100
AcDbEntity
  8
0
100
AcDbVertex
100
AcDb2dVertex
 10
13.9368163698044
 20
10.19150532937183
 30
0.0
  0
SEQEND
  5
731
330
726
100
AcDbEntity
  8
0
  0
POLYLINE
  5
73E
330
2
100
AcDbEntity
  8
0
100
AcDb2dPolyline
 66
     1
 10
0.0
 20
0.0
 30
0.0
  0
VERTEX
  5
73F
330
73E
100
AcDbEntity
  8
0
100
AcDbVertex
100
AcDb2dVertex
 10
5.228481677790284
 20
29.82007341685252
 30
0.0
  0
VERTEX
  5
740
330
73E
100
AcDbEntity
  8
0
100
AcDbVertex
100
AcDb2dVertex
 10
6.127716784650026
 20
29.82007341685252
 30
0.0
  0
VERTEX
  5
741
330
73E
100
AcDbEntity
  8
0
100
AcDbVertex
100
AcDb2dVertex
 10
6.190216784650026
 20
30.07007341685252
 30
0.0
  0
VERTEX
  5
742
330
73E
100
AcDbEntity
  8
0
100
AcDbVertex
100
AcDb2dVertex
 10
6.315216784650026
 20
29.57007341685252
 30
0.0
  0
VERTEX
  5
743
330
73E
100
AcDbEntity
  8
0
100
AcDbVertex
100
AcDb2dVertex
 10
6.377716784650026
 20
29.82007341685252
 30
0.0
  0
VERTEX
  5
744
330
73E
100
AcDbEntity
  8
0
100
AcDbVertex
100
AcDb2dVertex
 10
11.15432799044387
 20
29.82007341685252
 30
0.0
  0
VERTEX
  5
745
330
73E
100
AcDbEntity
  8
0
100
AcDbVertex
100
AcDb2dVertex
 10
11.21682799044386
 20
30.07007341685252
 30
0.0
  0
VERTEX
  5
746
330
73E
100
AcDbEntity
  8
0
100
AcDbVertex
100
AcDb2dVertex
 10
11.34182799044387
 20
29.57007341685252
 30
0.0
  0
VERTEX
  5
747
330
73E
100
AcDbEntity
  8
0
100
AcDbVertex
100
AcDb2dVertex
 10
11.40432799044386
 20
29.82007341685252
 30
0.0
  0
VERTEX
  5
748
330
73E
100
AcDbEntity
  8
0
100
AcDbVertex
100
AcDb2dVertex
 10
13.75271678465002
 20
29.82007341685252
 30
0.0
  0
SEQEND
  5
749
330
73E
100
AcDbEntity
  8
0
  0
MTEXT
  5
A17
330
2
100
AcDbEntity
  8
0
100
AcDbMText
 10
9.298924262802444
 20
20.59130532937189
 30
0.0
 40
0.28
 41
1.40369753947796
 71
     5
 72
     5
  1
HEAD
  7
Arial
 73
     1
 44
1.0
1001
ACAD
1000
MTEXTBEGIN
1070
    73
1070
     1
1070
    44
1040
1.0
1070
    74
1070
     0
1000
MTEXTEND
  0
MTEXT
  5
A19
330
2
100
AcDbEntity
  8
0
100
AcDbMText
 10
19.61618287962695
 20
16.40380532937189
 30
0.0
 40
0.28
 41
1.40369753947796
 71
     5
 72
     5
  1
JAMB
  7
Arial
 73
     1
 44
1.0
1001
ACAD
1000
MTEXTBEGIN
1070
    73
1070
     1
1070
    44
1040
1.0
1070
    74
1070
     0
1000
MTEXTEND
  0
POLYLINE
  5
A1A
330
2
100
AcDbEntity
  8
0
100
AcDb2dPolyline
 66
     1
 10
0.0
 20
0.0
 30
0.0
  0
VERTEX
  5
A1B
330
A1A
100
AcDbEntity
  8
0
100
AcDbVertex
100
AcDb2dVertex
 10
17.11618287962695
 20
16.40380532937189
 30
0.0
  0
VERTEX
  5
A1C
330
A1A
100
AcDbEntity
  8
0
100
AcDbVertex
100
AcDb2dVertex
 10
17.11618287962695
 20
17.15380532937189
 30
0.0
  0
VERTEX
  5
A1D
330
A1A
100
AcDbEntity
  8
0
100
AcDbVertex
100
AcDb2dVertex
 10
16.86618287962695
 20
17.21630532937189
 30
0.0
  0
VERTEX
  5
A1E
330
A1A
100
AcDbEntity
  8
0
100
AcDbVertex
100
AcDb2dVertex
 10
17.36618287962695
 20
17.34130532937189
 30
0.0
  0
VERTEX
  5
A1F
330
A1A
100
AcDbEntity
  8
0
100
AcDbVertex
100
AcDb2dVertex
 10
17.11618287962695
 20
17.40380532937189
 30
0.0
  0
VERTEX
  5
A20
330
A1A
100
AcDbEntity
  8
0
100
AcDbVertex
100
AcDb2dVertex
 10
17.11618287962695
 20
22.23193032937189
 30
0.0
  0
VERTEX
  5
A21
330
A1A
100
AcDbEntity
  8
0
100
AcDbVertex
100
AcDb2dVertex
 10
16.86618287962695
 20
22.29443032937189
 30
0.0
  0
VERTEX
  5
A22
330
A1A
100
AcDbEntity
  8
0
100
AcDbVertex
100
AcDb2dVertex
 10
17.36618287962695
 20
22.41943032937189
 30
0.0
  0
VERTEX
  5
A23
330
A1A
100
AcDbEntity
  8
0
100
AcDbVertex
100
AcDb2dVertex
 10
17.11618287962695
 20
22.48193032937189
 30
0.0
  0
VERTEX
  5
A24
330
A1A
100
AcDbEntity
  8
0
100
AcDbVertex
100
AcDb2dVertex
 10
17.11618287962695
 20
24.71630532937189
 30
0.0
  0
SEQEND
  5
A25
330
A1A
100
AcDbEntity
  8
0
  0
POLYLINE
  5
A26
330
2
100
AcDbEntity
  8
0
100
AcDb2dPolyline
 66
     1
 10
0.0
 20
0.0
 30
0.0
  0
VERTEX
  5
A27
330
A26
100
AcDbEntity
  8
0
100
AcDbVertex
100
AcDb2dVertex
 10
26.86618287962696
 20
12.40380532937191
 30
0.0
  0
VERTEX
  5
A28
330
A26
100
AcDbEntity
  8
0
100
AcDbVertex
100
AcDb2dVertex
 10
26.86618287962696
 20
17.15380532937189
 30
0.0
  0
VERTEX
  5
A29
330
A26
100
AcDbEntity
  8
0
100
AcDbVertex
100
AcDb2dVertex
 10
26.61618287962696
 20
17.21630532937189
 30
0.0
  0
VERTEX
  5
A2A
330
A26
100
AcDbEntity
  8
0
100
AcDbVertex
100
AcDb2dVertex
 10
27.11618287962696
 20
17.34130532937189
 30
0.0
  0
VERTEX
  5
A2B
330
A26
100
AcDbEntity
  8
0
100
AcDbVertex
100
AcDb2dVertex
 10
26.86618287962696
 20
17.40380532937189
 30
0.0
  0
VERTEX
  5
A2C
330
A26
100
AcDbEntity
  8
0
100
AcDbVertex
100
AcDb2dVertex
 10
26.86618287962696
 20
22.23193032937189
 30
0.0
  0
VERTEX
  5
A2D
330
A26
100
AcDbEntity
  8
0
100
AcDbVertex
100
AcDb2dVertex
 10
26.61618287962696
 20
22.29443032937189
 30
0.0
  0
VERTEX
  5
A2E
330
A26
100
AcDbEntity
  8
0
100
AcDbVertex
100
AcDb2dVertex
 10
27.11618287962696
 20
22.41943032937189
 30
0.0
  0
VERTEX
  5
A2F
330
A26
100
AcDbEntity
  8
0
100
AcDbVertex
100
AcDb2dVertex
 10
26.86618287962696
 20
22.48193032937189
 30
0.0
  0
VERTEX
  5
A30
330
A26
100
AcDbEntity
  8
0
100
AcDbVertex
100
AcDb2dVertex
 10
26.86618287962696
 20
24.71630532937189
 30
0.0
  0
SEQEND
  5
A31
330
A26
100
AcDbEntity
  8
0
  0
DIMENSION
  5
A32
330
2
100
AcDbEntity
  8
0
100
AcDbDimension
  2
*D21
 10
22.36618287962695
 20
13.77880532937189
 30
0.0
 11
26.01483143093294
 21
13.51380532937189
 31
0.0
 70
   160
  1
FRAME
 71
     5
 42
4.500000000000007
  3
3 inch Scale
100
AcDbAlignedDimension
 13
26.86618287962696
 23
16.00691543623165
 33
0.0
 14
22.36618287962695
 24
17.65236902620455
 34
0.0
 50
180.0
100
AcDbRotatedDimension
1001
ACAD
1000
DSTYLE
1002
{
1070
    75
1070
     1
1070
   173
1070
     1
1070
   343
1005
32F
1002
}
  0
DIMENSION
  5
A33
330
2
100
AcDbEntity
  8
0
100
AcDbDimension
  2
*D22
 10
22.11618287962695
 20
12.77880532937189
 30
0.0
 11
25.01778038016794
 21
12.5089349337375
 31
0.0
 70
   160
  1
ROUGH OPENING
 71
     5
 42
4.750000000000014
  3
3 inch Scale
100
AcDbAlignedDimension
 13
26.86618287962696
 23
16.00691543623165
 33
0.0
 14
22.11618287962695
 24
17.65236902620455
 34
0.0
 50
180.0
100
AcDbRotatedDimension
1001
ACAD
1000
DSTYLE
1002
{
1070
    75
1070
     1
1070
   173
1070
     1
1070
   343
1005
32F
1002
}
  0
DIMENSION
  5
A34
330
2
100
AcDbEntity
  8
0
100
AcDbDimension
  2
*D23
 10
22.11618287962695
 20
13.77880532937189
 30
0.0
 11
21.08178870396525
 21
13.7788053293719
 31
0.0
 70
   160
 71
     5
 42
0.2500000000000071
  3
3 inch Scale
100
AcDbAlignedDimension
 13
22.36618287962695
 23
17.65236902620455
 33
0.0
 14
22.11618287962695
 24
17.65236902620455
 34
0.0
 50
180.0
100
AcDbRotatedDimension
  0
DIMENSION
  5
A41
330
2
100
AcDbEntity
  8
0
100
AcDbDimension
  2
*D16
 10
2.616182879626945
 20
25.84130532937192
 30
0.0
 11
2.616182879626948
 21
26.84130532937192
 31
0.0
 70
   160
 71
     5
 42
0.2500000000000355
  3
3 inch Scale
100
AcDbAlignedDimension
 13
6.616182879626947
 23
25.59130532937188
 33
0.0
 14
6.616182879626947
 24
25.84130532937192
 34
0.0
 50
90.0
100
AcDbRotatedDimension
  0
DIMENSION
  5
A42
330
2
100
AcDbEntity
  8
0
100
AcDbDimension
  2
*D17
 10
1.616182879626945
 20
25.84130532937192
 30
0.0
 11
1.346312483992548
 21
22.93902817877393
 31
0.0
 70
   160
  1
ROUGH OPENING
 71
     5
 42
4.750000000000024
  3
3 inch Scale
100
AcDbAlignedDimension
 13
4.952187995604546
 23
21.09130532937189
 33
0.0
 14
6.616182879626947
 24
25.84130532937192
 34
0.0
 50
90.0
100
AcDbRotatedDimension
1001
ACAD
1000
DSTYLE
1002
{
1070
    75
1070
     1
1070
   343
1005
32F
1070
   173
1070
     1
1070
   344
1005
0
1002
}
  0
DIMENSION
  5
A43
330
2
100
AcDbEntity
  8
0
100
AcDbDimension
  2
*D18
 10
2.616182879626946
 20
25.59130532937189
 30
0.0
 11
2.351182879626933
 21
21.93989788580946
 31
0.0
 70
   160
  1
FRAME
 71
     5
 42
4.5
  3
3 inch Scale
100
AcDbAlignedDimension
 13
4.952187995604546
 23
21.09130532937189
 33
0.0
 14
6.616182879626947
 24
25.59130532937189
 34
0.0
 50
90.0
100
AcDbRotatedDimension
1001
ACAD
1000
DSTYLE
1002
{
1070
    75
1070
     1
1070
   343
1005
32F
1070
   173
1070
     1
1070
   344
1005
0
1002
}
  0
DIMENSION
  5
A44
330
2
100
AcDbEntity
  8
0
100
AcDbDimension
  2
*D19
 10
2.616182879626945
 20
19.96650532937183
 30
0.0
 11
2.351182879626932
 21
19.11806783566843
 31
0.0
 70
   160
  1
FRAME
 71
     5
 42
4.499999999999998
  3
3 inch Scale
100
AcDbAlignedDimension
 13
6.616182879626947
 23
15.46650532937183
 33
0.0
 14
4.849444601933981
 24
19.96650532937183
 34
0.0
 50
90.0
100
AcDbRotatedDimension
1001
ACAD
1000
DSTYLE
1002
{
1070
    76
1070
     1
1070
    75
1070
     0
1070
   343
1005
0
1070
   173
1070
     1
1070
   344
1005
32F
1002
}
  0
DIMENSION
  5
A45
330
2
100
AcDbEntity
  8
0
100
AcDbDimension
  2
*D20
 10
1.616182879626946
 20
15.21650532937183
 30
0.0
 11
1.346312483992562
 21
18.09539081472273
 31
0.0
 70
   160
  1
ROUGH OPENING
 71
     5
 42
4.749999999999998
  3
3 inch Scale
100
AcDbAlignedDimension
 13
4.849444601933981
 23
19.96650532937183
 33
0.0
 14
6.616182879626947
 24
15.21650532937183
 34
0.0
 50
90.0
100
AcDbRotatedDimension
1001
ACAD
1000
DSTYLE
1002
{
1070
    75
1070
     1
1070
   343
1005
32F
1070
   173
1070
     1
1070
   344
1005
0
1002
}
  0
POLYLINE
  5
A46
330
2
100
AcDbEntity
  8
0
100
AcDb2dPolyline
 66
     1
 10
0.0
 20
0.0
 30
0.0
  0
VERTEX
  5
A47
330
A46
100
AcDbEntity
  8
0
100
AcDbVertex
100
AcDb2dVertex
 10
1.241182879626947
 20
19.96650532937183
 30
0.0
  0
VERTEX
  5
A48
330
A46
100
AcDbEntity
  8
0
100
AcDbVertex
100
AcDb2dVertex
 10
5.991182879626947
 20
19.96650532937183
 30
0.0
  0
VERTEX
  5
A49
330
A46
100
AcDbEntity
  8
0
100
AcDbVertex
100
AcDb2dVertex
 10
6.053682879626947
 20
20.21650532937183
 30
0.0
  0
VERTEX
  5
A4A
330
A46
100
AcDbEntity
  8
0
100
AcDbVertex
100
AcDb2dVertex
 10
6.178682879626947
 20
19.71650532937183
 30
0.0
  0
VERTEX
  5
A4B
330
A46
100
AcDbEntity
  8
0
100
AcDbVertex
100
AcDb2dVertex
 10
6.241182879626947
 20
19.96650532937183
 30
0.0
  0
VERTEX
  5
A4C
330
A46
100
AcDbEntity
  8
0
100
AcDbVertex
100
AcDb2dVertex
 10
11.17868287962695
 20
19.96650532937183
 30
0.0
  0
VERTEX
  5
A4D
330
A46
100
AcDbEntity
  8
0
100
AcDbVertex
100
AcDb2dVertex
 10
11.24118287962694
 20
20.21650532937183
 30
0.0
  0
VERTEX
  5
A4E
330
A46
100
AcDbEntity
  8
0
100
AcDbVertex
100
AcDb2dVertex
 10
11.36618287962694
 20
19.71650532937183
 30
0.0
  0
VERTEX
  5
A4F
330
A46
100
AcDbEntity
  8
0
100
AcDbVertex
100
AcDb2dVertex
 10
11.42868287962695
 20
19.96650532937183
 30
0.0
  0
VERTEX
  5
A50
330
A46
100
AcDbEntity
  8
0
100
AcDbVertex
100
AcDb2dVertex
 10
13.55368287962695
 20
19.96650532937183
 30
0.0
  0
SEQEND
  5
A51
330
A46
100
AcDbEntity
  8
0
  0
POLYLINE
  5
A52
330
2
100
AcDbEntity
  8
0
100
AcDb2dPolyline
 66
     1
 10
0.0
 20
0.0
 30
0.0
  0
VERTEX
  5
A53
330
A52
100
AcDbEntity
  8
0
100
AcDbVertex
100
AcDb2dVertex
 10
1.241182879626947
 20
21.09130532937191
 30
0.0
  0
VERTEX
  5
A54
330
A52
100
AcDbEntity
  8
0
100
AcDbVertex
100
AcDb2dVertex
 10
5.991182879626947
 20
21.09130532937189
 30
0.0
  0
VERTEX
  5
A55
330
A52
100
AcDbEntity
  8
0
100
AcDbVertex
100
AcDb2dVertex
 10
6.053682879626947
 20
21.34130532937189
 30
0.0
  0
VERTEX
  5
A56
330
A52
100
AcDbEntity
  8
0
100
AcDbVertex
100
AcDb2dVertex
 10
6.178682879626947
 20
20.84130532937189
 30
0.0
  0
VERTEX
  5
A57
330
A52
100
AcDbEntity
  8
0
100
AcDbVertex
100
AcDb2dVertex
 10
6.241182879626947
 20
21.09130532937189
 30
0.0
  0
VERTEX
  5
A58
330
A52
100
AcDbEntity
  8
0
100
AcDbVertex
100
AcDb2dVertex
 10
11.17868287962695
 20
21.09130532937189
 30
0.0
  0
VERTEX
  5
A59
330
A52
100
AcDbEntity
  8
0
100
AcDbVertex
100
AcDb2dVertex
 10
11.24118287962694
 20
21.34130532937189
 30
0.0
  0
VERTEX
  5
A5A
330
A52
100
AcDbEntity
  8
0
100
AcDbVertex
100
AcDb2dVertex
 10
11.36618287962694
 20
20.84130532937189
 30
0.0
  0
VERTEX
  5
A5B
330
A52
100
AcDbEntity
  8
0
100
AcDbVertex
100
AcDb2dVertex
 10
11.42868287962695
 20
21.09130532937189
 30
0.0
  0
VERTEX
  5
A5C
330
A52
100
AcDbEntity
  8
0
100
AcDbVertex
100
AcDb2dVertex
 10
13.55368287962695
 20
21.09130532937189
 30
0.0
  0
SEQEND
  5
A5D
330
A52
100
AcDbEntity
  8
0
  0
DIMENSION
  5
DE0
330
2
100
AcDbEntity
  8
0
100
AcDbDimension
  2
*D24
 10
2.616182879626946
 20
15.21650532937182
 30
0.0
 11
2.616182879626948
 21
14.21650532937182
 31
0.0
 70
   160
 71
     5
 42
0.2500000000000355
  3
3 inch Scale
100
AcDbAlignedDimension
 13
6.616182879626947
 23
15.46650532937186
 33
0.0
 14
6.616182879626947
 24
15.21650532937182
 34
0.0
 50
270.0
100
AcDbRotatedDimension
  0
ENDSEC
  0
SECTION
  2
OBJECTS
  0
DICTIONARY
  5
8
330
0
100
AcDbDictionary
281
     1
  3
ACAD_COLOR
350
30
  3
ACAD_GROUP
350
2C
  3
ACAD_LAYOUT
350
D
  3
ACAD_MATERIAL
350
2F
  3
ACAD_MLINESTYLE
350
2D
  3
ACAD_PLOTSETTINGS
350
2E
  3
ACAD_PLOTSTYLENAME
350
7
  3
ACDBHEADERROUNDTRIPXREC
350
EAE
  3
AcDbVariableDictionary
350
6E1
  3
AVAT_FILE_STORE
350
487
1001
ADE
1000
ADE02C004
1000
[Query]
1000
CaseSensitiveMatch=0
1000
SaveCurrQueryInSession=1
1000
MkSelSetWithQryObj=0
1000
ShowBlockAsInsPt=0
1000
CreateAssociativeHatchObjects=0
1000
ReferenceBoundaryForAreaLocation=1
1000
ShowImageAsBoundary=1
1000
DefaultJoinOperator=2
1000
ColorForAdd=red
1000
ColorForRemove=red
1000
BlockLocnForQuery=1
1000
TextLocnForQuery=1
1000
[Save Back]
1000
RedefineBlockDefinitions=1
1000
RedefineLayerDefinitions=1
1000
RedefineTextStyleDefinitions=1
1000
RemoveUnusedGroups=1
1000
EraseSavedBackObjects=1
1000
RemoveLockAfterSave=1
1000
CreateHistoryFileOfChanges=0
1000
CreateBackupFileOfSourceDwg=1
1000
DontAddObjectsToSaveSet=0
1000
MarkObjectsForEditingWithoutPrompting=0
1000
[Coordinate Transformation]
1000
RestoreLastActiveDwgsOnStartup=1
1000
ActivateDwgsOnAttach=1
1000
AdjustSizesAndScalesForChangesInUnits=1
1000
AdjustRotationsForMapDistortions=1
1000
AdjustSizesAndScalesForMapDistortions=1
1000
AdjustElevations=1
1000
AdjustZeroRotationObjects=1
1000
ReconnectDbOnWSOpen=1
1000
NoOfSQLConditionsInHistory=10
  0
DICTIONARY
  5
14
330
13
100
AcDbDictionary
280
     1
281
     1
  3
ACAD_LAYERFILTERS
360
15
  3
ACAD_LAYERSTATES
360
16
  0
DICTIONARY
  5
3
330
2
100
AcDbDictionary
280
     1
281
     1
  3
ACAD_SORTENTS
360
41F
  0
DICTIONARY
  5
F
330
E
100
AcDbDictionary
280
     1
281
     1
  0
DICTIONARY
  5
1BC
330
1BB
100
AcDbDictionary
280
     1
281
     1
  3
ACAD_SORTENTS
360
566
  0
DICTIONARY
  5
1CB
330
1CA
100
AcDbDictionary
280
     1
281
     1
  3
ACAD_SORTENTS
360
1CC
  0
DICTIONARY
  5
246
330
245
100
AcDbDictionary
280
     1
281
     1
  3
ACAD_SORTENTS
360
247
  0
DICTIONARY
  5
2D1
330
2D0
100
AcDbDictionary
280
     1
281
     1
  3
ACAD_SORTENTS
360
6C9
  0
DICTIONARY
  5
29A
330
299
100
AcDbDictionary
280
     1
281
     1
  3
ACAD_SORTENTS
360
486
  0
DICTIONARY
  5
228
330
227
100
AcDbDictionary
280
     1
281
     1
  3
ACAD_SORTENTS
360
229
  0
DICTIONARY
  5
1FA
330
1F9
100
AcDbDictionary
280
     1
281
     1
  3
ACAD_SORTENTS
360
1FB
  0
DICTIONARY
  5
273
330
272
100
AcDbDictionary
280
     1
281
     1
  3
ACAD_SORTENTS
360
274
  0
DICTIONARY
  5
1A7
330
1A6
100
AcDbDictionary
280
     1
281
     1
  3
ACAD_SORTENTS
360
1A8
  0
DICTIONARY
  5
16B
330
16A
100
AcDbDictionary
280
     1
281
     1
  3
ACAD_SORTENTS
360
B21
  0
DICTIONARY
  5
D7
330
D6
100
AcDbDictionary
280
     1
281
     1
  3
ACAD_SORTENTS
360
D8A
  0
DICTIONARY
  5
C4
330
C3
100
AcDbDictionary
280
     1
281
     1
  0
DICTIONARY
  5
36
330
35
100
AcDbDictionary
280
     1
281
     1
  3
ACAD_SORTENTS
360
C4A
  0
DICTIONARY
  5
30
102
{ACAD_REACTORS
330
8
102
}
330
8
100
AcDbDictionary
281
     1
  0
DICTIONARY
  5
2C
102
{ACAD_REACTORS
330
8
102
}
330
8
100
AcDbDictionary
281
     1
  0
DICTIONARY
  5
D
102
{ACAD_REACTORS
330
8
102
}
330
8
100
AcDbDictionary
281
     1
  3
E(01)
350
12
  3
Model
350
C
  0
DICTIONARY
  5
2F
102
{ACAD_REACTORS
330
8
102
}
330
8
100
AcDbDictionary
281
     1
  0
DICTIONARY
  5
2D
102
{ACAD_REACTORS
330
8
102
}
330
8
100
AcDbDictionary
281
     1
  3
Standard
350
31
  0
DICTIONARY
  5
2E
102
{ACAD_REACTORS
330
8
102
}
330
8
100
AcDbDictionary
281
     1
  0
ACDBDICTIONARYWDFLT
  5
7
102
{ACAD_REACTORS
330
8
102
}
330
8
100
AcDbDictionary
281
     1
  3
Normal
350
6
100
AcDbDictionaryWithDefault
340
6
  0
DICTIONARY
  5
EAE
102
{ACAD_REACTORS
330
8
102
}
330
8
100
AcDbDictionary
281
     1
  3
COLORDICT
350
EB0
  3
MATERIALDICT
350
EAF
  0
DICTIONARY
  5
6E1
102
{ACAD_REACTORS
330
8
102
}
330
8
100
AcDbDictionary
281
     1
  3
DIMASSOC
350
6E3
  3
HIDETEXT
350
6E2
  3
PROJECTNAME
350
6E4
  0
DICTIONARY
  5
487
102
{ACAD_REACTORS
330
8
102
}
330
8
100
AcDbDictionary
281
     1
  0
DICTIONARY
  5
15
102
{ACAD_REACTORS
330
14
102
}
330
14
100
AcDbDictionary
281
     1
  0
DICTIONARY
  5
16
102
{ACAD_REACTORS
330
14
102
}
330
14
100
AcDbDictionary
281
     1
  0
SORTENTSTABLE
  5
41F
102
{ACAD_REACTORS
330
3
102
}
330
3
100
AcDbSortentsTable
330
2
331
269
  5
269
331
28E
  5
40D
331
291
  5
28E
331
26F
  5
26F
331
285
  5
3EB
331
297
  5
28F
331
1A5
  5
1A5
331
3A2
  5
390
331
298
  5
290
331
34
  5
34
331
169
  5
169
331
D5
  5
D5
331
28F
  5
287
331
270
  5
270
331
286
  5
284
331
244
  5
244
331
284
  5
271
331
2CF
  5
291
331
290
  5
28D
331
28D
  5
286
331
271
  5
3DF
331
287
  5
285
  0
SORTENTSTABLE
  5
566
102
{ACAD_REACTORS
330
1BC
102
}
330
1BC
100
AcDbSortentsTable
330
1BB
  0
SORTENTSTABLE
  5
1CC
102
{ACAD_REACTORS
330
1CB
102
}
330
1CB
100
AcDbSortentsTable
330
1CA
  0
SORTENTSTABLE
  5
247
102
{ACAD_REACTORS
330
246
102
}
330
246
100
AcDbSortentsTable
330
245
  0
SORTENTSTABLE
  5
6C9
102
{ACAD_REACTORS
330
2D1
102
}
330
2D1
100
AcDbSortentsTable
330
2D0
  0
SORTENTSTABLE
  5
486
102
{ACAD_REACTORS
330
29A
102
}
330
29A
100
AcDbSortentsTable
330
299
  0
SORTENTSTABLE
  5
229
102
{ACAD_REACTORS
330
228
102
}
330
228
100
AcDbSortentsTable
330
227
  0
SORTENTSTABLE
  5
1FB
102
{ACAD_REACTORS
330
1FA
102
}
330
1FA
100
AcDbSortentsTable
330
1F9
  0
SORTENTSTABLE
  5
274
102
{ACAD_REACTORS
330
273
102
}
330
273
100
AcDbSortentsTable
330
272
  0
SORTENTSTABLE
  5
1A8
102
{ACAD_REACTORS
330
1A7
102
}
330
1A7
100
AcDbSortentsTable
330
1A6
  0
SORTENTSTABLE
  5
B21
102
{ACAD_REACTORS
330
16B
102
}
330
16B
100
AcDbSortentsTable
330
16A
  0
SORTENTSTABLE
  5
D8A
102
{ACAD_REACTORS
330
D7
102
}
330
D7
100
AcDbSortentsTable
330
D6
  0
SORTENTSTABLE
  5
C4A
102
{ACAD_REACTORS
330
36
102
}
330
36
100
AcDbSortentsTable
330
35
  0
LAYOUT
  5
12
102
{ACAD_XDICTIONARY
360
EB3
102
}
102
{ACAD_REACTORS
330
D
102
}
330
D
100
AcDbPlotSettings
  1

  2
pdfFactory Pro
  4
Letter
  6

 40
7.143749713897705
 41
7.143756389617919
 42
7.14373779296875
 43
7.14373779296875
 44
215.8999938964844
 45
279.3999938964844
 46
2.254410674808918
 47
1.460709406948822
 48
0.0
 49
0.0
140
0.0
141
0.0
142
1.0
143
1.0
 70
   692
 72
     0
 73
     0
 74
     1
  7
PellaCAD 2000.ctb
 75
    16
147
1.0
148
-4.161233276140637
149
-3.62520463970219
100
AcDbLayout
  1
E(01)
 70
     1
 71
     1
 10
-0.2061782327781884
 20
-0.196033903813565
 11
8.293821526925919
 21
10.80396585589054
 12
0.0
 22
0.0
 32
0.0
 14
0.1638280817378204
 24
0.1427245921142595
 34
0.0
 15
7.923815681737822
 25
10.46520809211426
 35
0.0
146
0.0
 13
0.0
 23
0.0
 33
0.0
 16
1.0
 26
0.0
 36
0.0
 17
0.0
 27
1.0
 37
0.0
 76
     0
330
E
  0
LAYOUT
  5
C
102
{ACAD_XDICTIONARY
360
EB1
102
}
102
{ACAD_REACTORS
330
D
102
}
330
D
100
AcDbPlotSettings
  1

  2
pdfFactory Pro
  4
Letter
  6

 40
7.143749713897705
 41
7.143756389617919
 42
7.14373779296875
 43
7.14373779296875
 44
215.8999938964844
 45
279.3999938964844
 46
-2280.661755644982
 47
-972.9365809481938
 48
0.0
 49
0.0
140
0.0
141
0.0
142
1.0
143
1.0
 70
 11956
 72
     0
 73
     0
 74
     1
  7
PellaCAD 2000.ctb
 75
    16
147
1.0
148
0.290662189607724
149
0.1349252068787507
100
AcDbLayout
  1
Model
 70
     1
 71
     0
 10
0.0
 20
0.0
 11
12.0
 21
9.0
 12
0.0
 22
0.0
 32
0.0
 14
0.0
 24
0.0
 34
0.0
 15
0.0
 25
0.0
 35
0.0
146
0.0
 13
0.0
 23
0.0
 33
0.0
 16
1.0
 26
0.0
 36
0.0
 17
0.0
 27
1.0
 37
0.0
 76
     0
330
2
  0
MLINESTYLE
  5
31
102
{ACAD_REACTORS
330
2D
102
}
330
2D
100
AcDbMlineStyle
  2
STANDARD
 70
     0
  3

 62
   256
 51
90.0
 52
90.0
 71
     2
 49
0.5
 62
   256
  6
BYLAYER
 49
-0.5
 62
   256
  6
BYLAYER
  0
ACDBPLACEHOLDER
  5
6
102
{ACAD_REACTORS
330
7
102
}
330
7
  0
XRECORD
  5
EB0
102
{ACAD_REACTORS
330
EAE
102
}
330
EAE
100
AcDbXrecord
280
     1
340
30
  0
XRECORD
  5
EAF
102
{ACAD_REACTORS
330
EAE
102
}
330
EAE
100
AcDbXrecord
280
     1
340
2F
  0
DICTIONARYVAR
  5
6E3
102
{ACAD_REACTORS
330
6E1
102
}
330
6E1
100
DictionaryVariables
280
     0
  1
2
  0
DICTIONARYVAR
  5
6E2
102
{ACAD_REACTORS
330
6E1
102
}
330
6E1
100
DictionaryVariables
280
     0
  1
1
  0
DICTIONARYVAR
  5
6E4
102
{ACAD_REACTORS
330
6E1
102
}
330
6E1
100
DictionaryVariables
280
     0
  1

  0
DICTIONARY
  5
EB3
330
12
100
AcDbDictionary
280
     1
281
     1
  3
ACAD_XREC_ROUNDTRIP
360
EB4
  0
DICTIONARY
  5
EB1
330
C
100
AcDbDictionary
280
     1
281
     1
  3
ACAD_XREC_ROUNDTRIP
360
EB2
  0
XRECORD
  5
EB4
102
{ACAD_REACTORS
330
EB3
102
}
330
EB3
100
AcDbXrecord
280
     1
102
SHADEPLOT
 70
     1
102
SHADEPLOTRESLEVEL
 70
     2
102
SHADEPLOTCUSTOMDPI
 70
   300
  0
XRECORD
  5
EB2
102
{ACAD_REACTORS
330
EB1
102
}
330
EB1
100
AcDbXrecord
280
     1
102
SHADEPLOT
 70
     0
102
SHADEPLOTRESLEVEL
 70
     2
102
SHADEPLOTCUSTOMDPI
 70
   300
  0
ENDSEC
  0
EOF
