  0
SECTION
  2
HEADER
  9
$ACADVER
  1
AC1015
  9
$ACADMAINTVER
 70
    18
  9
$DWGCODEPAGE
  3
ANSI_1252
  9
$INSBASE
 10
0.0
 20
0.0
 30
0.0
  9
$EXTMIN
 10
-0.0080366564082793
 20
-0.0081927584847453
 30
-0.000000000000013
  9
$EXTMAX
 10
28.68948931615702
 20
31.77730785496758
 30
0.0000000000000023
  9
$LIMMIN
 10
0.0
 20
0.0
  9
$LIMMAX
 10
12.0
 20
9.0
  9
$ORTHOMODE
 70
     1
  9
$REGENMODE
 70
     1
  9
$FILLMODE
 70
     1
  9
$QTEXTMODE
 70
     0
  9
$MIRRTEXT
 70
     0
  9
$LTSCALE
 40
0.5
  9
$ATTMODE
 70
     1
  9
$TEXTSIZE
 40
1.9375
  9
$TRACEWID
 40
0.05
  9
$TEXTSTYLE
  7
ARCHQUIK
  9
$CLAYER
  8
0
  9
$CELTYPE
  6
ByLayer
  9
$CECOLOR
 62
   256
  9
$CELTSCALE
 40
1.0
  9
$DISPSILH
 70
     0
  9
$DIMSCALE
 40
0.7
  9
$DIMASZ
 40
2.0
  9
$DIMEXO
 40
0.0625
  9
$DIMDLI
 40
0.38
  9
$DIMRND
 40
0.0
  9
$DIMDLE
 40
0.0
  9
$DIMEXE
 40
0.1
  9
$DIMTP
 40
0.0
  9
$DIMTM
 40
0.0
  9
$DIMTXT
 40
1.919999999999999
  9
$DIMCEN
 40
0.125
  9
$DIMTSZ
 40
0.0
  9
$DIMTOL
 70
     0
  9
$DIMLIM
 70
     0
  9
$DIMTIH
 70
     1
  9
$DIMTOH
 70
     1
  9
$DIMSE1
 70
     0
  9
$DIMSE2
 70
     0
  9
$DIMTAD
 70
     0
  9
$DIMZIN
 70
     4
  9
$DIMBLK
  1

  9
$DIMASO
 70
     1
  9
$DIMSHO
 70
     1
  9
$DIMPOST
  1

  9
$DIMAPOST
  1

  9
$DIMALT
 70
     0
  9
$DIMALTD
 70
     2
  9
$DIMALTF
 40
25.4
  9
$DIMLFAC
 40
1.0
  9
$DIMTOFL
 70
     0
  9
$DIMTVP
 40
0.0
  9
$DIMTIX
 70
     0
  9
$DIMSOXD
 70
     0
  9
$DIMSAH
 70
     0
  9
$DIMBLK1
  1

  9
$DIMBLK2
  1

  9
$DIMSTYLE
  2
STANDARD
  9
$DIMCLRD
 70
    30
  9
$DIMCLRE
 70
     0
  9
$DIMCLRT
 70
     0
  9
$DIMTFAC
 40
1.0
  9
$DIMGAP
 40
0.09
  9
$DIMJUST
 70
     0
  9
$DIMSD1
 70
     0
  9
$DIMSD2
 70
     0
  9
$DIMTOLJ
 70
     1
  9
$DIMTZIN
 70
     0
  9
$DIMALTZ
 70
     0
  9
$DIMALTTZ
 70
     0
  9
$DIMUPT
 70
     0
  9
$DIMDEC
 70
     3
  9
$DIMTDEC
 70
     3
  9
$DIMALTU
 70
     2
  9
$DIMALTTD
 70
     2
  9
$DIMTXSTY
  7
Standard
  9
$DIMAUNIT
 70
     0
  9
$DIMADEC
 70
     3
  9
$DIMALTRND
 40
0.0
  9
$DIMAZIN
 70
     0
  9
$DIMDSEP
 70
    46
  9
$DIMATFIT
 70
     3
  9
$DIMFRAC
 70
     0
  9
$DIMLDRBLK
  1

  9
$DIMLUNIT
 70
     2
  9
$DIMLWD
 70
    -2
  9
$DIMLWE
 70
    -2
  9
$DIMTMOVE
 70
     0
  9
$LUNITS
 70
     2
  9
$LUPREC
 70
     4
  9
$SKETCHINC
 40
0.1
  9
$FILLETRAD
 40
0.25
  9
$AUNITS
 70
     0
  9
$AUPREC
 70
     3
  9
$MENU
  1
.
  9
$ELEVATION
 40
0.0
  9
$PELEVATION
 40
0.0
  9
$THICKNESS
 40
0.0
  9
$LIMCHECK
 70
     0
  9
$CHAMFERA
 40
0.5
  9
$CHAMFERB
 40
0.5
  9
$CHAMFERC
 40
1.0
  9
$CHAMFERD
 40
0.0
  9
$SKPOLY
 70
     0
  9
$TDCREATE
 40
2453963.430150475
  9
$TDUCREATE
 40
2453963.638483808
  9
$TDUPDATE
 40
2454183.568050706
  9
$TDUUPDATE
 40
2454183.776384039
  9
$TDINDWG
 40
3.0812701505
  9
$TDUSRTIMER
 40
3.0812699653
  9
$USRTIMER
 70
     1
  9
$ANGBASE
 50
0.0
  9
$ANGDIR
 70
     0
  9
$PDMODE
 70
    33
  9
$PDSIZE
 40
0.016
  9
$PLINEWID
 40
0.0
  9
$SPLFRAME
 70
     0
  9
$SPLINETYPE
 70
     6
  9
$SPLINESEGS
 70
     8
  9
$HANDSEED
  5
EC2
  9
$SURFTAB1
 70
     6
  9
$SURFTAB2
 70
     6
  9
$SURFTYPE
 70
     6
  9
$SURFU
 70
     6
  9
$SURFV
 70
     6
  9
$UCSBASE
  2

  9
$UCSNAME
  2

  9
$UCSORG
 10
0.0
 20
0.0
 30
0.0
  9
$UCSXDIR
 10
1.0
 20
0.0
 30
0.0
  9
$UCSYDIR
 10
0.0
 20
1.0
 30
0.0
  9
$UCSORTHOREF
  2

  9
$UCSORTHOVIEW
 70
     0
  9
$UCSORGTOP
 10
0.0
 20
0.0
 30
0.0
  9
$UCSORGBOTTOM
 10
0.0
 20
0.0
 30
0.0
  9
$UCSORGLEFT
 10
0.0
 20
0.0
 30
0.0
  9
$UCSORGRIGHT
 10
0.0
 20
0.0
 30
0.0
  9
$UCSORGFRONT
 10
0.0
 20
0.0
 30
0.0
  9
$UCSORGBACK
 10
0.0
 20
0.0
 30
0.0
  9
$PUCSBASE
  2

  9
$PUCSNAME
  2

  9
$PUCSORG
 10
0.0
 20
0.0
 30
0.0
  9
$PUCSXDIR
 10
1.0
 20
0.0
 30
0.0
  9
$PUCSYDIR
 10
0.0
 20
1.0
 30
0.0
  9
$PUCSORTHOREF
  2

  9
$PUCSORTHOVIEW
 70
     0
  9
$PUCSORGTOP
 10
0.0
 20
0.0
 30
0.0
  9
$PUCSORGBOTTOM
 10
0.0
 20
0.0
 30
0.0
  9
$PUCSORGLEFT
 10
0.0
 20
0.0
 30
0.0
  9
$PUCSORGRIGHT
 10
0.0
 20
0.0
 30
0.0
  9
$PUCSORGFRONT
 10
0.0
 20
0.0
 30
0.0
  9
$PUCSORGBACK
 10
0.0
 20
0.0
 30
0.0
  9
$USERI1
 70
     0
  9
$USERI2
 70
     0
  9
$USERI3
 70
     0
  9
$USERI4
 70
     0
  9
$USERI5
 70
     0
  9
$USERR1
 40
24.0
  9
$USERR2
 40
0.0
  9
$USERR3
 40
22.0
  9
$USERR4
 40
0.0
  9
$USERR5
 40
0.0
  9
$WORLDVIEW
 70
     1
  9
$SHADEDGE
 70
     3
  9
$SHADEDIF
 70
    70
  9
$TILEMODE
 70
     1
  9
$MAXACTVP
 70
    64
  9
$PINSBASE
 10
0.0
 20
0.0
 30
0.0
  9
$PLIMCHECK
 70
     0
  9
$PEXTMIN
 10
0.1638280817378204
 20
0.1427245921142595
 30
0.0
  9
$PEXTMAX
 10
7.923815681737822
 20
10.46520809211426
 30
0.0
  9
$PLIMMIN
 10
-0.2061782327781884
 20
-0.196033903813565
  9
$PLIMMAX
 10
8.293821526925919
 20
10.80396585589054
  9
$UNITMODE
 70
     0
  9
$VISRETAIN
 70
     1
  9
$PLINEGEN
 70
     0
  9
$PSLTSCALE
 70
     1
  9
$TREEDEPTH
 70
  3020
  9
$CMLSTYLE
  2
Standard
  9
$CMLJUST
 70
     0
  9
$CMLSCALE
 40
1.0
  9
$PROXYGRAPHICS
 70
     1
  9
$MEASUREMENT
 70
     0
  9
$CELWEIGHT
370
    -1
  9
$ENDCAPS
280
     0
  9
$JOINSTYLE
280
     0
  9
$LWDISPLAY
290
     0
  9
$INSUNITS
 70
     1
  9
$HYPERLINKBASE
  1

  9
$STYLESHEET
  1

  9
$XEDIT
290
     1
  9
$CEPSNTYPE
380
     0
  9
$PSTYLEMODE
290
     1
  9
$FINGERPRINTGUID
  2
{FDEAD576-A652-11D2-9A35-0060089B3A3F}
  9
$VERSIONGUID
  2
{67DCE742-9D28-49A6-96A4-2FDB4E33F4FC}
  9
$EXTNAMES
290
     1
  9
$PSVPSCALE
 40
0.0
  9
$OLESTARTUP
290
     0
  0
ENDSEC
  0
SECTION
  2
CLASSES
  0
CLASS
  1
ACDBDICTIONARYWDFLT
  2
AcDbDictionaryWithDefault
  3
ObjectDBX Classes
 90
        0
280
     0
281
     0
  0
CLASS
  1
ACDBPLACEHOLDER
  2
AcDbPlaceHolder
  3
ObjectDBX Classes
 90
        0
280
     0
281
     0
  0
CLASS
  1
LAYOUT
  2
AcDbLayout
  3
ObjectDBX Classes
 90
        0
280
     0
281
     0
  0
CLASS
  1
PLOTSETTINGS
  2
AcDbPlotSettings
  3
ObjectDBX Classes
 90
    32768
280
     0
281
     0
  0
CLASS
  1
AMLOADER
  2
AMLoader
  3
AMAcad
 90
    32768
280
     1
281
     0
  0
CLASS
  1
DICTIONARYVAR
  2
AcDbDictionaryVar
  3
ObjectDBX Classes
 90
        0
280
     0
281
     0
  0
CLASS
  1
SORTENTSTABLE
  2
AcDbSortentsTable
  3
ObjectDBX Classes
 90
        0
280
     0
281
     0
  0
CLASS
  1
DIMASSOC
  2
AcDbDimAssoc
  3
"AcDbDimAssoc|Product Desc:     AcDim ARX App For Dimension|Company:          Autodesk, Inc.|WEB Address:      www.autodesk.com"
 90
    32768
280
     0
281
     0
  0
ENDSEC
  0
SECTION
  2
TABLES
  0
TABLE
  2
VPORT
  5
20
330
0
100
AcDbSymbolTable
 70
     3
  0
VPORT
  5
EBA
330
20
100
AcDbSymbolTableRecord
100
AcDbViewportTableRecord
  2
*Active
 70
     0
 10
0.0
 20
0.0
 11
1.0
 21
1.0
 12
14.34072632987437
 22
15.88455754824141
 13
0.0
 23
0.0
 14
0.0625
 24
0.0625
 15
0.5
 25
0.5
 16
0.0
 26
0.0
 36
1.0
 17
0.0
 27
0.0
 37
0.0
 40
32.04114807146936
 41
1.459060402684563
 42
50.0
 43
0.0
 44
0.0
 50
0.0
 51
0.0
 71
     0
 72
  5000
 73
     1
 74
     0
 75
     0
 76
     0
 77
     0
 78
     0
281
     0
 65
     1
110
0.0
120
0.0
130
0.0
111
1.0
121
0.0
131
0.0
112
0.0
122
1.0
132
0.0
 79
     0
146
0.0
  0
ENDTAB
  0
TABLE
  2
LTYPE
  5
1B
330
0
100
AcDbSymbolTable
 70
     1
  0
LTYPE
  5
1C
330
1B
100
AcDbSymbolTableRecord
100
AcDbLinetypeTableRecord
  2
ByBlock
 70
     0
  3

 72
    65
 73
     0
 40
0.0
  0
LTYPE
  5
1D
330
1B
100
AcDbSymbolTableRecord
100
AcDbLinetypeTableRecord
  2
ByLayer
 70
     0
  3

 72
    65
 73
     0
 40
0.0
  0
LTYPE
  5
A
330
1B
100
AcDbSymbolTableRecord
100
AcDbLinetypeTableRecord
  2
Continuous
 70
     0
  3
Solid line
 72
    65
 73
     0
 40
0.0
  0
ENDTAB
  0
TABLE
  2
LAYER
  5
13
102
{ACAD_XDICTIONARY
360
14
102
}
330
0
100
AcDbSymbolTable
 70
    17
  0
LAYER
  5
5
330
13
100
AcDbSymbolTableRecord
100
AcDbLayerTableRecord
  2
0
 70
     0
 62
     7
  6
Continuous
370
    -3
390
6
  0
LAYER
  5
210
330
13
100
AcDbSymbolTableRecord
100
AcDbLayerTableRecord
  2
Pel_Wall
 70
     0
 62
     9
  6
Continuous
370
    -3
390
6
  0
LAYER
  5
C3
330
13
100
AcDbSymbolTableRecord
100
AcDbLayerTableRecord
  2
Pel_CS-IG
 70
     0
 62
     2
  6
Continuous
370
    -3
390
6
  0
LAYER
  5
120
330
13
100
AcDbSymbolTableRecord
100
AcDbLayerTableRecord
  2
Pel_CS-Hardware
 70
     0
 62
    53
  6
Continuous
370
    -3
390
6
  0
LAYER
  5
B2
330
13
100
AcDbSymbolTableRecord
100
AcDbLayerTableRecord
  2
Pel_CS-Sealant
 70
     0
 62
    40
  6
Continuous
370
    -3
390
6
  0
LAYER
  5
3B
330
13
100
AcDbSymbolTableRecord
100
AcDbLayerTableRecord
  2
Pel_CS-Cross Section
 70
     0
 62
     7
  6
Continuous
370
    -3
390
6
  0
LAYER
  5
25D
330
13
100
AcDbSymbolTableRecord
100
AcDbLayerTableRecord
  2
Pel_Points
 70
     0
 62
     7
  6
Continuous
290
     0
370
    -3
390
6
  0
LAYER
  5
41
330
13
100
AcDbSymbolTableRecord
100
AcDbLayerTableRecord
  2
Pel_CS-Weatherstrip
 70
     0
 62
     8
  6
Continuous
370
    -3
390
6
  0
LAYER
  5
EF
330
13
100
AcDbSymbolTableRecord
100
AcDbLayerTableRecord
  2
Pel_CS-Reinforcement
 70
     0
 62
   150
  6
Continuous
370
    -3
390
6
  0
LAYER
  5
283
330
13
100
AcDbSymbolTableRecord
100
AcDbLayerTableRecord
  2
Pel_wal
 70
     0
 62
     7
  6
Continuous
370
    -3
390
6
  0
LAYER
  5
39
330
13
100
AcDbSymbolTableRecord
100
AcDbLayerTableRecord
  2
Pel_CS-Points
 70
     0
 62
     7
  6
Continuous
290
     0
370
    -3
390
6
  0
LAYER
  5
84
330
13
100
AcDbSymbolTableRecord
100
AcDbLayerTableRecord
  2
Pel_CS-Clad
 70
     0
 62
    63
  6
Continuous
370
    -3
390
6
  0
LAYER
  5
C1
330
13
100
AcDbSymbolTableRecord
100
AcDbLayerTableRecord
  2
Pel_CS-Fill
 70
     0
 62
     9
  6
Continuous
370
    -3
390
6
  0
LAYER
  5
E29
330
13
100
AcDbSymbolTableRecord
100
AcDbLayerTableRecord
  2
Defpoints
 70
     0
 62
     7
  6
Continuous
290
     0
370
    -3
390
6
  0
ENDTAB
  0
TABLE
  2
STYLE
  5
17
330
0
100
AcDbSymbolTable
 70
     3
  0
STYLE
  5
18
330
17
100
AcDbSymbolTableRecord
100
AcDbTextStyleTableRecord
  2
Standard
 70
     0
 40
0.0
 41
1.0
 50
0.0
 71
     0
 42
1.9375
  3
ARIAL.TTF
  4

1001
ACAD
1000
Arial
1071
       34
  0
STYLE
  5
40C
330
17
100
AcDbSymbolTableRecord
100
AcDbTextStyleTableRecord
  2
Arial
 70
     0
 40
0.0
 41
1.0
 50
0.0
 71
     0
 42
0.2
  3
ARIAL.TTF
  4

1001
ACAD
1000
Arial
1071
       34
  0
STYLE
  5
25
330
17
100
AcDbSymbolTableRecord
100
AcDbTextStyleTableRecord
  2
ARCHQUIK
 70
     0
 40
0.0
 41
1.0
 50
0.0
 71
     0
 42
1.9375
  3
archquik.shx
  4

  0
ENDTAB
  0
TABLE
  2
VIEW
  5
1E
330
0
100
AcDbSymbolTable
 70
     0
  0
ENDTAB
  0
TABLE
  2
UCS
  5
1F
330
0
100
AcDbSymbolTable
 70
     0
  0
ENDTAB
  0
TABLE
  2
APPID
  5
22
330
0
100
AcDbSymbolTable
 70
     2
  0
APPID
  5
19
330
22
100
AcDbSymbolTableRecord
100
AcDbRegAppTableRecord
  2
ACAD
 70
     0
  0
APPID
  5
9
330
22
100
AcDbSymbolTableRecord
100
AcDbRegAppTableRecord
  2
ADE
 70
     0
  0
ENDTAB
  0
TABLE
  2
DIMSTYLE
  5
23
330
0
100
AcDbSymbolTable
 70
     2
100
AcDbDimStyleTable
 71
     1
340
2A
  0
DIMSTYLE
105
2A
102
{ACAD_REACTORS
330
6A7
330
6C4
330
6C5
330
6C6
330
6D3
330
6D4
330
6D5
330
6D6
330
6D7
102
}
330
23
100
AcDbSymbolTableRecord
100
AcDbDimStyleTableRecord
  2
3 inch Scale
 70
     0
  3
"\X
 41
0.5
 42
0.5
 43
0.2
 44
0.25
 73
     0
 74
     0
 77
     1
 78
    10
140
0.28
146
0.75
147
0.125
170
     1
171
     0
176
   256
177
   256
178
   255
179
     3
274
     0
276
     2
277
     5
279
     2
340
18
371
    -1
372
    -1
  0
DIMSTYLE
105
32
330
23
100
AcDbSymbolTableRecord
100
AcDbDimStyleTableRecord
  2
STANDARD
 70
     0
 40
0.7
 41
0.12
 44
0.1
 78
     4
140
0.12
141
0.125
271
     3
272
     3
340
18
  0
ENDTAB
  0
TABLE
  2
BLOCK_RECORD
  5
1
330
0
100
AcDbSymbolTable
 70
    24
  0
BLOCK_RECORD
  5
2
102
{ACAD_XDICTIONARY
360
3
102
}
330
1
100
AcDbSymbolTableRecord
100
AcDbBlockTableRecord
  2
*Model_Space
340
C
  0
BLOCK_RECORD
  5
E
102
{ACAD_XDICTIONARY
360
F
102
}
330
1
100
AcDbSymbolTableRecord
100
AcDbBlockTableRecord
  2
*Paper_Space
340
12
  0
BLOCK_RECORD
  5
39B
330
1
100
AcDbSymbolTableRecord
100
AcDbBlockTableRecord
  2
_None
340
0
  0
BLOCK_RECORD
  5
220
102
{ACAD_XDICTIONARY
360
221
102
}
330
1
100
AcDbSymbolTableRecord
100
AcDbBlockTableRecord
  2
2x
340
0
102
{BLKREFS
331
31B
331
31C
331
21F
102
}
  0
BLOCK_RECORD
  5
22F
102
{ACAD_XDICTIONARY
360
230
102
}
330
1
100
AcDbSymbolTableRecord
100
AcDbBlockTableRecord
  2
Insul1
340
0
102
{BLKREFS
331
31D
331
22E
102
}
  0
BLOCK_RECORD
  5
2B8
330
1
100
AcDbSymbolTableRecord
100
AcDbBlockTableRecord
  2
*X3
340
0
102
{BLKREFS
331
2B7
102
}
  0
BLOCK_RECORD
  5
2B3
102
{ACAD_XDICTIONARY
360
2B4
102
}
330
1
100
AcDbSymbolTableRecord
100
AcDbBlockTableRecord
  2
ACC31D0 Colonial
340
0
102
{BLKREFS
331
305
331
2F4
331
2B2
102
}
  0
BLOCK_RECORD
  5
33E
102
{ACAD_XDICTIONARY
360
33F
102
}
330
1
100
AcDbSymbolTableRecord
100
AcDbBlockTableRecord
  2
10headvinylsiding
340
0
102
{BLKREFS
331
33D
102
}
  0
BLOCK_RECORD
  5
307
102
{ACAD_XDICTIONARY
360
308
102
}
330
1
100
AcDbSymbolTableRecord
100
AcDbBlockTableRecord
  2
10jambvinylsiding
340
0
102
{BLKREFS
331
306
102
}
  0
BLOCK_RECORD
  5
273
102
{ACAD_XDICTIONARY
360
274
102
}
330
1
100
AcDbSymbolTableRecord
100
AcDbBlockTableRecord
  2
RECTANG
340
0
102
{BLKREFS
331
272
102
}
  0
BLOCK_RECORD
  5
270
330
1
100
AcDbSymbolTableRecord
100
AcDbBlockTableRecord
  2
Shim
340
0
102
{BLKREFS
331
33B
331
26F
102
}
  0
BLOCK_RECORD
  5
2E0
102
{ACAD_XDICTIONARY
360
2E1
102
}
330
1
100
AcDbSymbolTableRecord
100
AcDbBlockTableRecord
  2
clip
340
0
102
{BLKREFS
331
2FC
331
2F3
331
2DF
102
}
  0
BLOCK_RECORD
  5
20B
102
{ACAD_XDICTIONARY
360
20C
102
}
330
1
100
AcDbSymbolTableRecord
100
AcDbBlockTableRecord
  2
10sillvinyl
340
0
102
{BLKREFS
331
20A
102
}
  0
BLOCK_RECORD
  5
17F
102
{ACAD_XDICTIONARY
360
180
102
}
330
1
100
AcDbSymbolTableRecord
100
AcDbBlockTableRecord
  2
TSE25DHH
340
0
102
{BLKREFS
331
17E
102
}
  0
BLOCK_RECORD
  5
27F
102
{ACAD_XDICTIONARY
360
280
102
}
330
1
100
AcDbSymbolTableRecord
100
AcDbBlockTableRecord
  2
A$C69046E27
340
0
102
{BLKREFS
331
38D
331
33A
331
27E
102
}
  0
BLOCK_RECORD
  5
E8
102
{ACAD_XDICTIONARY
360
E9
102
}
330
1
100
AcDbSymbolTableRecord
100
AcDbBlockTableRecord
  2
TSE25DHLJ
340
0
102
{BLKREFS
331
E7
102
}
  0
BLOCK_RECORD
  5
34
102
{ACAD_XDICTIONARY
360
35
102
}
330
1
100
AcDbSymbolTableRecord
100
AcDbBlockTableRecord
  2
TSE25DHS
340
0
102
{BLKREFS
331
33
102
}
  0
BLOCK_RECORD
  5
6FC
330
1
100
AcDbSymbolTableRecord
100
AcDbBlockTableRecord
  2
*D15
340
0
  0
BLOCK_RECORD
  5
709
330
1
100
AcDbSymbolTableRecord
100
AcDbBlockTableRecord
  2
*D16
340
0
  0
BLOCK_RECORD
  5
713
330
1
100
AcDbSymbolTableRecord
100
AcDbBlockTableRecord
  2
*D17
340
0
  0
BLOCK_RECORD
  5
71D
330
1
100
AcDbSymbolTableRecord
100
AcDbBlockTableRecord
  2
*D18
340
0
  0
BLOCK_RECORD
  5
72A
330
1
100
AcDbSymbolTableRecord
100
AcDbBlockTableRecord
  2
*D19
340
0
  0
BLOCK_RECORD
  5
737
330
1
100
AcDbSymbolTableRecord
100
AcDbBlockTableRecord
  2
*D20
340
0
  0
BLOCK_RECORD
  5
741
330
1
100
AcDbSymbolTableRecord
100
AcDbBlockTableRecord
  2
*D21
340
0
  0
BLOCK_RECORD
  5
74B
330
1
100
AcDbSymbolTableRecord
100
AcDbBlockTableRecord
  2
*D22
340
0
  0
BLOCK_RECORD
  5
755
330
1
100
AcDbSymbolTableRecord
100
AcDbBlockTableRecord
  2
*D23
340
0
  0
ENDTAB
  0
ENDSEC
  0
SECTION
  2
BLOCKS
  0
BLOCK
  5
4
330
2
100
AcDbEntity
  8
0
100
AcDbBlockBegin
  2
*Model_Space
 70
     0
 10
0.0
 20
0.0
 30
0.0
  3
*Model_Space
  1

  0
ENDBLK
  5
B
330
2
100
AcDbEntity
  8
0
100
AcDbBlockEnd
  0
BLOCK
  5
10
330
E
100
AcDbEntity
 67
     1
  8
0
100
AcDbBlockBegin
  2
*Paper_Space
 70
     0
 10
0.0
 20
0.0
 30
0.0
  3
*Paper_Space
  1

  0
ENDBLK
  5
11
330
E
100
AcDbEntity
 67
     1
  8
0
100
AcDbBlockEnd
  0
BLOCK
  5
39C
330
39B
100
AcDbEntity
  8
0
100
AcDbBlockBegin
  2
_None
 70
     0
 10
0.0
 20
0.0
 30
0.0
  3
_None
  1

  0
ENDBLK
  5
39D
330
39B
100
AcDbEntity
  8
0
100
AcDbBlockEnd
  0
BLOCK
  5
223
330
220
100
AcDbEntity
  8
0
100
AcDbBlockBegin
  2
2x
 70
     0
 10
0.0
 20
0.0
 30
0.0
  3
2x
  1

  0
LINE
  5
224
330
220
100
AcDbEntity
  8
Pel_Wall
100
AcDbLine
 10
0.0
 20
0.0
 30
0.0
 11
1.0
 21
1.0
 31
0.0
  0
LINE
  5
225
330
220
100
AcDbEntity
  8
Pel_Wall
100
AcDbLine
 10
1.0
 20
0.0
 30
0.0
 11
0.0
 21
1.0
 31
0.0
  0
POLYLINE
  5
226
330
220
100
AcDbEntity
  8
Pel_Wall
100
AcDb2dPolyline
 66
     1
 10
0.0
 20
0.0
 30
0.0
 70
     1
  0
VERTEX
  5
227
330
226
100
AcDbEntity
  8
Pel_Wall
100
AcDbVertex
100
AcDb2dVertex
 10
0.0
 20
0.0
 30
0.0
  0
VERTEX
  5
228
330
226
100
AcDbEntity
  8
Pel_Wall
100
AcDbVertex
100
AcDb2dVertex
 10
1.0
 20
0.0
 30
0.0
  0
VERTEX
  5
229
330
226
100
AcDbEntity
  8
Pel_Wall
100
AcDbVertex
100
AcDb2dVertex
 10
1.0
 20
1.0
 30
0.0
  0
VERTEX
  5
22A
330
226
100
AcDbEntity
  8
Pel_Wall
100
AcDbVertex
100
AcDb2dVertex
 10
0.0
 20
1.0
 30
0.0
  0
SEQEND
  5
22B
330
226
100
AcDbEntity
  8
Pel_Wall
  0
ENDBLK
  5
22C
330
220
100
AcDbEntity
  8
0
100
AcDbBlockEnd
  0
BLOCK
  5
232
330
22F
100
AcDbEntity
  8
0
100
AcDbBlockBegin
  2
Insul1
 70
     0
 10
0.0
 20
0.0
 30
0.0
  3
Insul1
  1

  0
POLYLINE
  5
233
330
22F
100
AcDbEntity
  8
Pel_Wall
100
AcDb2dPolyline
 66
     1
 10
0.0
 20
0.0
 30
0.0
  0
VERTEX
  5
234
330
233
100
AcDbEntity
  8
Pel_Wall
100
AcDbVertex
100
AcDb2dVertex
 10
0.0
 20
1.0
 30
0.0
 42
0.6166658403406798
  0
VERTEX
  5
235
330
233
100
AcDbEntity
  8
Pel_Wall
100
AcDbVertex
100
AcDb2dVertex
 10
0.3992063386936024
 20
0.7994072072739158
 30
0.0
  0
VERTEX
  5
236
330
233
100
AcDbEntity
  8
Pel_Wall
100
AcDbVertex
100
AcDb2dVertex
 10
0.6000015638841063
 20
0.9500011729035229
 30
0.0
 42
-1.999090727876019
  0
VERTEX
  5
237
330
233
100
AcDbEntity
  8
Pel_Wall
100
AcDbVertex
100
AcDb2dVertex
 10
0.6001440114443853
 20
0.5498920723858767
 30
0.0
  0
VERTEX
  5
238
330
233
100
AcDbEntity
  8
Pel_Wall
100
AcDbVertex
100
AcDb2dVertex
 10
0.4005222086914984
 20
0.6996072761465229
 30
0.0
 42
1.99179774169564
  0
VERTEX
  5
239
330
233
100
AcDbEntity
  8
Pel_Wall
100
AcDbVertex
100
AcDb2dVertex
 10
0.3992063386936024
 20
0.2994072072739158
 30
0.0
  0
VERTEX
  5
23A
330
233
100
AcDbEntity
  8
Pel_Wall
100
AcDbVertex
100
AcDb2dVertex
 10
0.6000015638841063
 20
0.450001172903523
 30
0.0
 42
-1.999090727876017
  0
VERTEX
  5
23B
330
233
100
AcDbEntity
  8
Pel_Wall
100
AcDbVertex
100
AcDb2dVertex
 10
0.6001440114443853
 20
0.0498920723858767
 30
0.0
  0
VERTEX
  5
23C
330
233
100
AcDbEntity
  8
Pel_Wall
100
AcDbVertex
100
AcDb2dVertex
 10
0.4005222086914984
 20
0.1996072761465228
 30
0.0
 42
0.6171288319215243
  0
VERTEX
  5
23D
330
233
100
AcDbEntity
  8
Pel_Wall
100
AcDbVertex
100
AcDb2dVertex
 10
0.0
 20
0.0
 30
0.0
 42
1.002620720669957
  0
SEQEND
  5
23E
330
233
100
AcDbEntity
  8
Pel_Wall
  0
ENDBLK
  5
23F
330
22F
100
AcDbEntity
  8
0
100
AcDbBlockEnd
  0
BLOCK
  5
2B9
330
2B8
100
AcDbEntity
  8
0
100
AcDbBlockBegin
  2
*X3
 70
     1
 10
0.0
 20
0.0
 30
0.0
  3
*X3
  1

  0
LINE
  5
2BA
330
2B8
100
AcDbEntity
  8
0
 62
     0
100
AcDbLine
 10
0.4406854249492381
 20
0.125
 30
0.0
 11
0.2828427124746189
 21
0.2828427124746191
 31
0.0
  0
LINE
  5
2BB
330
2B8
100
AcDbEntity
  8
0
 62
     0
100
AcDbLine
 10
0.6830613898308695
 20
1.013994885016844
 30
0.0
 11
0.2828427124746191
 21
1.414213562373095
 31
0.0
  0
LINE
  5
2BC
330
2B8
100
AcDbEntity
  8
0
 62
     0
100
AcDbLine
 10
0.2828426492867644
 20
0.2828426606133703
 30
0.0
 11
0.0470007505934556
 21
0.9903683568135722
 31
0.0
  0
LINE
  5
2BD
330
2B8
100
AcDbEntity
  8
0
 62
     0
100
AcDbLine
 10
0.0027745262448629
 20
1.123047029881905
 30
0.0
 11
0.000000603657673
 21
1.131368797644889
 31
0.0
  0
LINE
  5
2BE
330
2B8
100
AcDbEntity
  8
0
 62
     0
100
AcDbLine
 10
0.2828425860989089
 20
1.4142134586506
 30
0.0
 11
0.2150840799441012
 21
1.617488977149578
 31
0.0
  0
LINE
  5
2BF
330
2B8
100
AcDbEntity
  8
0
 62
     0
100
AcDbLine
 10
0.2059361196546267
 20
-0.6178083589246591
 30
0.0
 11
0.0000000000379738
 21
0.0000000000303237
 31
0.0
  0
ENDBLK
  5
2C0
330
2B8
100
AcDbEntity
  8
0
100
AcDbBlockEnd
  0
BLOCK
  5
2B6
330
2B3
100
AcDbEntity
  8
0
100
AcDbBlockBegin
  2
ACC31D0 Colonial
 70
     0
 10
0.0
 20
0.0
 30
0.0
  3
ACC31D0 Colonial
  1

  0
INSERT
  5
2B7
330
2B3
100
AcDbEntity
  8
0
 62
     2
100
AcDbBlockReference
  2
*X3
 10
0.0
 20
0.625
 30
0.0
1001
ACAD
1000
HATCH
1002
{
1070
    16
1000
WOOD
1040
0.2
1040
0.7853981633974483
1002
}
  0
POLYLINE
  5
2C1
330
2B3
100
AcDbEntity
  8
0
  6
Continuous
 62
     3
100
AcDb2dPolyline
 66
     1
 10
0.0
 20
0.0
 30
0.0
 70
     1
  0
VERTEX
  5
2C2
330
2C1
100
AcDbEntity
  8
0
  6
Continuous
 62
     3
100
AcDbVertex
100
AcDb2dVertex
 10
0.75
 20
2.223809
 30
0.0
  0
VERTEX
  5
2C3
330
2C1
100
AcDbEntity
  8
0
  6
Continuous
 62
     3
100
AcDbVertex
100
AcDb2dVertex
 10
0.75
 20
1.75
 30
0.0
  0
VERTEX
  5
2C4
330
2C1
100
AcDbEntity
  8
0
  6
Continuous
 62
     3
100
AcDbVertex
100
AcDb2dVertex
 10
0.6879999999999999
 20
1.75
 30
0.0
 42
-0.0714559852478829
  0
VERTEX
  5
2C5
330
2C1
100
AcDbEntity
  8
0
  6
Continuous
 62
     3
100
AcDbVertex
100
AcDb2dVertex
 10
0.6374578713513498
 20
1.398146600338594
 30
0.0
  0
VERTEX
  5
2C6
330
2C1
100
AcDbEntity
  8
0
  6
Continuous
 62
     3
100
AcDbVertex
100
AcDb2dVertex
 10
0.5505421286486503
 20
1.101853399661404
 30
0.0
 42
0.0714559852478834
  0
VERTEX
  5
2C7
330
2C1
100
AcDbEntity
  8
0
  6
Continuous
 62
     3
100
AcDbVertex
100
AcDb2dVertex
 10
0.5
 20
0.7499999999999999
 30
0.0
  0
VERTEX
  5
2C8
330
2C1
100
AcDbEntity
  8
0
  6
Continuous
 62
     3
100
AcDbVertex
100
AcDb2dVertex
 10
0.4370000000000001
 20
0.75
 30
0.0
  0
VERTEX
  5
2C9
330
2C1
100
AcDbEntity
  8
0
  6
Continuous
 62
     3
100
AcDbVertex
100
AcDb2dVertex
 10
0.4370000000000001
 20
0.3439999999999999
 30
0.0
  0
VERTEX
  5
2CA
330
2C1
100
AcDbEntity
  8
0
  6
Continuous
 62
     3
100
AcDbVertex
100
AcDb2dVertex
 10
0.375
 20
0.3439999999999999
 30
0.0
 42
-0.1399088654239762
  0
VERTEX
  5
2CB
330
2C1
100
AcDbEntity
  8
0
  6
Continuous
 62
     3
100
AcDbVertex
100
AcDb2dVertex
 10
0.3280000006036879
 20
0.1793214755818277
 30
0.0
 42
0.1399089885617641
  0
VERTEX
  5
2CC
330
2C1
100
AcDbEntity
  8
0
  6
Continuous
 62
     3
100
AcDbVertex
100
AcDb2dVertex
 10
0.281
 20
0.0146430000000001
 30
0.0
  0
VERTEX
  5
2CD
330
2C1
100
AcDbEntity
  8
0
  6
Continuous
 62
     3
100
AcDbVertex
100
AcDb2dVertex
 10
0.281
 20
0.009813
 30
0.0
  0
VERTEX
  5
2CE
330
2C1
100
AcDbEntity
  8
0
  6
Continuous
 62
     3
100
AcDbVertex
100
AcDb2dVertex
 10
0.0
 20
0.0
 30
0.0
  0
VERTEX
  5
2CF
330
2C1
100
AcDbEntity
  8
0
  6
Continuous
 62
     3
100
AcDbVertex
100
AcDb2dVertex
 10
0.0
 20
0.625
 30
0.0
 42
0.2280720461942016
  0
VERTEX
  5
2D0
330
2C1
100
AcDbEntity
  8
0
  6
Continuous
 62
     3
100
AcDbVertex
100
AcDb2dVertex
 10
0.047
 20
0.7226780000000001
 30
0.0
  0
VERTEX
  5
2D1
330
2C1
100
AcDbEntity
  8
0
  6
Continuous
 62
     3
100
AcDbVertex
100
AcDb2dVertex
 10
0.04700078348839
 20
1.654490721224876
 30
0.0
 42
0.2240766004830583
  0
VERTEX
  5
2D2
330
2C1
100
AcDbEntity
  8
0
  6
Continuous
 62
     3
100
AcDbVertex
100
AcDb2dVertex
 10
0.0000006110440668
 20
1.750328694738355
 30
0.0
  0
VERTEX
  5
2D3
330
2C1
100
AcDbEntity
  8
0
  6
Continuous
 62
     3
100
AcDbVertex
100
AcDb2dVertex
 10
0.0
 20
2.25
 30
0.0
  0
VERTEX
  5
2D4
330
2C1
100
AcDbEntity
  8
0
  6
Continuous
 62
     3
100
AcDbVertex
100
AcDb2dVertex
 10
0.75
 20
2.223809
 30
0.0
  0
SEQEND
  5
2D5
330
2C1
100
AcDbEntity
  8
0
  6
Continuous
 62
     3
  0
ENDBLK
  5
2D6
330
2B3
100
AcDbEntity
  8
0
100
AcDbBlockEnd
  0
BLOCK
  5
341
330
33E
100
AcDbEntity
  8
0
100
AcDbBlockBegin
  2
10headvinylsiding
 70
     0
 10
0.0
 20
0.0
 30
0.0
  3
10headvinylsiding
  1

  0
POLYLINE
  5
342
102
{ACAD_REACTORS
330
348
102
}
330
33E
100
AcDbEntity
  8
Pel_Wall
100
AcDb2dPolyline
 66
     1
 10
0.0
 20
0.0
 30
0.0
 70
     1
  0
VERTEX
  5
343
330
342
100
AcDbEntity
  8
Pel_Wall
100
AcDbVertex
100
AcDb2dVertex
 10
1.468283607669881
 20
0.25
 30
0.0
  0
VERTEX
  5
344
330
342
100
AcDbEntity
  8
Pel_Wall
100
AcDbVertex
100
AcDb2dVertex
 10
1.968283607669889
 20
0.25
 30
0.0
  0
VERTEX
  5
345
330
342
100
AcDbEntity
  8
Pel_Wall
100
AcDbVertex
100
AcDb2dVertex
 10
1.968283607669889
 20
4.213768087480623
 30
0.0
  0
VERTEX
  5
346
330
342
100
AcDbEntity
  8
Pel_Wall
100
AcDbVertex
100
AcDb2dVertex
 10
1.468283607669881
 20
4.213768087480623
 30
0.0
  0
SEQEND
  5
347
330
342
100
AcDbEntity
  8
Pel_Wall
  0
HATCH
  5
348
330
33E
100
AcDbEntity
  8
Pel_Wall
100
AcDbHatch
 10
0.0
 20
0.0
 30
0.0
210
0.0
220
0.0
230
1.0
  2
PLY
 70
     0
 71
     1
 91
        1
 92
        1
 93
        4
 72
     1
 10
1.468283607669881
 20
0.25
 11
1.968283607669889
 21
0.25
 72
     1
 10
1.968283607669889
 20
0.25
 11
1.968283607669889
 21
4.213768087480623
 72
     1
 10
1.968283607669889
 20
4.213768087480623
 11
1.468283607669881
 21
4.213768087480623
 72
     1
 10
1.468283607669881
 20
4.213768087480623
 11
1.468283607669881
 21
0.25
 97
        1
330
342
 75
     0
 76
     1
 52
90.0
 41
1.0
 77
     0
 78
     2
 53
90.0
 43
-0.031716392330118
 44
-0.125
 45
-0.125
 46
0.0
 79
     0
 53
135.0
 43
0.093283607669882
 44
-0.125
 45
-0.3535533905932738
 46
-0.3535533905932737
 79
     0
 98
        1
 10
0.093283607669882
 20
-0.125
  0
POLYLINE
  5
349
102
{ACAD_REACTORS
330
34F
102
}
330
33E
100
AcDbEntity
  8
Pel_Wall
100
AcDb2dPolyline
 66
     1
 10
0.0
 20
0.0
 30
0.0
 70
     1
  0
VERTEX
  5
34A
330
349
100
AcDbEntity
  8
Pel_Wall
100
AcDbVertex
100
AcDb2dVertex
 10
3.468283607669889
 20
0.25
 30
0.0
  0
VERTEX
  5
34B
330
349
100
AcDbEntity
  8
Pel_Wall
100
AcDbVertex
100
AcDb2dVertex
 10
3.968283607669889
 20
0.25
 30
0.0
  0
VERTEX
  5
34C
330
349
100
AcDbEntity
  8
Pel_Wall
100
AcDbVertex
100
AcDb2dVertex
 10
3.968283607669889
 20
4.213768087480623
 30
0.0
  0
VERTEX
  5
34D
330
349
100
AcDbEntity
  8
Pel_Wall
100
AcDbVertex
100
AcDb2dVertex
 10
3.468283607669889
 20
4.213768087480623
 30
0.0
  0
SEQEND
  5
34E
330
349
100
AcDbEntity
  8
Pel_Wall
  0
HATCH
  5
34F
330
33E
100
AcDbEntity
  8
Pel_Wall
100
AcDbHatch
 10
0.0
 20
0.0
 30
0.0
210
0.0
220
0.0
230
1.0
  2
PLY
 70
     0
 71
     1
 91
        1
 92
        1
 93
        4
 72
     1
 10
3.468283607669889
 20
0.25
 11
3.968283607669889
 21
0.25
 72
     1
 10
3.968283607669889
 20
0.25
 11
3.968283607669889
 21
4.213768087480623
 72
     1
 10
3.968283607669889
 20
4.213768087480623
 11
3.468283607669889
 21
4.213768087480623
 72
     1
 10
3.468283607669889
 20
4.213768087480623
 11
3.468283607669889
 21
0.25
 97
        1
330
349
 75
     0
 76
     1
 52
90.0
 41
1.0
 77
     0
 78
     2
 53
90.0
 43
0.030783607669882
 44
-1.624999999999996
 45
-0.125
 46
0.0
 79
     0
 53
135.0
 43
0.155783607669882
 44
-1.624999999999996
 45
-0.3535533905932738
 46
-0.3535533905932737
 79
     0
 98
        1
 10
0.155783607669882
 20
-1.624999999999996
  0
POLYLINE
  5
350
102
{ACAD_REACTORS
330
36E
102
}
330
33E
100
AcDbEntity
  8
Pel_Wall
100
AcDb2dPolyline
 66
     1
 10
0.0
 20
0.0
 30
0.0
 70
     1
  0
VERTEX
  5
351
330
350
100
AcDbEntity
  8
Pel_Wall
100
AcDbVertex
100
AcDb2dVertex
 10
5.468283607669889
 20
4.213768087480623
 30
0.0
  0
VERTEX
  5
352
330
350
100
AcDbEntity
  8
Pel_Wall
100
AcDbVertex
100
AcDb2dVertex
 10
6.093283607669889
 20
4.213768087480623
 30
0.0
  0
VERTEX
  5
353
330
350
100
AcDbEntity
  8
Pel_Wall
100
AcDbVertex
100
AcDb2dVertex
 10
6.093283607669889
 20
0.25
 30
0.0
  0
VERTEX
  5
354
330
350
100
AcDbEntity
  8
Pel_Wall
100
AcDbVertex
100
AcDb2dVertex
 10
6.093283607669889
 20
0.25
 30
0.0
  0
VERTEX
  5
355
330
350
100
AcDbEntity
  8
Pel_Wall
100
AcDbVertex
100
AcDb2dVertex
 10
5.468283607669889
 20
0.25
 30
0.0
  0
VERTEX
  5
356
330
350
100
AcDbEntity
  8
Pel_Wall
100
AcDbVertex
100
AcDb2dVertex
 10
5.468283607669889
 20
0.25
 30
0.0
  0
SEQEND
  5
357
330
350
100
AcDbEntity
  8
Pel_Wall
  0
POLYLINE
  5
358
330
33E
100
AcDbEntity
  8
Pel_Wall
100
AcDb2dPolyline
 66
     1
 10
0.0
 20
0.0
 30
0.0
  0
VERTEX
  5
359
330
358
100
AcDbEntity
  8
Pel_Wall
100
AcDbVertex
100
AcDb2dVertex
 10
1.133820514624893
 20
4.21376808748063
 30
0.0
  0
VERTEX
  5
35A
330
358
100
AcDbEntity
  8
Pel_Wall
100
AcDbVertex
100
AcDb2dVertex
 10
1.133820514624893
 20
4.21376808748063
 30
0.0
  0
VERTEX
  5
35B
330
358
100
AcDbEntity
  8
Pel_Wall
100
AcDbVertex
100
AcDb2dVertex
 10
1.133820514624893
 20
4.21376808748063
 30
0.0
  0
VERTEX
  5
35C
330
358
100
AcDbEntity
  8
Pel_Wall
100
AcDbVertex
100
AcDb2dVertex
 10
1.133820514624893
 20
4.21376808748063
 30
0.0
  0
VERTEX
  5
35D
330
358
100
AcDbEntity
  8
Pel_Wall
100
AcDbVertex
100
AcDb2dVertex
 10
1.133820514624893
 20
4.21376808748063
 30
0.0
 42
-0.0562126971214849
  0
VERTEX
  5
35E
330
358
100
AcDbEntity
  8
Pel_Wall
100
AcDbVertex
100
AcDb2dVertex
 10
0.6577421947542277
 20
0.1903058632964161
 30
0.0
 42
0.5032064810093599
  0
VERTEX
  5
35F
330
358
100
AcDbEntity
  8
Pel_Wall
100
AcDbVertex
100
AcDb2dVertex
 10
0.7055962109545036
 20
0.1258147234687925
 30
0.0
  0
VERTEX
  5
360
330
358
100
AcDbEntity
  8
Pel_Wall
100
AcDbVertex
100
AcDb2dVertex
 10
1.022973319204247
 20
0.1258147234687925
 30
0.0
 42
0.4142135623730898
  0
VERTEX
  5
361
330
358
100
AcDbEntity
  8
Pel_Wall
100
AcDbVertex
100
AcDb2dVertex
 10
1.072973319204244
 20
0.1758147234687897
 30
0.0
  0
VERTEX
  5
362
330
358
100
AcDbEntity
  8
Pel_Wall
100
AcDbVertex
100
AcDb2dVertex
 10
1.072973319204244
 20
0.5758147234687954
 30
0.0
  0
VERTEX
  5
363
330
358
100
AcDbEntity
  8
Pel_Wall
100
AcDbVertex
100
AcDb2dVertex
 10
1.122973319204241
 20
0.5758147234687954
 30
0.0
  0
VERTEX
  5
364
330
358
100
AcDbEntity
  8
Pel_Wall
100
AcDbVertex
100
AcDb2dVertex
 10
1.122973319204241
 20
0.1758147234687897
 30
0.0
 42
-0.4142135623730925
  0
VERTEX
  5
365
330
358
100
AcDbEntity
  8
Pel_Wall
100
AcDbVertex
100
AcDb2dVertex
 10
1.022973319204247
 20
0.0758147234687954
 30
0.0
  0
VERTEX
  5
366
330
358
100
AcDbEntity
  8
Pel_Wall
100
AcDbVertex
100
AcDb2dVertex
 10
0.7055962109545036
 20
0.0758147234687954
 30
0.0
 42
-0.5032064810093663
  0
VERTEX
  5
367
330
358
100
AcDbEntity
  8
Pel_Wall
100
AcDbVertex
100
AcDb2dVertex
 10
0.6098881785539519
 20
0.2047970031240283
 30
0.0
 42
0.0570947362005268
  0
VERTEX
  5
368
330
358
100
AcDbEntity
  8
Pel_Wall
100
AcDbVertex
100
AcDb2dVertex
 10
1.079975822798814
 20
4.21376808748063
 30
0.0
  0
VERTEX
  5
369
330
358
100
AcDbEntity
  8
Pel_Wall
100
AcDbVertex
100
AcDb2dVertex
 10
1.079975822798814
 20
4.21376808748063
 30
0.0
  0
VERTEX
  5
36A
330
358
100
AcDbEntity
  8
Pel_Wall
100
AcDbVertex
100
AcDb2dVertex
 10
1.079975822798814
 20
4.21376808748063
 30
0.0
  0
VERTEX
  5
36B
330
358
100
AcDbEntity
  8
Pel_Wall
100
AcDbVertex
100
AcDb2dVertex
 10
1.079975822798814
 20
4.21376808748063
 30
0.0
  0
VERTEX
  5
36C
330
358
100
AcDbEntity
  8
Pel_Wall
100
AcDbVertex
100
AcDb2dVertex
 10
1.079975822798814
 20
4.21376808748063
 30
0.0
  0
SEQEND
  5
36D
330
358
100
AcDbEntity
  8
Pel_Wall
  0
HATCH
  5
36E
330
33E
100
AcDbEntity
  8
Pel_Wall
100
AcDbHatch
 10
0.0
 20
0.0
 30
0.0
210
0.0
220
0.0
230
1.0
  2
GYP
 70
     0
 71
     1
 91
        1
 92
        1
 93
        4
 72
     1
 10
5.468283607669889
 20
4.213768087480623
 11
6.093283607669889
 21
4.213768087480623
 72
     1
 10
6.093283607669889
 20
4.213768087480623
 11
6.093283607669889
 21
0.25
 72
     1
 10
6.093283607669889
 20
0.25
 11
5.468283607669889
 21
0.25
 72
     1
 10
5.468283607669889
 20
0.25
 11
5.468283607669889
 21
4.213768087480623
 97
        1
330
350
 75
     0
 76
     1
 52
0.0
 41
1.0
 77
     0
 78
     3
 53
0.0
 43
-16.4824414906075
 44
-27.76823191252117
 45
0.18
 46
0.5
 79
     2
 49
0.0
 49
-0.3
 53
30.0
 43
-16.4524414906075
 44
-27.64823191252117
 45
-0.094115427318801
 46
0.5230127018922194
 79
     2
 49
0.0
 49
-0.3
 53
60.0
 43
-16.4224414906075
 44
-27.58823191252117
 45
-0.3430127018922193
 46
0.405884572681199
 79
     2
 49
0.0
 49
-0.3
 98
        1
 10
-16.4824414906075
 20
-27.76823191252117
  0
LINE
  5
36F
330
33E
100
AcDbEntity
  8
Pel_Wall
  6
Continuous
100
AcDbLine
 10
2.661557389146707
 20
0.8174057854251799
 30
0.0
 11
3.411557389146707
 21
0.8174057854251799
 31
0.0
  0
LINE
  5
370
330
33E
100
AcDbEntity
  8
Pel_Wall
  6
Continuous
100
AcDbLine
 10
2.286557389146707
 20
0.8174057854251799
 30
0.0
 11
2.536557389146707
 21
0.8174057854251799
 31
0.0
  0
LINE
  5
371
330
33E
100
AcDbEntity
  8
Pel_Wall
  6
Continuous
100
AcDbLine
 10
1.2865573891467
 20
0.8174057854251799
 30
0.0
 11
2.161557389146707
 21
0.8174057854251799
 31
0.0
  0
POLYLINE
  5
372
330
33E
100
AcDbEntity
  8
Pel_Wall
  6
Continuous
100
AcDb2dPolyline
 66
     1
 10
0.0
 20
0.0
 30
0.0
  0
VERTEX
  5
373
330
372
100
AcDbEntity
  8
Pel_Wall
  6
Continuous
100
AcDbVertex
100
AcDb2dVertex
 10
1.148958705950491
 20
0.0887680874806272
 30
0.0
  0
VERTEX
  5
374
330
372
100
AcDbEntity
  8
Pel_Wall
  6
Continuous
100
AcDbVertex
100
AcDb2dVertex
 10
1.148958705950491
 20
1.155989447030624
 30
0.0
  0
VERTEX
  5
375
330
372
100
AcDbEntity
  8
Pel_Wall
  6
Continuous
100
AcDbVertex
100
AcDb2dVertex
 10
1.211458705950491
 20
1.280989447030624
 30
0.0
  0
VERTEX
  5
376
330
372
100
AcDbEntity
  8
Pel_Wall
  6
Continuous
100
AcDbVertex
100
AcDb2dVertex
 10
1.211458705950491
 20
4.213768087480623
 30
0.0
  0
SEQEND
  5
377
330
372
100
AcDbEntity
  8
Pel_Wall
  6
Continuous
  0
POLYLINE
  5
378
330
33E
100
AcDbEntity
  8
Pel_Wall
  6
Continuous
100
AcDb2dPolyline
 66
     1
 10
0.0
 20
0.0
 30
0.0
  0
VERTEX
  5
379
330
378
100
AcDbEntity
  8
Pel_Wall
  6
Continuous
100
AcDbVertex
100
AcDb2dVertex
 10
1.168958705950494
 20
0.0887680874806272
 30
0.0
  0
VERTEX
  5
37A
330
378
100
AcDbEntity
  8
Pel_Wall
  6
Continuous
100
AcDbVertex
100
AcDb2dVertex
 10
1.168958705950494
 20
1.151268087480627
 30
0.0
  0
VERTEX
  5
37B
330
378
100
AcDbEntity
  8
Pel_Wall
  6
Continuous
100
AcDbVertex
100
AcDb2dVertex
 10
1.231458705950494
 20
1.276268087480627
 30
0.0
  0
VERTEX
  5
37C
330
378
100
AcDbEntity
  8
Pel_Wall
  6
Continuous
100
AcDbVertex
100
AcDb2dVertex
 10
1.231458705950494
 20
4.213768087480623
 30
0.0
  0
SEQEND
  5
37D
330
378
100
AcDbEntity
  8
Pel_Wall
  6
Continuous
  0
POLYLINE
  5
37E
330
33E
100
AcDbEntity
  8
Pel_Wall
  6
Continuous
100
AcDb2dPolyline
 66
     1
 10
0.0
 20
0.0
 30
0.0
  0
VERTEX
  5
37F
330
37E
100
AcDbEntity
  8
Pel_Wall
  6
Continuous
100
AcDbVertex
100
AcDb2dVertex
 10
1.273958705950491
 20
0.0887680874806272
 30
0.0
  0
VERTEX
  5
380
330
37E
100
AcDbEntity
  8
Pel_Wall
  6
Continuous
100
AcDbVertex
100
AcDb2dVertex
 10
1.273958705950491
 20
1.155989447030624
 30
0.0
  0
VERTEX
  5
381
330
37E
100
AcDbEntity
  8
Pel_Wall
  6
Continuous
100
AcDbVertex
100
AcDb2dVertex
 10
1.336458705950491
 20
1.280989447030624
 30
0.0
  0
VERTEX
  5
382
330
37E
100
AcDbEntity
  8
Pel_Wall
  6
Continuous
100
AcDbVertex
100
AcDb2dVertex
 10
1.336458705950491
 20
2.963768087480627
 30
0.0
  0
SEQEND
  5
383
330
37E
100
AcDbEntity
  8
Pel_Wall
  6
Continuous
  0
POLYLINE
  5
384
330
33E
100
AcDbEntity
  8
Pel_Wall
  6
Continuous
100
AcDb2dPolyline
 66
     1
 10
0.0
 20
0.0
 30
0.0
  0
VERTEX
  5
385
330
384
100
AcDbEntity
  8
Pel_Wall
  6
Continuous
100
AcDbVertex
100
AcDb2dVertex
 10
1.293958705950494
 20
0.0887680874806272
 30
0.0
  0
VERTEX
  5
386
330
384
100
AcDbEntity
  8
Pel_Wall
  6
Continuous
100
AcDbVertex
100
AcDb2dVertex
 10
1.293958705950494
 20
1.151268087480627
 30
0.0
  0
VERTEX
  5
387
330
384
100
AcDbEntity
  8
Pel_Wall
  6
Continuous
100
AcDbVertex
100
AcDb2dVertex
 10
1.356458705950494
 20
1.276268087480627
 30
0.0
  0
VERTEX
  5
388
330
384
100
AcDbEntity
  8
Pel_Wall
  6
Continuous
100
AcDbVertex
100
AcDb2dVertex
 10
1.356458705950494
 20
2.963768087480627
 30
0.0
  0
SEQEND
  5
389
330
384
100
AcDbEntity
  8
Pel_Wall
  6
Continuous
  0
LINE
  5
38A
330
33E
100
AcDbEntity
  8
Pel_Wall
  6
Continuous
100
AcDbLine
 10
1.3490573891467
 20
0.69240578542518
 30
0.0
 11
1.3490573891467
 21
0.9424057854251799
 31
0.0
  0
POINT
  5
38B
330
33E
100
AcDbEntity
  8
Pel_Points
100
AcDbPoint
 10
0.0
 20
0.0
 30
0.0
  0
POINT
  5
38C
330
33E
100
AcDbEntity
  8
Pel_wal
 62
     9
100
AcDbPoint
 10
2.868247078242156
 20
-0.1898347149505639
 30
0.0
  0
INSERT
  5
38D
330
33E
100
AcDbEntity
  8
0
100
AcDbBlockReference
  2
A$C69046E27
 10
2.868247078242156
 20
-0.1898347149505639
 30
0.0
  0
LINE
  5
38E
330
33E
100
AcDbEntity
  8
Pel_Wall
100
AcDbLine
 10
1.968283607669889
 20
0.25
 30
0.0
 11
3.343283607669889
 21
4.213768087480623
 31
0.0
  0
LINE
  5
38F
330
33E
100
AcDbEntity
  8
Pel_Wall
100
AcDbLine
 10
3.468283607669889
 20
0.25
 30
0.0
 11
2.093283607669889
 21
4.213768087480623
 31
0.0
  0
LINE
  5
390
330
33E
100
AcDbEntity
  8
Pel_Wall
100
AcDbLine
 10
1.968283607669889
 20
0.25
 30
0.0
 11
3.468283607669889
 21
0.25
 31
0.0
  0
LINE
  5
391
330
33E
100
AcDbEntity
  8
Pel_Wall
100
AcDbLine
 10
3.468283607669881
 20
0.25
 30
0.0
 11
3.468283607669881
 21
2.713768087480627
 31
0.0
  0
LINE
  5
392
330
33E
100
AcDbEntity
  8
Pel_Wall
100
AcDbLine
 10
1.968283607669881
 20
2.713768087480627
 30
0.0
 11
1.968283607669889
 21
0.25
 31
0.0
  0
LINE
  5
393
330
33E
100
AcDbEntity
  8
Pel_Wall
100
AcDbLine
 10
3.968283607669889
 20
0.25
 30
0.0
 11
5.343283607669889
 21
4.213768087480623
 31
0.0
  0
LINE
  5
394
330
33E
100
AcDbEntity
  8
Pel_Wall
100
AcDbLine
 10
5.468283607669889
 20
0.25
 30
0.0
 11
4.093283607669889
 21
4.213768087480623
 31
0.0
  0
LINE
  5
395
330
33E
100
AcDbEntity
  8
Pel_Wall
100
AcDbLine
 10
3.968283607669889
 20
0.25
 30
0.0
 11
5.468283607669889
 21
0.25
 31
0.0
  0
LINE
  5
396
330
33E
100
AcDbEntity
  8
Pel_Wall
100
AcDbLine
 10
5.468283607669881
 20
0.25
 30
0.0
 11
5.468283607669881
 21
2.713768087480627
 31
0.0
  0
LINE
  5
397
330
33E
100
AcDbEntity
  8
Pel_Wall
100
AcDbLine
 10
3.968283607669881
 20
2.713768087480627
 30
0.0
 11
3.968283607669889
 21
0.25
 31
0.0
  0
ENDBLK
  5
398
330
33E
100
AcDbEntity
  8
0
100
AcDbBlockEnd
  0
BLOCK
  5
30A
330
307
100
AcDbEntity
  8
0
100
AcDbBlockBegin
  2
10jambvinylsiding
 70
     0
 10
0.0
 20
0.0
 30
0.0
  3
10jambvinylsiding
  1

  0
POLYLINE
  5
30B
102
{ACAD_REACTORS
330
31E
102
}
330
307
100
AcDbEntity
  8
Pel_Wall
100
AcDb2dPolyline
 66
     1
 10
0.0
 20
0.0
 30
0.0
 70
     1
  0
VERTEX
  5
30C
330
30B
100
AcDbEntity
  8
Pel_Wall
100
AcDbVertex
100
AcDb2dVertex
 10
5.508238224093595
 20
5.250000000000003
 30
0.0
  0
VERTEX
  5
30D
330
30B
100
AcDbEntity
  8
Pel_Wall
100
AcDbVertex
100
AcDb2dVertex
 10
6.133238224093595
 20
5.250000000000003
 30
0.0
  0
VERTEX
  5
30E
330
30B
100
AcDbEntity
  8
Pel_Wall
100
AcDbVertex
100
AcDb2dVertex
 10
6.133238224093595
 20
0.3125000000000035
 30
0.0
  0
VERTEX
  5
30F
330
30B
100
AcDbEntity
  8
Pel_Wall
100
AcDbVertex
100
AcDb2dVertex
 10
6.133238224093595
 20
0.3125000000000035
 30
0.0
  0
VERTEX
  5
310
330
30B
100
AcDbEntity
  8
Pel_Wall
100
AcDbVertex
100
AcDb2dVertex
 10
5.508238224093595
 20
0.3124500000020269
 30
0.0
  0
VERTEX
  5
311
330
30B
100
AcDbEntity
  8
Pel_Wall
100
AcDbVertex
100
AcDb2dVertex
 10
5.508238224093595
 20
0.3124500000020269
 30
0.0
  0
SEQEND
  5
312
330
30B
100
AcDbEntity
  8
Pel_Wall
  0
HATCH
  5
313
330
307
100
AcDbEntity
  8
Pel_Wall
100
AcDbHatch
 10
0.0
 20
0.0
 30
0.0
210
0.0
220
0.0
230
1.0
  2
PLY
 70
     0
 71
     1
 91
        1
 92
        1
 93
        4
 72
     1
 10
1.534642302397124
 20
0.3124500000020269
 11
2.008238224093595
 21
0.3124500000020269
 72
     1
 10
2.008238224093595
 20
0.3124500000020269
 11
2.008238224093595
 21
5.25000000000001
 72
     1
 10
2.008238224093595
 20
5.25000000000001
 11
1.534642302397124
 21
5.250000000000003
 72
     1
 10
1.534642302397124
 20
5.250000000000003
 11
1.534642302397124
 21
0.3124500000020269
 97
        1
330
314
 75
     0
 76
     1
 52
90.0
 41
1.0
 77
     0
 78
     2
 53
90.0
 43
0.0082382240935956
 44
-0.1250499999979731
 45
-0.125
 46
0.0
 79
     0
 53
135.0
 43
0.1332382240935956
 44
-0.1250499999979731
 45
-0.3535533905932738
 46
-0.3535533905932737
 79
     0
 98
        1
 10
0.1332382240935956
 20
-0.1250499999979731
  0
POLYLINE
  5
314
102
{ACAD_REACTORS
330
313
102
}
330
307
100
AcDbEntity
  8
Pel_Wall
100
AcDb2dPolyline
 66
     1
 10
0.0
 20
0.0
 30
0.0
 70
     1
  0
VERTEX
  5
315
330
314
100
AcDbEntity
  8
Pel_Wall
100
AcDbVertex
100
AcDb2dVertex
 10
1.534642302397124
 20
0.3124500000020269
 30
0.0
  0
VERTEX
  5
316
330
314
100
AcDbEntity
  8
Pel_Wall
100
AcDbVertex
100
AcDb2dVertex
 10
2.008238224093595
 20
0.3124500000020269
 30
0.0
  0
VERTEX
  5
317
330
314
100
AcDbEntity
  8
Pel_Wall
100
AcDbVertex
100
AcDb2dVertex
 10
2.008238224093595
 20
5.25000000000001
 30
0.0
  0
VERTEX
  5
318
330
314
100
AcDbEntity
  8
Pel_Wall
100
AcDbVertex
100
AcDb2dVertex
 10
1.534642302397124
 20
5.250000000000003
 30
0.0
  0
SEQEND
  5
319
330
314
100
AcDbEntity
  8
Pel_Wall
  0
LWPOLYLINE
  5
31A
330
307
100
AcDbEntity
  8
Pel_Wall
100
AcDbPolyline
 90
        4
 70
     1
 43
0.0
 10
1.143821691433124
 20
5.250000000000003
 10
1.143821691433124
 20
0.0643695174953862
 10
0.643821691433125
 20
0.0643695174953862
 10
0.643821691433125
 20
5.250000000000003
  0
INSERT
  5
31B
330
307
100
AcDbEntity
  8
Pel_Wall
100
AcDbBlockReference
  2
2x
 10
2.008238224093595
 20
0.3124500000020269
 30
0.0
 41
3.5
 42
1.5
  0
INSERT
  5
31C
330
307
100
AcDbEntity
  8
Pel_Wall
100
AcDbBlockReference
  2
2x
 10
2.008238224093595
 20
1.812450000002026
 30
0.0
 41
3.5
 42
1.5
  0
INSERT
  5
31D
330
307
100
AcDbEntity
  8
Pel_Wall
100
AcDbBlockReference
  2
Insul1
 10
5.508238224093595
 20
3.312450000002026
 30
0.0
 41
-3.5
 42
1.875
  0
HATCH
  5
31E
330
307
100
AcDbEntity
  8
0
100
AcDbHatch
 10
0.0
 20
0.0
 30
0.0
210
0.0
220
0.0
230
1.0
  2
GYP
 70
     0
 71
     1
 91
        1
 92
        1
 93
        4
 72
     1
 10
5.508238224093595
 20
5.250000000000003
 11
6.133238224093595
 21
5.250000000000003
 72
     1
 10
6.133238224093595
 20
5.250000000000003
 11
6.133238224093595
 21
0.3125000000000035
 72
     1
 10
6.133238224093595
 20
0.3125000000000035
 11
5.508238224093595
 21
0.3124500000020269
 72
     1
 10
5.508238224093595
 20
0.3124500000020269
 11
5.508238224093595
 21
5.250000000000003
 97
        1
330
30B
 75
     0
 76
     1
 52
0.0
 41
1.0
 77
     0
 78
     3
 53
0.0
 43
-14.37993687418702
 44
-17.86300000000119
 45
0.18
 46
0.5
 79
     2
 49
0.0
 49
-0.3
 53
30.0
 43
-14.34993687418701
 44
-17.74300000000119
 45
-0.094115427318801
 46
0.5230127018922194
 79
     2
 49
0.0
 49
-0.3
 53
60.0
 43
-14.31993687418701
 44
-17.68300000000119
 45
-0.3430127018922193
 46
0.405884572681199
 79
     2
 49
0.0
 49
-0.3
 98
        1
 10
-14.37993687418702
 20
-17.86300000000119
  0
POLYLINE
  5
31F
330
307
100
AcDbEntity
  8
Pel_Wall
  6
Continuous
100
AcDb2dPolyline
 66
     1
 10
0.0
 20
0.0
 30
0.0
  0
VERTEX
  5
320
330
31F
100
AcDbEntity
  8
Pel_Wall
  6
Continuous
100
AcDbVertex
100
AcDb2dVertex
 10
1.468815319808712
 20
5.250000000000003
 30
0.0
  0
VERTEX
  5
321
330
31F
100
AcDbEntity
  8
Pel_Wall
  6
Continuous
100
AcDbVertex
100
AcDb2dVertex
 10
1.468815319808712
 20
0.230000000000004
 30
0.0
  0
VERTEX
  5
322
330
31F
100
AcDbEntity
  8
Pel_Wall
  6
Continuous
100
AcDbVertex
100
AcDb2dVertex
 10
3.828424990508267
 20
0.230000000000004
 30
0.0
  0
SEQEND
  5
323
330
31F
100
AcDbEntity
  8
Pel_Wall
  6
Continuous
  0
POLYLINE
  5
324
330
307
100
AcDbEntity
  8
Pel_Wall
  6
Continuous
100
AcDb2dPolyline
 66
     1
 10
0.0
 20
0.0
 30
0.0
  0
VERTEX
  5
325
330
324
100
AcDbEntity
  8
Pel_Wall
  6
Continuous
100
AcDbVertex
100
AcDb2dVertex
 10
1.488815319808708
 20
5.250000000000003
 30
0.0
  0
VERTEX
  5
326
330
324
100
AcDbEntity
  8
Pel_Wall
  6
Continuous
100
AcDbVertex
100
AcDb2dVertex
 10
1.488815319808708
 20
0.2500000000000035
 30
0.0
  0
VERTEX
  5
327
330
324
100
AcDbEntity
  8
Pel_Wall
  6
Continuous
100
AcDbVertex
100
AcDb2dVertex
 10
3.828424990508267
 20
0.2500000000000035
 30
0.0
  0
SEQEND
  5
328
330
324
100
AcDbEntity
  8
Pel_Wall
  6
Continuous
  0
POLYLINE
  5
329
330
307
100
AcDbEntity
  8
Pel_Wall
  6
Continuous
100
AcDb2dPolyline
 66
     1
 10
0.0
 20
0.0
 30
0.0
  0
VERTEX
  5
32A
330
329
100
AcDbEntity
  8
Pel_Wall
  6
Continuous
100
AcDbVertex
100
AcDb2dVertex
 10
1.302788018638132
 20
0.0000000000000036
 30
0.0
  0
VERTEX
  5
32B
330
329
100
AcDbEntity
  8
Pel_Wall
  6
Continuous
100
AcDbVertex
100
AcDb2dVertex
 10
1.302788018638132
 20
1.571851193213436
 30
0.0
  0
VERTEX
  5
32C
330
329
100
AcDbEntity
  8
Pel_Wall
  6
Continuous
100
AcDbVertex
100
AcDb2dVertex
 10
1.365288018638132
 20
1.696851193213436
 30
0.0
  0
VERTEX
  5
32D
330
329
100
AcDbEntity
  8
Pel_Wall
  6
Continuous
100
AcDbVertex
100
AcDb2dVertex
 10
1.365288018638132
 20
3.000000000000003
 30
0.0
  0
SEQEND
  5
32E
330
329
100
AcDbEntity
  8
Pel_Wall
  6
Continuous
  0
LINE
  5
32F
330
307
100
AcDbEntity
  8
Pel_Wall
  6
Continuous
100
AcDbLine
 10
1.344782642553546
 20
0.6905676875769906
 30
0.0
 11
1.344782642553546
 21
0.9405676875769906
 31
0.0
  0
LINE
  5
330
330
307
100
AcDbEntity
  8
Pel_Wall
  6
Continuous
100
AcDbLine
 10
2.349549484339711
 20
0.8155676875769906
 30
0.0
 11
2.787049484339711
 21
0.8155676875769906
 31
0.0
  0
LINE
  5
331
330
307
100
AcDbEntity
  8
Pel_Wall
  6
Continuous
100
AcDbLine
 10
2.998626166969074
 20
0.8155676875769906
 30
0.0
 11
3.873626166969067
 21
0.8155676875769906
 31
0.0
  0
LINE
  5
332
330
307
100
AcDbEntity
  8
Pel_Wall
  6
Continuous
100
AcDbLine
 10
1.282282642553546
 20
0.8155676875769906
 30
0.0
 11
2.157282642553546
 21
0.8155676875769906
 31
0.0
  0
POLYLINE
  5
333
330
307
100
AcDbEntity
  8
Pel_Wall
  6
Continuous
100
AcDb2dPolyline
 66
     1
 10
0.0
 20
0.0
 30
0.0
  0
VERTEX
  5
334
330
333
100
AcDbEntity
  8
Pel_Wall
  6
Continuous
100
AcDbVertex
100
AcDb2dVertex
 10
1.282788018638136
 20
0.0000000000000036
 30
0.0
  0
VERTEX
  5
335
330
333
100
AcDbEntity
  8
Pel_Wall
  6
Continuous
100
AcDbVertex
100
AcDb2dVertex
 10
1.282788018638136
 20
1.576572552763433
 30
0.0
  0
VERTEX
  5
336
330
333
100
AcDbEntity
  8
Pel_Wall
  6
Continuous
100
AcDbVertex
100
AcDb2dVertex
 10
1.345288018638136
 20
1.701572552763433
 30
0.0
  0
VERTEX
  5
337
330
333
100
AcDbEntity
  8
Pel_Wall
  6
Continuous
100
AcDbVertex
100
AcDb2dVertex
 10
1.345288018638136
 20
3.000000000000003
 30
0.0
  0
SEQEND
  5
338
330
333
100
AcDbEntity
  8
Pel_Wall
  6
Continuous
  0
POINT
  5
339
330
307
100
AcDbEntity
  8
Pel_Points
100
AcDbPoint
 10
0.0
 20
0.0000000000000036
 30
0.0
  0
INSERT
  5
33A
330
307
100
AcDbEntity
  8
0
100
AcDbBlockReference
  2
A$C69046E27
 10
2.861089410213118
 20
-0.182166598094561
 30
0.0
  0
INSERT
  5
33B
330
307
100
AcDbEntity
  8
0
100
AcDbBlockReference
  2
Shim
 10
1.50972117748569
 20
0.0000000000000036
 30
0.0
 41
2.413436629494402
 42
0.2232084002697725
 43
2.413436629494402
  0
ENDBLK
  5
33C
330
307
100
AcDbEntity
  8
0
100
AcDbBlockEnd
  0
BLOCK
  5
276
330
273
100
AcDbEntity
  8
0
100
AcDbBlockBegin
  2
RECTANG
 70
     0
 10
0.0
 20
0.0
 30
0.0
  3
RECTANG
  1

  0
LINE
  5
277
330
273
100
AcDbEntity
  8
0
100
AcDbLine
 10
0.0
 20
0.0
 30
0.0
 11
1.00000000000004
 21
0.0
 31
0.0
  0
LINE
  5
278
330
273
100
AcDbEntity
  8
0
100
AcDbLine
 10
1.00000000000004
 20
0.0
 30
0.0
 11
1.00000000000004
 21
1.00000000000004
 31
0.0
  0
LINE
  5
279
330
273
100
AcDbEntity
  8
0
100
AcDbLine
 10
1.00000000000004
 20
1.00000000000004
 30
0.0
 11
0.0
 21
1.00000000000004
 31
0.0
  0
LINE
  5
27A
330
273
100
AcDbEntity
  8
0
100
AcDbLine
 10
0.0
 20
1.00000000000004
 30
0.0
 11
0.0
 21
0.0
 31
0.0
  0
ENDBLK
  5
27B
330
273
100
AcDbEntity
  8
0
100
AcDbBlockEnd
  0
BLOCK
  5
271
330
270
100
AcDbEntity
  8
0
100
AcDbBlockBegin
  2
Shim
 70
     0
 10
0.0
 20
0.0
 30
0.0
  3
Shim
  1

  0
INSERT
  5
272
330
270
100
AcDbEntity
  8
Pel_Wall
100
AcDbBlockReference
  2
RECTANG
 10
0.0
 20
0.0
 30
0.0
  0
LINE
  5
27C
330
270
100
AcDbEntity
  8
Pel_Wall
100
AcDbLine
 10
0.0
 20
0.0
 30
0.0
 11
1.0
 21
1.0
 31
0.0
  0
ENDBLK
  5
27D
330
270
100
AcDbEntity
  8
0
100
AcDbBlockEnd
  0
BLOCK
  5
2E3
330
2E0
100
AcDbEntity
  8
0
100
AcDbBlockBegin
  2
clip
 70
     0
 10
0.0
 20
0.0
 30
0.0
  3
clip
  1

  0
LINE
  5
2E4
330
2E0
100
AcDbEntity
  8
0
 62
     4
100
AcDbLine
 10
0.2912668743715585
 20
0.0000000451817641
 30
0.0
 11
0.2312668743711583
 21
0.0000000451817641
 31
0.0
  0
LINE
  5
2E5
330
2E0
100
AcDbEntity
  8
0
 62
     4
100
AcDbLine
 10
0.2312668743711583
 20
0.0000000451817641
 30
0.0
 11
0.2312668743711583
 21
0.4800000451817823
 31
0.0
  0
LINE
  5
2E6
330
2E0
100
AcDbEntity
  8
0
 62
     4
100
AcDbLine
 10
0.1652668743713548
 20
0.3800000451817596
 30
0.0
 11
0.0732668743712566
 21
0.2700000451818028
 31
0.0
  0
LINE
  5
2E7
330
2E0
100
AcDbEntity
  8
0
 62
     4
100
AcDbLine
 10
0.0732668743712566
 20
0.2700000451818028
 30
0.0
 11
0.063266874371493
 21
0.2700000451818028
 31
0.0
  0
LINE
  5
2E8
330
2E0
100
AcDbEntity
  8
0
 62
     4
100
AcDbLine
 10
0.063266874371493
 20
0.2700000451818028
 30
0.0
 11
0.0006976791692068
 21
0.5125037505250134
 31
0.0
  0
LINE
  5
2E9
330
2E0
100
AcDbEntity
  8
0
 62
     4
100
AcDbLine
 10
0.0968503565472929
 20
0.3800000451818164
 30
0.0
 11
0.1652668743713548
 21
0.3800000451817596
 31
0.0
  0
LINE
  5
2EA
330
2E0
100
AcDbEntity
  8
0
 62
     4
100
AcDbLine
 10
0.0710490208052761
 20
0.4800000451817823
 30
0.0
 11
0.0968503565472929
 21
0.3800000451818164
 31
0.0
  0
LINE
  5
2EB
330
2E0
100
AcDbEntity
  8
0
 62
     4
100
AcDbLine
 10
0.2312668743711583
 20
0.4800000451817823
 30
0.0
 11
0.0710490208052761
 21
0.4800000451817823
 31
0.0
  0
ARC
  5
2EC
330
2E0
100
AcDbEntity
  8
0
 62
     4
100
AcDbCircle
 10
0.0220000439453543
 20
0.5180000451817933
 30
0.0
 40
0.0219999999999942
100
AcDbArc
 50
89.99999999997395
 51
194.4675459077045
  0
LINE
  5
2ED
330
2E0
100
AcDbEntity
  8
0
 62
     4
100
AcDbLine
 10
0.0220000439453543
 20
0.5400000451817846
 30
0.0
 11
0.2312668743711583
 21
0.5400000451817846
 31
0.0
  0
LINE
  5
2EE
330
2E0
100
AcDbEntity
  8
0
 62
     4
100
AcDbLine
 10
0.2912668743715585
 20
1.080000045181805
 30
0.0
 11
0.2312668743711583
 21
1.080000045181805
 31
0.0
  0
LINE
  5
2EF
330
2E0
100
AcDbEntity
  8
0
 62
     4
100
AcDbLine
 10
0.2912668743715585
 20
0.000000045181821
 30
0.0
 11
0.2912668743715585
 21
1.080000045181805
 31
0.0
  0
LINE
  5
2F0
330
2E0
100
AcDbEntity
  8
0
 62
     4
100
AcDbLine
 10
0.2312668743711583
 20
1.080000045181805
 30
0.0
 11
0.2312668743711583
 21
0.5400000451817846
 31
0.0
  0
ENDBLK
  5
2F1
330
2E0
100
AcDbEntity
  8
0
100
AcDbBlockEnd
  0
BLOCK
  5
20E
330
20B
100
AcDbEntity
  8
0
100
AcDbBlockBegin
  2
10sillvinyl
 70
     0
 10
0.0
 20
0.0
 30
0.0
  3
10sillvinyl
  1

  0
HATCH
  5
20F
330
20B
100
AcDbEntity
  8
Pel_Wall
100
AcDbHatch
 10
0.0
 20
0.0
 30
0.0
210
0.0
220
0.0
230
1.0
  2
PLY
 70
     0
 71
     1
 91
        1
 92
        1
 93
        4
 72
     1
 10
1.583176727263463
 20
-5.274999999999997
 11
2.083176727263463
 21
-5.274999999999997
 72
     1
 10
2.083176727263463
 20
-5.274999999999997
 11
2.083176727263463
 21
-0.3999999999999986
 72
     1
 10
2.083176727263463
 20
-0.3999999999999986
 11
1.583176727263463
 21
-0.3999999999999986
 72
     1
 10
1.583176727263463
 20
-0.3999999999999986
 11
1.583176727263463
 21
-5.274999999999997
 97
        1
330
211
 75
     0
 76
     1
 52
90.0
 41
1.0
 77
     0
 78
     2
 53
270.0
 43
-827.1668232727366
 44
153.6555555555547
 45
-0.125
 46
0.0
 79
     0
 53
225.0
 43
-827.0418232727365
 44
153.6555555555547
 45
-0.3535533905932738
 46
0.3535533905932737
 79
     0
 98
        1
 10
-827.0418232727365
 20
153.6555555555547
  0
POLYLINE
  5
211
102
{ACAD_REACTORS
330
20F
102
}
330
20B
100
AcDbEntity
  8
Pel_Wall
100
AcDb2dPolyline
 66
     1
 10
0.0
 20
0.0
 30
0.0
 70
     1
  0
VERTEX
  5
212
330
211
100
AcDbEntity
  8
Pel_Wall
100
AcDbVertex
100
AcDb2dVertex
 10
1.583176727263463
 20
-5.274999999999997
 30
0.0
  0
VERTEX
  5
213
330
211
100
AcDbEntity
  8
Pel_Wall
100
AcDbVertex
100
AcDb2dVertex
 10
2.083176727263463
 20
-5.274999999999997
 30
0.0
  0
VERTEX
  5
214
330
211
100
AcDbEntity
  8
Pel_Wall
100
AcDbVertex
100
AcDb2dVertex
 10
2.083176727263463
 20
-0.3999999999999986
 30
0.0
  0
VERTEX
  5
215
330
211
100
AcDbEntity
  8
Pel_Wall
100
AcDbVertex
100
AcDb2dVertex
 10
1.583176727263463
 20
-0.3999999999999986
 30
0.0
  0
SEQEND
  5
216
330
211
100
AcDbEntity
  8
Pel_Wall
  0
POLYLINE
  5
217
102
{ACAD_REACTORS
330
22D
102
}
330
20B
100
AcDbEntity
  8
Pel_Wall
100
AcDb2dPolyline
 66
     1
 10
0.0
 20
0.0
 30
0.0
 70
     1
  0
VERTEX
  5
218
330
217
100
AcDbEntity
  8
Pel_Wall
100
AcDbVertex
100
AcDb2dVertex
 10
5.583176727263463
 20
-5.274999999999997
 30
0.0
  0
VERTEX
  5
219
330
217
100
AcDbEntity
  8
Pel_Wall
100
AcDbVertex
100
AcDb2dVertex
 10
6.208176727263463
 20
-5.274999999999994
 30
0.0
  0
VERTEX
  5
21A
330
217
100
AcDbEntity
  8
Pel_Wall
100
AcDbVertex
100
AcDb2dVertex
 10
6.208176727263463
 20
-0.3999999999999986
 30
0.0
  0
VERTEX
  5
21B
330
217
100
AcDbEntity
  8
Pel_Wall
100
AcDbVertex
100
AcDb2dVertex
 10
6.208176727263463
 20
-0.3999999999999986
 30
0.0
  0
VERTEX
  5
21C
330
217
100
AcDbEntity
  8
Pel_Wall
100
AcDbVertex
100
AcDb2dVertex
 10
5.583176727263463
 20
-0.3999999999999986
 30
0.0
  0
VERTEX
  5
21D
330
217
100
AcDbEntity
  8
Pel_Wall
100
AcDbVertex
100
AcDb2dVertex
 10
5.583176727263463
 20
-0.3999999999999986
 30
0.0
  0
SEQEND
  5
21E
330
217
100
AcDbEntity
  8
Pel_Wall
  0
INSERT
  5
21F
330
20B
100
AcDbEntity
  8
Pel_Wall
100
AcDbBlockReference
  2
2x
 10
2.083176727263463
 20
-0.3999999999999986
 30
0.0
 41
-3.5
 42
1.5
 43
5.525426194272476
 50
180.0
  0
HATCH
  5
22D
330
20B
100
AcDbEntity
  8
Pel_Wall
100
AcDbHatch
 10
0.0
 20
0.0
 30
0.0
210
0.0
220
0.0
230
1.0
  2
GYP
 70
     0
 71
     1
 91
        1
 92
        1
 93
        4
 72
     1
 10
5.583176727263463
 20
-5.274999999999997
 11
6.208176727263463
 21
-5.274999999999994
 72
     1
 10
6.208176727263463
 20
-5.274999999999994
 11
6.208176727263463
 21
-0.3999999999999986
 72
     1
 10
6.208176727263463
 20
-0.3999999999999986
 11
5.583176727263463
 21
-0.3999999999999986
 72
     1
 10
5.583176727263463
 20
-0.3999999999999986
 11
5.583176727263463
 21
-5.274999999999997
 97
        1
330
217
 75
     0
 76
     1
 52
0.0
 41
1.0
 77
     0
 78
     3
 53
0.0
 43
-3.135573272736536
 44
0.5001504765552128
 45
0.18
 46
0.5
 79
     2
 49
0.0
 49
-0.3
 53
30.0
 43
-3.105573272736535
 44
0.6201504765552138
 45
-0.094115427318801
 46
0.5230127018922194
 79
     2
 49
0.0
 49
-0.3
 53
60.0
 43
-3.075573272736534
 44
0.6801504765552125
 45
-0.3430127018922193
 46
0.405884572681199
 79
     2
 49
0.0
 49
-0.3
 98
        1
 10
-3.135573272736536
 20
0.5001504765552128
  0
INSERT
  5
22E
330
20B
100
AcDbEntity
  8
Pel_Wall
100
AcDbBlockReference
  2
Insul1
 10
5.583176727263463
 20
-1.899999999999997
 30
0.0
 41
3.5
 42
3.25
 50
180.0
  0
LINE
  5
240
330
20B
100
AcDbEntity
  8
Pel_Wall
  6
Continuous
100
AcDbLine
 10
1.282561866902298
 20
-0.8585137151526325
 30
0.0
 11
2.014886731812268
 21
-0.8585137151526325
 31
0.0
  0
LINE
  5
241
330
20B
100
AcDbEntity
  8
Pel_Wall
  6
Continuous
100
AcDbLine
 10
1.345061866902298
 20
-0.9835137151526325
 30
0.0
 11
1.345061866902298
 21
-0.7335137151526326
 31
0.0
  0
LINE
  5
242
330
20B
100
AcDbEntity
  8
Pel_Wall
  6
Continuous
100
AcDbLine
 10
2.514886731812268
 20
-0.8585137151526325
 30
0.0
 11
3.264886731812268
 21
-0.8585137151526325
 31
0.0
  0
LINE
  5
243
330
20B
100
AcDbEntity
  8
Pel_Wall
  6
Continuous
100
AcDbLine
 10
2.139886731812268
 20
-0.8585137151526325
 30
0.0
 11
2.389886731812268
 21
-0.8585137151526325
 31
0.0
  0
POLYLINE
  5
244
330
20B
100
AcDbEntity
  8
Pel_Wall
  6
Continuous
100
AcDb2dPolyline
 66
     1
 10
0.0
 20
0.0
 30
0.0
  0
VERTEX
  5
245
330
244
100
AcDbEntity
  8
Pel_Wall
  6
Continuous
100
AcDbVertex
100
AcDb2dVertex
 10
3.941369957400411
 20
-0.3174999999999954
 30
0.0
  0
VERTEX
  5
246
330
244
100
AcDbEntity
  8
Pel_Wall
  6
Continuous
100
AcDbVertex
100
AcDb2dVertex
 10
1.523098593414502
 20
-0.317499999999999
 30
0.0
  0
VERTEX
  5
247
330
244
100
AcDbEntity
  8
Pel_Wall
  6
Continuous
100
AcDbVertex
100
AcDb2dVertex
 10
1.523098593414502
 20
-5.274999999999997
 30
0.0
  0
SEQEND
  5
248
330
244
100
AcDbEntity
  8
Pel_Wall
  6
Continuous
  0
POLYLINE
  5
249
330
20B
100
AcDbEntity
  8
Pel_Wall
  6
Continuous
100
AcDb2dPolyline
 66
     1
 10
0.0
 20
0.0
 30
0.0
  0
VERTEX
  5
24A
330
249
100
AcDbEntity
  8
Pel_Wall
  6
Continuous
100
AcDbVertex
100
AcDb2dVertex
 10
3.941369957400411
 20
-0.337499999999995
 30
0.0
  0
VERTEX
  5
24B
330
249
100
AcDbEntity
  8
Pel_Wall
  6
Continuous
100
AcDbVertex
100
AcDb2dVertex
 10
1.543098593414498
 20
-0.3374999999999986
 30
0.0
  0
VERTEX
  5
24C
330
249
100
AcDbEntity
  8
Pel_Wall
  6
Continuous
100
AcDbVertex
100
AcDb2dVertex
 10
1.543098593414498
 20
-5.274999999999997
 30
0.0
  0
SEQEND
  5
24D
330
249
100
AcDbEntity
  8
Pel_Wall
  6
Continuous
  0
POLYLINE
  5
24E
330
20B
100
AcDbEntity
  8
Pel_Wall
  6
Continuous
100
AcDb2dPolyline
 66
     1
 10
0.0
 20
0.0
 30
0.0
  0
VERTEX
  5
24F
330
24E
100
AcDbEntity
  8
Pel_Wall
  6
Continuous
100
AcDbVertex
100
AcDb2dVertex
 10
3.860621487740559
 20
-0.254999999999999
 30
0.0
  0
VERTEX
  5
250
330
24E
100
AcDbEntity
  8
Pel_Wall
  6
Continuous
100
AcDbVertex
100
AcDb2dVertex
 10
1.460598593414502
 20
-0.254999999999999
 30
0.0
  0
VERTEX
  5
251
330
24E
100
AcDbEntity
  8
Pel_Wall
  6
Continuous
100
AcDbVertex
100
AcDb2dVertex
 10
1.460598593414502
 20
-2.337499999999997
 30
0.0
  0
VERTEX
  5
252
330
24E
100
AcDbEntity
  8
Pel_Wall
  6
Continuous
100
AcDbVertex
100
AcDb2dVertex
 10
1.460598593414502
 20
-2.337499999999997
 30
0.0
  0
VERTEX
  5
253
330
24E
100
AcDbEntity
  8
Pel_Wall
  6
Continuous
100
AcDbVertex
100
AcDb2dVertex
 10
1.460598593414502
 20
-2.337499999999997
 30
0.0
  0
SEQEND
  5
254
330
24E
100
AcDbEntity
  8
Pel_Wall
  6
Continuous
  0
POLYLINE
  5
255
330
20B
100
AcDbEntity
  8
Pel_Wall
  6
Continuous
100
AcDb2dPolyline
 66
     1
 10
0.0
 20
0.0
 30
0.0
  0
VERTEX
  5
256
330
255
100
AcDbEntity
  8
Pel_Wall
100
AcDbVertex
100
AcDb2dVertex
 10
3.860621487740559
 20
-0.2749999999999986
 30
0.0
  0
VERTEX
  5
257
330
255
100
AcDbEntity
  8
Pel_Wall
100
AcDbVertex
100
AcDb2dVertex
 10
1.480598593414498
 20
-0.2749999999999986
 30
0.0
  0
VERTEX
  5
258
330
255
100
AcDbEntity
  8
Pel_Wall
100
AcDbVertex
100
AcDb2dVertex
 10
1.480598593414498
 20
-2.337499999999997
 30
0.0
  0
VERTEX
  5
259
330
255
100
AcDbEntity
  8
Pel_Wall
100
AcDbVertex
100
AcDb2dVertex
 10
1.480598593414498
 20
-2.337499999999997
 30
0.0
  0
VERTEX
  5
25A
330
255
100
AcDbEntity
  8
Pel_Wall
100
AcDbVertex
100
AcDb2dVertex
 10
1.480598593414498
 20
-2.337499999999997
 30
0.0
  0
SEQEND
  5
25B
330
255
100
AcDbEntity
  8
Pel_Wall
  6
Continuous
  0
POINT
  5
25C
330
20B
100
AcDbEntity
  8
Pel_Points
100
AcDbPoint
 10
0.0
 20
0.0
 30
0.0
  0
POLYLINE
  5
25E
330
20B
100
AcDbEntity
  8
Pel_Wall
100
AcDb2dPolyline
 66
     1
 10
0.0
 20
0.0
 30
0.0
  0
VERTEX
  5
25F
330
25E
100
AcDbEntity
  8
Pel_Wall
100
AcDbVertex
100
AcDb2dVertex
 10
0.5526416264068388
 20
-5.274999999999999
 30
0.0
 42
0.0414281355104112
  0
VERTEX
  5
260
330
25E
100
AcDbEntity
  8
Pel_Wall
100
AcDbVertex
100
AcDb2dVertex
 10
1.145679892964579
 20
-1.310691797382461
 30
0.0
 42
0.4303548136986456
  0
VERTEX
  5
261
330
25E
100
AcDbEntity
  8
Pel_Wall
100
AcDbVertex
100
AcDb2dVertex
 10
1.095754932478854
 20
-1.257953491245744
 30
0.0
  0
VERTEX
  5
262
330
25E
100
AcDbEntity
  8
Pel_Wall
100
AcDbVertex
100
AcDb2dVertex
 10
0.5685762323658281
 20
-1.257953491245744
 30
0.0
 42
-0.5032064810093642
  0
VERTEX
  5
263
330
25E
100
AcDbEntity
  8
Pel_Wall
100
AcDbVertex
100
AcDb2dVertex
 10
0.4728681999652764
 20
-1.12897121159051
 30
0.0
 42
0.0643143356541594
  0
VERTEX
  5
264
330
25E
100
AcDbEntity
  8
Pel_Wall
100
AcDbVertex
100
AcDb2dVertex
 10
0.9551897995359901
 20
0.2349999999999905
 30
0.0
  0
SEQEND
  5
265
330
25E
100
AcDbEntity
  8
Pel_Wall
  0
POLYLINE
  5
266
330
20B
100
AcDbEntity
  8
Pel_Wall
100
AcDb2dPolyline
 66
     1
 10
0.0
 20
0.0
 30
0.0
  0
VERTEX
  5
267
330
266
100
AcDbEntity
  8
Pel_Wall
100
AcDbVertex
100
AcDb2dVertex
 10
1.018352390039268
 20
0.2349999999999905
 30
0.0
 42
-0.0702128556569249
  0
VERTEX
  5
268
330
266
100
AcDbEntity
  8
Pel_Wall
100
AcDbVertex
100
AcDb2dVertex
 10
0.5207222161655523
 20
-1.143462351418122
 30
0.0
 42
0.5032064810093626
  0
VERTEX
  5
269
330
266
100
AcDbEntity
  8
Pel_Wall
100
AcDbVertex
100
AcDb2dVertex
 10
0.5685762323658281
 20
-1.207953491245746
 30
0.0
  0
VERTEX
  5
26A
330
266
100
AcDbEntity
  8
Pel_Wall
100
AcDbVertex
100
AcDb2dVertex
 10
1.095754932478854
 20
-1.207953491245746
 30
0.0
 42
-0.4303548136986371
  0
VERTEX
  5
26B
330
266
100
AcDbEntity
  8
Pel_Wall
100
AcDbVertex
100
AcDb2dVertex
 10
1.195604853450319
 20
-1.313430103519181
 30
0.0
 42
-0.0397436746041886
  0
VERTEX
  5
26C
330
266
100
AcDbEntity
  8
Pel_Wall
100
AcDbVertex
100
AcDb2dVertex
 10
0.6035294998728276
 20
-5.274999999999999
 30
0.0
  0
VERTEX
  5
26D
330
266
100
AcDbEntity
  8
Pel_Wall
100
AcDbVertex
100
AcDb2dVertex
 10
0.5526416264068388
 20
-5.274999999999999
 30
0.0
 42
0.0161349525268513
  0
SEQEND
  5
26E
330
266
100
AcDbEntity
  8
Pel_Wall
  0
INSERT
  5
26F
330
20B
100
AcDbEntity
  8
0
100
AcDbBlockReference
  2
Shim
 10
1.46611188502684
 20
-0.2431094046593873
 30
0.0
 41
2.4517465009312
 42
0.2427130968754749
 43
2.4517465009312
  0
INSERT
  5
27E
330
20B
100
AcDbEntity
  8
0
100
AcDbBlockReference
  2
A$C69046E27
 10
2.881196749768946
 20
0.1412045742809376
 30
0.0
 41
-1.0
 50
180.0
  0
ENDBLK
  5
2B1
330
20B
100
AcDbEntity
  8
0
100
AcDbBlockEnd
  0
BLOCK
  5
182
330
17F
100
AcDbEntity
  8
0
100
AcDbBlockBegin
  2
TSE25DHH
 70
     0
 10
0.0
 20
0.0
 30
0.0
  3
TSE25DHH
  1

  0
POINT
  5
183
330
17F
100
AcDbEntity
  8
Pel_CS-Points
100
AcDbPoint
 10
0.0
 20
-0.0000000000000036
 30
0.0
  0
LWPOLYLINE
  5
184
330
17F
100
AcDbEntity
  8
Pel_CS-Cross Section
 62
     4
100
AcDbPolyline
 90
      224
 70
     1
 43
0.0
 10
0.6250000000000071
 20
0.4999589803374818
 42
0.4142135623730951
 10
0.6100000000000066
 20
0.5149589803374824
 10
-0.1880000000000024
 20
0.5149589803374753
 42
0.4142135623730898
 10
-0.2180000000000017
 20
0.4849589803374741
 10
-0.2180000000000017
 20
0.1550000000000224
 42
0.4142135623730951
 10
-0.2030000000000012
 20
0.1400000000000219
 10
-0.1835751311064389
 20
0.1400000000000219
 42
-0.3977214534302856
 10
-0.1685991802890907
 20
0.1258490566037977
 42
0.1005861722143936
 10
-0.1432755350721209
 20
0.0295441972185167
 10
-0.0945866973917866
 20
-0.0693162958277327
 42
-0.1051749951051571
 10
-0.0562774695163491
 20
-0.2205769230768908
 42
0.4029900256443972
 10
-0.0412885682970057
 20
-0.234999999999971
 10
-0.0150000000000006
 20
-0.234999999999971
 42
-0.4142135623730913
 10
0.0
 20
-0.2499999999999716
 10
0.0000000000000142
 20
-1.294999999999852
 42
0.4142135623730951
 10
0.0300000000000154
 20
-1.324999999999853
 10
0.3600000000000136
 20
-1.32499999999986
 42
-0.4142135623730951
 10
0.3750000000000142
 20
-1.339999999999861
 10
0.3750000000000142
 20
-1.779999999999986
 42
0.4142135623730863
 10
0.3900000000000148
 20
-1.794999999999987
 10
0.425000000000015
 20
-1.794999999999987
 42
0.7088115080031714
 10
0.4406250000000043
 20
-1.750484381255049
 42
-0.2277350772920443
 10
0.4350000000000165
 20
-1.738775010008058
 10
0.4350000000000165
 20
-1.621999999999985
 42
-0.4142135623730602
 10
0.4500000000000135
 20
-1.606999999999992
 10
0.6950000000000145
 20
-1.606999999999985
 42
-0.4142135623730951
 10
0.7100000000000151
 20
-1.621999999999985
 10
0.7100000000000151
 20
-2.279999999999986
 42
0.4142135623730951
 10
0.7250000000000157
 20
-2.294999999999987
 10
0.7600000000000123
 20
-2.294999999999987
 42
0.7088115080031435
 10
0.7756250000000052
 20
-2.250484381255049
 42
-0.2277350772921698
 10
0.7700000000000138
 20
-2.238775010008058
 10
0.7700000000000138
 20
-1.809999999999988
 42
-0.4142135623730863
 10
0.7850000000000144
 20
-1.794999999999987
 10
1.017000000000013
 20
-1.794999999999987
 42
0.4142135623730625
 10
1.047000000000011
 20
-1.764999999999986
 10
1.047000000000011
 20
-1.173000000000012
 10
1.106790911356306
 20
-0.8339088914466401
 42
-0.4091108014275998
 10
1.123909544627087
 20
-0.8216982890027253
 10
2.302346516975617
 20
-1.008344369325882
 42
-0.3689194771098485
 10
2.315000000000015
 20
-1.023159694434809
 10
2.315000000000022
 20
-1.949999999999988
 42
-0.4142135623730951
 10
2.300000000000022
 20
-1.964999999999989
 10
2.290000000000016
 20
-1.964999999999989
 42
0.4142135623730951
 10
2.275000000000016
 20
-1.979999999999989
 10
2.275000000000016
 20
-2.00999999999999
 42
0.4142135623730951
 10
2.290000000000016
 20
-2.024999999999991
 10
2.320000000000014
 20
-2.024999999999991
 42
-0.4142135623731122
 10
2.335000000000015
 20
-2.039999999999992
 10
2.335000000000015
 20
-2.067499999999988
 10
2.385000000000017
 20
-2.067499999999995
 10
2.385000000000015
 20
-2.024999999999991
 10
2.420000000000014
 20
-2.024999999999991
 10
2.420000000000014
 20
-1.964999999999989
 10
2.390000000000018
 20
-1.964999999999989
 42
-0.4142135623730943
 10
2.375000000000017
 20
-1.949999999999988
 10
2.375000000000014
 20
-1.289999999999992
 42
-0.4142135623731306
 10
2.390000000000016
 20
-1.274999999999991
 10
2.390000000000016
 20
-1.234999999999985
 42
-0.4142135623730606
 10
2.375000000000017
 20
-1.219999999999991
 10
2.375000000000017
 20
-1.027289642806138
 42
-0.4610063144273175
 10
2.392346516975621
 20
-1.012474317697211
 10
2.457000000000018
 20
-1.022714423421067
 10
2.457000000000016
 20
-0.9720911671316621
 10
1.13484722729976
 20
-0.7626827402039993
 42
-0.419334801758363
 10
1.12242162798018
 20
-0.7452626924300674
 10
1.198288549447866
 20
-0.3149999999999942
 10
1.15767148497245
 20
-0.3149999999999942
 10
1.082817145044588
 20
-0.7395200571523475
 42
-0.4091108014276726
 10
1.065698511773803
 20
-0.7517306595962694
 10
0.0800000000000054
 20
-0.595611352480244
 10
0.0800000000000054
 20
-0.6462346087696354
 10
1.036740799528114
 20
-0.7977674648385502
 42
-0.4193348017583459
 10
1.049166398847695
 20
-0.8151875126124821
 10
0.9872278837048291
 20
-1.166458287476316
 42
0.0436609429085114
 10
0.9870000000000125
 20
-1.169063010141329
 10
0.9870000000000125
 20
-1.719999999999991
 42
-0.4142135623730602
 10
0.9720000000000119
 20
-1.734999999999985
 10
0.7850000000000144
 20
-1.734999999999985
 42
-0.4142135623730863
 10
0.7700000000000138
 20
-1.719999999999984
 10
0.7700000000000174
 20
-1.621999999999985
 42
0.4142135623731054
 10
0.6950000000000145
 20
-1.546999999999989
 10
0.45000000000001
 20
-1.546999999999989
 42
-0.4142135623730827
 10
0.4350000000000112
 20
-1.531999999999989
 10
0.4350000000000005
 20
-1.339999999999847
 42
0.4142135623730983
 10
0.3599999999999994
 20
-1.264999999999851
 10
0.0750000000000242
 20
-1.264999999999858
 42
-0.4142135623730951
 10
0.0600000000000236
 20
-1.249999999999857
 10
0.0600000000000129
 20
-0.6606296634548344
 42
-0.4610063144273264
 10
0.0773465169756165
 20
-0.6458143383459074
 10
0.0800000000000054
 20
-0.6462346087696354
 10
0.0800000000000072
 20
-0.595611352480244
 10
0.0776534830244007
 20
-0.5952397007023507
 42
-0.3689194771098148
 10
0.0650000000000048
 20
-0.5804243755934238
 10
0.0650000000000013
 20
-0.3149999999999977
 42
-0.4142135623731124
 10
0.080000000000009
 20
-0.29999999999999
 10
1.142440085794165
 20
-0.2999999999999972
 42
-0.4142135623731377
 10
1.157440085794165
 20
-0.3149999999999942
 10
1.198288549447868
 20
-0.3149999999999942
 10
1.198747832330969
 20
-0.3123952773349856
 42
-0.3639702342661378
 10
1.213519948626148
 20
-0.2999999999999972
 10
2.457000000000014
 20
-0.2999999999999972
 42
-0.4142135623731675
 10
2.472000000000015
 20
-0.3149999999999977
 10
2.522000000000016
 20
-0.3149999999999977
 42
-0.4142135623732023
 10
2.537000000000016
 20
-0.2999999999999972
 10
3.900000000000016
 20
-0.2999999999999972
 42
-0.4142135623730776
 10
3.915000000000016
 20
-0.3149999999999977
 10
3.915000000000016
 20
-1.089999999999989
 42
-0.4142135623730776
 10
3.900000000000016
 20
-1.104999999999989
 10
3.735000000000017
 20
-1.104999999999989
 42
0.4142135623730951
 10
3.660000000000017
 20
-1.179999999999992
 10
3.660000000000014
 20
-1.219999999999984
 42
-0.4142135623730776
 10
3.645000000000013
 20
-1.234999999999985
 10
2.537000000000016
 20
-1.234999999999985
 42
-0.4142135623730778
 10
2.522000000000016
 20
-1.219999999999984
 10
2.522000000000018
 20
-0.3149999999999977
 10
2.472000000000013
 20
-0.3149999999999977
 10
2.472000000000015
 20
-0.9569041902448418
 42
-0.4142135623730703
 10
2.457000000000016
 20
-0.9719041902448424
 10
2.457000000000016
 20
-1.022714423421067
 10
2.459346516975617
 20
-1.02308607519896
 42
-0.3689194771098271
 10
2.472000000000015
 20
-1.037901400307887
 10
2.472000000000015
 20
-1.219999999999991
 42
-0.4142135623730951
 10
2.457000000000014
 20
-1.234999999999985
 10
2.390000000000016
 20
-1.234999999999985
 10
2.390000000000016
 20
-1.274999999999991
 10
2.420000000000015
 20
-1.274999999999991
 42
-0.4142135623730886
 10
2.435000000000016
 20
-1.289999999999992
 10
2.435000000000016
 20
-1.949999999999988
 42
-0.4142135623731306
 10
2.420000000000014
 20
-1.964999999999989
 10
2.420000000000014
 20
-2.024999999999991
 10
2.435000000000016
 20
-2.024999999999991
 10
2.435000000000011
 20
-2.234999999999985
 10
2.385000000000013
 20
-2.234999999999985
 10
2.385000000000017
 20
-2.192499999999995
 10
2.335000000000016
 20
-2.192499999999995
 10
2.335000000000015
 20
-2.219999999999991
 42
-0.4142135623729218
 10
2.320000000000019
 20
-2.234999999999985
 10
2.290000000000013
 20
-2.234999999999992
 42
0.41421356237313
 10
2.275000000000012
 20
-2.249999999999989
 10
2.275000000000012
 20
-2.264999999999986
 42
0.4142135623730951
 10
2.305000000000015
 20
-2.294999999999987
 10
2.465000000000017
 20
-2.294999999999987
 42
0.4142135623730951
 10
2.495000000000018
 20
-2.264999999999986
 10
2.495000000000018
 20
-1.309999999999988
 42
-0.4142135623730951
 10
2.510000000000019
 20
-1.294999999999987
 10
3.690000000000015
 20
-1.294999999999987
 42
0.4142135623730561
 10
3.720000000000013
 20
-1.264999999999989
 10
3.720000000000016
 20
-1.184999999999988
 42
-0.4142135623730951
 10
3.735000000000017
 20
-1.169999999999987
 10
3.950000000000017
 20
-1.169999999999987
 42
0.4142135623730711
 10
3.980000000000014
 20
-1.139999999999986
 10
3.980000000000011
 20
-0.2499999999999858
 42
0.4142135623730951
 10
3.96500000000001
 20
-0.2349999999999852
 10
3.715000000000014
 20
-0.2349999999999852
 42
-0.4142135623730729
 10
3.700000000000015
 20
-0.2199999999999846
 10
3.700000000000017
 20
-0.0799999999999912
 42
-0.4142135623731299
 10
3.715000000000019
 20
-0.0649999999999906
 10
3.823000000000014
 20
-0.0649999999999977
 42
-0.4142135623730484
 10
3.838000000000013
 20
-0.0799999999999983
 10
3.838000000000015
 20
-0.1049999999999898
 10
3.863000000000011
 20
-0.1049999999999898
 10
3.915000000000016
 20
-0.0749777860021297
 10
3.915000000000016
 20
-0.0149999999999864
 42
0.4142135623730951
 10
3.900000000000016
 20
0.0000000000000142
 10
3.600980762113534
 20
0.0000000000000142
 10
3.575000000000006
 20
-0.0449999999999946
 10
3.575000000000004
 20
-0.0649999999999906
 10
3.620000000000009
 20
-0.0649999999999906
 42
-0.4142135623730839
 10
3.63500000000001
 20
-0.0799999999999912
 10
3.635000000000015
 20
-0.2199999999999918
 42
-0.4142135623729911
 10
3.620000000000016
 20
-0.2349999999999852
 10
2.150000000000012
 20
-0.2349999999999923
 42
-0.4142135623730085
 10
2.135000000000012
 20
-0.2199999999999882
 10
2.135000000000012
 20
-0.0899999999999892
 42
-0.4142135623731125
 10
2.150000000000012
 20
-0.0749999999999886
 10
2.19500000000001
 20
-0.0749999999999886
 10
2.19500000000001
 20
-0.0549999999999926
 10
2.169019237886477
 20
-0.0099999999999909
 10
2.085000000000011
 20
-0.0099999999999909
 42
0.4142135623730951
 10
2.07000000000001
 20
-0.0249999999999915
 10
2.07000000000001
 20
-0.2199999999999846
 42
-0.4142135623730951
 10
2.05500000000001
 20
-0.2349999999999852
 10
1.455000000000012
 20
-0.2349999999999852
 42
-0.4142135623730886
 10
1.440000000000011
 20
-0.2199999999999846
 10
1.440000000000001
 20
1.357500000000023
 42
1.0
 10
1.375000000000001
 20
1.357500000000023
 10
1.375000000000012
 20
-0.2199999999999918
 42
-0.4142135623730951
 10
1.360000000000011
 20
-0.2349999999999923
 10
0.3600000000000065
 20
-0.2349999999999852
 42
-0.4142135623732234
 10
0.345000000000006
 20
-0.2199999999999918
 10
0.3449999999999989
 20
-0.0150000000000006
 42
0.4142135623730952
 10
0.3300000000000001
 20
0.0
 10
0.0499999999999989
 20
-0.0000000000000036
 10
0.0499999999999989
 20
-0.0120000000000076
 42
-0.4142135623731299
 10
0.0650000000000013
 20
-0.0270000000000081
 10
0.0650000000000031
 20
-0.0749777860021368
 10
0.1170000000000009
 20
-0.105000000000004
 10
0.142000000000003
 20
-0.105000000000004
 10
0.142000000000003
 20
-0.0799999999999983
 42
-0.4142135623730992
 10
0.1570000000000018
 20
-0.0649999999999977
 10
0.2650000000000006
 20
-0.0649999999999977
 42
-0.4142135623730911
 10
0.2800000000000011
 20
-0.0799999999999983
 10
0.2800000000000011
 20
-0.2199999999999989
 42
-0.4142135623731299
 10
0.2649999999999988
 20
-0.2349999999999994
 10
0.0449999999999982
 20
-0.2349999999999852
 42
-0.4142135623730518
 10
0.0300000000000011
 20
-0.2199999999999846
 42
0.2358393635306429
 10
0.0100346379126304
 20
-0.1800260018829931
 42
-0.1971757684667503
 10
0.0042083799692865
 20
-0.1702414792902687
 42
0.0819489655475601
 10
-0.0396669563908247
 20
-0.0338571428571442
 42
-0.5611904343648834
 10
-0.0263260571768864
 20
-0.0120000000000147
 10
0.0500000000000007
 20
-0.0120000000000076
 10
0.0499999999999989
 20
-0.0000000000000036
 10
-0.0469364895643967
 20
-0.0000000000000071
 42
-0.2857055510463975
 10
-0.0603930216687267
 20
0.0083726518331062
 10
-0.0849638959533579
 20
0.0582627059416936
 42
-0.1005861722143747
 10
-0.1037033934139231
 20
0.1295283018868076
 42
0.2590217009484304
 10
-0.1451960733325954
 20
0.1951929335787881
 42
-0.2741867672084402
 10
-0.1530000000000022
 20
0.2083541086248068
 10
-0.153000000000004
 20
0.4349589803374699
 42
-0.4142135623730909
 10
-0.1380000000000034
 20
0.4499589803374704
 10
0.5687750100071654
 20
0.4499589803374846
 42
-0.2277350772958344
 10
0.5804843812542871
 20
0.4443339803373334
 42
0.7088115080075857
 10
0.6250000000000071
 20
0.4599589803373157
  0
LWPOLYLINE
  5
187
330
17F
100
AcDbEntity
  8
Pel_CS-Cross Section
 62
     4
100
AcDbPolyline
 90
       89
 70
     1
 43
0.0
 10
2.165000000000013
 20
-1.874999999999982
 10
0.9100000000000143
 20
-1.874999999999982
 42
0.4142135623730042
 10
0.8500000000000227
 20
-1.934999999999963
 10
0.850000000000012
 20
-1.977499999999977
 10
0.9000000000000127
 20
-1.977499999999977
 10
0.9000000000000127
 20
-1.93499999999998
 10
0.9500000000000063
 20
-1.93499999999998
 10
0.9500000000000063
 20
-2.144999999999981
 10
0.9000000000000092
 20
-2.144999999999981
 10
0.9000000000000092
 20
-2.102499999999981
 10
0.8500000000000156
 20
-2.102499999999977
 10
0.850000000000012
 20
-2.314999999999979
 42
0.4142135623730605
 10
0.8650000000000055
 20
-2.32999999999998
 10
0.9249999999999936
 20
-2.330000000000001
 42
0.4142135623728872
 10
0.9400000000000083
 20
-2.314999999999983
 10
0.9400000000000154
 20
-2.285000000000003
 42
0.4142135623729565
 10
0.9250000000000149
 20
-2.270000000000003
 42
-0.4142135623728957
 10
0.9100000000000214
 20
-2.255000000000006
 10
0.9100000000000143
 20
-2.219999999999984
 42
-0.4142135623730258
 10
0.9250000000000113
 20
-2.204999999999984
 10
0.9425946626259609
 20
-2.20499999999998
 42
-0.1449930994916158
 10
0.9562106385013358
 20
-2.209033235801346
 10
1.228615975875396
 20
-2.385935330319583
 42
-0.2539676464750483
 10
1.240000000000019
 20
-2.406902094518226
 10
1.240000000000012
 20
-2.424999999999975
 10
1.300000000000018
 20
-2.424999999999979
 10
1.300000000000014
 20
-2.401472537521851
 42
0.253967646474988
 10
1.265847927626143
 20
-2.338572244925931
 10
1.014669214019622
 20
-2.175454881060272
 42
-0.3190832753179485
 10
1.008271039635847
 20
-2.159299858032824
 42
0.0602344222951869
 10
1.010000000000015
 20
-2.144999999999981
 10
1.010000000000008
 20
-1.949999999999981
 42
-0.4142135623730951
 10
1.025000000000009
 20
-1.93499999999998
 10
2.170000000000015
 20
-1.934999999999984
 42
-0.4142135623730951
 10
2.185000000000016
 20
-1.949999999999985
 10
2.185000000000009
 20
-2.574999999999981
 42
-0.4142135623731259
 10
2.170000000000008
 20
-2.589999999999982
 10
2.170000000000008
 20
-2.629999999999984
 42
-0.4142135623732009
 10
2.185000000000012
 20
-2.644999999999985
 10
2.185000000000009
 20
-2.75664319481611
 42
-0.2679491924311843
 10
2.177500000000016
 20
-2.769633575872877
 10
2.157500000000013
 20
-2.781180581256666
 42
0.2679491924311335
 10
2.120000000000018
 20
-2.846132486540501
 10
2.120000000000011
 20
-2.919170962313433
 42
-0.2679491924311207
 10
2.112500000000011
 20
-2.9321613433702
 10
2.092500000000015
 20
-2.943708348753993
 42
0.2679491924311192
 10
2.055000000000013
 20
-3.008660254037824
 10
2.055000000000013
 20
-3.049999999999982
 42
-0.4142135623730951
 10
2.040000000000013
 20
-3.064999999999983
 10
1.900000000000009
 20
-3.064999999999983
 42
-0.4142135623731644
 10
1.885000000000015
 20
-3.049999999999986
 10
1.885000000000019
 20
-2.644999999999985
 42
-0.4142135623730951
 10
1.900000000000019
 20
-2.629999999999984
 10
2.170000000000008
 20
-2.629999999999984
 10
2.170000000000008
 20
-2.589999999999982
 10
1.900000000000019
 20
-2.589999999999982
 42
-0.4142135623730951
 10
1.885000000000019
 20
-2.574999999999981
 10
1.885000000000015
 20
-2.514999999999982
 42
0.414213562373081
 10
1.810000000000012
 20
-2.439999999999983
 10
1.315000000000008
 20
-2.439999999999976
 42
-0.414213562373052
 10
1.300000000000018
 20
-2.424999999999979
 10
1.240000000000012
 20
-2.424999999999975
 42
-0.4142135623730951
 10
1.225000000000012
 20
-2.439999999999976
 10
1.030000000000011
 20
-2.439999999999983
 42
0.4142135623730951
 10
0.9900000000000126
 20
-2.479999999999982
 10
0.9900000000000126
 20
-2.484999999999985
 42
0.4142135623730951
 10
1.005000000000013
 20
-2.499999999999985
 10
1.810000000000012
 20
-2.499999999999978
 42
-0.4142135623731299
 10
1.825000000000013
 20
-2.514999999999975
 10
1.825000000000013
 20
-3.109999999999985
 42
0.4142135623730951
 10
1.840000000000014
 20
-3.124999999999985
 10
2.100000000000008
 20
-3.124999999999982
 42
0.4142135623730951
 10
2.115000000000009
 20
-3.109999999999981
 10
2.115000000000009
 20
-3.008660254037827
 42
-0.2679491924311288
 10
2.122500000000009
 20
-2.995669872981061
 10
2.172500000000013
 20
-2.96680235952158
 42
0.2679491924311207
 10
2.180000000000013
 20
-2.953811978464813
 10
2.180000000000013
 20
-2.846132486540501
 42
-0.2679491924311611
 10
2.187500000000014
 20
-2.83314210548373
 10
2.23
 20
-2.808604719043174
 42
0.2679491924311207
 10
2.245
 20
-2.78262395692964
 10
2.245
 20
-2.789066722950977
 42
-0.5688269930471225
 10
2.289328358208955
 20
-2.762709595811699
 42
0.2709607670182892
 10
2.723922204213941
 20
-2.749111226666368
 42
1.547678913000771
 10
2.655598716610704
 20
-2.7036804068568
 42
-0.258736450187276
 10
2.637535287309312
 20
-2.726495713340543
 42
-0.2813169801573829
 10
2.255623853210973
 20
-2.667327206164614
 42
-0.220637187885507
 10
2.245000000000011
 20
-2.644423823540886
 10
2.245000000000011
 20
-1.95499999999998
 42
0.4142135623730951
  0
LWPOLYLINE
  5
189
330
17F
100
AcDbEntity
  8
Pel_CS-Cross Section
 62
     4
100
AcDbPolyline
 90
       19
 70
     1
 43
0.0
 10
0.9139080671514303
 20
-2.368783944843475
 42
-0.3853654697452372
 10
0.9240471089319832
 20
-2.359989909964468
 42
0.2464808025218128
 10
0.9614849581858493
 20
-2.341340991366639
 42
-0.4195492703917527
 10
0.9755927266716106
 20
-2.339194545003675
 10
1.094000000000018
 20
-2.427999999999983
 42
0.1622776601683793
 10
1.13000000000002
 20
-2.439999999999983
 10
1.205000000000023
 20
-2.439999999999983
 42
1.219803902718483
 10
1.198076923076945
 20
-2.405384615384598
 42
-0.0990195135929395
 10
1.174999999999986
 20
-2.409999999999982
 10
1.13000000000002
 20
-2.409999999999982
 42
-0.1622776601683793
 10
1.112000000000019
 20
-2.403999999999982
 10
0.9640000000000235
 20
-2.292999999999981
 42
0.6180339887499111
 10
0.9400000000000225
 20
-2.304999999999981
 10
0.9400000000000225
 20
-2.314999999999983
 42
-0.4142135623730951
 10
0.925000000000022
 20
-2.329999999999984
 10
0.915000000000024
 20
-2.32999999999998
 42
0.3775763705690558
 10
0.8852404197142398
 20
-2.356209567146869
 42
0.1289412182550376
 10
0.9837261102444525
 20
-3.11080492466549
 42
1.0
 10
1.011515976719632
 20
-3.099503450368228
 42
-0.1274111175207378
  0
POLYLINE
  5
18A
330
17F
100
AcDbEntity
  8
Pel_CS-Weatherstrip
100
AcDb2dPolyline
 66
     1
 10
0.0
 20
0.0
 30
0.0
  0
VERTEX
  5
D51
330
18A
100
AcDbEntity
  8
Pel_CS-Weatherstrip
100
AcDbVertex
100
AcDb2dVertex
 10
2.397770088938152
 20
-2.218287128208618
 30
0.0
  0
VERTEX
  5
D52
330
18A
100
AcDbEntity
  8
Pel_CS-Weatherstrip
100
AcDbVertex
100
AcDb2dVertex
 10
2.397770088938152
 20
-2.172042538570241
 30
0.0
  0
VERTEX
  5
D53
330
18A
100
AcDbEntity
  8
Pel_CS-Weatherstrip
100
AcDbVertex
100
AcDb2dVertex
 10
2.245000000000011
 20
-2.218795293465003
 30
0.0
  0
VERTEX
  5
D54
330
18A
100
AcDbEntity
  8
Pel_CS-Weatherstrip
100
AcDbVertex
100
AcDb2dVertex
 10
2.245000000000011
 20
-2.192876468323479
 30
0.0
  0
VERTEX
  5
D55
330
18A
100
AcDbEntity
  8
Pel_CS-Weatherstrip
100
AcDbVertex
100
AcDb2dVertex
 10
2.397770088938152
 20
-2.172042538570241
 30
0.0
  0
VERTEX
  5
D56
330
18A
100
AcDbEntity
  8
Pel_CS-Weatherstrip
100
AcDbVertex
100
AcDb2dVertex
 10
2.245000000000011
 20
-2.161017902172513
 30
0.0
  0
VERTEX
  5
D57
330
18A
100
AcDbEntity
  8
Pel_CS-Weatherstrip
100
AcDbVertex
100
AcDb2dVertex
 10
2.245000000000011
 20
-2.130813556318511
 30
0.0
  0
VERTEX
  5
D58
330
18A
100
AcDbEntity
  8
Pel_CS-Weatherstrip
100
AcDbVertex
100
AcDb2dVertex
 10
2.397770088938152
 20
-2.172042538570241
 30
0.0
  0
VERTEX
  5
D59
330
18A
100
AcDbEntity
  8
Pel_CS-Weatherstrip
100
AcDbVertex
100
AcDb2dVertex
 10
2.397770088938152
 20
-2.08958457406678
 30
0.0
  0
VERTEX
  5
D5A
330
18A
100
AcDbEntity
  8
Pel_CS-Weatherstrip
100
AcDbVertex
100
AcDb2dVertex
 10
2.245000000000011
 20
-2.130813556318511
 30
0.0
  0
VERTEX
  5
D5B
330
18A
100
AcDbEntity
  8
Pel_CS-Weatherstrip
100
AcDbVertex
100
AcDb2dVertex
 10
2.245000000000011
 20
-2.101620549948233
 30
0.0
  0
VERTEX
  5
D5C
330
18A
100
AcDbEntity
  8
Pel_CS-Weatherstrip
100
AcDbVertex
100
AcDb2dVertex
 10
2.397770088938152
 20
-2.08958457406678
 30
0.0
  0
VERTEX
  5
D5D
330
18A
100
AcDbEntity
  8
Pel_CS-Weatherstrip
100
AcDbVertex
100
AcDb2dVertex
 10
2.245000000000011
 20
-2.06976198379726
 30
0.0
  0
VERTEX
  5
D5E
330
18A
100
AcDbEntity
  8
Pel_CS-Weatherstrip
100
AcDbVertex
100
AcDb2dVertex
 10
2.245000000000011
 20
-2.035203540630195
 30
0.0
  0
VERTEX
  5
D5F
330
18A
100
AcDbEntity
  8
Pel_CS-Weatherstrip
100
AcDbVertex
100
AcDb2dVertex
 10
2.397770088938152
 20
-2.08958457406678
 30
0.0
  0
VERTEX
  5
D60
330
18A
100
AcDbEntity
  8
Pel_CS-Weatherstrip
100
AcDbVertex
100
AcDb2dVertex
 10
2.397770088938152
 20
-2.031509404522449
 30
0.0
  0
VERTEX
  5
D61
330
18A
100
AcDbEntity
  8
Pel_CS-Weatherstrip
100
AcDbVertex
100
AcDb2dVertex
 10
2.432770074938147
 20
-2.031509404522449
 30
0.0
  0
VERTEX
  5
D62
330
18A
100
AcDbEntity
  8
Pel_CS-Weatherstrip
100
AcDbVertex
100
AcDb2dVertex
 10
2.432770074938147
 20
-2.218287128208618
 30
0.0
  0
VERTEX
  5
D63
330
18A
100
AcDbEntity
  8
0
100
AcDbVertex
100
AcDb2dVertex
 10
2.397770088938152
 20
-2.218287128208618
 30
0.0
  0
SEQEND
  5
D64
330
18A
100
AcDbEntity
  8
Pel_CS-Weatherstrip
  0
POLYLINE
  5
19F
330
17F
100
AcDbEntity
  8
Pel_CS-Weatherstrip
100
AcDb2dPolyline
 66
     1
 10
0.0
 20
0.0
 30
0.0
  0
VERTEX
  5
D66
330
19F
100
AcDbEntity
  8
Pel_CS-Weatherstrip
100
AcDbVertex
100
AcDb2dVertex
 10
0.91277008893816
 20
-2.128287128208615
 30
0.0
  0
VERTEX
  5
D67
330
19F
100
AcDbEntity
  8
Pel_CS-Weatherstrip
100
AcDbVertex
100
AcDb2dVertex
 10
0.91277008893816
 20
-2.082042538570238
 30
0.0
  0
VERTEX
  5
D68
330
19F
100
AcDbEntity
  8
Pel_CS-Weatherstrip
100
AcDbVertex
100
AcDb2dVertex
 10
0.7700000000000174
 20
-2.125734959127321
 30
0.0
  0
VERTEX
  5
D69
330
19F
100
AcDbEntity
  8
Pel_CS-Weatherstrip
100
AcDbVertex
100
AcDb2dVertex
 10
0.7700000000000174
 20
-2.09501590910219
 30
0.0
  0
VERTEX
  5
D6A
330
19F
100
AcDbEntity
  8
Pel_CS-Weatherstrip
100
AcDbVertex
100
AcDb2dVertex
 10
0.91277008893816
 20
-2.082042538570238
 30
0.0
  0
VERTEX
  5
D6B
330
19F
100
AcDbEntity
  8
Pel_CS-Weatherstrip
100
AcDbVertex
100
AcDb2dVertex
 10
0.7700000000000174
 20
-2.071739551055113
 30
0.0
  0
VERTEX
  5
D6C
330
19F
100
AcDbEntity
  8
Pel_CS-Weatherstrip
100
AcDbVertex
100
AcDb2dVertex
 10
0.7700000000000174
 20
-2.043512316431712
 30
0.0
  0
VERTEX
  5
D6D
330
19F
100
AcDbEntity
  8
Pel_CS-Weatherstrip
100
AcDbVertex
100
AcDb2dVertex
 10
0.91277008893816
 20
-2.082042538570238
 30
0.0
  0
VERTEX
  5
D6E
330
19F
100
AcDbEntity
  8
Pel_CS-Weatherstrip
100
AcDbVertex
100
AcDb2dVertex
 10
0.91277008893816
 20
-1.999584574066776
 30
0.0
  0
VERTEX
  5
D6F
330
19F
100
AcDbEntity
  8
Pel_CS-Weatherstrip
100
AcDbVertex
100
AcDb2dVertex
 10
0.7700000000000174
 20
-2.043512316431712
 30
0.0
  0
VERTEX
  5
D70
330
19F
100
AcDbEntity
  8
Pel_CS-Weatherstrip
100
AcDbVertex
100
AcDb2dVertex
 10
0.7700000000000174
 20
-2.010832700967771
 30
0.0
  0
VERTEX
  5
D71
330
19F
100
AcDbEntity
  8
Pel_CS-Weatherstrip
100
AcDbVertex
100
AcDb2dVertex
 10
0.91277008893816
 20
-1.999584574066776
 30
0.0
  0
VERTEX
  5
D72
330
19F
100
AcDbEntity
  8
Pel_CS-Weatherstrip
100
AcDbVertex
100
AcDb2dVertex
 10
0.7700000000000174
 20
-1.981059527734508
 30
0.0
  0
VERTEX
  5
D73
330
19F
100
AcDbEntity
  8
Pel_CS-Weatherstrip
100
AcDbVertex
100
AcDb2dVertex
 10
0.7700000000000174
 20
-1.948763205602215
 30
0.0
  0
VERTEX
  5
D74
330
19F
100
AcDbEntity
  8
Pel_CS-Weatherstrip
100
AcDbVertex
100
AcDb2dVertex
 10
0.91277008893816
 20
-1.999584574066776
 30
0.0
  0
VERTEX
  5
D75
330
19F
100
AcDbEntity
  8
Pel_CS-Weatherstrip
100
AcDbVertex
100
AcDb2dVertex
 10
0.91277008893816
 20
-1.941509404522445
 30
0.0
  0
VERTEX
  5
D76
330
19F
100
AcDbEntity
  8
Pel_CS-Weatherstrip
100
AcDbVertex
100
AcDb2dVertex
 10
0.9477700749381554
 20
-1.941509404522445
 30
0.0
  0
VERTEX
  5
D77
330
19F
100
AcDbEntity
  8
Pel_CS-Weatherstrip
100
AcDbVertex
100
AcDb2dVertex
 10
0.9477700749381554
 20
-2.128287128208615
 30
0.0
  0
VERTEX
  5
D78
330
19F
100
AcDbEntity
  8
0
100
AcDbVertex
100
AcDb2dVertex
 10
0.91277008893816
 20
-2.128287128208615
 30
0.0
  0
SEQEND
  5
D79
330
19F
100
AcDbEntity
  8
Pel_CS-Weatherstrip
  0
CIRCLE
  5
1B4
330
17F
100
AcDbEntity
  8
Pel_CS-Weatherstrip
100
AcDbCircle
 10
0.3651044678205189
 20
-3.284180551861339
 30
0.0
 40
0.018
  0
CIRCLE
  5
1B5
330
17F
100
AcDbEntity
  8
Pel_CS-Weatherstrip
100
AcDbCircle
 10
0.3651044678205189
 20
-3.159180551861339
 30
0.0
 40
0.018
  0
CIRCLE
  5
1B6
330
17F
100
AcDbEntity
  8
Pel_CS-Weatherstrip
100
AcDbCircle
 10
0.3651044678205189
 20
-3.534180551861339
 30
0.0
 40
0.018
  0
CIRCLE
  5
1B7
330
17F
100
AcDbEntity
  8
Pel_CS-Weatherstrip
100
AcDbCircle
 10
0.3651044678205189
 20
-3.784180551861339
 30
0.0
 40
0.018
  0
CIRCLE
  5
1B8
330
17F
100
AcDbEntity
  8
Pel_CS-Weatherstrip
100
AcDbCircle
 10
0.3651044678205189
 20
-3.894180551861339
 30
0.0
 40
0.018
  0
CIRCLE
  5
1B9
330
17F
100
AcDbEntity
  8
Pel_CS-Weatherstrip
100
AcDbCircle
 10
0.3651044678205189
 20
-3.659180551861339
 30
0.0
 40
0.018
  0
CIRCLE
  5
1BA
330
17F
100
AcDbEntity
  8
Pel_CS-Weatherstrip
100
AcDbCircle
 10
0.3651044678205189
 20
-3.409180551861339
 30
0.0
 40
0.018
  0
CIRCLE
  5
1BB
330
17F
100
AcDbEntity
  8
Pel_CS-Weatherstrip
100
AcDbCircle
 10
0.3651044678205189
 20
-2.659180551861339
 30
0.0
 40
0.018
  0
CIRCLE
  5
1BC
330
17F
100
AcDbEntity
  8
Pel_CS-Weatherstrip
100
AcDbCircle
 10
0.3651044678205189
 20
-2.534180551861339
 30
0.0
 40
0.018
  0
CIRCLE
  5
1BD
330
17F
100
AcDbEntity
  8
Pel_CS-Weatherstrip
100
AcDbCircle
 10
0.3651044678205189
 20
-3.034180551861339
 30
0.0
 40
0.018
  0
CIRCLE
  5
1BE
330
17F
100
AcDbEntity
  8
Pel_CS-Weatherstrip
100
AcDbCircle
 10
0.3651044678205189
 20
-2.909180551861339
 30
0.0
 40
0.018
  0
CIRCLE
  5
1BF
330
17F
100
AcDbEntity
  8
Pel_CS-Weatherstrip
100
AcDbCircle
 10
0.3651044678205189
 20
-2.784180551861339
 30
0.0
 40
0.018
  0
POLYLINE
  5
1C0
102
{ACAD_REACTORS
330
1F0
102
}
330
17F
100
AcDbEntity
  8
Pel_CS-Clad
100
AcDb2dPolyline
 66
     1
 10
0.0
 20
0.0
 30
0.0
 70
     1
  0
VERTEX
  5
D87
330
1C0
100
AcDbEntity
  8
Pel_CS-Clad
100
AcDbVertex
100
AcDb2dVertex
 10
0.4031044678205121
 20
-1.814180551861326
 30
0.0
  0
VERTEX
  5
D88
330
1C0
100
AcDbEntity
  8
Pel_CS-Clad
100
AcDbVertex
100
AcDb2dVertex
 10
0.6631044678205243
 20
-1.814180551861326
 30
0.0
 42
-0.4142135623732505
  0
VERTEX
  5
D89
330
1C0
100
AcDbEntity
  8
Pel_CS-Clad
100
AcDbVertex
100
AcDb2dVertex
 10
0.6831044678205238
 20
-1.834180551861336
 30
0.0
  0
VERTEX
  5
D8A
330
1C0
100
AcDbEntity
  8
Pel_CS-Clad
100
AcDbVertex
100
AcDb2dVertex
 10
0.6831044678205238
 20
-2.434180551861338
 30
0.0
 42
-0.4142135623731472
  0
VERTEX
  5
D8B
330
1C0
100
AcDbEntity
  8
Pel_CS-Clad
100
AcDbVertex
100
AcDb2dVertex
 10
0.6631044678205243
 20
-2.454180551861341
 30
0.0
  0
VERTEX
  5
D8C
330
1C0
100
AcDbEntity
  8
Pel_CS-Clad
100
AcDbVertex
100
AcDb2dVertex
 10
0.6231044678205216
 20
-2.454180551861341
 30
0.0
  0
VERTEX
  5
D8D
330
1C0
100
AcDbEntity
  8
Pel_CS-Clad
100
AcDbVertex
100
AcDb2dVertex
 10
0.6231044678205216
 20
-2.544180551861337
 30
0.0
 42
-0.4142135623731472
  0
VERTEX
  5
D8E
330
1C0
100
AcDbEntity
  8
Pel_CS-Clad
100
AcDbVertex
100
AcDb2dVertex
 10
0.603104467820522
 20
-2.56418055186134
 30
0.0
  0
VERTEX
  5
D8F
330
1C0
100
AcDbEntity
  8
Pel_CS-Clad
100
AcDbVertex
100
AcDb2dVertex
 10
0.4031044678205192
 20
-2.56418055186134
 30
0.0
 42
-0.4142135623730951
  0
VERTEX
  5
D90
330
1C0
100
AcDbEntity
  8
Pel_CS-Clad
100
AcDbVertex
100
AcDb2dVertex
 10
0.3831044678205195
 20
-2.544180551861337
 30
0.0
  0
VERTEX
  5
D91
330
1C0
100
AcDbEntity
  8
Pel_CS-Clad
100
AcDbVertex
100
AcDb2dVertex
 10
0.3831044678205195
 20
-2.524180551861341
 30
0.0
 42
-0.4142135623731472
  0
VERTEX
  5
D92
330
1C0
100
AcDbEntity
  8
Pel_CS-Clad
100
AcDbVertex
100
AcDb2dVertex
 10
0.4031044678205192
 20
-2.504180551861338
 30
0.0
  0
VERTEX
  5
D93
330
1C0
100
AcDbEntity
  8
Pel_CS-Clad
100
AcDbVertex
100
AcDb2dVertex
 10
0.4504880726862837
 20
-2.504180551861338
 30
0.0
 42
-0.0578233517657538
  0
VERTEX
  5
D94
330
1C0
100
AcDbEntity
  8
Pel_CS-Clad
100
AcDbVertex
100
AcDb2dVertex
 10
0.4527779352759716
 20
-2.504446255311492
 30
0.0
  0
VERTEX
  5
D95
330
1C0
100
AcDbEntity
  8
Pel_CS-Clad
100
AcDbVertex
100
AcDb2dVertex
 10
0.4527779352759716
 20
-2.524180551861341
 30
0.0
  0
VERTEX
  5
D96
330
1C0
100
AcDbEntity
  8
Pel_CS-Clad
100
AcDbVertex
100
AcDb2dVertex
 10
0.4031044678205192
 20
-2.524180551861341
 30
0.0
  0
VERTEX
  5
D97
330
1C0
100
AcDbEntity
  8
Pel_CS-Clad
100
AcDbVertex
100
AcDb2dVertex
 10
0.4031044678205192
 20
-2.54418055186133
 30
0.0
  0
VERTEX
  5
D98
330
1C0
100
AcDbEntity
  8
Pel_CS-Clad
100
AcDbVertex
100
AcDb2dVertex
 10
0.603104467820522
 20
-2.544180551861344
 30
0.0
  0
VERTEX
  5
D99
330
1C0
100
AcDbEntity
  8
Pel_CS-Clad
100
AcDbVertex
100
AcDb2dVertex
 10
0.6031044678205184
 20
-2.434180551861338
 30
0.0
  0
VERTEX
  5
D9A
330
1C0
100
AcDbEntity
  8
Pel_CS-Clad
100
AcDbVertex
100
AcDb2dVertex
 10
0.6631044678205172
 20
-2.434180551861338
 30
0.0
  0
VERTEX
  5
D9B
330
1C0
100
AcDbEntity
  8
Pel_CS-Clad
100
AcDbVertex
100
AcDb2dVertex
 10
0.6631044678205243
 20
-1.834180551861336
 30
0.0
  0
VERTEX
  5
D9C
330
1C0
100
AcDbEntity
  8
Pel_CS-Clad
100
AcDbVertex
100
AcDb2dVertex
 10
0.4031044678205227
 20
-1.834180551861336
 30
0.0
  0
VERTEX
  5
D9D
330
1C0
100
AcDbEntity
  8
Pel_CS-Clad
100
AcDbVertex
100
AcDb2dVertex
 10
0.4031044678205192
 20
-2.347930551861331
 30
0.0
  0
VERTEX
  5
D9E
330
1C0
100
AcDbEntity
  8
Pel_CS-Clad
100
AcDbVertex
100
AcDb2dVertex
 10
0.5831044678205224
 20
-2.347930551861338
 30
0.0
 42
-0.4142135623731472
  0
VERTEX
  5
D9F
330
1C0
100
AcDbEntity
  8
Pel_CS-Clad
100
AcDbVertex
100
AcDb2dVertex
 10
0.603104467820522
 20
-2.367930551861341
 30
0.0
  0
VERTEX
  5
DA0
330
1C0
100
AcDbEntity
  8
Pel_CS-Clad
100
AcDbVertex
100
AcDb2dVertex
 10
0.603104467820522
 20
-2.544180551861344
 30
0.0
  0
VERTEX
  5
DA1
330
1C0
100
AcDbEntity
  8
Pel_CS-Clad
100
AcDbVertex
100
AcDb2dVertex
 10
0.4031044678205192
 20
-2.54418055186133
 30
0.0
  0
VERTEX
  5
DA2
330
1C0
100
AcDbEntity
  8
Pel_CS-Clad
100
AcDbVertex
100
AcDb2dVertex
 10
0.4031044678205192
 20
-2.524180551861341
 30
0.0
  0
VERTEX
  5
DA3
330
1C0
100
AcDbEntity
  8
Pel_CS-Clad
100
AcDbVertex
100
AcDb2dVertex
 10
0.583104467820526
 20
-2.524180551861341
 30
0.0
  0
VERTEX
  5
DA4
330
1C0
100
AcDbEntity
  8
Pel_CS-Clad
100
AcDbVertex
100
AcDb2dVertex
 10
0.5831044678205189
 20
-2.367930551861341
 30
0.0
  0
VERTEX
  5
DA5
330
1C0
100
AcDbEntity
  8
Pel_CS-Clad
100
AcDbVertex
100
AcDb2dVertex
 10
0.4031044678205192
 20
-2.367930551861341
 30
0.0
 42
-0.4142135623730951
  0
VERTEX
  5
DA6
330
1C0
100
AcDbEntity
  8
Pel_CS-Clad
100
AcDbVertex
100
AcDb2dVertex
 10
0.3831044678205195
 20
-2.347930551861338
 30
0.0
  0
VERTEX
  5
DA7
330
1C0
100
AcDbEntity
  8
Pel_CS-Clad
100
AcDbVertex
100
AcDb2dVertex
 10
0.3831044678205195
 20
-1.834180551861336
 30
0.0
 42
-0.4142135623731472
  0
SEQEND
  5
DA8
330
1C0
100
AcDbEntity
  8
Pel_CS-Clad
  0
CIRCLE
  5
1E3
330
17F
100
AcDbEntity
  8
Pel_CS-Sealant
100
AcDbCircle
 10
0.5049794678205189
 20
-2.446055551861338
 30
0.0
 40
0.0575000000000001
  0
HATCH
  5
1E4
330
17F
100
AcDbEntity
  8
Pel_CS-Weatherstrip
100
AcDbHatch
 10
0.0
 20
0.0
 30
0.0
210
0.0
220
0.0
230
1.0
  2
SOLID
 70
     1
 71
     0
 91
        1
 92
        1
 93
        1
 72
     2
 10
0.3651044678205189
 20
-3.894180551861339
 40
0.018
 50
0.0
 51
360.0
 73
     1
 97
        0
 75
     0
 76
     1
 98
        1
 10
-0.3018955321794543
 20
-2.409180551861322
  0
HATCH
  5
1E5
330
17F
100
AcDbEntity
  8
Pel_CS-Weatherstrip
100
AcDbHatch
 10
0.0
 20
0.0
 30
0.0
210
0.0
220
0.0
230
1.0
  2
SOLID
 70
     1
 71
     0
 91
        1
 92
        1
 93
        1
 72
     2
 10
0.3651044678205189
 20
-3.784180551861339
 40
0.018
 50
0.0
 51
360.0
 73
     1
 97
        0
 75
     0
 76
     1
 98
        1
 10
-0.3018955321794543
 20
-2.299180551861322
  0
HATCH
  5
1E6
330
17F
100
AcDbEntity
  8
Pel_CS-Weatherstrip
100
AcDbHatch
 10
0.0
 20
0.0
 30
0.0
210
0.0
220
0.0
230
1.0
  2
SOLID
 70
     1
 71
     0
 91
        1
 92
        1
 93
        1
 72
     2
 10
0.3651044678205189
 20
-3.659180551861339
 40
0.018
 50
0.0
 51
360.0
 73
     1
 97
        0
 75
     0
 76
     1
 98
        1
 10
-0.3018955321794543
 20
-2.174180551861322
  0
HATCH
  5
1E7
330
17F
100
AcDbEntity
  8
Pel_CS-Weatherstrip
100
AcDbHatch
 10
0.0
 20
0.0
 30
0.0
210
0.0
220
0.0
230
1.0
  2
SOLID
 70
     1
 71
     0
 91
        1
 92
        1
 93
        1
 72
     2
 10
0.3651044678205189
 20
-3.534180551861339
 40
0.018
 50
0.0
 51
360.0
 73
     1
 97
        0
 75
     0
 76
     1
 98
        1
 10
-0.3018955321794543
 20
-2.049180551861322
  0
HATCH
  5
1E8
330
17F
100
AcDbEntity
  8
Pel_CS-Weatherstrip
100
AcDbHatch
 10
0.0
 20
0.0
 30
0.0
210
0.0
220
0.0
230
1.0
  2
SOLID
 70
     1
 71
     0
 91
        1
 92
        1
 93
        1
 72
     2
 10
0.3651044678205189
 20
-3.409180551861339
 40
0.018
 50
0.0
 51
360.0
 73
     1
 97
        0
 75
     0
 76
     1
 98
        1
 10
-0.3018955321794543
 20
-1.924180551861322
  0
HATCH
  5
1E9
330
17F
100
AcDbEntity
  8
Pel_CS-Weatherstrip
100
AcDbHatch
 10
0.0
 20
0.0
 30
0.0
210
0.0
220
0.0
230
1.0
  2
SOLID
 70
     1
 71
     0
 91
        1
 92
        1
 93
        1
 72
     2
 10
0.3651044678205189
 20
-3.284180551861339
 40
0.018
 50
0.0
 51
360.0
 73
     1
 97
        0
 75
     0
 76
     1
 98
        1
 10
-0.3018955321794543
 20
-1.799180551861322
  0
HATCH
  5
1EA
330
17F
100
AcDbEntity
  8
Pel_CS-Weatherstrip
100
AcDbHatch
 10
0.0
 20
0.0
 30
0.0
210
0.0
220
0.0
230
1.0
  2
SOLID
 70
     1
 71
     0
 91
        1
 92
        1
 93
        1
 72
     2
 10
0.3651044678205189
 20
-3.159180551861339
 40
0.018
 50
0.0
 51
360.0
 73
     1
 97
        0
 75
     0
 76
     1
 98
        1
 10
-0.3018955321794543
 20
-1.674180551861322
  0
HATCH
  5
1EB
330
17F
100
AcDbEntity
  8
Pel_CS-Weatherstrip
100
AcDbHatch
 10
0.0
 20
0.0
 30
0.0
210
0.0
220
0.0
230
1.0
  2
SOLID
 70
     1
 71
     0
 91
        1
 92
        1
 93
        1
 72
     2
 10
0.3651044678205189
 20
-3.034180551861339
 40
0.018
 50
0.0
 51
360.0
 73
     1
 97
        0
 75
     0
 76
     1
 98
        1
 10
-0.3018955321794543
 20
-1.549180551861322
  0
HATCH
  5
1EC
330
17F
100
AcDbEntity
  8
Pel_CS-Weatherstrip
100
AcDbHatch
 10
0.0
 20
0.0
 30
0.0
210
0.0
220
0.0
230
1.0
  2
SOLID
 70
     1
 71
     0
 91
        1
 92
        1
 93
        1
 72
     2
 10
0.3651044678205189
 20
-2.909180551861339
 40
0.018
 50
0.0
 51
360.0
 73
     1
 97
        0
 75
     0
 76
     1
 98
        1
 10
-0.3018955321794543
 20
-1.424180551861322
  0
HATCH
  5
1ED
330
17F
100
AcDbEntity
  8
Pel_CS-Weatherstrip
100
AcDbHatch
 10
0.0
 20
0.0
 30
0.0
210
0.0
220
0.0
230
1.0
  2
SOLID
 70
     1
 71
     0
 91
        1
 92
        1
 93
        1
 72
     2
 10
0.3651044678205189
 20
-2.784180551861339
 40
0.018
 50
0.0
 51
360.0
 73
     1
 97
        0
 75
     0
 76
     1
 98
        1
 10
-0.3018955321794543
 20
-1.299180551861322
  0
HATCH
  5
1EE
330
17F
100
AcDbEntity
  8
Pel_CS-Weatherstrip
100
AcDbHatch
 10
0.0
 20
0.0
 30
0.0
210
0.0
220
0.0
230
1.0
  2
SOLID
 70
     1
 71
     0
 91
        1
 92
        1
 93
        1
 72
     2
 10
0.3651044678205189
 20
-2.659180551861339
 40
0.018
 50
0.0
 51
360.0
 73
     1
 97
        0
 75
     0
 76
     1
 98
        1
 10
-0.3018955321794543
 20
-1.174180551861322
  0
HATCH
  5
1EF
330
17F
100
AcDbEntity
  8
Pel_CS-Weatherstrip
100
AcDbHatch
 10
0.0
 20
0.0
 30
0.0
210
0.0
220
0.0
230
1.0
  2
SOLID
 70
     1
 71
     0
 91
        1
 92
        1
 93
        1
 72
     2
 10
0.3651044678205189
 20
-2.534180551861339
 40
0.018
 50
0.0
 51
360.0
 73
     1
 97
        0
 75
     0
 76
     1
 98
        1
 10
-0.3018955321794543
 20
-1.049180551861322
  0
HATCH
  5
1F0
330
17F
100
AcDbEntity
  8
Pel_CS-Fill
100
AcDbHatch
 10
0.0
 20
0.0
 30
0.0
210
0.0
220
0.0
230
1.0
  2
SOLID
 70
     1
 71
     1
 91
        1
 92
        1
 93
       33
 72
     1
 10
0.4031044678205121
 20
-1.814180551861326
 11
0.6631044678205243
 21
-1.814180551861326
 72
     2
 10
0.6631044678205243
 20
-1.834180551861326
 40
0.0199999999999996
 50
270.0
 51
360.0000000000305
 73
     0
 72
     1
 10
0.6831044678205238
 20
-1.834180551861336
 11
0.6831044678205238
 21
-2.434180551861338
 72
     2
 10
0.6631044678205243
 20
-2.434180551861341
 40
0.0199999999999996
 50
359.9999999999898
 51
450.0
 73
     0
 72
     1
 10
0.6631044678205243
 20
-2.454180551861341
 11
0.6231044678205216
 21
-2.454180551861341
 72
     1
 10
0.6231044678205216
 20
-2.454180551861341
 11
0.6231044678205216
 21
-2.544180551861337
 72
     2
 10
0.603104467820522
 20
-2.544180551861341
 40
0.0199999999999996
 50
359.9999999999898
 51
450.0
 73
     0
 72
     1
 10
0.603104467820522
 20
-2.56418055186134
 11
0.4031044678205192
 21
-2.56418055186134
 72
     2
 10
0.4031044678205209
 20
-2.544180551861341
 40
0.0200000000000014
 50
90.00000000000509
 51
180.0000000000051
 73
     0
 72
     1
 10
0.3831044678205195
 20
-2.544180551861337
 11
0.3831044678205195
 21
-2.524180551861341
 72
     2
 10
0.4031044678205192
 20
-2.524180551861338
 40
0.0199999999999996
 50
179.9999999999898
 51
270.0
 73
     0
 72
     1
 10
0.4031044678205192
 20
-2.504180551861338
 11
0.4504880726862837
 21
-2.504180551861338
 72
     2
 10
0.4504880726862837
 20
-2.51418055186134
 40
0.0100000000000011
 50
270.0000000000025
 51
283.2373959307805
 73
     0
 72
     1
 10
0.4527779352759716
 20
-2.504446255311492
 11
0.4527779352759716
 21
-2.524180551861341
 72
     1
 10
0.4527779352759716
 20
-2.524180551861341
 11
0.4031044678205192
 21
-2.524180551861341
 72
     1
 10
0.4031044678205192
 20
-2.524180551861341
 11
0.4031044678205192
 21
-2.54418055186133
 72
     1
 10
0.4031044678205192
 20
-2.54418055186133
 11
0.603104467820522
 21
-2.544180551861344
 72
     1
 10
0.603104467820522
 20
-2.544180551861344
 11
0.6031044678205184
 21
-2.434180551861338
 72
     1
 10
0.6031044678205184
 20
-2.434180551861338
 11
0.6631044678205172
 21
-2.434180551861338
 72
     1
 10
0.6631044678205172
 20
-2.434180551861338
 11
0.6631044678205243
 21
-1.834180551861336
 72
     1
 10
0.6631044678205243
 20
-1.834180551861336
 11
0.4031044678205227
 21
-1.834180551861336
 72
     1
 10
0.4031044678205227
 20
-1.834180551861336
 11
0.4031044678205192
 21
-2.347930551861331
 72
     1
 10
0.4031044678205192
 20
-2.347930551861331
 11
0.5831044678205224
 21
-2.347930551861338
 72
     2
 10
0.5831044678205224
 20
-2.367930551861338
 40
0.0199999999999996
 50
270.0
 51
360.0000000000102
 73
     0
 72
     1
 10
0.603104467820522
 20
-2.367930551861341
 11
0.603104467820522
 21
-2.544180551861344
 72
     1
 10
0.603104467820522
 20
-2.544180551861344
 11
0.4031044678205192
 21
-2.54418055186133
 72
     1
 10
0.4031044678205192
 20
-2.54418055186133
 11
0.4031044678205192
 21
-2.524180551861341
 72
     1
 10
0.4031044678205192
 20
-2.524180551861341
 11
0.583104467820526
 21
-2.524180551861341
 72
     1
 10
0.583104467820526
 20
-2.524180551861341
 11
0.5831044678205189
 21
-2.367930551861341
 72
     1
 10
0.5831044678205189
 20
-2.367930551861341
 11
0.4031044678205192
 21
-2.367930551861341
 72
     2
 10
0.4031044678205209
 20
-2.347930551861342
 40
0.0200000000000014
 50
90.00000000000509
 51
180.0000000000051
 73
     0
 72
     1
 10
0.3831044678205195
 20
-2.347930551861338
 11
0.3831044678205195
 21
-1.834180551861336
 72
     2
 10
0.4031044678205192
 20
-1.834180551861326
 40
0.0199999999999996
 50
179.9999999999694
 51
269.9999999999796
 73
     0
 97
        1
330
1C0
 75
     0
 76
     1
 98
        1
 10
-0.3018955321794543
 20
-1.049180551861322
  0
POLYLINE
  5
1F1
330
17F
100
AcDbEntity
  8
Pel_CS-IG
100
AcDb2dPolyline
 66
     1
 10
0.0
 20
0.0
 30
0.0
  0
VERTEX
  5
DB8
330
1F1
100
AcDbEntity
  8
Pel_CS-IG
100
AcDbVertex
100
AcDb2dVertex
 10
1.762999999999998
 20
-4.499999999999996
 30
0.0
  0
VERTEX
  5
DB9
330
1F1
100
AcDbEntity
  8
Pel_CS-IG
100
AcDbVertex
100
AcDb2dVertex
 10
1.762999999999998
 20
-2.624999999999982
 30
0.0
  0
VERTEX
  5
DBA
330
1F1
100
AcDbEntity
  8
Pel_CS-IG
100
AcDbVertex
100
AcDb2dVertex
 10
1.644999999999999
 20
-2.624999999999982
 30
0.0
  0
VERTEX
  5
DBB
330
1F1
100
AcDbEntity
  8
Pel_CS-IG
100
AcDbVertex
100
AcDb2dVertex
 10
1.644999999999996
 20
-4.499999999999996
 30
0.0
  0
SEQEND
  5
DBC
330
1F1
100
AcDbEntity
  8
Pel_CS-IG
  0
LINE
  5
1F7
330
17F
100
AcDbEntity
  8
Pel_CS-Sealant
100
AcDbLine
 10
1.163499999999993
 20
-2.747499999999984
 30
0.0
 11
1.130749999999993
 21
-2.747499999999984
 31
0.0
  0
LINE
  5
1F8
330
17F
100
AcDbEntity
  8
Pel_CS-Sealant
100
AcDbLine
 10
1.163499999999993
 20
-3.062499999999985
 30
0.0
 11
1.130749999999993
 21
-3.062499999999985
 31
0.0
  0
ARC
  5
1F9
330
17F
100
AcDbEntity
  8
Pel_CS-Sealant
100
AcDbCircle
 10
1.38787499999996
 20
-0.9745500460264615
 30
0.0
 40
1.744843681881043
100
AcDbArc
 50
261.5258739320383
 51
278.4741260679632
  0
ARC
  5
1FA
330
17F
100
AcDbEntity
  8
Pel_CS-Sealant
100
AcDbCircle
 10
1.38787499999996
 20
-0.9597656507812857
 30
0.0
 40
1.73462807712622
100
AcDbArc
 50
261.4755975468652
 51
278.5244024531366
  0
ARC
  5
1FB
330
17F
100
AcDbEntity
  8
Pel_CS-Sealant
100
AcDbCircle
 10
1.38787499999996
 20
-0.944980853661935
 30
0.0
 40
1.724412874245569
100
AcDbArc
 50
261.4247207582319
 51
278.57527924177
  0
POLYLINE
  5
1FC
330
17F
100
AcDbEntity
  8
Pel_CS-IG
100
AcDb2dPolyline
 66
     1
 10
0.0
 20
0.0
 30
0.0
  0
VERTEX
  5
DC3
330
1FC
100
AcDbEntity
  8
Pel_CS-IG
100
AcDbVertex
100
AcDb2dVertex
 10
1.012750000000053
 20
-4.499999999999996
 30
0.0
  0
VERTEX
  5
DC4
330
1FC
100
AcDbEntity
  8
Pel_CS-IG
100
AcDbVertex
100
AcDb2dVertex
 10
1.012750000000053
 20
-2.624999999999982
 30
0.0
  0
VERTEX
  5
DC5
330
1FC
100
AcDbEntity
  8
Pel_CS-IG
100
AcDbVertex
100
AcDb2dVertex
 10
1.130750000000052
 20
-2.624999999999982
 30
0.0
  0
VERTEX
  5
DC6
330
1FC
100
AcDbEntity
  8
Pel_CS-IG
100
AcDbVertex
100
AcDb2dVertex
 10
1.130750000000055
 20
-4.499999999999996
 30
0.0
  0
SEQEND
  5
DC7
330
1FC
100
AcDbEntity
  8
Pel_CS-IG
  0
HATCH
  5
202
330
17F
100
AcDbEntity
  8
Pel_CS-Sealant
100
AcDbHatch
 10
0.0
 20
0.0
 30
0.0
210
0.0
220
0.0
230
1.0
  2
DASH
 70
     0
 71
     0
 91
        2
 92
        1
 93
        4
 72
     1
 10
1.169499999999993
 20
-2.813191049788819
 11
1.60624999999999
 21
-2.813191049788819
 72
     1
 10
1.60624999999999
 20
-2.813191049788819
 11
1.60624999999999
 21
-2.763499999999975
 72
     1
 10
1.60624999999999
 20
-2.763499999999975
 11
1.169499999999993
 21
-2.763499999999986
 72
     1
 10
1.169499999999993
 20
-2.763499999999986
 11
1.169499999999993
 21
-2.813191049788819
 97
        0
 92
       49
 93
        1
 72
     1
 10
1.169499999999993
 20
-2.813191049788819
 11
1.60624999999999
 21
-2.813191049788819
 97
        0
 75
     0
 76
     1
 52
30.0
 41
0.15
 77
     0
 78
     1
 53
330.0
 43
-4.456281177407596
 44
-0.5266732002753756
 45
0.0068629763209582
 46
-0.0256129763209582
 79
     2
 49
0.01875
 49
-0.01875
 98
        1
 10
-4.456281177407596
 20
-0.5266732002753756
  0
LWPOLYLINE
  5
203
330
17F
100
AcDbEntity
  8
Pel_CS-Sealant
100
AcDbPolyline
 90
        4
 70
     1
 43
0.0
 10
1.169499999999993
 20
-2.813191049788819
 10
1.60624999999999
 20
-2.813191049788819
 10
1.60624999999999
 20
-2.763499999999975
 10
1.169499999999993
 20
-2.763499999999986
  0
LWPOLYLINE
  5
204
330
17F
100
AcDbEntity
  8
Pel_CS-IG
100
AcDbPolyline
 90
       16
 70
   129
 43
0.0
 10
1.253499999999993
 20
-3.062499999999985
 10
1.163499999999993
 20
-3.062499999999985
 42
-0.4142135623731017
 10
1.153499999999988
 20
-3.052499999999987
 10
1.153499999999995
 20
-2.757499999999986
 42
-0.4142135623730873
 10
1.163499999999993
 20
-2.747499999999984
 10
1.61224999999999
 20
-2.747499999999973
 42
-0.4142135623731013
 10
1.622249999999992
 20
-2.757499999999975
 10
1.622249999999992
 20
-3.052499999999977
 42
-0.4142135623730894
 10
1.61224999999999
 20
-3.062499999999978
 10
1.52224999999999
 20
-3.062499999999985
 10
1.52224999999999
 20
-3.04649999999998
 10
1.60624999999999
 20
-3.046499999999976
 10
1.60624999999999
 20
-2.763499999999975
 10
1.169499999999993
 20
-2.763499999999986
 10
1.169499999999993
 20
-3.046499999999987
 10
1.253499999999993
 20
-3.046499999999983
  0
LINE
  5
205
330
17F
100
AcDbEntity
  8
Pel_CS-Sealant
100
AcDbLine
 10
1.61224999999999
 20
-2.747499999999984
 30
0.0
 11
1.64499999999999
 21
-2.747499999999984
 31
0.0
  0
LINE
  5
206
330
17F
100
AcDbEntity
  8
Pel_CS-Sealant
100
AcDbLine
 10
1.61224999999999
 20
-3.062499999999985
 30
0.0
 11
1.64499999999999
 21
-3.062499999999985
 31
0.0
  0
LWPOLYLINE
  5
207
330
17F
100
AcDbEntity
  8
Pel_CS-Weatherstrip
  6
Continuous
100
AcDbPolyline
 90
        4
 70
     1
 43
0.0
 10
1.825000000000009
 20
-2.748999999999973
 10
1.763000000000012
 20
-2.748999999999973
 10
1.763000000000012
 20
-3.123999999999973
 10
1.825000000000009
 20
-3.123999999999973
  0
CIRCLE
  5
8BE
330
17F
100
AcDbEntity
  8
Pel_CS-Weatherstrip
100
AcDbCircle
 10
0.3651044678205189
 20
-4.004180551861338
 30
0.0
 40
0.018
  0
HATCH
  5
8BF
330
17F
100
AcDbEntity
  8
Pel_CS-Weatherstrip
100
AcDbHatch
 10
0.0
 20
0.0
 30
0.0
210
0.0
220
0.0
230
1.0
  2
SOLID
 70
     1
 71
     0
 91
        1
 92
        1
 93
        1
 72
     2
 10
0.3651044678205189
 20
-4.004180551861338
 40
0.018
 50
0.0
 51
360.0
 73
     1
 97
        0
 75
     0
 76
     1
 98
        1
 10
-0.3018955321794543
 20
-2.519180551861321
  0
CIRCLE
  5
8C0
330
17F
100
AcDbEntity
  8
Pel_CS-Weatherstrip
100
AcDbCircle
 10
0.3651044678205189
 20
-4.114180551861338
 30
0.0
 40
0.018
  0
HATCH
  5
8C1
330
17F
100
AcDbEntity
  8
Pel_CS-Weatherstrip
100
AcDbHatch
 10
0.0
 20
0.0
 30
0.0
210
0.0
220
0.0
230
1.0
  2
SOLID
 70
     1
 71
     0
 91
        1
 92
        1
 93
        1
 72
     2
 10
0.3651044678205189
 20
-4.114180551861338
 40
0.018
 50
0.0
 51
360.0
 73
     1
 97
        0
 75
     0
 76
     1
 98
        1
 10
-0.3018955321794543
 20
-2.62918055186132
  0
CIRCLE
  5
8C2
330
17F
100
AcDbEntity
  8
Pel_CS-Weatherstrip
100
AcDbCircle
 10
0.3651044678205189
 20
-4.224180551861337
 30
0.0
 40
0.018
  0
HATCH
  5
8C3
330
17F
100
AcDbEntity
  8
Pel_CS-Weatherstrip
100
AcDbHatch
 10
0.0
 20
0.0
 30
0.0
210
0.0
220
0.0
230
1.0
  2
SOLID
 70
     1
 71
     0
 91
        1
 92
        1
 93
        1
 72
     2
 10
0.3651044678205189
 20
-4.224180551861337
 40
0.018
 50
0.0
 51
360.0
 73
     1
 97
        0
 75
     0
 76
     1
 98
        1
 10
-0.3018955321794543
 20
-2.73918055186132
  0
CIRCLE
  5
8C4
330
17F
100
AcDbEntity
  8
Pel_CS-Weatherstrip
100
AcDbCircle
 10
0.3651044678205189
 20
-4.334180551861336
 30
0.0
 40
0.018
  0
HATCH
  5
8C5
330
17F
100
AcDbEntity
  8
Pel_CS-Weatherstrip
100
AcDbHatch
 10
0.0
 20
0.0
 30
0.0
210
0.0
220
0.0
230
1.0
  2
SOLID
 70
     1
 71
     0
 91
        1
 92
        1
 93
        1
 72
     2
 10
0.3651044678205189
 20
-4.334180551861336
 40
0.018
 50
0.0
 51
360.0
 73
     1
 97
        0
 75
     0
 76
     1
 98
        1
 10
-0.3018955321794543
 20
-2.849180551861319
  0
CIRCLE
  5
8C6
330
17F
100
AcDbEntity
  8
Pel_CS-Weatherstrip
100
AcDbCircle
 10
0.3651044678205189
 20
-4.444180551861336
 30
0.0
 40
0.018
  0
HATCH
  5
8C7
330
17F
100
AcDbEntity
  8
Pel_CS-Weatherstrip
100
AcDbHatch
 10
0.0
 20
0.0
 30
0.0
210
0.0
220
0.0
230
1.0
  2
SOLID
 70
     1
 71
     0
 91
        1
 92
        1
 93
        1
 72
     2
 10
0.3651044678205189
 20
-4.444180551861336
 40
0.018
 50
0.0
 51
360.0
 73
     1
 97
        0
 75
     0
 76
     1
 98
        1
 10
-0.3018955321794543
 20
-2.959180551861319
  0
ENDBLK
  5
208
330
17F
100
AcDbEntity
  8
0
100
AcDbBlockEnd
  0
BLOCK
  5
281
330
27F
100
AcDbEntity
  8
0
100
AcDbBlockBegin
  2
A$C69046E27
 70
     0
 10
0.0
 20
0.0
 30
0.0
  3
A$C69046E27
  1

  0
ELLIPSE
  5
282
330
27F
100
AcDbEntity
  8
Pel_wal
 62
     9
100
AcDbEllipse
 10
0.1580785312270621
 20
0.262603073605888
 30
0.0
 11
0.0166728848683988
 21
0.0000000000000105
 31
0.0
210
0.0
220
0.0
230
1.0
 40
0.7500000000000001
 41
-0.0000000000008402
 42
6.283185307178746
  0
ELLIPSE
  5
284
330
27F
100
AcDbEntity
  8
Pel_wal
 62
     9
100
AcDbEllipse
 10
0.6407155316986462
 20
0.1155187419938102
 30
0.0
 11
0.0166728848683988
 21
0.0000000000000105
 31
0.0
210
0.0
220
0.0
230
1.0
 40
0.7500000000000001
 41
-0.0000000000008402
 42
6.283185307178746
  0
ELLIPSE
  5
285
330
27F
100
AcDbEntity
  8
Pel_wal
 62
     9
100
AcDbEllipse
 10
0.6319286441588475
 20
0.1799214037677927
 30
0.0
 11
-0.0339494177336768
 21
0.0000000000000027
 31
0.0
210
0.0
220
0.0
230
1.0
 40
0.7499999999999738
 41
3.141592653589897
 42
9.424777960769482
  0
ELLIPSE
  5
286
330
27F
100
AcDbEntity
  8
Pel_wal
 62
     9
100
AcDbEllipse
 10
0.6000545430291311
 20
0.0585383246144602
 30
0.0
 11
-0.0339494177336768
 21
0.0000000000000027
 31
0.0
210
0.0
220
0.0
230
1.0
 40
0.7499999999999738
 41
3.141592653589897
 42
9.424777960769482
  0
ELLIPSE
  5
287
330
27F
100
AcDbEntity
  8
Pel_wal
 62
     9
100
AcDbEllipse
 10
0.3323452870116057
 20
0.2796332603420097
 30
0.0
 11
-0.0339494177336768
 21
0.0000000000000027
 31
0.0
210
0.0
220
0.0
230
1.0
 40
0.7499999999999738
 41
3.141592653589897
 42
9.424777960769482
  0
ELLIPSE
  5
288
330
27F
100
AcDbEntity
  8
Pel_wal
 62
     9
100
AcDbEllipse
 10
0.0686723798887101
 20
0.2351069745543555
 30
0.0
 11
0.0166728848683988
 21
0.0000000000000105
 31
0.0
210
0.0
220
0.0
230
1.0
 40
0.7500000000000001
 41
-0.0000000000008402
 42
6.283185307178746
  0
ELLIPSE
  5
289
330
27F
100
AcDbEntity
  8
Pel_wal
 62
     9
100
AcDbEllipse
 10
0.5244179461958538
 20
0.3653710469755111
 30
0.0
 11
0.0166728848683988
 21
0.0000000000000105
 31
0.0
210
0.0
220
0.0
230
1.0
 40
0.7500000000000001
 41
-0.0000000000008402
 42
6.283185307178746
  0
ELLIPSE
  5
28A
330
27F
100
AcDbEntity
  8
Pel_wal
 62
     9
100
AcDbEllipse
 10
0.443092144819957
 20
0.3017649778337983
 30
0.0
 11
0.0166728848683988
 21
0.0000000000000105
 31
0.0
210
0.0
220
0.0
230
1.0
 40
0.7500000000000001
 41
-0.0000000000008402
 42
6.283185307178746
  0
ELLIPSE
  5
28B
330
27F
100
AcDbEntity
  8
Pel_wal
 62
     9
100
AcDbEllipse
 10
0.3228720600093311
 20
0.3574206404115472
 30
0.0
 11
0.0166728848683988
 21
0.0000000000000105
 31
0.0
210
0.0
220
0.0
230
1.0
 40
0.7500000000000001
 41
-0.0000000000008402
 42
6.283185307178746
  0
ELLIPSE
  5
28C
330
27F
100
AcDbEntity
  8
Pel_wal
 62
     9
100
AcDbEllipse
 10
0.2203304996621682
 20
0.3706719439359318
 30
0.0
 11
0.0166728848683988
 21
0.0000000000000105
 31
0.0
210
0.0
220
0.0
230
1.0
 40
0.7500000000000001
 41
-0.0000000000008402
 42
6.283185307178746
  0
ELLIPSE
  5
28D
330
27F
100
AcDbEntity
  8
Pel_wal
 62
     9
100
AcDbEllipse
 10
0.2415462586329795
 20
0.3123658328779726
 30
0.0
 11
0.0166728848683988
 21
0.0000000000000105
 31
0.0
210
0.0
220
0.0
230
1.0
 40
0.7500000000000001
 41
-0.0000000000008402
 42
6.283185307178746
  0
ELLIPSE
  5
28E
330
27F
100
AcDbEntity
  8
Pel_wal
 62
     9
100
AcDbEllipse
 10
0.393591893918483
 20
0.3481445401691445
 30
0.0
 11
-0.0339494177336768
 21
0.0000000000000027
 31
0.0
210
0.0
220
0.0
230
1.0
 40
0.7499999999999738
 41
3.141592653589897
 42
9.424777960769482
  0
ELLIPSE
  5
28F
330
27F
100
AcDbEntity
  8
Pel_wal
 62
     9
100
AcDbEllipse
 10
0.0992632881884959
 20
0.3228451760410564
 30
0.0
 11
-0.0339494177336768
 21
0.0000000000000027
 31
0.0
210
0.0
220
0.0
230
1.0
 40
0.7499999999999738
 41
3.141592653589897
 42
9.424777960769482
  0
POINT
  5
290
330
27F
100
AcDbEntity
  8
Pel_wal
 62
     9
100
AcDbPoint
 10
0.0
 20
0.0
 30
0.0
  0
ELLIPSE
  5
291
330
27F
100
AcDbEntity
  8
Pel_wal
 62
     9
100
AcDbEllipse
 10
0.9461088197712115
 20
0.3100611506513218
 30
0.0
 11
0.0166728848683988
 21
0.0000000000000105
 31
0.0
210
0.0
220
0.0
230
1.0
 40
0.7500000000000001
 41
-0.0000000000008402
 42
6.283185307178746
  0
ELLIPSE
  5
292
330
27F
100
AcDbEntity
  8
Pel_wal
 62
     9
100
AcDbEllipse
 10
0.8246615450770775
 20
0.27830765291489
 30
0.0
 11
0.0166728848683988
 21
0.0000000000000105
 31
0.0
210
0.0
220
0.0
230
1.0
 40
0.7500000000000001
 41
-0.0000000000008402
 42
6.283185307178746
  0
ELLIPSE
  5
293
330
27F
100
AcDbEntity
  8
Pel_wal
 62
     9
100
AcDbEllipse
 10
0.7255544139620014
 20
0.3121990585003047
 30
0.0
 11
0.0166728848683988
 21
0.0000000000000105
 31
0.0
210
0.0
220
0.0
230
1.0
 40
0.7500000000000001
 41
-0.0000000000008402
 42
6.283185307178746
  0
ELLIPSE
  5
294
330
27F
100
AcDbEntity
  8
Pel_wal
 62
     9
100
AcDbEllipse
 10
0.867090083466536
 20
0.3351540320522588
 30
0.0
 11
0.0166728848683988
 21
0.0000000000000105
 31
0.0
210
0.0
220
0.0
230
1.0
 40
0.7500000000000001
 41
-0.0000000000008402
 42
6.283185307178746
  0
ELLIPSE
  5
295
330
27F
100
AcDbEntity
  8
Pel_wal
 62
     9
100
AcDbEllipse
 10
0.5965961555718167
 20
0.230568558816806
 30
0.0
 11
0.0166728848683988
 21
0.0000000000000105
 31
0.0
210
0.0
220
0.0
230
1.0
 40
0.7500000000000001
 41
-0.0000000000008402
 42
6.283185307178746
  0
ELLIPSE
  5
296
330
27F
100
AcDbEntity
  8
Pel_wal
 62
     9
100
AcDbEllipse
 10
0.5385630601888352
 20
0.1025930004340125
 30
0.0
 11
0.0166728848683988
 21
0.0000000000000105
 31
0.0
210
0.0
220
0.0
230
1.0
 40
0.7500000000000001
 41
-0.0000000000008402
 42
6.283185307178746
  0
ELLIPSE
  5
297
330
27F
100
AcDbEntity
  8
Pel_wal
 62
     9
100
AcDbEllipse
 10
0.5244179461958538
 20
0.2298060775939348
 30
0.0
 11
0.0166728848683988
 21
0.0000000000000105
 31
0.0
210
0.0
220
0.0
230
1.0
 40
0.7500000000000001
 41
-0.0000000000008402
 42
6.283185307178746
  0
ELLIPSE
  5
298
330
27F
100
AcDbEntity
  8
Pel_wal
 62
     9
100
AcDbEllipse
 10
0.443092144819957
 20
0.1662000084522219
 30
0.0
 11
0.0166728848683988
 21
0.0000000000000105
 31
0.0
210
0.0
220
0.0
230
1.0
 40
0.7500000000000001
 41
-0.0000000000008402
 42
6.283185307178746
  0
ELLIPSE
  5
299
330
27F
100
AcDbEntity
  8
Pel_wal
 62
     9
100
AcDbEllipse
 10
0.3458545242153832
 20
0.0257356277680856
 30
0.0
 11
0.0166728848683988
 21
0.0000000000000105
 31
0.0
210
0.0
220
0.0
230
1.0
 40
0.7500000000000001
 41
-0.0000000000008402
 42
6.283185307178746
  0
ELLIPSE
  5
29A
330
27F
100
AcDbEntity
  8
Pel_wal
 62
     9
100
AcDbEllipse
 10
0.3228720600093311
 20
0.2218556710299708
 30
0.0
 11
0.0166728848683988
 21
0.0000000000000105
 31
0.0
210
0.0
220
0.0
230
1.0
 40
0.7500000000000001
 41
-0.0000000000008402
 42
6.283185307178746
  0
ELLIPSE
  5
29B
330
27F
100
AcDbEntity
  8
Pel_wal
 62
     9
100
AcDbEllipse
 10
0.2203304996621682
 20
0.2351069745543555
 30
0.0
 11
0.0166728848683988
 21
0.0000000000000105
 31
0.0
210
0.0
220
0.0
230
1.0
 40
0.7500000000000001
 41
-0.0000000000008402
 42
6.283185307178746
  0
ELLIPSE
  5
29C
330
27F
100
AcDbEntity
  8
Pel_wal
 62
     9
100
AcDbEllipse
 10
0.2415462586329795
 20
0.1768008634963962
 30
0.0
 11
0.0166728848683988
 21
0.0000000000000105
 31
0.0
210
0.0
220
0.0
230
1.0
 40
0.7500000000000001
 41
-0.0000000000008402
 42
6.283185307178746
  0
ELLIPSE
  5
29D
330
27F
100
AcDbEntity
  8
Pel_wal
 62
     9
100
AcDbEllipse
 10
0.195579418202442
 20
0.0946425938700486
 30
0.0
 11
0.0166728848683988
 21
0.0000000000000105
 31
0.0
210
0.0
220
0.0
230
1.0
 40
0.7500000000000001
 41
-0.0000000000008402
 42
6.283185307178746
  0
ELLIPSE
  5
29E
330
27F
100
AcDbEntity
  8
Pel_wal
 62
     9
100
AcDbEllipse
 10
0.1637557797459976
 20
0.0376612376140315
 30
0.0
 11
0.0166728848683988
 21
0.0000000000000105
 31
0.0
210
0.0
220
0.0
230
1.0
 40
0.7500000000000001
 41
-0.0000000000008402
 42
6.283185307178746
  0
ELLIPSE
  5
29F
330
27F
100
AcDbEntity
  8
Pel_wal
 62
     9
100
AcDbEllipse
 10
0.9244321198100635
 20
0.3654449573436125
 30
0.0
 11
-0.0339494177336768
 21
0.0000000000000027
 31
0.0
210
0.0
220
0.0
230
1.0
 40
0.7499999999999738
 41
3.141592653589897
 42
9.424777960769482
  0
ELLIPSE
  5
2A0
330
27F
100
AcDbEntity
  8
Pel_wal
 62
     9
100
AcDbEllipse
 10
0.9148304327217999
 20
0.2597563913067518
 30
0.0
 11
-0.0339494177336768
 21
0.0000000000000027
 31
0.0
210
0.0
220
0.0
230
1.0
 40
0.7499999999999738
 41
3.141592653589897
 42
9.424777960769482
  0
ELLIPSE
  5
2A1
330
27F
100
AcDbEntity
  8
Pel_wal
 62
     9
100
AcDbEllipse
 10
0.7861537422052436
 20
0.3647389566220198
 30
0.0
 11
-0.0339494177336768
 21
0.0000000000000027
 31
0.0
210
0.0
220
0.0
230
1.0
 40
0.7499999999999738
 41
3.141592653589897
 42
9.424777960769482
  0
ELLIPSE
  5
2A2
330
27F
100
AcDbEntity
  8
Pel_wal
 62
     9
100
AcDbEllipse
 10
0.7608213453451072
 20
0.2545139234604363
 30
0.0
 11
-0.0339494177336768
 21
0.0000000000000027
 31
0.0
210
0.0
220
0.0
230
1.0
 40
0.7499999999999738
 41
3.141592653589897
 42
9.424777960769482
  0
ELLIPSE
  5
2A3
330
27F
100
AcDbEntity
  8
Pel_wal
 62
     9
100
AcDbEllipse
 10
0.6496487379060625
 20
0.3546423894692623
 30
0.0
 11
-0.0339494177336768
 21
0.0000000000000027
 31
0.0
210
0.0
220
0.0
230
1.0
 40
0.7499999999999738
 41
3.141592653589897
 42
9.424777960769482
  0
ELLIPSE
  5
2A4
330
27F
100
AcDbEntity
  8
Pel_wal
 62
     9
100
AcDbEllipse
 10
0.5544117481142905
 20
0.2950078071328619
 30
0.0
 11
-0.0339494177336768
 21
0.0000000000000027
 31
0.0
210
0.0
220
0.0
230
1.0
 40
0.7499999999999738
 41
3.141592653589897
 42
9.424777960769482
  0
ELLIPSE
  5
2A5
330
27F
100
AcDbEntity
  8
Pel_wal
 62
     9
100
AcDbEllipse
 10
0.6683397089986727
 20
0.2710172516205915
 30
0.0
 11
-0.0339494177336768
 21
0.0000000000000027
 31
0.0
210
0.0
220
0.0
230
1.0
 40
0.7499999999999738
 41
3.141592653589897
 42
9.424777960769482
  0
ELLIPSE
  5
2A6
330
27F
100
AcDbEntity
  8
Pel_wal
 62
     9
100
AcDbEllipse
 10
0.5297761726490365
 20
0.1669956622079951
 30
0.0
 11
-0.0339494177336768
 21
0.0000000000000027
 31
0.0
210
0.0
220
0.0
230
1.0
 40
0.7499999999999738
 41
3.141592653589897
 42
9.424777960769482
  0
ELLIPSE
  5
2A7
330
27F
100
AcDbEntity
  8
Pel_wal
 62
     9
100
AcDbEllipse
 10
0.4979020715193201
 20
0.0456125830546625
 30
0.0
 11
-0.0339494177336768
 21
0.0000000000000027
 31
0.0
210
0.0
220
0.0
230
1.0
 40
0.7499999999999738
 41
3.141592653589897
 42
9.424777960769482
  0
ELLIPSE
  5
2A8
330
27F
100
AcDbEntity
  8
Pel_wal
 62
     9
100
AcDbEllipse
 10
0.411270418381946
 20
0.1092195910728719
 30
0.0
 11
-0.0339494177336768
 21
0.0000000000000027
 31
0.0
210
0.0
220
0.0
230
1.0
 40
0.7499999999999738
 41
3.141592653589897
 42
9.424777960769482
  0
ELLIPSE
  5
2A9
330
27F
100
AcDbEntity
  8
Pel_wal
 62
     9
100
AcDbEllipse
 10
0.393591893918483
 20
0.2125795707875682
 30
0.0
 11
-0.0339494177336768
 21
0.0000000000000027
 31
0.0
210
0.0
220
0.0
230
1.0
 40
0.7499999999999738
 41
3.141592653589897
 42
9.424777960769482
  0
ELLIPSE
  5
2AA
330
27F
100
AcDbEntity
  8
Pel_wal
 62
     9
100
AcDbEllipse
 10
0.2928189508249943
 20
0.1370469529234128
 30
0.0
 11
-0.0339494177336768
 21
0.0000000000000027
 31
0.0
210
0.0
220
0.0
230
1.0
 40
0.7499999999999738
 41
3.141592653589897
 42
9.424777960769482
  0
ELLIPSE
  5
2AB
330
27F
100
AcDbEntity
  8
Pel_wal
 62
     9
100
AcDbEllipse
 10
0.2556913726259609
 20
0.053563928495123
 30
0.0
 11
-0.0339494177336768
 21
0.0000000000000027
 31
0.0
210
0.0
220
0.0
230
1.0
 40
0.7499999999999738
 41
3.141592653589897
 42
9.424777960769482
  0
ELLIPSE
  5
2AC
330
27F
100
AcDbEntity
  8
Pel_wal
 62
     9
100
AcDbEllipse
 10
0.0877358301306686
 20
0.0827169840241027
 30
0.0
 11
-0.0339494177336768
 21
0.0000000000000027
 31
0.0
210
0.0
220
0.0
230
1.0
 40
0.7499999999999738
 41
3.141592653589897
 42
9.424777960769482
  0
ELLIPSE
  5
2AD
330
27F
100
AcDbEntity
  8
Pel_wal
 62
     9
100
AcDbEllipse
 10
0.0665181591414239
 20
0.1529487049278373
 30
0.0
 11
0.0166728848683988
 21
0.0000000000000105
 31
0.0
210
0.0
220
0.0
230
1.0
 40
0.7500000000000001
 41
-0.0000000000008402
 42
6.283185307178746
  0
ELLIPSE
  5
2AE
330
27F
100
AcDbEntity
  8
Pel_wal
 62
     9
100
AcDbEllipse
 10
0.1513811950251238
 20
0.1887274122190092
 30
0.0
 11
-0.0339494177336768
 21
0.0000000000000027
 31
0.0
210
0.0
220
0.0
230
1.0
 40
0.7499999999999738
 41
3.141592653589897
 42
9.424777960769482
  0
SPLINE
  5
2AF
330
27F
100
AcDbEntity
  8
Pel_wal
 62
     9
100
AcDbSpline
210
0.0
220
0.0
230
1.0
 70
    11
 71
     3
 72
    25
 73
    21
 74
     0
 42
0.0000000001
 43
0.0000000001
 40
0.0
 40
0.0
 40
0.0
 40
0.0
 40
0.0629554322876937
 40
0.158093302027984
 40
0.3666917292501777
 40
0.5784791336554056
 40
0.7355935303893651
 40
0.92015700109171
 40
0.9998917151712305
 40
1.084210485759284
 40
1.213963102362994
 40
1.314826092548635
 40
1.415272472028991
 40
1.637307026429963
 40
1.855898558905747
 40
2.026708445463031
 40
2.170524664608772
 40
2.273030982295876
 40
2.389147774011812
 40
2.478484947992602
 40
2.478484947992602
 40
2.478484947992602
 40
2.478484947992602
 10
-0.0052838773256099
 20
0.0711753746840032
 30
0.0
 10
0.0184102185775288
 20
0.0231837198322964
 30
0.0
 10
0.0590329991169227
 20
-0.0099011697010738
 30
0.0
 10
0.1553598528092976
 20
-0.0213253623965741
 30
0.0
 10
0.3333194245357873
 20
-0.0245893886460138
 30
0.0
 10
0.6631161272075162
 20
-0.0245893886460138
 30
0.0
 10
0.6894439597542572
 20
0.0936055852351032
 30
0.0
 10
0.6930170768931135
 20
0.1781956692147091
 30
0.0
 10
0.7498953801928821
 20
0.2050149052376113
 30
0.0
 10
0.8666185329668607
 20
0.224895656827492
 30
0.0
 10
1.020051897079476
 20
0.2024711546268421
 30
0.0
 10
0.9846296782744303
 20
0.4083771298000514
 30
0.0
 10
0.8301470276118081
 20
0.4146492949009897
 30
0.0
 10
0.656947986136558
 20
0.4125586404156465
 30
0.0
 10
0.4506428829072249
 20
0.4146492949009897
 30
0.0
 10
0.2741929830495238
 20
0.4083771298000514
 30
0.0
 10
0.1329265682900029
 20
0.4083771298000514
 30
0.0
 10
0.0194821735985187
 20
0.358199909815049
 30
0.0
 10
-0.0056683059825815
 20
0.2741917141088166
 30
0.0
 10
-0.0240139796483021
 20
0.1779146351554814
 30
0.0
 10
-0.0052838773256099
 20
0.0711753746840032
 30
0.0
  0
ENDBLK
  5
2B0
330
27F
100
AcDbEntity
  8
0
100
AcDbBlockEnd
  0
BLOCK
  5
EB
330
E8
100
AcDbEntity
  8
0
100
AcDbBlockBegin
  2
TSE25DHLJ
 70
     0
 10
0.0
 20
0.0
 30
0.0
  3
TSE25DHLJ
  1

  0
POINT
  5
EC
330
E8
100
AcDbEntity
  8
Pel_CS-Points
100
AcDbPoint
 10
0.0
 20
-0.0000000000000036
 30
0.0
 50
360.0
  0
LWPOLYLINE
  5
ED
330
E8
100
AcDbEntity
  8
Pel_CS-Cross Section
 62
     4
100
AcDbPolyline
 90
       21
 70
     1
 43
0.0
 10
2.390000000000021
 20
-2.329999999999994
 10
2.400000000000027
 20
-2.329999999999998
 42
0.4142135623730951
 10
2.415000000000027
 20
-2.314999999999997
 10
2.415000000000027
 20
-2.304999999999996
 42
-0.6180339887499113
 10
2.439000000000021
 20
-2.292999999999995
 10
2.587000000000024
 20
-2.403999999999996
 42
0.1622776601683793
 10
2.605000000000025
 20
-2.409999999999996
 10
2.649999999999984
 20
-2.409999999999996
 42
0.0990195135929029
 10
2.673076923076941
 20
-2.405384615384615
 42
-1.219803902718821
 10
2.680000000000028
 20
-2.439999999999997
 10
2.605000000000025
 20
-2.439999999999997
 42
-0.1622776601683793
 10
2.569000000000023
 20
-2.427999999999997
 10
2.450592726671615
 20
-2.339194545003689
 42
0.4195492703915322
 10
2.436484958185857
 20
-2.341340991366646
 42
-0.2464808025218457
 10
2.399047108931988
 20
-2.359989909964482
 42
0.3853654697452701
 10
2.388908067151433
 20
-2.368783944843489
 42
0.1274111175207384
 10
2.486515976719637
 20
-3.099503450368246
 42
-0.9999999999999946
 10
2.458726110244448
 20
-3.110804924665501
 42
-0.1289412182550372
 10
2.360240419714237
 20
-2.356209567146883
 42
-0.3775763705691113
 10
2.390000000000028
 20
-2.329999999999994
 42
0.4275744599812738
 10
2.360030912820107
 20
-2.36136154823723
  0
LWPOLYLINE
  5
EE
330
E8
100
AcDbEntity
  8
Pel_CS-Reinforcement
100
AcDbPolyline
 90
       16
 70
     1
 43
0.0
 10
3.36000000000001
 20
-1.514999999999997
 10
3.36000000000001
 20
-1.464999999999999
 10
3.27000000000002
 20
-1.464999999999999
 42
0.4142135623731159
 10
3.220000000000016
 20
-1.514999999999997
 10
3.220000000000016
 20
-2.359999999999988
 10
2.920730053620008
 20
-2.359999999999988
 10
2.565000000000022
 20
-2.128986202050608
 10
2.565000000000022
 20
-1.464999999999992
 10
2.515000000000018
 20
-1.464999999999992
 10
2.515000000000018
 20
-2.128986202050608
 42
0.2539676464749343
 10
2.537768048249272
 20
-2.170919730447881
 10
2.893498101869251
 20
-2.401933528397261
 42
0.1449930994916491
 10
2.920730053620008
 20
-2.409999999999993
 10
3.220000000000016
 20
-2.409999999999993
 42
0.4142135623730847
 10
3.27000000000002
 20
-2.359999999999988
 10
3.270000000000013
 20
-1.514999999999997
  0
LWPOLYLINE
  5
F0
330
E8
100
AcDbEntity
  8
Pel_CS-Cross Section
 62
     4
100
AcDbPolyline
 90
      104
 70
     1
 43
0.0
 10
2.463888980602238
 20
-2.158713001724631
 42
0.1449930994916363
 10
2.417594662625962
 20
-2.144999999999992
 10
2.400000000000009
 20
-2.144999999999992
 42
-0.4142135623730086
 10
2.385000000000008
 20
-2.129999999999991
 10
2.385000000000015
 20
-1.719999999999995
 42
-0.4142135623730951
 10
2.400000000000016
 20
-1.704999999999994
 10
2.425000000000014
 20
-1.704999999999994
 42
0.4142135623730951
 10
2.485000000000017
 20
-1.644999999999992
 10
2.485000000000017
 20
-1.449999999999999
 42
-0.4142135623730951
 10
2.500000000000017
 20
-1.434999999999998
 10
3.375000000000017
 20
-1.434999999999998
 42
-0.4142135623730951
 10
3.390000000000011
 20
-1.449999999999992
 10
3.390000000000011
 20
-1.47499999999999
 42
0.4142135623730898
 10
3.450000000000013
 20
-1.534999999999993
 10
3.645000000000013
 20
-1.534999999999993
 42
-0.4142135623730951
 10
3.660000000000014
 20
-1.549999999999993
 10
3.660000000000007
 20
-2.574999999999999
 42
-0.4142135623731122
 10
3.645000000000006
 20
-2.589999999999992
 10
3.375000000000021
 20
-2.589999999999992
 10
3.375000000000021
 20
-2.629999999999991
 10
3.645000000000013
 20
-2.629999999999991
 42
-0.4142135623730951
 10
3.660000000000014
 20
-2.644999999999992
 10
3.660000000000014
 20
-2.756643194816117
 42
-0.2679491924311483
 10
3.652500000000014
 20
-2.769633575872884
 10
3.63250000000001
 20
-2.781180581256673
 42
0.2679491924311335
 10
3.595000000000016
 20
-2.846132486540508
 10
3.595000000000009
 20
-2.91917096231344
 42
-0.2679491924311208
 10
3.587500000000009
 20
-2.932161343370207
 10
3.567500000000013
 20
-2.943708348754004
 42
0.267949192431131
 10
3.530000000000011
 20
-3.008660254037831
 10
3.530000000000011
 20
-3.049999999999993
 42
-0.4142135623730951
 10
3.515000000000011
 20
-3.064999999999994
 10
3.375000000000017
 20
-3.064999999999994
 42
-0.4142135623730951
 10
3.360000000000017
 20
-3.049999999999993
 10
3.360000000000017
 20
-2.644999999999992
 42
-0.4142135623731299
 10
3.375000000000021
 20
-2.629999999999991
 10
3.375000000000021
 20
-2.589999999999992
 42
-0.4142135623731299
 10
3.360000000000017
 20
-2.574999999999992
 10
3.359999999999988
 20
-2.354999999999986
 42
0.4142135623730777
 10
3.344999999999995
 20
-2.339999999999992
 10
3.315000000000015
 20
-2.339999999999992
 42
0.4142135623730951
 10
3.300000000000014
 20
-2.354999999999993
 10
3.300000000000014
 20
-2.424999999999993
 42
-0.4142135623730951
 10
3.285000000000014
 20
-2.439999999999994
 10
2.790000000000009
 20
-2.439999999999994
 42
-0.4142135623731298
 10
2.775000000000009
 20
-2.424999999999993
 10
2.775000000000012
 20
-2.406902094518233
 10
2.715000000000021
 20
-2.406902094518233
 10
2.715000000000014
 20
-2.424999999999986
 42
-0.4142135623729563
 10
2.700000000000017
 20
-2.439999999999979
 10
2.505000000000013
 20
-2.439999999999994
 42
0.4142135623731212
 10
2.465000000000014
 20
-2.479999999999989
 10
2.465000000000014
 20
-2.484999999999995
 42
0.4142135623730951
 10
2.480000000000014
 20
-2.499999999999996
 10
3.285000000000014
 20
-2.499999999999996
 42
-0.4142135623730951
 10
3.300000000000014
 20
-2.514999999999997
 10
3.300000000000014
 20
-3.109999999999995
 42
0.4142135623730951
 10
3.315000000000015
 20
-3.124999999999996
 10
3.575000000000006
 20
-3.124999999999996
 42
0.4142135623730951
 10
3.590000000000006
 20
-3.109999999999995
 10
3.590000000000006
 20
-3.008660254037831
 42
-0.2679491924312269
 10
3.597500000000007
 20
-2.995669872981064
 10
3.647500000000011
 20
-2.96680235952159
 42
0.2679491924311208
 10
3.655000000000011
 20
-2.953811978464823
 10
3.655000000000011
 20
-2.846132486540508
 42
-0.2679491924313027
 10
3.662500000000008
 20
-2.833142105483737
 10
3.712500000000009
 20
-2.804274592024267
 42
0.2679491924311208
 10
3.720000000000009
 20
-2.7912842109675
 10
3.720000000000009
 20
-1.434999999999991
 42
0.4142135623731472
 10
3.659999999999996
 20
-1.374999999999989
 10
3.61750000000001
 20
-1.374999999999996
 10
3.617500000000006
 20
-1.424999999999993
 10
3.660000000000017
 20
-1.424999999999993
 10
3.660000000000014
 20
-1.47499999999999
 10
3.450000000000009
 20
-1.47499999999999
 10
3.450000000000017
 20
-1.424999999999993
 10
3.492500000000006
 20
-1.424999999999993
 10
3.49250000000001
 20
-1.374999999999996
 10
2.385000000000015
 20
-1.374999999999996
 42
0.4142135623730863
 10
2.325000000000013
 20
-1.435000000000002
 10
2.325000000000013
 20
-1.477499999999988
 10
2.375000000000014
 20
-1.477499999999988
 10
2.37500000000001
 20
-1.434999999999991
 10
2.425000000000014
 20
-1.434999999999998
 10
2.425000000000014
 20
-1.644999999999992
 10
2.37500000000001
 20
-1.644999999999992
 10
2.375000000000007
 20
-1.602499999999995
 10
2.325000000000013
 20
-1.602499999999988
 10
2.325000000000013
 20
-2.314999999999994
 42
0.4142135623730948
 10
2.34000000000001
 20
-2.329999999999994
 10
2.399999999999995
 20
-2.330000000000008
 42
0.4142135623729563
 10
2.415000000000009
 20
-2.314999999999994
 10
2.415000000000016
 20
-2.285000000000007
 42
0.4142135623729735
 10
2.400000000000016
 20
-2.270000000000013
 42
-0.4142135623729476
 10
2.385000000000022
 20
-2.25500000000002
 10
2.385000000000015
 20
-2.219999999999995
 42
-0.4142135623731643
 10
2.400000000000012
 20
-2.204999999999994
 10
2.417594662625962
 20
-2.204999999999994
 42
-0.1449930994917266
 10
2.431210638501344
 20
-2.209033235801356
 10
2.70361597587539
 20
-2.385935330319593
 42
-0.2539676464749987
 10
2.715000000000021
 20
-2.406902094518233
 10
2.775000000000012
 20
-2.406902094518233
 10
2.775000000000016
 20
-2.401472537521865
 42
0.2539676464749832
 10
2.740847927626145
 20
-2.338572244925938
  0
POLYLINE
  5
F4
330
E8
100
AcDbEntity
  8
Pel_CS-Weatherstrip
100
AcDb2dPolyline
 66
     1
 10
0.0
 20
0.0
 30
0.0
  0
VERTEX
  5
C14
330
F4
100
AcDbEntity
  8
Pel_CS-Weatherstrip
100
AcDbVertex
100
AcDb2dVertex
 10
2.387770088938161
 20
-1.628287128208626
 30
0.0
  0
VERTEX
  5
C15
330
F4
100
AcDbEntity
  8
Pel_CS-Weatherstrip
100
AcDbVertex
100
AcDb2dVertex
 10
2.387770088938161
 20
-1.582042538570249
 30
0.0
  0
VERTEX
  5
C16
330
F4
100
AcDbEntity
  8
Pel_CS-Weatherstrip
100
AcDbVertex
100
AcDb2dVertex
 10
2.245000000000015
 20
-1.625674781436373
 30
0.0
  0
VERTEX
  5
C17
330
F4
100
AcDbEntity
  8
Pel_CS-Weatherstrip
100
AcDbVertex
100
AcDb2dVertex
 10
2.245000000000015
 20
-1.597547264920049
 30
0.0
  0
VERTEX
  5
C18
330
F4
100
AcDbEntity
  8
Pel_CS-Weatherstrip
100
AcDbVertex
100
AcDb2dVertex
 10
2.387770088938161
 20
-1.582042538570249
 30
0.0
  0
VERTEX
  5
C19
330
F4
100
AcDbEntity
  8
Pel_CS-Weatherstrip
100
AcDbVertex
100
AcDb2dVertex
 10
2.245000000000015
 20
-1.572773831557928
 30
0.0
  0
VERTEX
  5
C1A
330
F4
100
AcDbEntity
  8
Pel_CS-Weatherstrip
100
AcDbVertex
100
AcDb2dVertex
 10
2.245000000000015
 20
-1.540813556318518
 30
0.0
  0
VERTEX
  5
C1B
330
F4
100
AcDbEntity
  8
Pel_CS-Weatherstrip
100
AcDbVertex
100
AcDb2dVertex
 10
2.387770088938161
 20
-1.582042538570249
 30
0.0
  0
VERTEX
  5
C1C
330
F4
100
AcDbEntity
  8
Pel_CS-Weatherstrip
100
AcDbVertex
100
AcDb2dVertex
 10
2.387770088938161
 20
-1.499584574066787
 30
0.0
  0
VERTEX
  5
C1D
330
F4
100
AcDbEntity
  8
Pel_CS-Weatherstrip
100
AcDbVertex
100
AcDb2dVertex
 10
2.245000000000015
 20
-1.540813556318518
 30
0.0
  0
VERTEX
  5
C1E
330
F4
100
AcDbEntity
  8
Pel_CS-Weatherstrip
100
AcDbVertex
100
AcDb2dVertex
 10
2.245000000000015
 20
-1.508853281079105
 30
0.0
  0
VERTEX
  5
C1F
330
F4
100
AcDbEntity
  8
Pel_CS-Weatherstrip
100
AcDbVertex
100
AcDb2dVertex
 10
2.387770088938161
 20
-1.499584574066787
 30
0.0
  0
VERTEX
  5
C20
330
F4
100
AcDbEntity
  8
Pel_CS-Weatherstrip
100
AcDbVertex
100
AcDb2dVertex
 10
2.245000000000015
 20
-1.484079847716991
 30
0.0
  0
VERTEX
  5
C21
330
F4
100
AcDbEntity
  8
Pel_CS-Weatherstrip
100
AcDbVertex
100
AcDb2dVertex
 10
2.245000000000015
 20
-1.449098327574681
 30
0.0
  0
VERTEX
  5
C22
330
F4
100
AcDbEntity
  8
Pel_CS-Weatherstrip
100
AcDbVertex
100
AcDb2dVertex
 10
2.387770088938161
 20
-1.499584574066787
 30
0.0
  0
VERTEX
  5
C23
330
F4
100
AcDbEntity
  8
Pel_CS-Weatherstrip
100
AcDbVertex
100
AcDb2dVertex
 10
2.387770088938161
 20
-1.441509404522456
 30
0.0
  0
VERTEX
  5
C24
330
F4
100
AcDbEntity
  8
Pel_CS-Weatherstrip
100
AcDbVertex
100
AcDb2dVertex
 10
2.422770074938156
 20
-1.441509404522456
 30
0.0
  0
VERTEX
  5
C25
330
F4
100
AcDbEntity
  8
Pel_CS-Weatherstrip
100
AcDbVertex
100
AcDb2dVertex
 10
2.422770074938156
 20
-1.628287128208626
 30
0.0
  0
VERTEX
  5
C26
330
F4
100
AcDbEntity
  8
0
100
AcDbVertex
100
AcDb2dVertex
 10
2.387770088938161
 20
-1.628287128208626
 30
0.0
  0
SEQEND
  5
C27
330
F4
100
AcDbEntity
  8
Pel_CS-Weatherstrip
  0
POLYLINE
  5
109
330
E8
100
AcDbEntity
  8
Pel_CS-Weatherstrip
100
AcDb2dPolyline
 66
     1
 10
0.0
 20
0.0
 30
0.0
  0
VERTEX
  5
C29
330
109
100
AcDbEntity
  8
Pel_CS-Weatherstrip
100
AcDbVertex
100
AcDb2dVertex
 10
3.467062558138092
 20
-1.435000013999985
 30
0.0
  0
VERTEX
  5
C2A
330
109
100
AcDbEntity
  8
Pel_CS-Weatherstrip
100
AcDbVertex
100
AcDb2dVertex
 10
3.513307147776469
 20
-1.435000013999985
 30
0.0
  0
VERTEX
  5
C2B
330
109
100
AcDbEntity
  8
Pel_CS-Weatherstrip
100
AcDbVertex
100
AcDb2dVertex
 10
3.464520200544267
 20
-1.294999999999994
 30
0.0
  0
VERTEX
  5
C2C
330
109
100
AcDbEntity
  8
Pel_CS-Weatherstrip
100
AcDbVertex
100
AcDb2dVertex
 10
3.496841641222644
 20
-1.294999999999994
 30
0.0
  0
VERTEX
  5
C2D
330
109
100
AcDbEntity
  8
Pel_CS-Weatherstrip
100
AcDbVertex
100
AcDb2dVertex
 10
3.513307147776469
 20
-1.435000013999985
 30
0.0
  0
VERTEX
  5
C2E
330
109
100
AcDbEntity
  8
Pel_CS-Weatherstrip
100
AcDbVertex
100
AcDb2dVertex
 10
3.524149888925286
 20
-1.294999999999991
 30
0.0
  0
VERTEX
  5
C2F
330
109
100
AcDbEntity
  8
Pel_CS-Weatherstrip
100
AcDbVertex
100
AcDb2dVertex
 10
3.5545361300282
 20
-1.294999999999991
 30
0.0
  0
VERTEX
  5
C30
330
109
100
AcDbEntity
  8
Pel_CS-Weatherstrip
100
AcDbVertex
100
AcDb2dVertex
 10
3.513307147776469
 20
-1.435000013999985
 30
0.0
  0
VERTEX
  5
C31
330
109
100
AcDbEntity
  8
Pel_CS-Weatherstrip
100
AcDbVertex
100
AcDb2dVertex
 10
3.595765112279931
 20
-1.435000013999985
 30
0.0
  0
VERTEX
  5
C32
330
109
100
AcDbEntity
  8
Pel_CS-Weatherstrip
100
AcDbVertex
100
AcDb2dVertex
 10
3.5545361300282
 20
-1.294999999999991
 30
0.0
  0
VERTEX
  5
C33
330
109
100
AcDbEntity
  8
Pel_CS-Weatherstrip
100
AcDbVertex
100
AcDb2dVertex
 10
3.584922371131121
 20
-1.294999999999991
 30
0.0
  0
VERTEX
  5
C34
330
109
100
AcDbEntity
  8
Pel_CS-Weatherstrip
100
AcDbVertex
100
AcDb2dVertex
 10
3.595765112279931
 20
-1.435000013999985
 30
0.0
  0
VERTEX
  5
C35
330
109
100
AcDbEntity
  8
Pel_CS-Weatherstrip
100
AcDbVertex
100
AcDb2dVertex
 10
3.613902888581478
 20
-1.294999999999991
 30
0.0
  0
VERTEX
  5
C36
330
109
100
AcDbEntity
  8
Pel_CS-Weatherstrip
100
AcDbVertex
100
AcDb2dVertex
 10
3.644552059512143
 20
-1.294999999999991
 30
0.0
  0
VERTEX
  5
C37
330
109
100
AcDbEntity
  8
Pel_CS-Weatherstrip
100
AcDbVertex
100
AcDb2dVertex
 10
3.595765112279931
 20
-1.435000013999985
 30
0.0
  0
VERTEX
  5
C38
330
109
100
AcDbEntity
  8
Pel_CS-Weatherstrip
100
AcDbVertex
100
AcDb2dVertex
 10
3.653840281824262
 20
-1.435000013999985
 30
0.0
  0
VERTEX
  5
C39
330
109
100
AcDbEntity
  8
Pel_CS-Weatherstrip
100
AcDbVertex
100
AcDb2dVertex
 10
3.653840281824262
 20
-1.469999999999981
 30
0.0
  0
VERTEX
  5
C3A
330
109
100
AcDbEntity
  8
Pel_CS-Weatherstrip
100
AcDbVertex
100
AcDb2dVertex
 10
3.467062558138092
 20
-1.469999999999981
 30
0.0
  0
VERTEX
  5
C3B
330
109
100
AcDbEntity
  8
0
100
AcDbVertex
100
AcDb2dVertex
 10
3.467062558138092
 20
-1.435000013999985
 30
0.0
  0
SEQEND
  5
C3C
330
109
100
AcDbEntity
  8
Pel_CS-Weatherstrip
  0
LWPOLYLINE
  5
11E
330
E8
100
AcDbEntity
  8
Pel_CS-Clad
  6
Continuous
100
AcDbPolyline
 90
       12
 70
     1
 43
0.0
 10
2.769500000000022
 20
-0.5479999999999912
 10
2.769500000000022
 20
-1.022999999999992
 42
0.4142135623730951
 10
2.801500000000025
 20
-1.054999999999996
 10
3.243500000000018
 20
-1.054999999999996
 42
0.4142135623730951
 10
3.275500000000022
 20
-1.022999999999999
 10
3.275500000000022
 20
-0.5479999999999912
 10
3.30350000000002
 20
-0.5479999999999912
 10
3.30350000000002
 20
-1.022999999999999
 42
-0.4142135623730951
 10
3.243500000000018
 20
-1.082999999999994
 10
2.801500000000025
 20
-1.082999999999994
 42
-0.4142135623730951
 10
2.741500000000023
 20
-1.022999999999992
 10
2.741500000000023
 20
-0.5479999999999912
  0
CIRCLE
  5
11F
330
E8
100
AcDbEntity
  8
Pel_CS-Hardware
  6
Continuous
100
AcDbCircle
 10
3.022500000000022
 20
-0.8049999999999961
 30
0.0
 40
0.25
  0
CIRCLE
  5
121
330
E8
100
AcDbEntity
  8
Pel_CS-Hardware
  6
Continuous
100
AcDbCircle
 10
3.022500000000022
 20
-0.8049999999999961
 30
0.0
 40
0.21
  0
LWPOLYLINE
  5
122
330
E8
100
AcDbEntity
  8
Pel_CS-Clad
  6
Continuous
100
AcDbPolyline
 90
       12
 70
     1
 43
0.0
 10
1.294500000000017
 20
-1.172999999999991
 10
1.294500000000017
 20
-1.647999999999992
 42
0.4142135623730951
 10
1.32650000000002
 20
-1.679999999999996
 10
1.768500000000013
 20
-1.679999999999996
 42
0.4142135623730951
 10
1.800500000000017
 20
-1.647999999999999
 10
1.800500000000017
 20
-1.172999999999991
 10
1.828500000000016
 20
-1.172999999999991
 10
1.828500000000016
 20
-1.647999999999999
 42
-0.4142135623730951
 10
1.768500000000013
 20
-1.707999999999994
 10
1.32650000000002
 20
-1.707999999999994
 42
-0.4142135623730951
 10
1.266500000000018
 20
-1.647999999999992
 10
1.266500000000018
 20
-1.172999999999991
  0
CIRCLE
  5
123
330
E8
100
AcDbEntity
  8
Pel_CS-Hardware
  6
Continuous
100
AcDbCircle
 10
1.547500000000017
 20
-1.429999999999996
 30
0.0
 40
0.25
  0
CIRCLE
  5
124
330
E8
100
AcDbEntity
  8
Pel_CS-Hardware
  6
Continuous
100
AcDbCircle
 10
1.547500000000017
 20
-1.429999999999996
 30
0.0
 40
0.21
  0
LINE
  5
125
330
E8
100
AcDbEntity
  8
Pel_CS-Weatherstrip
100
AcDbLine
 10
3.238000000000024
 20
-2.734999999999988
 30
0.0
 11
3.301728914994583
 21
-2.734999999999992
 31
0.0
  0
LINE
  5
126
330
E8
100
AcDbEntity
  8
Pel_CS-Weatherstrip
100
AcDbLine
 10
3.238000000000024
 20
-3.109999999999988
 30
0.0
 11
3.301728914994583
 21
-3.109999999999992
 31
0.0
  0
POLYLINE
  5
127
330
E8
100
AcDbEntity
  8
Pel_CS-IG
100
AcDb2dPolyline
 66
     1
 10
0.0
 20
0.0
 30
0.0
  0
VERTEX
  5
C46
330
127
100
AcDbEntity
  8
Pel_CS-IG
100
AcDbVertex
100
AcDb2dVertex
 10
3.23800000000002
 20
-4.500000000000024
 30
0.0
  0
VERTEX
  5
C47
330
127
100
AcDbEntity
  8
Pel_CS-IG
100
AcDbVertex
100
AcDb2dVertex
 10
3.238000000000017
 20
-2.624999999999978
 30
0.0
  0
VERTEX
  5
C48
330
127
100
AcDbEntity
  8
Pel_CS-IG
100
AcDbVertex
100
AcDb2dVertex
 10
3.120000000000018
 20
-2.624999999999978
 30
0.0
  0
VERTEX
  5
C49
330
127
100
AcDbEntity
  8
Pel_CS-IG
100
AcDbVertex
100
AcDb2dVertex
 10
3.120000000000018
 20
-4.500000000000024
 30
0.0
  0
SEQEND
  5
C4A
330
127
100
AcDbEntity
  8
Pel_CS-IG
  0
LINE
  5
12D
330
E8
100
AcDbEntity
  8
Pel_CS-Sealant
100
AcDbLine
 10
2.638500000000011
 20
-2.74749999999998
 30
0.0
 11
2.605750000000011
 21
-2.74749999999998
 31
0.0
  0
LINE
  5
12E
330
E8
100
AcDbEntity
  8
Pel_CS-Sealant
100
AcDbLine
 10
2.638500000000011
 20
-3.062499999999982
 30
0.0
 11
2.605750000000011
 21
-3.062499999999982
 31
0.0
  0
ARC
  5
12F
330
E8
100
AcDbEntity
  8
Pel_CS-Sealant
100
AcDbCircle
 10
2.862874999999981
 20
-0.974550046026458
 30
0.0
 40
1.744843681881043
100
AcDbArc
 50
261.5258739320383
 51
278.4741260679632
  0
ARC
  5
130
330
E8
100
AcDbEntity
  8
Pel_CS-Sealant
100
AcDbCircle
 10
2.862874999999981
 20
-0.9597656507812821
 30
0.0
 40
1.73462807712622
100
AcDbArc
 50
261.4755975468654
 51
278.5244024531365
  0
ARC
  5
131
330
E8
100
AcDbEntity
  8
Pel_CS-Sealant
100
AcDbCircle
 10
2.862874999999981
 20
-0.9449808536619315
 30
0.0
 40
1.724412874245569
100
AcDbArc
 50
261.4247207582319
 51
278.57527924177
  0
POLYLINE
  5
132
330
E8
100
AcDbEntity
  8
Pel_CS-IG
100
AcDb2dPolyline
 66
     1
 10
0.0
 20
0.0
 30
0.0
  0
VERTEX
  5
C51
330
132
100
AcDbEntity
  8
Pel_CS-IG
100
AcDbVertex
100
AcDb2dVertex
 10
2.487750000000076
 20
-4.500000000000024
 30
0.0
  0
VERTEX
  5
C52
330
132
100
AcDbEntity
  8
Pel_CS-IG
100
AcDbVertex
100
AcDb2dVertex
 10
2.487750000000072
 20
-2.624999999999978
 30
0.0
  0
VERTEX
  5
C53
330
132
100
AcDbEntity
  8
Pel_CS-IG
100
AcDbVertex
100
AcDb2dVertex
 10
2.605750000000071
 20
-2.624999999999978
 30
0.0
  0
VERTEX
  5
C54
330
132
100
AcDbEntity
  8
Pel_CS-IG
100
AcDbVertex
100
AcDb2dVertex
 10
2.605750000000078
 20
-4.500000000000024
 30
0.0
  0
SEQEND
  5
C55
330
132
100
AcDbEntity
  8
Pel_CS-IG
  0
HATCH
  5
138
330
E8
100
AcDbEntity
  8
Pel_CS-Sealant
100
AcDbHatch
 10
0.0
 20
0.0
 30
0.0
210
0.0
220
0.0
230
1.0
  2
DASH
 70
     0
 71
     0
 91
        2
 92
        1
 93
        4
 72
     1
 10
2.644500000000011
 20
-2.813191049788816
 11
3.081250000000007
 21
-2.813191049788816
 72
     1
 10
3.081250000000007
 20
-2.813191049788816
 11
3.081250000000007
 21
-2.763499999999972
 72
     1
 10
3.081250000000007
 20
-2.763499999999972
 11
2.644500000000011
 21
-2.763499999999982
 72
     1
 10
2.644500000000011
 20
-2.763499999999982
 11
2.644500000000011
 21
-2.813191049788816
 97
        0
 92
       49
 93
        1
 72
     1
 10
2.644500000000011
 20
-2.813191049788816
 11
3.081250000000007
 21
-2.813191049788816
 97
        0
 75
     0
 76
     1
 52
30.0
 41
0.15
 77
     0
 78
     1
 53
330.0
 43
-2.981281177407574
 44
-0.5266732002753685
 45
0.0068629763209582
 46
-0.0256129763209582
 79
     2
 49
0.01875
 49
-0.01875
 98
        1
 10
-2.981281177407574
 20
-0.5266732002753685
  0
LWPOLYLINE
  5
139
330
E8
100
AcDbEntity
  8
Pel_CS-Sealant
100
AcDbPolyline
 90
        4
 70
     1
 43
0.0
 10
2.644500000000011
 20
-2.813191049788816
 10
3.081250000000007
 20
-2.813191049788816
 10
3.081250000000007
 20
-2.763499999999972
 10
2.644500000000011
 20
-2.763499999999982
  0
LWPOLYLINE
  5
13A
330
E8
100
AcDbEntity
  8
Pel_CS-IG
100
AcDbPolyline
 90
       16
 70
   129
 43
0.0
 10
2.728500000000011
 20
-3.062499999999982
 10
2.638500000000011
 20
-3.062499999999982
 42
-0.4142135623731017
 10
2.628500000000006
 20
-3.052499999999984
 10
2.628500000000013
 20
-2.757499999999982
 42
-0.4142135623730873
 10
2.638500000000011
 20
-2.74749999999998
 10
3.087250000000008
 20
-2.74749999999997
 42
-0.4142135623731013
 10
3.097250000000009
 20
-2.757499999999971
 10
3.097250000000009
 20
-3.052499999999973
 42
-0.4142135623730894
 10
3.087250000000008
 20
-3.062499999999975
 10
2.997250000000008
 20
-3.062499999999982
 10
2.997250000000008
 20
-3.046499999999976
 10
3.081250000000007
 20
-3.046499999999973
 10
3.081250000000007
 20
-2.763499999999972
 10
2.644500000000011
 20
-2.763499999999982
 10
2.644500000000011
 20
-3.046499999999983
 10
2.728500000000011
 20
-3.04649999999998
  0
LINE
  5
13B
330
E8
100
AcDbEntity
  8
Pel_CS-Sealant
100
AcDbLine
 10
3.087250000000008
 20
-2.74749999999998
 30
0.0
 11
3.120000000000008
 21
-2.74749999999998
 31
0.0
  0
LINE
  5
13C
330
E8
100
AcDbEntity
  8
Pel_CS-Sealant
100
AcDbLine
 10
3.087250000000008
 20
-3.062499999999982
 30
0.0
 11
3.120000000000008
 21
-3.062499999999982
 31
0.0
  0
LWPOLYLINE
  5
13D
330
E8
100
AcDbEntity
  8
Pel_CS-Weatherstrip
  6
Continuous
100
AcDbPolyline
 90
        4
 70
     1
 43
0.0
 10
3.300000000000022
 20
-2.734999999999988
 10
3.238000000000024
 20
-2.734999999999988
 10
3.238000000000024
 20
-3.109999999999988
 10
3.300000000000022
 20
-3.109999999999988
  0
CIRCLE
  5
13E
330
E8
100
AcDbEntity
  8
Pel_CS-Weatherstrip
100
AcDbCircle
 10
0.3630000000003086
 20
-3.344999999999345
 30
0.0
 40
0.018
  0
CIRCLE
  5
13F
330
E8
100
AcDbEntity
  8
Pel_CS-Weatherstrip
100
AcDbCircle
 10
0.3630000000003086
 20
-3.219999999999345
 30
0.0
 40
0.018
  0
CIRCLE
  5
140
330
E8
100
AcDbEntity
  8
Pel_CS-Weatherstrip
100
AcDbCircle
 10
0.3630000000003086
 20
-3.594999999999345
 30
0.0
 40
0.018
  0
CIRCLE
  5
141
330
E8
100
AcDbEntity
  8
Pel_CS-Weatherstrip
100
AcDbCircle
 10
0.3630000000003086
 20
-3.844999999999345
 30
0.0
 40
0.018
  0
CIRCLE
  5
142
330
E8
100
AcDbEntity
  8
Pel_CS-Weatherstrip
100
AcDbCircle
 10
0.3630000000003086
 20
-3.954999999999344
 30
0.0
 40
0.018
  0
CIRCLE
  5
143
330
E8
100
AcDbEntity
  8
Pel_CS-Weatherstrip
100
AcDbCircle
 10
0.3630000000003086
 20
-3.719999999999345
 30
0.0
 40
0.018
  0
CIRCLE
  5
144
330
E8
100
AcDbEntity
  8
Pel_CS-Weatherstrip
100
AcDbCircle
 10
0.3630000000003086
 20
-3.469999999999345
 30
0.0
 40
0.018
  0
CIRCLE
  5
145
330
E8
100
AcDbEntity
  8
Pel_CS-Weatherstrip
100
AcDbCircle
 10
0.3630000000003086
 20
-2.719999999999345
 30
0.0
 40
0.018
  0
CIRCLE
  5
146
330
E8
100
AcDbEntity
  8
Pel_CS-Weatherstrip
100
AcDbCircle
 10
0.3630000000003086
 20
-2.594999999999345
 30
0.0
 40
0.018
  0
CIRCLE
  5
147
330
E8
100
AcDbEntity
  8
Pel_CS-Weatherstrip
100
AcDbCircle
 10
0.3630000000003086
 20
-3.094999999999345
 30
0.0
 40
0.018
  0
CIRCLE
  5
148
330
E8
100
AcDbEntity
  8
Pel_CS-Weatherstrip
100
AcDbCircle
 10
0.3630000000003086
 20
-2.969999999999345
 30
0.0
 40
0.018
  0
CIRCLE
  5
149
330
E8
100
AcDbEntity
  8
Pel_CS-Weatherstrip
100
AcDbCircle
 10
0.3630000000003086
 20
-2.844999999999345
 30
0.0
 40
0.018
  0
POLYLINE
  5
14A
102
{ACAD_REACTORS
330
17A
102
}
330
E8
100
AcDbEntity
  8
Pel_CS-Clad
100
AcDb2dPolyline
 66
     1
 10
0.0
 20
0.0
 30
0.0
 70
     1
  0
VERTEX
  5
C69
330
14A
100
AcDbEntity
  8
Pel_CS-Clad
100
AcDbVertex
100
AcDb2dVertex
 10
0.4010000000003018
 20
-1.874999999999332
 30
0.0
  0
VERTEX
  5
C6A
330
14A
100
AcDbEntity
  8
Pel_CS-Clad
100
AcDbVertex
100
AcDb2dVertex
 10
0.661000000000314
 20
-1.874999999999332
 30
0.0
 42
-0.4142135623732505
  0
VERTEX
  5
C6B
330
14A
100
AcDbEntity
  8
Pel_CS-Clad
100
AcDbVertex
100
AcDb2dVertex
 10
0.6810000000003136
 20
-1.894999999999342
 30
0.0
  0
VERTEX
  5
C6C
330
14A
100
AcDbEntity
  8
Pel_CS-Clad
100
AcDbVertex
100
AcDb2dVertex
 10
0.6810000000003136
 20
-2.494999999999343
 30
0.0
 42
-0.4142135623731472
  0
VERTEX
  5
C6D
330
14A
100
AcDbEntity
  8
Pel_CS-Clad
100
AcDbVertex
100
AcDb2dVertex
 10
0.661000000000314
 20
-2.514999999999346
 30
0.0
  0
VERTEX
  5
C6E
330
14A
100
AcDbEntity
  8
Pel_CS-Clad
100
AcDbVertex
100
AcDb2dVertex
 10
0.6210000000003113
 20
-2.514999999999346
 30
0.0
  0
VERTEX
  5
C6F
330
14A
100
AcDbEntity
  8
Pel_CS-Clad
100
AcDbVertex
100
AcDb2dVertex
 10
0.6210000000003113
 20
-2.604999999999343
 30
0.0
 42
-0.4142135623731472
  0
VERTEX
  5
C70
330
14A
100
AcDbEntity
  8
Pel_CS-Clad
100
AcDbVertex
100
AcDb2dVertex
 10
0.6010000000003118
 20
-2.624999999999346
 30
0.0
  0
VERTEX
  5
C71
330
14A
100
AcDbEntity
  8
Pel_CS-Clad
100
AcDbVertex
100
AcDb2dVertex
 10
0.4010000000003089
 20
-2.624999999999346
 30
0.0
 42
-0.4142135623730951
  0
VERTEX
  5
C72
330
14A
100
AcDbEntity
  8
Pel_CS-Clad
100
AcDbVertex
100
AcDb2dVertex
 10
0.3810000000003093
 20
-2.604999999999343
 30
0.0
  0
VERTEX
  5
C73
330
14A
100
AcDbEntity
  8
Pel_CS-Clad
100
AcDbVertex
100
AcDb2dVertex
 10
0.3810000000003093
 20
-2.584999999999347
 30
0.0
 42
-0.4142135623731472
  0
VERTEX
  5
C74
330
14A
100
AcDbEntity
  8
Pel_CS-Clad
100
AcDbVertex
100
AcDb2dVertex
 10
0.4010000000003089
 20
-2.564999999999344
 30
0.0
  0
VERTEX
  5
C75
330
14A
100
AcDbEntity
  8
Pel_CS-Clad
100
AcDbVertex
100
AcDb2dVertex
 10
0.4483836048660735
 20
-2.564999999999344
 30
0.0
 42
-0.0578233517657538
  0
VERTEX
  5
C76
330
14A
100
AcDbEntity
  8
Pel_CS-Clad
100
AcDbVertex
100
AcDb2dVertex
 10
0.4506734674557614
 20
-2.565265703449497
 30
0.0
  0
VERTEX
  5
C77
330
14A
100
AcDbEntity
  8
Pel_CS-Clad
100
AcDbVertex
100
AcDb2dVertex
 10
0.4506734674557614
 20
-2.584999999999347
 30
0.0
  0
VERTEX
  5
C78
330
14A
100
AcDbEntity
  8
Pel_CS-Clad
100
AcDbVertex
100
AcDb2dVertex
 10
0.4010000000003089
 20
-2.584999999999347
 30
0.0
  0
VERTEX
  5
C79
330
14A
100
AcDbEntity
  8
Pel_CS-Clad
100
AcDbVertex
100
AcDb2dVertex
 10
0.4010000000003089
 20
-2.604999999999336
 30
0.0
  0
VERTEX
  5
C7A
330
14A
100
AcDbEntity
  8
Pel_CS-Clad
100
AcDbVertex
100
AcDb2dVertex
 10
0.6010000000003118
 20
-2.60499999999935
 30
0.0
  0
VERTEX
  5
C7B
330
14A
100
AcDbEntity
  8
Pel_CS-Clad
100
AcDbVertex
100
AcDb2dVertex
 10
0.6010000000003082
 20
-2.494999999999343
 30
0.0
  0
VERTEX
  5
C7C
330
14A
100
AcDbEntity
  8
Pel_CS-Clad
100
AcDbVertex
100
AcDb2dVertex
 10
0.6610000000003069
 20
-2.494999999999343
 30
0.0
  0
VERTEX
  5
C7D
330
14A
100
AcDbEntity
  8
Pel_CS-Clad
100
AcDbVertex
100
AcDb2dVertex
 10
0.661000000000314
 20
-1.894999999999342
 30
0.0
  0
VERTEX
  5
C7E
330
14A
100
AcDbEntity
  8
Pel_CS-Clad
100
AcDbVertex
100
AcDb2dVertex
 10
0.4010000000003125
 20
-1.894999999999342
 30
0.0
  0
VERTEX
  5
C7F
330
14A
100
AcDbEntity
  8
Pel_CS-Clad
100
AcDbVertex
100
AcDb2dVertex
 10
0.4010000000003089
 20
-2.408749999999336
 30
0.0
  0
VERTEX
  5
C80
330
14A
100
AcDbEntity
  8
Pel_CS-Clad
100
AcDbVertex
100
AcDb2dVertex
 10
0.5810000000003122
 20
-2.408749999999344
 30
0.0
 42
-0.4142135623731472
  0
VERTEX
  5
C81
330
14A
100
AcDbEntity
  8
Pel_CS-Clad
100
AcDbVertex
100
AcDb2dVertex
 10
0.6010000000003118
 20
-2.428749999999347
 30
0.0
  0
VERTEX
  5
C82
330
14A
100
AcDbEntity
  8
Pel_CS-Clad
100
AcDbVertex
100
AcDb2dVertex
 10
0.6010000000003118
 20
-2.60499999999935
 30
0.0
  0
VERTEX
  5
C83
330
14A
100
AcDbEntity
  8
Pel_CS-Clad
100
AcDbVertex
100
AcDb2dVertex
 10
0.4010000000003089
 20
-2.604999999999336
 30
0.0
  0
VERTEX
  5
C84
330
14A
100
AcDbEntity
  8
Pel_CS-Clad
100
AcDbVertex
100
AcDb2dVertex
 10
0.4010000000003089
 20
-2.584999999999347
 30
0.0
  0
VERTEX
  5
C85
330
14A
100
AcDbEntity
  8
Pel_CS-Clad
100
AcDbVertex
100
AcDb2dVertex
 10
0.5810000000003157
 20
-2.584999999999347
 30
0.0
  0
VERTEX
  5
C86
330
14A
100
AcDbEntity
  8
Pel_CS-Clad
100
AcDbVertex
100
AcDb2dVertex
 10
0.5810000000003086
 20
-2.428749999999347
 30
0.0
  0
VERTEX
  5
C87
330
14A
100
AcDbEntity
  8
Pel_CS-Clad
100
AcDbVertex
100
AcDb2dVertex
 10
0.4010000000003089
 20
-2.428749999999347
 30
0.0
 42
-0.4142135623730951
  0
VERTEX
  5
C88
330
14A
100
AcDbEntity
  8
Pel_CS-Clad
100
AcDbVertex
100
AcDb2dVertex
 10
0.3810000000003093
 20
-2.408749999999344
 30
0.0
  0
VERTEX
  5
C89
330
14A
100
AcDbEntity
  8
Pel_CS-Clad
100
AcDbVertex
100
AcDb2dVertex
 10
0.3810000000003093
 20
-1.894999999999342
 30
0.0
 42
-0.4142135623731472
  0
SEQEND
  5
C8A
330
14A
100
AcDbEntity
  8
Pel_CS-Clad
  0
CIRCLE
  5
16D
330
E8
100
AcDbEntity
  8
Pel_CS-Sealant
100
AcDbCircle
 10
0.5028750000003086
 20
-2.506874999999343
 30
0.0
 40
0.0575000000000001
  0
HATCH
  5
16E
330
E8
100
AcDbEntity
  8
Pel_CS-Weatherstrip
100
AcDbHatch
 10
0.0
 20
0.0
 30
0.0
210
0.0
220
0.0
230
1.0
  2
SOLID
 70
     1
 71
     0
 91
        1
 92
        1
 93
        1
 72
     2
 10
0.3630000000003086
 20
-3.954999999999344
 40
0.018
 50
0.0
 51
360.0
 73
     1
 97
        0
 75
     0
 76
     1
 98
        1
 10
-0.3039999999996645
 20
-2.469999999999327
  0
HATCH
  5
16F
330
E8
100
AcDbEntity
  8
Pel_CS-Weatherstrip
100
AcDbHatch
 10
0.0
 20
0.0
 30
0.0
210
0.0
220
0.0
230
1.0
  2
SOLID
 70
     1
 71
     0
 91
        1
 92
        1
 93
        1
 72
     2
 10
0.3630000000003086
 20
-3.844999999999345
 40
0.018
 50
0.0
 51
360.0
 73
     1
 97
        0
 75
     0
 76
     1
 98
        1
 10
-0.3039999999996645
 20
-2.359999999999327
  0
HATCH
  5
170
330
E8
100
AcDbEntity
  8
Pel_CS-Weatherstrip
100
AcDbHatch
 10
0.0
 20
0.0
 30
0.0
210
0.0
220
0.0
230
1.0
  2
SOLID
 70
     1
 71
     0
 91
        1
 92
        1
 93
        1
 72
     2
 10
0.3630000000003086
 20
-3.719999999999345
 40
0.018
 50
0.0
 51
360.0
 73
     1
 97
        0
 75
     0
 76
     1
 98
        1
 10
-0.3039999999996645
 20
-2.234999999999327
  0
HATCH
  5
171
330
E8
100
AcDbEntity
  8
Pel_CS-Weatherstrip
100
AcDbHatch
 10
0.0
 20
0.0
 30
0.0
210
0.0
220
0.0
230
1.0
  2
SOLID
 70
     1
 71
     0
 91
        1
 92
        1
 93
        1
 72
     2
 10
0.3630000000003086
 20
-3.594999999999345
 40
0.018
 50
0.0
 51
360.0
 73
     1
 97
        0
 75
     0
 76
     1
 98
        1
 10
-0.3039999999996645
 20
-2.109999999999327
  0
HATCH
  5
172
330
E8
100
AcDbEntity
  8
Pel_CS-Weatherstrip
100
AcDbHatch
 10
0.0
 20
0.0
 30
0.0
210
0.0
220
0.0
230
1.0
  2
SOLID
 70
     1
 71
     0
 91
        1
 92
        1
 93
        1
 72
     2
 10
0.3630000000003086
 20
-3.469999999999345
 40
0.018
 50
0.0
 51
360.0
 73
     1
 97
        0
 75
     0
 76
     1
 98
        1
 10
-0.3039999999996645
 20
-1.984999999999327
  0
HATCH
  5
173
330
E8
100
AcDbEntity
  8
Pel_CS-Weatherstrip
100
AcDbHatch
 10
0.0
 20
0.0
 30
0.0
210
0.0
220
0.0
230
1.0
  2
SOLID
 70
     1
 71
     0
 91
        1
 92
        1
 93
        1
 72
     2
 10
0.3630000000003086
 20
-3.344999999999345
 40
0.018
 50
0.0
 51
360.0
 73
     1
 97
        0
 75
     0
 76
     1
 98
        1
 10
-0.3039999999996645
 20
-1.859999999999327
  0
HATCH
  5
174
330
E8
100
AcDbEntity
  8
Pel_CS-Weatherstrip
100
AcDbHatch
 10
0.0
 20
0.0
 30
0.0
210
0.0
220
0.0
230
1.0
  2
SOLID
 70
     1
 71
     0
 91
        1
 92
        1
 93
        1
 72
     2
 10
0.3630000000003086
 20
-3.219999999999345
 40
0.018
 50
0.0
 51
360.0
 73
     1
 97
        0
 75
     0
 76
     1
 98
        1
 10
-0.3039999999996645
 20
-1.734999999999327
  0
HATCH
  5
175
330
E8
100
AcDbEntity
  8
Pel_CS-Weatherstrip
100
AcDbHatch
 10
0.0
 20
0.0
 30
0.0
210
0.0
220
0.0
230
1.0
  2
SOLID
 70
     1
 71
     0
 91
        1
 92
        1
 93
        1
 72
     2
 10
0.3630000000003086
 20
-3.094999999999345
 40
0.018
 50
0.0
 51
360.0
 73
     1
 97
        0
 75
     0
 76
     1
 98
        1
 10
-0.3039999999996645
 20
-1.609999999999327
  0
HATCH
  5
176
330
E8
100
AcDbEntity
  8
Pel_CS-Weatherstrip
100
AcDbHatch
 10
0.0
 20
0.0
 30
0.0
210
0.0
220
0.0
230
1.0
  2
SOLID
 70
     1
 71
     0
 91
        1
 92
        1
 93
        1
 72
     2
 10
0.3630000000003086
 20
-2.969999999999345
 40
0.018
 50
0.0
 51
360.0
 73
     1
 97
        0
 75
     0
 76
     1
 98
        1
 10
-0.3039999999996645
 20
-1.484999999999327
  0
HATCH
  5
177
330
E8
100
AcDbEntity
  8
Pel_CS-Weatherstrip
100
AcDbHatch
 10
0.0
 20
0.0
 30
0.0
210
0.0
220
0.0
230
1.0
  2
SOLID
 70
     1
 71
     0
 91
        1
 92
        1
 93
        1
 72
     2
 10
0.3630000000003086
 20
-2.844999999999345
 40
0.018
 50
0.0
 51
360.0
 73
     1
 97
        0
 75
     0
 76
     1
 98
        1
 10
-0.3039999999996645
 20
-1.359999999999327
  0
HATCH
  5
178
330
E8
100
AcDbEntity
  8
Pel_CS-Weatherstrip
100
AcDbHatch
 10
0.0
 20
0.0
 30
0.0
210
0.0
220
0.0
230
1.0
  2
SOLID
 70
     1
 71
     0
 91
        1
 92
        1
 93
        1
 72
     2
 10
0.3630000000003086
 20
-2.719999999999345
 40
0.018
 50
0.0
 51
360.0
 73
     1
 97
        0
 75
     0
 76
     1
 98
        1
 10
-0.3039999999996645
 20
-1.234999999999327
  0
HATCH
  5
179
330
E8
100
AcDbEntity
  8
Pel_CS-Weatherstrip
100
AcDbHatch
 10
0.0
 20
0.0
 30
0.0
210
0.0
220
0.0
230
1.0
  2
SOLID
 70
     1
 71
     0
 91
        1
 92
        1
 93
        1
 72
     2
 10
0.3630000000003086
 20
-2.594999999999345
 40
0.018
 50
0.0
 51
360.0
 73
     1
 97
        0
 75
     0
 76
     1
 98
        1
 10
-0.3039999999996645
 20
-1.109999999999327
  0
HATCH
  5
17A
330
E8
100
AcDbEntity
  8
Pel_CS-Fill
100
AcDbHatch
 10
0.0
 20
0.0
 30
0.0
210
0.0
220
0.0
230
1.0
  2
SOLID
 70
     1
 71
     1
 91
        1
 92
        1
 93
       33
 72
     1
 10
0.4010000000003018
 20
-1.874999999999332
 11
0.661000000000314
 21
-1.874999999999332
 72
     2
 10
0.661000000000314
 20
-1.894999999999331
 40
0.0199999999999996
 50
270.0
 51
360.0000000000305
 73
     0
 72
     1
 10
0.6810000000003136
 20
-1.894999999999342
 11
0.6810000000003136
 21
-2.494999999999343
 72
     2
 10
0.661000000000314
 20
-2.494999999999347
 40
0.0199999999999996
 50
359.9999999999898
 51
450.0
 73
     0
 72
     1
 10
0.661000000000314
 20
-2.514999999999346
 11
0.6210000000003113
 21
-2.514999999999346
 72
     1
 10
0.6210000000003113
 20
-2.514999999999346
 11
0.6210000000003113
 21
-2.604999999999343
 72
     2
 10
0.6010000000003118
 20
-2.604999999999346
 40
0.0199999999999996
 50
359.9999999999898
 51
450.0
 73
     0
 72
     1
 10
0.6010000000003118
 20
-2.624999999999346
 11
0.4010000000003089
 21
-2.624999999999346
 72
     2
 10
0.4010000000003089
 20
-2.604999999999343
 40
0.0200000000000014
 50
90.00000000000509
 51
180.0000000000051
 73
     0
 72
     1
 10
0.3810000000003093
 20
-2.604999999999343
 11
0.3810000000003093
 21
-2.584999999999347
 72
     2
 10
0.4010000000003089
 20
-2.584999999999343
 40
0.0199999999999996
 50
179.9999999999898
 51
270.0
 73
     0
 72
     1
 10
0.4010000000003089
 20
-2.564999999999344
 11
0.4483836048660735
 21
-2.564999999999344
 72
     2
 10
0.4483836048660735
 20
-2.574999999999345
 40
0.0100000000000011
 50
270.0000000000025
 51
283.2373959307805
 73
     0
 72
     1
 10
0.4506734674557614
 20
-2.565265703449497
 11
0.4506734674557614
 21
-2.584999999999347
 72
     1
 10
0.4506734674557614
 20
-2.584999999999347
 11
0.4010000000003089
 21
-2.584999999999347
 72
     1
 10
0.4010000000003089
 20
-2.584999999999347
 11
0.4010000000003089
 21
-2.604999999999336
 72
     1
 10
0.4010000000003089
 20
-2.604999999999336
 11
0.6010000000003118
 21
-2.60499999999935
 72
     1
 10
0.6010000000003118
 20
-2.60499999999935
 11
0.6010000000003082
 21
-2.494999999999343
 72
     1
 10
0.6010000000003082
 20
-2.494999999999343
 11
0.6610000000003069
 21
-2.494999999999343
 72
     1
 10
0.6610000000003069
 20
-2.494999999999343
 11
0.661000000000314
 21
-1.894999999999342
 72
     1
 10
0.661000000000314
 20
-1.894999999999342
 11
0.4010000000003125
 21
-1.894999999999342
 72
     1
 10
0.4010000000003125
 20
-1.894999999999342
 11
0.4010000000003089
 21
-2.408749999999336
 72
     1
 10
0.4010000000003089
 20
-2.408749999999336
 11
0.5810000000003122
 21
-2.408749999999344
 72
     2
 10
0.5810000000003122
 20
-2.428749999999343
 40
0.0199999999999996
 50
270.0
 51
360.0000000000102
 73
     0
 72
     1
 10
0.6010000000003118
 20
-2.428749999999347
 11
0.6010000000003118
 21
-2.60499999999935
 72
     1
 10
0.6010000000003118
 20
-2.60499999999935
 11
0.4010000000003089
 21
-2.604999999999336
 72
     1
 10
0.4010000000003089
 20
-2.604999999999336
 11
0.4010000000003089
 21
-2.584999999999347
 72
     1
 10
0.4010000000003089
 20
-2.584999999999347
 11
0.5810000000003157
 21
-2.584999999999347
 72
     1
 10
0.5810000000003157
 20
-2.584999999999347
 11
0.5810000000003086
 21
-2.428749999999347
 72
     1
 10
0.5810000000003086
 20
-2.428749999999347
 11
0.4010000000003089
 21
-2.428749999999347
 72
     2
 10
0.4010000000003089
 20
-2.408749999999344
 40
0.0200000000000014
 50
90.00000000000509
 51
180.0000000000051
 73
     0
 72
     1
 10
0.3810000000003093
 20
-2.408749999999344
 11
0.3810000000003093
 21
-1.894999999999342
 72
     2
 10
0.4010000000003089
 20
-1.894999999999331
 40
0.0199999999999996
 50
179.9999999999694
 51
269.9999999999796
 73
     0
 97
        1
330
14A
 75
     0
 76
     1
 98
        1
 10
-0.3039999999996645
 20
-1.109999999999327
  0
LWPOLYLINE
  5
17C
330
E8
100
AcDbEntity
  8
Pel_CS-Cross Section
 62
     4
100
AcDbPolyline
 90
      306
 70
     1
 43
0.0
 10
3.980000000000011
 20
-0.2499999999999929
 42
0.4142135623730951
 10
3.96500000000001
 20
-0.2349999999999923
 10
3.715000000000006
 20
-0.2349999999999923
 42
-0.4142135623730444
 10
3.700000000000009
 20
-0.2199999999999953
 10
3.700000000000006
 20
-0.0799999999999912
 42
-0.4142135623730951
 10
3.715000000000006
 20
-0.0649999999999906
 10
3.823000000000011
 20
-0.0649999999999906
 42
-0.4142135623730359
 10
3.838000000000008
 20
-0.0799999999999876
 10
3.838000000000011
 20
-0.1049999999999898
 10
3.863000000000013
 20
-0.1049999999999898
 10
3.915000000000009
 20
-0.0749777860021297
 10
3.915000000000006
 20
-0.0149999999999935
 42
0.4142135623730951
 10
3.900000000000005
 20
0.0000000000000071
 10
3.600980762113536
 20
0.0000000000000071
 10
3.575000000000002
 20
-0.0449999999999946
 10
3.575000000000006
 20
-0.0649999999999906
 10
3.620000000000011
 20
-0.0649999999999906
 42
-0.4142135623730951
 10
3.635000000000012
 20
-0.0799999999999912
 10
3.635000000000012
 20
-0.2199999999999918
 42
-0.4142135623730951
 10
3.620000000000011
 20
-0.2349999999999923
 10
2.150000000000012
 20
-0.2349999999999923
 42
-0.4142135623730951
 10
2.135000000000012
 20
-0.2199999999999918
 10
2.135000000000012
 20
-0.0899999999999892
 42
-0.4142135623731428
 10
2.150000000000016
 20
-0.0749999999999886
 10
2.195000000000014
 20
-0.0749999999999957
 10
2.195000000000007
 20
-0.0549999999999926
 10
2.169019237886477
 20
-0.009999999999998
 10
2.085000000000011
 20
-0.009999999999998
 42
0.4142135623730951
 10
2.07000000000001
 20
-0.0249999999999986
 10
2.070000000000014
 20
-0.2199999999999918
 42
-0.4142135623730951
 10
2.055000000000013
 20
-0.2349999999999923
 10
1.455000000000012
 20
-0.2349999999999923
 42
-0.4142135623730895
 10
1.440000000000011
 20
-0.2199999999999918
 10
1.440000000000001
 20
1.357500000000023
 42
1.0
 10
1.375
 20
1.357500000000023
 10
1.375000000000014
 20
-0.2199999999999918
 42
-0.4142135623730864
 10
1.360000000000013
 20
-0.2349999999999923
 10
0.3600000000000065
 20
-0.2350000000000065
 42
-0.4142135623730903
 10
0.345000000000006
 20
-0.220000000000006
 10
0.3449999999999989
 20
-0.0150000000000006
 42
0.4142135623730866
 10
0.3299999999999983
 20
0.0
 10
0.0499999999999936
 20
-0.0000000000000107
 10
0.0499999999999936
 20
-0.0120000000000076
 42
-0.4142135623730951
 10
0.0649999999999942
 20
-0.0270000000000081
 10
0.0649999999999977
 20
-0.0749777860021439
 10
0.1170000000000044
 20
-0.105000000000004
 10
0.142000000000003
 20
-0.105000000000004
 10
0.142000000000003
 20
-0.0800000000000054
 42
-0.4142135623730779
 10
0.1570000000000036
 20
-0.0650000000000048
 10
0.2650000000000041
 20
-0.0650000000000048
 42
-0.4142135623730911
 10
0.2800000000000047
 20
-0.0800000000000054
 10
0.2800000000000047
 20
-0.220000000000006
 42
-0.4142135623731125
 10
0.2650000000000041
 20
-0.2350000000000065
 10
0.0449999999999946
 20
-0.2349999999999923
 42
-0.4142135623730561
 10
0.0300000000000011
 20
-0.2199999999999918
 42
0.2358393635306434
 10
0.0100346379126286
 20
-0.1800260018829931
 42
-0.1971757684667479
 10
0.0042083799692847
 20
-0.1702414792902758
 42
0.0819489655475601
 10
-0.0396669563908283
 20
-0.0338571428571442
 42
-0.561190434364927
 10
-0.0263260571768917
 20
-0.0120000000000147
 10
0.0499999999999936
 20
-0.0120000000000076
 10
0.0499999999999936
 20
-0.0000000000000107
 10
-0.046936489564402
 20
-0.0000000000000142
 42
-0.2857055510463647
 10
-0.0603930216687303
 20
0.0083726518330955
 10
-0.084963895953365
 20
0.0582627059416936
 42
-0.1005861722143746
 10
-0.1037033934139266
 20
0.1295283018868076
 42
0.2590217009484319
 10
-0.1451960733326025
 20
0.1951929335787881
 42
-0.2741867672083325
 10
-0.1530000000000022
 20
0.2083541086247997
 10
-0.1530000000000022
 20
0.4349589803374699
 42
-0.4142135623731299
 10
-0.1380000000000017
 20
0.4499589803374704
 10
0.5687750100071618
 20
0.4499589803374846
 42
-0.227735077295834
 10
0.5804843812542835
 20
0.4443339803373334
 42
0.7088115080076417
 10
0.6250000000000036
 20
0.4599589803373121
 10
0.6250000000000036
 20
0.4999589803374818
 42
0.4142135623730951
 10
0.610000000000003
 20
0.5149589803374824
 10
-0.203000000000003
 20
0.5149589803374824
 42
0.4142135623730938
 10
-0.2180000000000035
 20
0.4999589803374818
 10
-0.2180000000000071
 20
0.1550000000000224
 42
0.4142135623730951
 10
-0.2030000000000065
 20
0.1400000000000219
 10
-0.1835751311064442
 20
0.1400000000000219
 42
-0.3977214534302991
 10
-0.168599180289096
 20
0.1258490566037906
 42
0.1005861722143857
 10
-0.143275535072128
 20
0.0295441972185238
 10
-0.0945866973917902
 20
-0.0693162958277327
 42
-0.1051749951051572
 10
-0.0562774695163526
 20
-0.2205769230768979
 42
0.4029900256444748
 10
-0.0412885682970057
 20
-0.2349999999999781
 10
-0.0150000000000006
 20
-0.234999999999971
 42
-0.4142135623731307
 10
0.0000000000000036
 20
-0.2499999999999716
 10
0.0000000000000142
 20
-1.294999999999852
 42
0.4142135623731037
 10
0.0300000000000118
 20
-1.324999999999853
 10
0.360000000000003
 20
-1.32499999999986
 42
-0.4142135623731121
 10
0.3750000000000071
 20
-1.339999999999864
 10
0.3750000000000071
 20
-1.779999999999994
 42
0.4142135623730951
 10
0.3900000000000077
 20
-1.794999999999994
 10
0.4250000000000043
 20
-1.794999999999994
 42
0.708811508003231
 10
0.4406250000000256
 20
-1.750484381255013
 42
-0.2277350772929923
 10
0.4350000000000059
 20
-1.738775010008012
 10
0.4350000000000059
 20
-1.621999999999992
 42
-0.4142135623730951
 10
0.4500000000000064
 20
-1.606999999999992
 10
0.6950000000000074
 20
-1.606999999999992
 42
-0.4142135623730951
 10
0.710000000000008
 20
-1.621999999999992
 10
0.7100000000000044
 20
-2.279999999999994
 42
0.4142135623730951
 10
0.725000000000005
 20
-2.294999999999994
 10
0.7600000000000052
 20
-2.294999999999994
 42
0.708811508003231
 10
0.7756250000000265
 20
-2.250484381255013
 42
-0.2277350772929983
 10
0.7700000000000067
 20
-2.238775010008012
 10
0.7700000000000103
 20
-1.809999999999995
 42
-0.4142135623730865
 10
0.7850000000000108
 20
-1.794999999999994
 10
1.190775010008071
 20
-1.794999999999987
 42
-0.2277350772921722
 10
1.202484381255025
 20
-1.80062500000001
 42
0.7088115080032024
 10
1.247000000000006
 20
-1.785
 10
1.24700000000001
 20
-1.749999999999992
 42
0.4142135623731297
 10
1.232000000000009
 20
-1.734999999999992
 10
1.062000000000004
 20
-1.734999999999992
 42
-0.4142135623730951
 10
1.047000000000004
 20
-1.719999999999991
 10
1.047000000000011
 20
-1.187999999999988
 42
-0.4142135623729911
 10
1.062000000000008
 20
-1.172999999999994
 10
2.032000000000007
 20
-1.172999999999994
 42
-0.4142135623731297
 10
2.047000000000007
 20
-1.187999999999995
 10
2.047000000000007
 20
-1.719999999999991
 10
2.107000000000009
 20
-1.719999999999991
 10
2.107000000000009
 20
-1.349999999999994
 42
-0.4142135623730995
 10
2.12200000000001
 20
-1.334999999999993
 10
2.12200000000001
 20
-1.294999999999994
 42
-0.4142135623730962
 10
2.107000000000009
 20
-1.279999999999994
 10
2.107000000000009
 20
-1.187999999999988
 42
0.311824590220639
 10
2.058541161268539
 20
-1.11785324841071
 42
-0.3603921115811399
 10
2.04907727722707
 20
-1.101219175427864
 10
2.06928456367391
 20
-0.9866179591780728
 10
2.029771011944795
 20
-0.9803596274022225
 10
2.008568557352102
 20
-1.100604722664996
 42
-0.3639702342661925
 10
1.993796441056918
 20
-1.112999999999992
 10
1.075455922731432
 20
-1.112999999999992
 42
-0.4663076581550059
 10
1.060683806436248
 20
-1.095395277334986
 10
1.106790911356309
 20
-0.8339088914466401
 42
-0.4091108014277135
 10
1.123909544627096
 20
-0.8216982890027182
 10
2.017299947021975
 20
-0.9631974278773469
 42
-0.4142135623731095
 10
2.029768755155298
 20
-0.9803592699618803
 10
2.06928456367391
 20
-0.9866179591780728
 10
2.069330029277146
 20
-0.9863601109290129
 42
-0.4091108014277138
 10
2.086448662547933
 20
-0.974149508485091
 10
2.448000000000003
 20
-1.031413614716019
 10
2.448000000000003
 20
-0.9806033815398009
 42
-0.0392901070076648
 10
2.4456534830244
 20
-0.9804187066487273
 10
1.13311048100822
 20
-0.7725323178725106
 42
-0.4193348017584008
 10
1.120684881688639
 20
-0.7551122700985787
 10
1.198288549447866
 20
-0.3149999999999906
 10
1.157440085794167
 20
-0.3149999999999977
 42
-0.0436609429085419
 10
1.15721220208935
 20
-0.3176047226650027
 10
1.081080398753051
 20
-0.7493696348208374
 42
-0.4091108014276767
 10
1.063961765482265
 20
-0.7615802372647594
 10
0.0800000000000054
 20
-0.6057360037381337
 10
0.0800000000000054
 20
-0.6563592600275179
 10
1.054760829101137
 20
-0.8107462083949812
 42
-0.4193348017584183
 10
1.067186428420715
 20
-0.8281662561689131
 10
1.01478395565601
 20
-1.125355447262357
 42
-0.160479178477545
 10
1.010343199467357
 20
-1.133625603831131
 42
0.2055805569695319
 10
0.9870000000000125
 20
-1.187999999999988
 10
0.9870000000000018
 20
-1.719999999999991
 42
-0.4142135623730951
 10
0.9720000000000013
 20
-1.734999999999992
 10
0.7850000000000073
 20
-1.734999999999992
 42
-0.4142135623730951
 10
0.7700000000000067
 20
-1.719999999999991
 10
0.7700000000000067
 20
-1.621999999999992
 42
0.4142135623730951
 10
0.6950000000000074
 20
-1.546999999999989
 10
0.4500000000000029
 20
-1.546999999999989
 42
-0.4142135623730823
 10
0.4350000000000059
 20
-1.531999999999989
 10
0.4349999999999988
 20
-1.339999999999854
 42
0.4142135623730985
 10
0.3599999999999994
 20
-1.264999999999851
 10
0.0750000000000242
 20
-1.264999999999858
 42
-0.4142135623730951
 10
0.0600000000000236
 20
-1.249999999999857
 10
0.0600000000000129
 20
-0.6707543147127169
 42
-0.4610063144273085
 10
0.0773465169756165
 20
-0.65593898960379
 10
0.0800000000000054
 20
-0.6563592600275179
 10
0.0800000000000054
 20
-0.6057360037381337
 10
0.0776534830244025
 20
-0.6053643519602403
 42
-0.3689194771098425
 10
0.0650000000000048
 20
-0.5905490268513134
 10
0.0650000000000048
 20
-0.3149999999999977
 42
-0.4142135623731385
 10
0.080000000000009
 20
-0.29999999999999
 10
1.142440085794167
 20
-0.2999999999999972
 42
-0.4142135623730552
 10
1.157440085794167
 20
-0.3149999999999977
 10
1.198288549447866
 20
-0.3149999999999906
 10
1.198747832330969
 20
-0.3123952773349856
 42
-0.363970234266226
 10
1.213519948626149
 20
-0.29999999999999
 10
2.457000000000011
 20
-0.29999999999999
 42
-0.4142135623730962
 10
2.472000000000011
 20
-0.3149999999999906
 10
2.522000000000012
 20
-0.3149999999999906
 42
-0.4142135623730966
 10
2.537000000000013
 20
-0.29999999999999
 10
3.48750183789
 20
-0.29999999999999
 42
-0.4142135623730841
 10
3.502501837890001
 20
-0.3149999999999906
 10
3.553504567662571
 20
-0.3149999999999906
 10
3.553963850545674
 20
-0.3123952773349856
 42
-0.363970234266203
 10
3.568735966840858
 20
-0.29999999999999
 10
3.900000000000009
 20
-0.29999999999999
 42
-0.4142135623730951
 10
3.915000000000009
 20
-0.3149999999999906
 10
3.915000000000006
 20
-1.089999999999989
 42
-0.4142135623730948
 10
3.900000000000005
 20
-1.104999999999989
 10
3.598000000000006
 20
-1.104999999999989
 10
3.598000000000006
 20
-1.144999999999996
 10
3.645000000000006
 20
-1.144999999999996
 42
-0.4142135623730919
 10
3.660000000000007
 20
-1.159999999999989
 10
3.660000000000007
 20
-1.219999999999991
 42
-0.4142135623730951
 10
3.645000000000006
 20
-1.234999999999992
 10
3.448000000000007
 20
-1.234999999999992
 42
-0.4142135623730951
 10
3.433000000000006
 20
-1.219999999999991
 10
3.433000000000006
 20
-1.184999999999988
 42
-0.414213562373096
 10
3.448000000000007
 20
-1.169999999999994
 10
3.508000000000002
 20
-1.169999999999994
 42
0.1933016534019424
 10
3.559874581658277
 20
-1.149166666666669
 42
-0.1933016534035769
 10
3.570249497990051
 20
-1.144999999999996
 10
3.598000000000006
 20
-1.144999999999996
 10
3.598000000000006
 20
-1.104999999999989
 42
-0.4142135623730268
 10
3.583000000000009
 20
-1.089999999999996
 10
3.583000000000012
 20
-0.5629999999999882
 42
0.3118245902204557
 10
3.534541161268563
 20
-0.4928532484107962
 42
-0.3603921115819458
 10
3.525077277227072
 20
-0.4762191754278647
 10
3.553504567662571
 20
-0.3149999999999906
 10
3.502501837890001
 20
-0.3149999999999906
 42
-0.0436609429085166
 10
3.502273954185184
 20
-0.3176047226649956
 10
3.474414291233248
 20
-0.4756047226649969
 42
-0.3639702342662016
 10
3.459642174938064
 20
-0.4879999999999925
 10
2.537000000000013
 20
-0.4879999999999925
 42
-0.4142135623730989
 10
2.522000000000012
 20
-0.4729999999999919
 10
2.522000000000012
 20
-0.3149999999999906
 10
2.472000000000011
 20
-0.3149999999999906
 10
2.472000000000011
 20
-0.523769909507962
 42
-0.1132370114593323
 10
2.470500000000065
 20
-0.5303082579233305
 42
0.1132370114593546
 10
2.463000000000008
 20
-0.5630000000000024
 10
2.463000000000004
 20
-0.9656033815398004
 42
-0.4142135623730919
 10
2.448000000000003
 20
-0.9806033815398009
 10
2.448000000000003
 20
-1.031413614716019
 10
2.450346516975606
 20
-1.031785266493912
 42
-0.3689194771098268
 10
2.463000000000004
 20
-1.046600591602839
 10
2.463000000000004
 20
-1.094999999999991
 42
0.1195350615015682
 10
2.471333333333337
 20
-1.129359213546791
 42
-0.119535061504171
 10
2.473000000000009
 20
-1.13623105625632
 10
2.473000000000009
 20
-1.219999999999991
 10
2.522500000000015
 20
-1.219999999999991
 10
2.522500000000015
 20
-1.184999999999988
 42
-0.4142135623730911
 10
2.537500000000015
 20
-1.169999999999987
 10
2.597500000000017
 20
-1.169999999999987
 42
-0.4142135623731471
 10
2.612500000000018
 20
-1.184999999999991
 10
2.612500000000011
 20
-1.219999999999984
 42
-0.4142135623731644
 10
2.597500000000014
 20
-1.234999999999985
 10
2.537500000000015
 20
-1.234999999999985
 42
-0.4142135623729519
 10
2.522500000000015
 20
-1.219999999999991
 10
2.473000000000009
 20
-1.219999999999991
 42
-0.4142135623730995
 10
2.458000000000009
 20
-1.234999999999992
 10
2.260000000000008
 20
-1.234999999999992
 42
0.3178372451959005
 10
2.189289321881275
 20
-1.285
 42
-0.3178372451957089
 10
2.175147186257547
 20
-1.294999999999994
 10
2.12200000000001
 20
-1.294999999999994
 10
2.12200000000001
 20
-1.334999999999993
 10
2.170000000000008
 20
-1.334999999999993
 42
-0.4142135623730964
 10
2.185000000000009
 20
-1.349999999999994
 10
2.185000000000005
 20
-1.719999999999991
 42
-0.4142135623730946
 10
2.170000000000005
 20
-1.734999999999992
 10
2.12200000000001
 20
-1.734999999999992
 42
-0.4142135623730995
 10
2.107000000000009
 20
-1.719999999999991
 10
2.047000000000007
 20
-1.719999999999991
 42
-0.4142135623730995
 10
2.032000000000007
 20
-1.734999999999992
 10
1.862000000000008
 20
-1.734999999999992
 42
0.4142135623730951
 10
1.847000000000008
 20
-1.749999999999992
 10
1.847000000000008
 20
-1.784999999999989
 42
0.7088115080032066
 10
1.891515618744953
 20
-1.800624999999982
 42
-0.2277350772922476
 10
1.903224989991947
 20
-1.794999999999987
 10
2.235000000000006
 20
-1.794999999999994
 42
0.7088115080031863
 10
2.250624999999995
 20
-1.750484381255049
 42
-0.2277350772921022
 10
2.245000000000008
 20
-1.738775010008062
 10
2.245000000000008
 20
-1.309999999999988
 42
-0.4142135623730951
 10
2.260000000000008
 20
-1.294999999999987
 10
2.708000000000005
 20
-1.294999999999987
 42
0.4142135623731904
 10
2.723000000000006
 20
-1.279999999999994
 10
2.723000000000006
 20
-1.249999999999992
 42
0.4142135623730951
 10
2.708000000000005
 20
-1.234999999999992
 10
2.688000000000005
 20
-1.234999999999992
 42
-0.4142135623730951
 10
2.673000000000005
 20
-1.219999999999991
 10
2.673000000000005
 20
-1.184999999999988
 42
-0.4142135623730951
 10
2.688000000000005
 20
-1.169999999999987
 10
2.708000000000005
 20
-1.169999999999987
 42
0.4142135623730951
 10
2.723000000000006
 20
-1.154999999999986
 10
2.723000000000006
 20
-1.124999999999992
 42
0.4142135623730951
 10
2.708000000000005
 20
-1.109999999999992
 10
2.53800000000001
 20
-1.109999999999992
 42
-0.4142135623730951
 10
2.52300000000001
 20
-1.094999999999991
 10
2.523000000000013
 20
-0.5629999999999882
 42
-0.4142135623730951
 10
2.538000000000014
 20
-0.5479999999999876
 10
3.508000000000009
 20
-0.5479999999999876
 42
-0.4142135623730995
 10
3.52300000000001
 20
-0.5629999999999882
 10
3.523000000000003
 20
-1.094999999999991
 42
-0.4142135623730951
 10
3.508000000000002
 20
-1.109999999999992
 10
3.338000000000004
 20
-1.109999999999992
 42
0.4142135623731299
 10
3.323000000000003
 20
-1.124999999999996
 10
3.323000000000007
 20
-1.154999999999994
 42
0.4142135623730951
 10
3.338000000000008
 20
-1.169999999999994
 10
3.358000000000007
 20
-1.169999999999994
 42
-0.4142135623731297
 10
3.373000000000008
 20
-1.184999999999995
 10
3.373000000000008
 20
-1.219999999999991
 42
-0.4142135623730604
 10
3.358000000000004
 20
-1.234999999999992
 10
3.338
 20
-1.234999999999992
 42
0.4142135623731299
 10
3.323
 20
-1.249999999999996
 10
3.323000000000003
 20
-1.279999999999986
 42
0.4142135623730886
 10
3.338000000000004
 20
-1.294999999999987
 10
3.690000000000008
 20
-1.294999999999994
 42
0.4142135623730866
 10
3.720000000000009
 20
-1.264999999999993
 10
3.720000000000009
 20
-1.184999999999995
 42
-0.4142135623730951
 10
3.73500000000001
 20
-1.169999999999994
 10
3.950000000000006
 20
-1.169999999999994
 42
0.4142135623730844
 10
3.980000000000007
 20
-1.139999999999993
  0
CIRCLE
  5
C9B
330
E8
100
AcDbEntity
  8
Pel_CS-Weatherstrip
100
AcDbCircle
 10
0.3630000000003086
 20
-4.064999999999344
 30
0.0
 40
0.018
  0
HATCH
  5
C9C
330
E8
100
AcDbEntity
  8
Pel_CS-Weatherstrip
100
AcDbHatch
 10
0.0
 20
0.0
 30
0.0
210
0.0
220
0.0
230
1.0
  2
SOLID
 70
     1
 71
     0
 91
        1
 92
        1
 93
        1
 72
     2
 10
0.3630000000003086
 20
-4.064999999999344
 40
0.018
 50
0.0
 51
360.0
 73
     1
 97
        0
 75
     0
 76
     1
 98
        1
 10
-0.3039999999996645
 20
-2.579999999999326
  0
CIRCLE
  5
C9D
330
E8
100
AcDbEntity
  8
Pel_CS-Weatherstrip
100
AcDbCircle
 10
0.3630000000003086
 20
-4.174999999999343
 30
0.0
 40
0.018
  0
HATCH
  5
C9E
330
E8
100
AcDbEntity
  8
Pel_CS-Weatherstrip
100
AcDbHatch
 10
0.0
 20
0.0
 30
0.0
210
0.0
220
0.0
230
1.0
  2
SOLID
 70
     1
 71
     0
 91
        1
 92
        1
 93
        1
 72
     2
 10
0.3630000000003086
 20
-4.174999999999343
 40
0.018
 50
0.0
 51
360.0
 73
     1
 97
        0
 75
     0
 76
     1
 98
        1
 10
-0.3039999999996645
 20
-2.689999999999326
  0
CIRCLE
  5
C9F
330
E8
100
AcDbEntity
  8
Pel_CS-Weatherstrip
100
AcDbCircle
 10
0.3630000000003086
 20
-4.284999999999342
 30
0.0
 40
0.018
  0
HATCH
  5
CA0
330
E8
100
AcDbEntity
  8
Pel_CS-Weatherstrip
100
AcDbHatch
 10
0.0
 20
0.0
 30
0.0
210
0.0
220
0.0
230
1.0
  2
SOLID
 70
     1
 71
     0
 91
        1
 92
        1
 93
        1
 72
     2
 10
0.3630000000003086
 20
-4.284999999999342
 40
0.018
 50
0.0
 51
360.0
 73
     1
 97
        0
 75
     0
 76
     1
 98
        1
 10
-0.3039999999996645
 20
-2.799999999999325
  0
CIRCLE
  5
CA1
330
E8
100
AcDbEntity
  8
Pel_CS-Weatherstrip
100
AcDbCircle
 10
0.3630000000003086
 20
-4.394999999999342
 30
0.0
 40
0.018
  0
HATCH
  5
CA2
330
E8
100
AcDbEntity
  8
Pel_CS-Weatherstrip
100
AcDbHatch
 10
0.0
 20
0.0
 30
0.0
210
0.0
220
0.0
230
1.0
  2
SOLID
 70
     1
 71
     0
 91
        1
 92
        1
 93
        1
 72
     2
 10
0.3630000000003086
 20
-4.394999999999342
 40
0.018
 50
0.0
 51
360.0
 73
     1
 97
        0
 75
     0
 76
     1
 98
        1
 10
-0.3039999999996645
 20
-2.909999999999325
  0
ENDBLK
  5
17D
330
E8
100
AcDbEntity
  8
0
100
AcDbBlockEnd
  0
BLOCK
  5
37
330
34
100
AcDbEntity
  8
0
100
AcDbBlockBegin
  2
TSE25DHS
 70
     0
 10
0.0
 20
0.0
 30
0.0
  3
TSE25DHS
  1

  0
POINT
  5
38
330
34
100
AcDbEntity
  8
Pel_CS-Points
100
AcDbPoint
 10
0.0
 20
0.0
 30
0.0
  0
LWPOLYLINE
  5
3A
330
34
100
AcDbEntity
  8
Pel_CS-Cross Section
 62
     4
100
AcDbPolyline
 90
      143
 70
     1
 43
0.0
 10
3.172500000000027
 20
1.69500000000001
 10
2.87250000000002
 20
1.695000000000003
 42
0.4142135623730933
 10
2.79750000000002
 20
1.619999999999997
 10
2.797500000000029
 20
1.450000000000009
 10
2.857500000000021
 20
1.450000000000009
 10
2.857500000000023
 20
1.620000000000004
 42
-0.4142135623730951
 10
2.872500000000023
 20
1.635000000000005
 10
3.172500000000024
 20
1.635000000000008
 42
-0.4142135623730951
 10
3.187500000000024
 20
1.620000000000008
 10
3.187500000000021
 20
1.450000000000009
 42
-0.4142135623730951
 10
3.17250000000002
 20
1.435000000000009
 10
3.112500000000018
 20
1.435000000000009
 42
0.4142135623730951
 10
3.097500000000017
 20
1.420000000000008
 10
3.097500000000021
 20
1.390000000000004
 42
0.4142135623730259
 10
3.112500000000022
 20
1.375000000000007
 10
3.492500000000022
 20
1.375000000000007
 10
3.492500000000021
 20
1.425000000000004
 10
3.450000000000025
 20
1.425000000000004
 10
3.450000000000024
 20
1.475000000000004
 10
3.660000000000025
 20
1.475000000000004
 10
3.660000000000023
 20
1.425000000000004
 10
3.617500000000021
 20
1.425000000000004
 10
3.617500000000022
 20
1.375000000000007
 10
3.660000000000017
 20
1.375
 42
0.4142135623730951
 10
3.72000000000002
 20
1.435000000000002
 10
3.720000000000013
 20
2.644423823540865
 42
-0.2206371878861049
 10
3.730623853211007
 20
2.66732720616465
 42
-0.2813169801573632
 10
4.112535287309324
 20
2.726495713340561
 42
-0.258736450187276
 10
4.130598716610712
 20
2.703680406856818
 42
1.547678913000681
 10
4.198922204213955
 20
2.749111226666386
 42
0.2709607670182907
 10
3.764328358208967
 20
2.762709595811717
 42
-0.5688269930471231
 10
3.720000000000013
 20
2.789066722950995
 10
3.720000000000013
 20
2.782623956929658
 42
0.2679491924311208
 10
3.705000000000012
 20
2.808604719043191
 10
3.662500000000015
 20
2.833142105483755
 42
-0.2679491924311844
 10
3.655000000000022
 20
2.846132486540522
 10
3.655000000000022
 20
2.95381197846483
 42
0.2679491924311208
 10
3.647500000000022
 20
2.966802359521597
 10
3.597500000000017
 20
2.995669872981078
 42
-0.2679491924312624
 10
3.590000000000017
 20
3.008660254037845
 10
3.590000000000017
 20
3.110000000000002
 42
0.4142135623730951
 10
3.575000000000017
 20
3.125000000000003
 10
3.315000000000026
 20
3.125000000000007
 42
0.4142135623730951
 10
3.300000000000025
 20
3.110000000000006
 10
3.300000000000025
 20
2.515000000000004
 42
-0.4142135623730951
 10
3.285000000000025
 20
2.500000000000003
 10
2.480000000000025
 20
2.500000000000003
 42
0.4142135623730951
 10
2.465000000000024
 20
2.485000000000002
 10
2.465000000000024
 20
2.48
 42
0.4142135623730951
 10
2.505000000000023
 20
2.440000000000001
 10
2.700000000000024
 20
2.439999999999994
 42
-0.4142135623730259
 10
2.715000000000024
 20
2.424999999999997
 10
2.715000000000031
 20
2.406902094518237
 42
-0.2539676464749322
 10
2.703615975875401
 20
2.385935330319604
 10
2.431210638501347
 20
2.209033235801367
 42
-0.1449930994916438
 10
2.417594662625973
 20
2.205000000000001
 10
2.400000000000027
 20
2.205000000000001
 42
-0.4142135623732337
 10
2.385000000000026
 20
2.220000000000005
 10
2.385000000000033
 20
2.255000000000027
 42
-0.4142135623729216
 10
2.400000000000028
 20
2.27000000000002
 42
0.4142135623729218
 10
2.415000000000027
 20
2.285000000000021
 10
2.41500000000002
 20
2.315000000000001
 42
0.4142135623729563
 10
2.400000000000005
 20
2.330000000000023
 10
2.340000000000017
 20
2.329999999999998
 42
0.4142135623731644
 10
2.325000000000024
 20
2.315000000000001
 10
2.325000000000024
 20
1.955000000000001
 42
-0.41421356237313
 10
2.295000000000023
 20
1.925000000000004
 10
2.080000000000012
 20
1.925000000000004
 42
0.4142135623730951
 10
2.050000000000011
 20
1.895000000000003
 10
2.050000000000011
 20
1.570000000000003
 42
0.864838237392421
 10
2.089168246951249
 20
1.564292258869176
 10
2.140000000000011
 20
1.735000000000006
 10
2.140000000000011
 20
1.755000000000002
 10
2.115000000000012
 20
1.755000000000002
 10
2.115000000000009
 20
1.830000000000001
 42
-0.4142135623730951
 10
2.14500000000001
 20
1.860000000000002
 10
2.295000000000023
 20
1.860000000000002
 42
-0.4142135623730951
 10
2.325000000000024
 20
1.830000000000001
 10
2.325000000000024
 20
1.602500000000002
 10
2.375000000000021
 20
1.602500000000006
 10
2.375000000000021
 20
1.645000000000003
 10
2.425000000000025
 20
1.645000000000003
 10
2.425000000000023
 20
1.435000000000005
 10
2.375000000000021
 20
1.435000000000002
 10
2.375000000000021
 20
1.477500000000002
 10
2.325000000000025
 20
1.477500000000002
 10
2.325000000000024
 20
1.435000000000005
 42
0.4142135623730778
 10
2.385000000000026
 20
1.375000000000007
 10
2.932500000000025
 20
1.375000000000007
 42
0.4142135623730951
 10
2.947500000000026
 20
1.390000000000007
 10
2.947500000000022
 20
1.420000000000012
 42
0.4142135623730259
 10
2.932500000000022
 20
1.435000000000009
 10
2.872500000000023
 20
1.435000000000009
 42
-0.4142135623731081
 10
2.857500000000023
 20
1.450000000000009
 10
2.797500000000027
 20
1.450000000000009
 42
-0.4142135623731081
 10
2.782500000000027
 20
1.435000000000009
 10
2.500000000000028
 20
1.435000000000005
 42
-0.4142135623730951
 10
2.485000000000027
 20
1.450000000000006
 10
2.485000000000027
 20
1.645000000000003
 42
0.4142135623730951
 10
2.425000000000025
 20
1.705000000000005
 10
2.400000000000027
 20
1.705000000000005
 42
-0.4142135623730909
 10
2.385000000000026
 20
1.720000000000005
 10
2.385000000000019
 20
2.130000000000002
 42
-0.4142135623730259
 10
2.400000000000019
 20
2.144999999999999
 10
2.417594662625973
 20
2.144999999999999
 42
0.1449930994916368
 10
2.463888980602249
 20
2.158713001724638
 10
2.740847927626155
 20
2.338572244925952
 42
0.2539676464750168
 10
2.775000000000027
 20
2.401472537521879
 10
2.775000000000019
 20
2.425
 42
-0.4142135623730951
 10
2.79000000000002
 20
2.440000000000001
 10
3.285000000000025
 20
2.440000000000001
 42
0.4142135623730151
 10
3.360000000000017
 20
2.514999999999986
 10
3.360000000000027
 20
2.575000000000002
 42
-0.4142135623730925
 10
3.375000000000028
 20
2.590000000000003
 10
3.645000000000015
 20
2.590000000000006
 10
3.64500000000002
 20
2.630000000000002
 10
3.375000000000024
 20
2.630000000000002
 42
-0.4142135623730951
 10
3.360000000000024
 20
2.645000000000003
 10
3.360000000000027
 20
3.050000000000004
 42
-0.4142135623730951
 10
3.375000000000028
 20
3.065000000000004
 10
3.515000000000021
 20
3.065000000000004
 42
-0.4142135623730951
 10
3.530000000000022
 20
3.050000000000004
 10
3.530000000000022
 20
3.008660254037845
 42
0.2679491924310922
 10
3.567500000000013
 20
2.943708348754022
 10
3.587500000000019
 20
2.932161343370221
 42
-0.267949192431097
 10
3.59500000000002
 20
2.919170962313454
 10
3.595000000000027
 20
2.846132486540522
 42
0.2679491924311947
 10
3.632500000000035
 20
2.781180581256677
 10
3.652500000000024
 20
2.769633575872898
 42
-0.2679491924311208
 10
3.660000000000025
 20
2.756643194816131
 10
3.660000000000025
 20
2.645000000000003
 42
-0.4142135623731646
 10
3.64500000000002
 20
2.630000000000002
 10
3.645000000000017
 20
2.590000000000006
 42
-0.4142135623730966
 10
3.660000000000017
 20
2.575000000000006
 10
3.660000000000025
 20
1.550000000000004
 42
-0.4142135623730951
 10
3.645000000000024
 20
1.535000000000003
 10
3.450000000000024
 20
1.535000000000003
 42
0.4142135623730951
 10
3.390000000000021
 20
1.475000000000001
 10
3.390000000000021
 20
1.450000000000009
 42
-0.4142135623730951
 10
3.375000000000021
 20
1.435000000000009
 10
3.262500000000027
 20
1.435000000000009
 42
-0.4142135623730951
 10
3.247500000000027
 20
1.450000000000009
 10
3.247500000000027
 20
1.620000000000011
 42
0.4142135623731228
  0
LWPOLYLINE
  5
3C
330
34
100
AcDbEntity
  8
Pel_CS-Cross Section
 62
     4
100
AcDbPolyline
 90
       19
 70
     1
 43
0.0
 10
2.486515976719642
 20
3.099503450368253
 42
1.0
 10
2.458726110244457
 20
3.110804924665508
 42
0.1289412182550372
 10
2.360240419714246
 20
2.356209567146891
 42
0.3775763705691536
 10
2.390000000000043
 20
2.330000000000001
 10
2.400000000000032
 20
2.330000000000005
 42
-0.4142135623730951
 10
2.415000000000032
 20
2.315000000000004
 10
2.415000000000032
 20
2.305000000000003
 42
0.6180339887499419
 10
2.439000000000032
 20
2.293000000000002
 10
2.587000000000029
 20
2.404000000000003
 42
-0.1622776601683793
 10
2.60500000000003
 20
2.410000000000003
 10
2.649999999999993
 20
2.410000000000003
 42
-0.0990195135929029
 10
2.673076923076946
 20
2.405384615384623
 42
1.219803902718882
 10
2.680000000000031
 20
2.440000000000004
 10
2.60500000000003
 20
2.440000000000004
 42
0.1622776601683838
 10
2.569000000000029
 20
2.428000000000004
 10
2.45059272667162
 20
2.339194545003696
 42
-0.4195492703915322
 10
2.436484958185863
 20
2.341340991366653
 42
0.2464808025218458
 10
2.399047108931993
 20
2.35998990996449
 42
-0.3853654697452701
 10
2.388908067151438
 20
2.368783944843496
 42
-0.1274111175207384
  0
POLYLINE
  5
40
330
34
100
AcDbEntity
  8
Pel_CS-Weatherstrip
100
AcDb2dPolyline
 66
     1
 10
0.0
 20
0.0
 30
0.0
  0
VERTEX
  5
ACB
330
40
100
AcDbEntity
  8
Pel_CS-Weatherstrip
100
AcDbVertex
100
AcDb2dVertex
 10
2.387770088938168
 20
1.451712871791368
 30
0.0
  0
VERTEX
  5
ACC
330
40
100
AcDbEntity
  8
Pel_CS-Weatherstrip
100
AcDbVertex
100
AcDb2dVertex
 10
2.387770088938168
 20
1.497957461429745
 30
0.0
  0
VERTEX
  5
ACD
330
40
100
AcDbEntity
  8
Pel_CS-Weatherstrip
100
AcDbVertex
100
AcDb2dVertex
 10
2.245000000000027
 20
1.454265040872662
 30
0.0
  0
VERTEX
  5
ACE
330
40
100
AcDbEntity
  8
Pel_CS-Weatherstrip
100
AcDbVertex
100
AcDb2dVertex
 10
2.245000000000027
 20
1.484984090897793
 30
0.0
  0
VERTEX
  5
ACF
330
40
100
AcDbEntity
  8
Pel_CS-Weatherstrip
100
AcDbVertex
100
AcDb2dVertex
 10
2.387770088938168
 20
1.497957461429745
 30
0.0
  0
VERTEX
  5
AD0
330
40
100
AcDbEntity
  8
Pel_CS-Weatherstrip
100
AcDbVertex
100
AcDb2dVertex
 10
2.245000000000027
 20
1.50826044894487
 30
0.0
  0
VERTEX
  5
AD1
330
40
100
AcDbEntity
  8
Pel_CS-Weatherstrip
100
AcDbVertex
100
AcDb2dVertex
 10
2.245000000000027
 20
1.536487683568267
 30
0.0
  0
VERTEX
  5
AD2
330
40
100
AcDbEntity
  8
Pel_CS-Weatherstrip
100
AcDbVertex
100
AcDb2dVertex
 10
2.387770088938168
 20
1.497957461429745
 30
0.0
  0
VERTEX
  5
AD3
330
40
100
AcDbEntity
  8
Pel_CS-Weatherstrip
100
AcDbVertex
100
AcDb2dVertex
 10
2.387770088938168
 20
1.580415425933207
 30
0.0
  0
VERTEX
  5
AD4
330
40
100
AcDbEntity
  8
Pel_CS-Weatherstrip
100
AcDbVertex
100
AcDb2dVertex
 10
2.245000000000027
 20
1.536487683568267
 30
0.0
  0
VERTEX
  5
AD5
330
40
100
AcDbEntity
  8
Pel_CS-Weatherstrip
100
AcDbVertex
100
AcDb2dVertex
 10
2.245000000000027
 20
1.569167299032212
 30
0.0
  0
VERTEX
  5
AD6
330
40
100
AcDbEntity
  8
Pel_CS-Weatherstrip
100
AcDbVertex
100
AcDb2dVertex
 10
2.387770088938168
 20
1.580415425933207
 30
0.0
  0
VERTEX
  5
AD7
330
40
100
AcDbEntity
  8
Pel_CS-Weatherstrip
100
AcDbVertex
100
AcDb2dVertex
 10
2.245000000000027
 20
1.598940472265475
 30
0.0
  0
VERTEX
  5
AD8
330
40
100
AcDbEntity
  8
Pel_CS-Weatherstrip
100
AcDbVertex
100
AcDb2dVertex
 10
2.245000000000027
 20
1.631236794397768
 30
0.0
  0
VERTEX
  5
AD9
330
40
100
AcDbEntity
  8
Pel_CS-Weatherstrip
100
AcDbVertex
100
AcDb2dVertex
 10
2.387770088938168
 20
1.580415425933207
 30
0.0
  0
VERTEX
  5
ADA
330
40
100
AcDbEntity
  8
Pel_CS-Weatherstrip
100
AcDbVertex
100
AcDb2dVertex
 10
2.387770088938168
 20
1.638490595477538
 30
0.0
  0
VERTEX
  5
ADB
330
40
100
AcDbEntity
  8
Pel_CS-Weatherstrip
100
AcDbVertex
100
AcDb2dVertex
 10
2.422770074938163
 20
1.638490595477538
 30
0.0
  0
VERTEX
  5
ADC
330
40
100
AcDbEntity
  8
Pel_CS-Weatherstrip
100
AcDbVertex
100
AcDb2dVertex
 10
2.422770074938163
 20
1.451712871791368
 30
0.0
  0
VERTEX
  5
ADD
330
40
100
AcDbEntity
  8
0
100
AcDbVertex
100
AcDb2dVertex
 10
2.387770088938168
 20
1.451712871791368
 30
0.0
  0
SEQEND
  5
ADE
330
40
100
AcDbEntity
  8
Pel_CS-Weatherstrip
  0
POLYLINE
  5
56
330
34
100
AcDbEntity
  8
Pel_CS-Weatherstrip
100
AcDb2dPolyline
 66
     1
 10
0.0
 20
0.0
 30
0.0
  0
VERTEX
  5
AE0
330
56
100
AcDbEntity
  8
Pel_CS-Weatherstrip
100
AcDbVertex
100
AcDb2dVertex
 10
3.882770088938151
 20
2.041712871791364
 30
0.0
  0
VERTEX
  5
AE1
330
56
100
AcDbEntity
  8
Pel_CS-Weatherstrip
100
AcDbVertex
100
AcDb2dVertex
 10
3.882770088938151
 20
2.087957461429741
 30
0.0
  0
VERTEX
  5
AE2
330
56
100
AcDbEntity
  8
Pel_CS-Weatherstrip
100
AcDbVertex
100
AcDb2dVertex
 10
3.720000000000016
 20
2.037341045253825
 30
0.0
  0
VERTEX
  5
AE3
330
56
100
AcDbEntity
  8
Pel_CS-Weatherstrip
100
AcDbVertex
100
AcDb2dVertex
 10
3.720000000000016
 20
2.067987239686786
 30
0.0
  0
VERTEX
  5
AE4
330
56
100
AcDbEntity
  8
Pel_CS-Weatherstrip
100
AcDbVertex
100
AcDb2dVertex
 10
3.882770088938151
 20
2.087957461429741
 30
0.0
  0
VERTEX
  5
AE5
330
56
100
AcDbEntity
  8
Pel_CS-Weatherstrip
100
AcDbVertex
100
AcDb2dVertex
 10
3.720000000000016
 20
2.09898209782747
 30
0.0
  0
VERTEX
  5
AE6
330
56
100
AcDbEntity
  8
Pel_CS-Weatherstrip
100
AcDbVertex
100
AcDb2dVertex
 10
3.720000000000014
 20
2.129186443681472
 30
0.0
  0
VERTEX
  5
AE7
330
56
100
AcDbEntity
  8
Pel_CS-Weatherstrip
100
AcDbVertex
100
AcDb2dVertex
 10
3.882770088938151
 20
2.087957461429741
 30
0.0
  0
VERTEX
  5
AE8
330
56
100
AcDbEntity
  8
Pel_CS-Weatherstrip
100
AcDbVertex
100
AcDb2dVertex
 10
3.882770088938151
 20
2.170415425933203
 30
0.0
  0
VERTEX
  5
AE9
330
56
100
AcDbEntity
  8
Pel_CS-Weatherstrip
100
AcDbVertex
100
AcDb2dVertex
 10
3.720000000000014
 20
2.129186443681472
 30
0.0
  0
VERTEX
  5
AEA
330
56
100
AcDbEntity
  8
Pel_CS-Weatherstrip
100
AcDbVertex
100
AcDb2dVertex
 10
3.720000000000014
 20
2.15837945005175
 30
0.0
  0
VERTEX
  5
AEB
330
56
100
AcDbEntity
  8
Pel_CS-Weatherstrip
100
AcDbVertex
100
AcDb2dVertex
 10
3.882770088938151
 20
2.170415425933203
 30
0.0
  0
VERTEX
  5
AEC
330
56
100
AcDbEntity
  8
Pel_CS-Weatherstrip
100
AcDbVertex
100
AcDb2dVertex
 10
3.720000000000014
 20
2.190238016202723
 30
0.0
  0
VERTEX
  5
AED
330
56
100
AcDbEntity
  8
Pel_CS-Weatherstrip
100
AcDbVertex
100
AcDb2dVertex
 10
3.720000000000014
 20
2.226964375888659
 30
0.0
  0
VERTEX
  5
AEE
330
56
100
AcDbEntity
  8
Pel_CS-Weatherstrip
100
AcDbVertex
100
AcDb2dVertex
 10
3.882770088938151
 20
2.170415425933203
 30
0.0
  0
VERTEX
  5
AEF
330
56
100
AcDbEntity
  8
Pel_CS-Weatherstrip
100
AcDbVertex
100
AcDb2dVertex
 10
3.882770088938151
 20
2.228490595477534
 30
0.0
  0
VERTEX
  5
AF0
330
56
100
AcDbEntity
  8
Pel_CS-Weatherstrip
100
AcDbVertex
100
AcDb2dVertex
 10
3.917770074938147
 20
2.228490595477534
 30
0.0
  0
VERTEX
  5
AF1
330
56
100
AcDbEntity
  8
Pel_CS-Weatherstrip
100
AcDbVertex
100
AcDb2dVertex
 10
3.917770074938147
 20
2.041712871791364
 30
0.0
  0
VERTEX
  5
AF2
330
56
100
AcDbEntity
  8
0
100
AcDbVertex
100
AcDb2dVertex
 10
3.882770088938151
 20
2.041712871791364
 30
0.0
  0
SEQEND
  5
AF3
330
56
100
AcDbEntity
  8
Pel_CS-Weatherstrip
  0
POLYLINE
  5
6B
330
34
100
AcDbEntity
  8
Pel_CS-Weatherstrip
100
AcDb2dPolyline
 66
     1
 10
0.0
 20
0.0
 30
0.0
  0
VERTEX
  5
AF5
330
6B
100
AcDbEntity
  8
Pel_CS-Weatherstrip
100
AcDbVertex
100
AcDb2dVertex
 10
3.643287128208658
 20
1.437770088938151
 30
0.0
  0
VERTEX
  5
AF6
330
6B
100
AcDbEntity
  8
Pel_CS-Weatherstrip
100
AcDbVertex
100
AcDb2dVertex
 10
3.597042538570281
 20
1.437770088938151
 30
0.0
  0
VERTEX
  5
AF7
330
6B
100
AcDbEntity
  8
Pel_CS-Weatherstrip
100
AcDbVertex
100
AcDb2dVertex
 10
3.680179544831698
 20
1.169999999999994
 30
0.0
  0
VERTEX
  5
AF8
330
6B
100
AcDbEntity
  8
Pel_CS-Weatherstrip
100
AcDbVertex
100
AcDb2dVertex
 10
3.632639647117935
 20
1.169999999999994
 30
0.0
  0
VERTEX
  5
AF9
330
6B
100
AcDbEntity
  8
Pel_CS-Weatherstrip
100
AcDbVertex
100
AcDb2dVertex
 10
3.597042538570281
 20
1.437770088938151
 30
0.0
  0
VERTEX
  5
AFA
330
6B
100
AcDbEntity
  8
Pel_CS-Weatherstrip
100
AcDbVertex
100
AcDb2dVertex
 10
3.598305293357213
 20
1.169999999999994
 30
0.0
  0
VERTEX
  5
AFB
330
6B
100
AcDbEntity
  8
Pel_CS-Weatherstrip
100
AcDbVertex
100
AcDb2dVertex
 10
3.555813556318549
 20
1.169999999999994
 30
0.0
  0
VERTEX
  5
AFC
330
6B
100
AcDbEntity
  8
Pel_CS-Weatherstrip
100
AcDbVertex
100
AcDb2dVertex
 10
3.597042538570281
 20
1.437770088938151
 30
0.0
  0
VERTEX
  5
AFD
330
6B
100
AcDbEntity
  8
Pel_CS-Weatherstrip
100
AcDbVertex
100
AcDb2dVertex
 10
3.51458457406682
 20
1.437770088938151
 30
0.0
  0
VERTEX
  5
AFE
330
6B
100
AcDbEntity
  8
Pel_CS-Weatherstrip
100
AcDbVertex
100
AcDb2dVertex
 10
3.555813556318549
 20
1.169999999999994
 30
0.0
  0
VERTEX
  5
AFF
330
6B
100
AcDbEntity
  8
Pel_CS-Weatherstrip
100
AcDbVertex
100
AcDb2dVertex
 10
3.512469391156237
 20
1.169999999999998
 30
0.0
  0
VERTEX
  5
B00
330
6B
100
AcDbEntity
  8
Pel_CS-Weatherstrip
100
AcDbVertex
100
AcDb2dVertex
 10
3.51458457406682
 20
1.437770088938151
 30
0.0
  0
VERTEX
  5
B01
330
6B
100
AcDbEntity
  8
Pel_CS-Weatherstrip
100
AcDbVertex
100
AcDb2dVertex
 10
3.479455593570737
 20
1.169999999999998
 30
0.0
  0
VERTEX
  5
B02
330
6B
100
AcDbEntity
  8
Pel_CS-Weatherstrip
100
AcDbVertex
100
AcDb2dVertex
 10
3.42399239440399
 20
1.169999999999998
 30
0.0
  0
VERTEX
  5
B03
330
6B
100
AcDbEntity
  8
Pel_CS-Weatherstrip
100
AcDbVertex
100
AcDb2dVertex
 10
3.51458457406682
 20
1.437770088938151
 30
0.0
  0
VERTEX
  5
B04
330
6B
100
AcDbEntity
  8
Pel_CS-Weatherstrip
100
AcDbVertex
100
AcDb2dVertex
 10
3.456509404522488
 20
1.437770088938151
 30
0.0
  0
VERTEX
  5
B05
330
6B
100
AcDbEntity
  8
Pel_CS-Weatherstrip
100
AcDbVertex
100
AcDb2dVertex
 10
3.456509404522488
 20
1.472770074938146
 30
0.0
  0
VERTEX
  5
B06
330
6B
100
AcDbEntity
  8
Pel_CS-Weatherstrip
100
AcDbVertex
100
AcDb2dVertex
 10
3.643287128208658
 20
1.472770074938146
 30
0.0
  0
VERTEX
  5
B07
330
6B
100
AcDbEntity
  8
0
100
AcDbVertex
100
AcDb2dVertex
 10
3.643287128208658
 20
1.437770088938151
 30
0.0
  0
SEQEND
  5
B08
330
6B
100
AcDbEntity
  8
Pel_CS-Weatherstrip
  0
CIRCLE
  5
80
102
{ACAD_REACTORS
330
B3
102
}
330
34
100
AcDbEntity
  8
Pel_CS-Weatherstrip
100
AcDbCircle
 10
0.3651044678205189
 20
1.469999999999991
 30
0.0
 40
0.018
  0
CIRCLE
  5
81
330
34
100
AcDbEntity
  8
Pel_CS-Weatherstrip
100
AcDbCircle
 10
0.3651044678205189
 20
1.594999999999991
 30
0.0
 40
0.018
  0
CIRCLE
  5
82
330
34
100
AcDbEntity
  8
Pel_CS-Weatherstrip
100
AcDbCircle
 10
0.3651044678205189
 20
1.719999999999991
 30
0.0
 40
0.018
  0
POLYLINE
  5
83
102
{ACAD_REACTORS
330
C0
102
}
330
34
100
AcDbEntity
  8
Pel_CS-Clad
100
AcDb2dPolyline
 66
     1
 10
0.0
 20
0.0
 30
0.0
 70
     1
  0
VERTEX
  5
B0D
330
83
100
AcDbEntity
  8
Pel_CS-Clad
100
AcDbVertex
100
AcDb2dVertex
 10
0.4031044678205121
 20
0.7499999999999787
 30
0.0
  0
VERTEX
  5
B0E
330
83
100
AcDbEntity
  8
Pel_CS-Clad
100
AcDbVertex
100
AcDb2dVertex
 10
0.6631044678205243
 20
0.7499999999999787
 30
0.0
 42
0.4142135623732505
  0
VERTEX
  5
B0F
330
83
100
AcDbEntity
  8
Pel_CS-Clad
100
AcDbVertex
100
AcDb2dVertex
 10
0.6831044678205238
 20
0.769999999999989
 30
0.0
  0
VERTEX
  5
B10
330
83
100
AcDbEntity
  8
Pel_CS-Clad
100
AcDbVertex
100
AcDb2dVertex
 10
0.6831044678205238
 20
1.36999999999999
 30
0.0
 42
0.4142135623731472
  0
VERTEX
  5
B11
330
83
100
AcDbEntity
  8
Pel_CS-Clad
100
AcDbVertex
100
AcDb2dVertex
 10
0.6631044678205243
 20
1.389999999999993
 30
0.0
  0
VERTEX
  5
B12
330
83
100
AcDbEntity
  8
Pel_CS-Clad
100
AcDbVertex
100
AcDb2dVertex
 10
0.6231044678205216
 20
1.389999999999993
 30
0.0
  0
VERTEX
  5
B13
330
83
100
AcDbEntity
  8
Pel_CS-Clad
100
AcDbVertex
100
AcDb2dVertex
 10
0.6231044678205216
 20
1.479999999999989
 30
0.0
 42
0.4142135623731472
  0
VERTEX
  5
B14
330
83
100
AcDbEntity
  8
Pel_CS-Clad
100
AcDbVertex
100
AcDb2dVertex
 10
0.603104467820522
 20
1.499999999999992
 30
0.0
  0
VERTEX
  5
B15
330
83
100
AcDbEntity
  8
Pel_CS-Clad
100
AcDbVertex
100
AcDb2dVertex
 10
0.4031044678205192
 20
1.499999999999992
 30
0.0
 42
0.4142135623730951
  0
VERTEX
  5
B16
330
83
100
AcDbEntity
  8
Pel_CS-Clad
100
AcDbVertex
100
AcDb2dVertex
 10
0.3831044678205195
 20
1.479999999999989
 30
0.0
  0
VERTEX
  5
B17
330
83
100
AcDbEntity
  8
Pel_CS-Clad
100
AcDbVertex
100
AcDb2dVertex
 10
0.3831044678205195
 20
1.459999999999993
 30
0.0
 42
0.4142135623731472
  0
VERTEX
  5
B18
330
83
100
AcDbEntity
  8
Pel_CS-Clad
100
AcDbVertex
100
AcDb2dVertex
 10
0.4031044678205192
 20
1.43999999999999
 30
0.0
  0
VERTEX
  5
B19
330
83
100
AcDbEntity
  8
Pel_CS-Clad
100
AcDbVertex
100
AcDb2dVertex
 10
0.4504880726862837
 20
1.43999999999999
 30
0.0
 42
0.0578233517657538
  0
VERTEX
  5
B1A
330
83
100
AcDbEntity
  8
Pel_CS-Clad
100
AcDbVertex
100
AcDb2dVertex
 10
0.4527779352759716
 20
1.440265703450144
 30
0.0
  0
VERTEX
  5
B1B
330
83
100
AcDbEntity
  8
Pel_CS-Clad
100
AcDbVertex
100
AcDb2dVertex
 10
0.4527779352759716
 20
1.459999999999993
 30
0.0
  0
VERTEX
  5
B1C
330
83
100
AcDbEntity
  8
Pel_CS-Clad
100
AcDbVertex
100
AcDb2dVertex
 10
0.4031044678205192
 20
1.459999999999993
 30
0.0
  0
VERTEX
  5
B1D
330
83
100
AcDbEntity
  8
Pel_CS-Clad
100
AcDbVertex
100
AcDb2dVertex
 10
0.4031044678205192
 20
1.479999999999982
 30
0.0
  0
VERTEX
  5
B1E
330
83
100
AcDbEntity
  8
Pel_CS-Clad
100
AcDbVertex
100
AcDb2dVertex
 10
0.603104467820522
 20
1.479999999999996
 30
0.0
  0
VERTEX
  5
B1F
330
83
100
AcDbEntity
  8
Pel_CS-Clad
100
AcDbVertex
100
AcDb2dVertex
 10
0.6031044678205184
 20
1.36999999999999
 30
0.0
  0
VERTEX
  5
B20
330
83
100
AcDbEntity
  8
Pel_CS-Clad
100
AcDbVertex
100
AcDb2dVertex
 10
0.6631044678205172
 20
1.36999999999999
 30
0.0
  0
VERTEX
  5
B21
330
83
100
AcDbEntity
  8
Pel_CS-Clad
100
AcDbVertex
100
AcDb2dVertex
 10
0.6631044678205243
 20
0.769999999999989
 30
0.0
  0
VERTEX
  5
B22
330
83
100
AcDbEntity
  8
Pel_CS-Clad
100
AcDbVertex
100
AcDb2dVertex
 10
0.4031044678205227
 20
0.769999999999989
 30
0.0
  0
VERTEX
  5
B23
330
83
100
AcDbEntity
  8
Pel_CS-Clad
100
AcDbVertex
100
AcDb2dVertex
 10
0.4031044678205192
 20
1.283749999999983
 30
0.0
  0
VERTEX
  5
B24
330
83
100
AcDbEntity
  8
Pel_CS-Clad
100
AcDbVertex
100
AcDb2dVertex
 10
0.5831044678205224
 20
1.28374999999999
 30
0.0
 42
0.4142135623731472
  0
VERTEX
  5
B25
330
83
100
AcDbEntity
  8
Pel_CS-Clad
100
AcDbVertex
100
AcDb2dVertex
 10
0.603104467820522
 20
1.303749999999993
 30
0.0
  0
VERTEX
  5
B26
330
83
100
AcDbEntity
  8
Pel_CS-Clad
100
AcDbVertex
100
AcDb2dVertex
 10
0.603104467820522
 20
1.479999999999996
 30
0.0
  0
VERTEX
  5
B27
330
83
100
AcDbEntity
  8
Pel_CS-Clad
100
AcDbVertex
100
AcDb2dVertex
 10
0.4031044678205192
 20
1.479999999999982
 30
0.0
  0
VERTEX
  5
B28
330
83
100
AcDbEntity
  8
Pel_CS-Clad
100
AcDbVertex
100
AcDb2dVertex
 10
0.4031044678205192
 20
1.459999999999993
 30
0.0
  0
VERTEX
  5
B29
330
83
100
AcDbEntity
  8
Pel_CS-Clad
100
AcDbVertex
100
AcDb2dVertex
 10
0.583104467820526
 20
1.459999999999993
 30
0.0
  0
VERTEX
  5
B2A
330
83
100
AcDbEntity
  8
Pel_CS-Clad
100
AcDbVertex
100
AcDb2dVertex
 10
0.5831044678205189
 20
1.303749999999993
 30
0.0
  0
VERTEX
  5
B2B
330
83
100
AcDbEntity
  8
Pel_CS-Clad
100
AcDbVertex
100
AcDb2dVertex
 10
0.4031044678205192
 20
1.303749999999993
 30
0.0
 42
0.4142135623730951
  0
VERTEX
  5
B2C
330
83
100
AcDbEntity
  8
Pel_CS-Clad
100
AcDbVertex
100
AcDb2dVertex
 10
0.3831044678205195
 20
1.28374999999999
 30
0.0
  0
VERTEX
  5
B2D
330
83
100
AcDbEntity
  8
Pel_CS-Clad
100
AcDbVertex
100
AcDb2dVertex
 10
0.3831044678205195
 20
0.769999999999989
 30
0.0
 42
0.4142135623731472
  0
SEQEND
  5
B2E
330
83
100
AcDbEntity
  8
Pel_CS-Clad
  0
CIRCLE
  5
A7
330
34
100
AcDbEntity
  8
Pel_CS-Weatherstrip
100
AcDbCircle
 10
0.3651044678205189
 20
2.969999999999991
 30
0.0
 40
0.018
  0
CIRCLE
  5
A8
330
34
100
AcDbEntity
  8
Pel_CS-Weatherstrip
100
AcDbCircle
 10
0.3651044678205189
 20
2.844999999999991
 30
0.0
 40
0.018
  0
CIRCLE
  5
A9
330
34
100
AcDbEntity
  8
Pel_CS-Weatherstrip
100
AcDbCircle
 10
0.3651044678205189
 20
2.219999999999991
 30
0.0
 40
0.018
  0
CIRCLE
  5
AA
330
34
100
AcDbEntity
  8
Pel_CS-Weatherstrip
100
AcDbCircle
 10
0.3651044678205189
 20
2.344999999999991
 30
0.0
 40
0.018
  0
CIRCLE
  5
AB
330
34
100
AcDbEntity
  8
Pel_CS-Weatherstrip
100
AcDbCircle
 10
0.3651044678205189
 20
2.469999999999991
 30
0.0
 40
0.018
  0
CIRCLE
  5
AC
330
34
100
AcDbEntity
  8
Pel_CS-Weatherstrip
100
AcDbCircle
 10
0.3651044678205189
 20
2.594999999999991
 30
0.0
 40
0.018
  0
CIRCLE
  5
AD
330
34
100
AcDbEntity
  8
Pel_CS-Weatherstrip
100
AcDbCircle
 10
0.3651044678205189
 20
2.719999999999991
 30
0.0
 40
0.018
  0
CIRCLE
  5
AE
330
34
100
AcDbEntity
  8
Pel_CS-Weatherstrip
100
AcDbCircle
 10
0.3651044678205189
 20
2.094999999999991
 30
0.0
 40
0.018
  0
CIRCLE
  5
AF
330
34
100
AcDbEntity
  8
Pel_CS-Weatherstrip
100
AcDbCircle
 10
0.3651044678205189
 20
1.844999999999991
 30
0.0
 40
0.018
  0
CIRCLE
  5
B0
330
34
100
AcDbEntity
  8
Pel_CS-Weatherstrip
100
AcDbCircle
 10
0.3651044678205189
 20
1.969999999999991
 30
0.0
 40
0.018
  0
CIRCLE
  5
B1
330
34
100
AcDbEntity
  8
Pel_CS-Sealant
100
AcDbCircle
 10
0.5049794678205189
 20
1.38187499999999
 30
0.0
 40
0.0575000000000001
  0
HATCH
  5
B3
330
34
100
AcDbEntity
  8
Pel_CS-Weatherstrip
100
AcDbHatch
 10
0.0
 20
0.0
 30
0.0
210
0.0
220
0.0
230
1.0
  2
SOLID
 70
     1
 71
     1
 91
        1
 92
        1
 93
        1
 72
     2
 10
0.3651044678205189
 20
1.469999999999991
 40
0.018
 50
0.0
 51
360.0
 73
     1
 97
        1
330
80
 75
     0
 76
     1
 98
        1
 10
-0.316895532179478
 20
-0.0000000000000249
  0
HATCH
  5
B4
330
34
100
AcDbEntity
  8
Pel_CS-Weatherstrip
100
AcDbHatch
 10
0.0
 20
0.0
 30
0.0
210
0.0
220
0.0
230
1.0
  2
SOLID
 70
     1
 71
     0
 91
        1
 92
        1
 93
        1
 72
     2
 10
0.3651044678205189
 20
1.594999999999991
 40
0.018
 50
0.0
 51
360.0
 73
     1
 97
        0
 75
     0
 76
     1
 98
        1
 10
-0.316895532179478
 20
0.1249999999999751
  0
HATCH
  5
B5
330
34
100
AcDbEntity
  8
Pel_CS-Weatherstrip
100
AcDbHatch
 10
0.0
 20
0.0
 30
0.0
210
0.0
220
0.0
230
1.0
  2
SOLID
 70
     1
 71
     0
 91
        1
 92
        1
 93
        1
 72
     2
 10
0.3651044678205189
 20
1.719999999999991
 40
0.018
 50
0.0
 51
360.0
 73
     1
 97
        0
 75
     0
 76
     1
 98
        1
 10
-0.316895532179478
 20
0.2499999999999751
  0
HATCH
  5
B6
330
34
100
AcDbEntity
  8
Pel_CS-Weatherstrip
100
AcDbHatch
 10
0.0
 20
0.0
 30
0.0
210
0.0
220
0.0
230
1.0
  2
SOLID
 70
     1
 71
     0
 91
        1
 92
        1
 93
        1
 72
     2
 10
0.3651044678205189
 20
1.844999999999991
 40
0.018
 50
0.0
 51
360.0
 73
     1
 97
        0
 75
     0
 76
     1
 98
        1
 10
-0.316895532179478
 20
0.3749999999999751
  0
HATCH
  5
B7
330
34
100
AcDbEntity
  8
Pel_CS-Weatherstrip
100
AcDbHatch
 10
0.0
 20
0.0
 30
0.0
210
0.0
220
0.0
230
1.0
  2
SOLID
 70
     1
 71
     0
 91
        1
 92
        1
 93
        1
 72
     2
 10
0.3651044678205189
 20
1.969999999999991
 40
0.018
 50
0.0
 51
360.0
 73
     1
 97
        0
 75
     0
 76
     1
 98
        1
 10
-0.316895532179478
 20
0.4999999999999752
  0
HATCH
  5
B8
330
34
100
AcDbEntity
  8
Pel_CS-Weatherstrip
100
AcDbHatch
 10
0.0
 20
0.0
 30
0.0
210
0.0
220
0.0
230
1.0
  2
SOLID
 70
     1
 71
     0
 91
        1
 92
        1
 93
        1
 72
     2
 10
0.3651044678205189
 20
2.094999999999991
 40
0.018
 50
0.0
 51
360.0
 73
     1
 97
        0
 75
     0
 76
     1
 98
        1
 10
-0.316895532179478
 20
0.6249999999999752
  0
HATCH
  5
B9
330
34
100
AcDbEntity
  8
Pel_CS-Weatherstrip
100
AcDbHatch
 10
0.0
 20
0.0
 30
0.0
210
0.0
220
0.0
230
1.0
  2
SOLID
 70
     1
 71
     0
 91
        1
 92
        1
 93
        1
 72
     2
 10
0.3651044678205189
 20
2.219999999999991
 40
0.018
 50
0.0
 51
360.0
 73
     1
 97
        0
 75
     0
 76
     1
 98
        1
 10
-0.316895532179478
 20
0.7499999999999752
  0
HATCH
  5
BA
330
34
100
AcDbEntity
  8
Pel_CS-Weatherstrip
100
AcDbHatch
 10
0.0
 20
0.0
 30
0.0
210
0.0
220
0.0
230
1.0
  2
SOLID
 70
     1
 71
     0
 91
        1
 92
        1
 93
        1
 72
     2
 10
0.3651044678205189
 20
2.344999999999991
 40
0.018
 50
0.0
 51
360.0
 73
     1
 97
        0
 75
     0
 76
     1
 98
        1
 10
-0.316895532179478
 20
0.8749999999999751
  0
HATCH
  5
BB
330
34
100
AcDbEntity
  8
Pel_CS-Weatherstrip
100
AcDbHatch
 10
0.0
 20
0.0
 30
0.0
210
0.0
220
0.0
230
1.0
  2
SOLID
 70
     1
 71
     0
 91
        1
 92
        1
 93
        1
 72
     2
 10
0.3651044678205189
 20
2.469999999999991
 40
0.018
 50
0.0
 51
360.0
 73
     1
 97
        0
 75
     0
 76
     1
 98
        1
 10
-0.316895532179478
 20
0.9999999999999751
  0
HATCH
  5
BC
330
34
100
AcDbEntity
  8
Pel_CS-Weatherstrip
100
AcDbHatch
 10
0.0
 20
0.0
 30
0.0
210
0.0
220
0.0
230
1.0
  2
SOLID
 70
     1
 71
     0
 91
        1
 92
        1
 93
        1
 72
     2
 10
0.3651044678205189
 20
2.594999999999991
 40
0.018
 50
0.0
 51
360.0
 73
     1
 97
        0
 75
     0
 76
     1
 98
        1
 10
-0.316895532179478
 20
1.124999999999975
  0
HATCH
  5
BD
330
34
100
AcDbEntity
  8
Pel_CS-Weatherstrip
100
AcDbHatch
 10
0.0
 20
0.0
 30
0.0
210
0.0
220
0.0
230
1.0
  2
SOLID
 70
     1
 71
     0
 91
        1
 92
        1
 93
        1
 72
     2
 10
0.3651044678205189
 20
2.719999999999991
 40
0.018
 50
0.0
 51
360.0
 73
     1
 97
        0
 75
     0
 76
     1
 98
        1
 10
-0.316895532179478
 20
1.249999999999975
  0
HATCH
  5
BE
330
34
100
AcDbEntity
  8
Pel_CS-Weatherstrip
100
AcDbHatch
 10
0.0
 20
0.0
 30
0.0
210
0.0
220
0.0
230
1.0
  2
SOLID
 70
     1
 71
     0
 91
        1
 92
        1
 93
        1
 72
     2
 10
0.3651044678205189
 20
2.844999999999991
 40
0.018
 50
0.0
 51
360.0
 73
     1
 97
        0
 75
     0
 76
     1
 98
        1
 10
-0.316895532179478
 20
1.374999999999975
  0
HATCH
  5
BF
330
34
100
AcDbEntity
  8
Pel_CS-Weatherstrip
100
AcDbHatch
 10
0.0
 20
0.0
 30
0.0
210
0.0
220
0.0
230
1.0
  2
SOLID
 70
     1
 71
     0
 91
        1
 92
        1
 93
        1
 72
     2
 10
0.3651044678205189
 20
2.969999999999991
 40
0.018
 50
0.0
 51
360.0
 73
     1
 97
        0
 75
     0
 76
     1
 98
        1
 10
-0.316895532179478
 20
1.499999999999975
  0
HATCH
  5
C0
330
34
100
AcDbEntity
  8
Pel_CS-Fill
100
AcDbHatch
 10
0.0
 20
0.0
 30
0.0
210
0.0
220
0.0
230
1.0
  2
SOLID
 70
     1
 71
     1
 91
        1
 92
        1
 93
       33
 72
     1
 10
0.4031044678205121
 20
0.7499999999999787
 11
0.6631044678205243
 21
0.7499999999999787
 72
     2
 10
0.6631044678205243
 20
0.7699999999999783
 40
0.0199999999999996
 50
270.0
 51
360.0000000000305
 73
     1
 72
     1
 10
0.6831044678205238
 20
0.769999999999989
 11
0.6831044678205238
 21
1.36999999999999
 72
     2
 10
0.6631044678205243
 20
1.369999999999993
 40
0.0199999999999996
 50
359.9999999999898
 51
450.0
 73
     1
 72
     1
 10
0.6631044678205243
 20
1.389999999999993
 11
0.6231044678205216
 21
1.389999999999993
 72
     1
 10
0.6231044678205216
 20
1.389999999999993
 11
0.6231044678205216
 21
1.479999999999989
 72
     2
 10
0.603104467820522
 20
1.479999999999993
 40
0.0199999999999996
 50
359.9999999999898
 51
450.0
 73
     1
 72
     1
 10
0.603104467820522
 20
1.499999999999992
 11
0.4031044678205192
 21
1.499999999999992
 72
     2
 10
0.4031044678205209
 20
1.479999999999989
 40
0.0200000000000014
 50
90.00000000000509
 51
180.0000000000051
 73
     1
 72
     1
 10
0.3831044678205195
 20
1.479999999999989
 11
0.3831044678205195
 21
1.459999999999993
 72
     2
 10
0.4031044678205192
 20
1.45999999999999
 40
0.0199999999999996
 50
179.9999999999898
 51
270.0
 73
     1
 72
     1
 10
0.4031044678205192
 20
1.43999999999999
 11
0.4504880726862837
 21
1.43999999999999
 72
     2
 10
0.4504880726862837
 20
1.449999999999992
 40
0.0100000000000011
 50
270.0000000000025
 51
283.2373959307805
 73
     1
 72
     1
 10
0.4527779352759716
 20
1.440265703450144
 11
0.4527779352759716
 21
1.459999999999993
 72
     1
 10
0.4527779352759716
 20
1.459999999999993
 11
0.4031044678205192
 21
1.459999999999993
 72
     1
 10
0.4031044678205192
 20
1.459999999999993
 11
0.4031044678205192
 21
1.479999999999982
 72
     1
 10
0.4031044678205192
 20
1.479999999999982
 11
0.603104467820522
 21
1.479999999999996
 72
     1
 10
0.603104467820522
 20
1.479999999999996
 11
0.6031044678205184
 21
1.36999999999999
 72
     1
 10
0.6031044678205184
 20
1.36999999999999
 11
0.6631044678205172
 21
1.36999999999999
 72
     1
 10
0.6631044678205172
 20
1.36999999999999
 11
0.6631044678205243
 21
0.769999999999989
 72
     1
 10
0.6631044678205243
 20
0.769999999999989
 11
0.4031044678205227
 21
0.769999999999989
 72
     1
 10
0.4031044678205227
 20
0.769999999999989
 11
0.4031044678205192
 21
1.283749999999983
 72
     1
 10
0.4031044678205192
 20
1.283749999999983
 11
0.5831044678205224
 21
1.28374999999999
 72
     2
 10
0.5831044678205224
 20
1.30374999999999
 40
0.0199999999999996
 50
270.0
 51
360.0000000000102
 73
     1
 72
     1
 10
0.603104467820522
 20
1.303749999999993
 11
0.603104467820522
 21
1.479999999999996
 72
     1
 10
0.603104467820522
 20
1.479999999999996
 11
0.4031044678205192
 21
1.479999999999982
 72
     1
 10
0.4031044678205192
 20
1.479999999999982
 11
0.4031044678205192
 21
1.459999999999993
 72
     1
 10
0.4031044678205192
 20
1.459999999999993
 11
0.583104467820526
 21
1.459999999999993
 72
     1
 10
0.583104467820526
 20
1.459999999999993
 11
0.5831044678205189
 21
1.303749999999993
 72
     1
 10
0.5831044678205189
 20
1.303749999999993
 11
0.4031044678205192
 21
1.303749999999993
 72
     2
 10
0.4031044678205209
 20
1.28374999999999
 40
0.0200000000000014
 50
90.00000000000509
 51
180.0000000000051
 73
     1
 72
     1
 10
0.3831044678205195
 20
1.28374999999999
 11
0.3831044678205195
 21
0.769999999999989
 72
     2
 10
0.4031044678205192
 20
0.7699999999999783
 40
0.0199999999999996
 50
179.9999999999694
 51
269.9999999999796
 73
     1
 97
        1
330
83
 75
     0
 76
     1
 98
        1
 10
-0.316895532179478
 20
-0.0000000000000249
  0
LWPOLYLINE
  5
C2
330
34
100
AcDbEntity
  8
Pel_CS-IG
  6
Continuous
100
AcDbPolyline
 90
        4
 70
     0
 43
0.0
 10
3.113000000000036
 20
4.5
 10
3.113000000000036
 20
2.624999999999975
 10
3.238000000000036
 20
2.624999999999982
 10
3.238000000000031
 20
4.5
  0
LWPOLYLINE
  5
C4
330
34
100
AcDbEntity
  8
Pel_CS-IG
  6
Continuous
100
AcDbPolyline
 90
        4
 70
     0
 43
0.0
 10
2.488000000000036
 20
4.5
 10
2.488000000000036
 20
2.624999999999975
 10
2.613000000000029
 20
2.624999999999975
 10
2.613000000000031
 20
4.5
  0
LWPOLYLINE
  5
C5
330
34
100
AcDbEntity
  8
Pel_CS-Weatherstrip
  6
Continuous
100
AcDbPolyline
 90
        4
 70
     1
 43
0.0
 10
3.300000000000034
 20
2.75000000000001
 10
3.238000000000036
 20
2.75000000000001
 10
3.238000000000036
 20
3.12500000000001
 10
3.300000000000034
 20
3.12500000000001
  0
LWPOLYLINE
  5
C6
330
34
100
AcDbEntity
  8
Pel_CS-Sealant
100
AcDbPolyline
 90
        8
 70
     1
 43
0.006
 10
2.472058540207745
 20
2.533980333998815
 42
-0.6836320748339042
 10
2.502500000000045
 20
2.612121207941928
 10
3.285000000000046
 20
2.612121207941928
 42
-0.4142135623730951
 10
3.300000000000046
 20
2.597121207941928
 10
3.300000000000046
 20
2.522121207941932
 42
-0.4142135623730935
 10
3.285000000000046
 20
2.507121207941931
 10
2.507142987833246
 20
2.507121207941931
 42
-0.1879079936139291
 10
2.496995834569146
 20
2.511074249960888
  0
ARC
  5
C7
330
34
100
AcDbEntity
  8
Pel_CS-Sealant
100
AcDbCircle
 10
2.862999999999995
 20
1.069389841430766
 30
0.0
 40
1.650003886476739
100
AcDbArc
 50
81.28527866816162
 51
98.71472133183603
  0
ARC
  5
C8
330
34
100
AcDbEntity
  8
Pel_CS-Sealant
100
AcDbCircle
 10
2.863000000000013
 20
1.054044036481574
 30
0.0
 40
1.640349691425935
100
AcDbArc
 50
81.23358581615942
 51
98.76641418383895
  0
ARC
  5
C9
330
34
100
AcDbEntity
  8
Pel_CS-Sealant
100
AcDbCircle
 10
2.862999999999995
 20
1.038697814397782
 30
0.0
 40
1.630695913509721
100
AcDbArc
 50
81.18127584296162
 51
98.8187241570359
  0
LINE
  5
CA
330
34
100
AcDbEntity
  8
Pel_CS-Sealant
100
AcDbLine
 10
2.645750000000029
 20
2.747499999999984
 30
0.0
 11
2.613000000000029
 21
2.747499999999984
 31
0.0
  0
LINE
  5
CB
330
34
100
AcDbEntity
  8
Pel_CS-Sealant
100
AcDbLine
 10
2.645750000000029
 20
3.062499999999989
 30
0.0
 11
2.613000000000029
 21
3.062499999999989
 31
0.0
  0
LINE
  5
CC
330
34
100
AcDbEntity
  8
Pel_CS-Sealant
  6
Continuous
100
AcDbLine
 10
3.080250000000036
 20
2.747499999999984
 30
0.0
 11
3.113000000000036
 21
2.747499999999984
 31
0.0
  0
LINE
  5
CD
330
34
100
AcDbEntity
  8
Pel_CS-Sealant
  6
Continuous
100
AcDbLine
 10
3.080250000000036
 20
3.062499999999989
 30
0.0
 11
3.113000000000036
 21
3.062499999999989
 31
0.0
  0
LWPOLYLINE
  5
CE
330
34
100
AcDbEntity
  8
Pel_CS-IG
100
AcDbPolyline
 90
       16
 70
   129
 43
0.0
 10
2.728625000000034
 20
3.062499999999989
 10
2.638625000000034
 20
3.062499999999989
 42
0.4142135623731017
 10
2.628625000000029
 20
3.052499999999991
 10
2.628625000000036
 20
2.757499999999989
 42
0.4142135623730873
 10
2.638625000000034
 20
2.747499999999988
 10
3.087375000000031
 20
2.747499999999977
 42
0.4142135623731013
 10
3.097375000000033
 20
2.757499999999978
 10
3.097375000000033
 20
3.05249999999998
 42
0.4142135623730894
 10
3.087375000000031
 20
3.062499999999982
 10
2.997375000000031
 20
3.062499999999989
 10
2.997375000000031
 20
3.046499999999983
 10
3.081375000000031
 20
3.04649999999998
 10
3.081375000000031
 20
2.763499999999979
 10
2.644625000000035
 20
2.763499999999989
 10
2.644625000000035
 20
3.046499999999991
 10
2.728625000000034
 20
3.046499999999987
  0
LWPOLYLINE
  5
CF
330
34
100
AcDbEntity
  8
Pel_CS-Sealant
100
AcDbPolyline
 90
        4
 70
     1
 43
0.0
 10
2.644625000000035
 20
2.813191049788823
 10
3.081375000000031
 20
2.813191049788823
 10
3.081375000000031
 20
2.763499999999979
 10
2.644625000000035
 20
2.763499999999989
  0
HATCH
  5
D0
330
34
100
AcDbEntity
  8
Pel_CS-Sealant
100
AcDbHatch
 10
0.0
 20
0.0
 30
0.0
210
0.0
220
0.0
230
1.0
  2
DASH
 70
     0
 71
     0
 91
        2
 92
        1
 93
        4
 72
     1
 10
2.644625000000035
 20
2.813191049788823
 11
3.081375000000031
 21
2.813191049788823
 72
     1
 10
3.081375000000031
 20
2.813191049788823
 11
3.081375000000031
 21
2.763499999999979
 72
     1
 10
3.081375000000031
 20
2.763499999999979
 11
2.644625000000035
 21
2.763499999999989
 72
     1
 10
2.644625000000035
 20
2.763499999999989
 11
2.644625000000035
 21
2.813191049788823
 97
        0
 92
       49
 93
        1
 72
     1
 10
2.644625000000035
 20
2.813191049788823
 11
3.081375000000031
 21
2.813191049788823
 97
        0
 75
     0
 76
     1
 52
30.0
 41
0.15
 77
     0
 78
     1
 53
30.00000000000003
 43
-2.981156177407552
 44
0.5266732002753792
 45
0.0068629763209582
 46
0.0256129763209582
 79
     2
 49
0.01875
 49
-0.01875
 98
        1
 10
-2.981156177407552
 20
0.5266732002753792
  0
CIRCLE
  5
D1
330
34
100
AcDbEntity
  8
Pel_CS-Weatherstrip
100
AcDbCircle
 10
0.3651044678205189
 20
3.094999999999991
 30
0.0
 40
0.018
  0
CIRCLE
  5
D2
330
34
100
AcDbEntity
  8
Pel_CS-Weatherstrip
100
AcDbCircle
 10
0.3651044678205189
 20
3.594999999999991
 30
0.0
 40
0.018
  0
CIRCLE
  5
D3
330
34
100
AcDbEntity
  8
Pel_CS-Weatherstrip
100
AcDbCircle
 10
0.3651044678205189
 20
3.719999999999991
 30
0.0
 40
0.018
  0
CIRCLE
  5
D4
330
34
100
AcDbEntity
  8
Pel_CS-Weatherstrip
100
AcDbCircle
 10
0.3651044678205189
 20
3.844999999999991
 30
0.0
 40
0.018
  0
CIRCLE
  5
D5
330
34
100
AcDbEntity
  8
Pel_CS-Weatherstrip
100
AcDbCircle
 10
0.3651044678205189
 20
3.969999999999991
 30
0.0
 40
0.018
  0
CIRCLE
  5
D6
330
34
100
AcDbEntity
  8
Pel_CS-Weatherstrip
100
AcDbCircle
 10
0.3651044678205189
 20
3.469999999999991
 30
0.0
 40
0.018
  0
CIRCLE
  5
D7
330
34
100
AcDbEntity
  8
Pel_CS-Weatherstrip
100
AcDbCircle
 10
0.3651044678205189
 20
3.219999999999991
 30
0.0
 40
0.018
  0
CIRCLE
  5
D8
330
34
100
AcDbEntity
  8
Pel_CS-Weatherstrip
100
AcDbCircle
 10
0.3651044678205189
 20
3.344999999999991
 30
0.0
 40
0.018
  0
HATCH
  5
D9
330
34
100
AcDbEntity
  8
Pel_CS-Weatherstrip
100
AcDbHatch
 10
0.0
 20
0.0
 30
0.0
210
0.0
220
0.0
230
1.0
  2
SOLID
 70
     1
 71
     0
 91
        1
 92
        1
 93
        1
 72
     2
 10
0.3651044678205189
 20
3.094999999999991
 40
0.018
 50
0.0
 51
360.0
 73
     1
 97
        0
 75
     0
 76
     1
 98
        1
 10
-0.316895532179478
 20
1.624999999999975
  0
HATCH
  5
DA
330
34
100
AcDbEntity
  8
Pel_CS-Weatherstrip
100
AcDbHatch
 10
0.0
 20
0.0
 30
0.0
210
0.0
220
0.0
230
1.0
  2
SOLID
 70
     1
 71
     0
 91
        1
 92
        1
 93
        1
 72
     2
 10
0.3651044678205189
 20
3.219999999999991
 40
0.018
 50
0.0
 51
360.0
 73
     1
 97
        0
 75
     0
 76
     1
 98
        1
 10
-0.316895532179478
 20
1.749999999999975
  0
HATCH
  5
DB
330
34
100
AcDbEntity
  8
Pel_CS-Weatherstrip
100
AcDbHatch
 10
0.0
 20
0.0
 30
0.0
210
0.0
220
0.0
230
1.0
  2
SOLID
 70
     1
 71
     0
 91
        1
 92
        1
 93
        1
 72
     2
 10
0.3651044678205189
 20
3.344999999999991
 40
0.018
 50
0.0
 51
360.0
 73
     1
 97
        0
 75
     0
 76
     1
 98
        1
 10
-0.316895532179478
 20
1.874999999999975
  0
HATCH
  5
DC
330
34
100
AcDbEntity
  8
Pel_CS-Weatherstrip
100
AcDbHatch
 10
0.0
 20
0.0
 30
0.0
210
0.0
220
0.0
230
1.0
  2
SOLID
 70
     1
 71
     0
 91
        1
 92
        1
 93
        1
 72
     2
 10
0.3651044678205189
 20
3.469999999999991
 40
0.018
 50
0.0
 51
360.0
 73
     1
 97
        0
 75
     0
 76
     1
 98
        1
 10
-0.316895532179478
 20
1.999999999999975
  0
HATCH
  5
DD
330
34
100
AcDbEntity
  8
Pel_CS-Weatherstrip
100
AcDbHatch
 10
0.0
 20
0.0
 30
0.0
210
0.0
220
0.0
230
1.0
  2
SOLID
 70
     1
 71
     0
 91
        1
 92
        1
 93
        1
 72
     2
 10
0.3651044678205189
 20
3.594999999999991
 40
0.018
 50
0.0
 51
360.0
 73
     1
 97
        0
 75
     0
 76
     1
 98
        1
 10
-0.316895532179478
 20
2.124999999999975
  0
HATCH
  5
DE
330
34
100
AcDbEntity
  8
Pel_CS-Weatherstrip
100
AcDbHatch
 10
0.0
 20
0.0
 30
0.0
210
0.0
220
0.0
230
1.0
  2
SOLID
 70
     1
 71
     0
 91
        1
 92
        1
 93
        1
 72
     2
 10
0.3651044678205189
 20
3.719999999999991
 40
0.018
 50
0.0
 51
360.0
 73
     1
 97
        0
 75
     0
 76
     1
 98
        1
 10
-0.316895532179478
 20
2.249999999999975
  0
HATCH
  5
DF
330
34
100
AcDbEntity
  8
Pel_CS-Weatherstrip
100
AcDbHatch
 10
0.0
 20
0.0
 30
0.0
210
0.0
220
0.0
230
1.0
  2
SOLID
 70
     1
 71
     0
 91
        1
 92
        1
 93
        1
 72
     2
 10
0.3651044678205189
 20
3.844999999999991
 40
0.018
 50
0.0
 51
360.0
 73
     1
 97
        0
 75
     0
 76
     1
 98
        1
 10
-0.316895532179478
 20
2.374999999999975
  0
HATCH
  5
E0
330
34
100
AcDbEntity
  8
Pel_CS-Weatherstrip
100
AcDbHatch
 10
0.0
 20
0.0
 30
0.0
210
0.0
220
0.0
230
1.0
  2
SOLID
 70
     1
 71
     0
 91
        1
 92
        1
 93
        1
 72
     2
 10
0.3651044678205189
 20
3.969999999999991
 40
0.018
 50
0.0
 51
360.0
 73
     1
 97
        0
 75
     0
 76
     1
 98
        1
 10
-0.316895532179478
 20
2.499999999999975
  0
LWPOLYLINE
  5
E2
330
34
100
AcDbEntity
  8
Pel_CS-Cross Section
 62
     4
100
AcDbPolyline
 90
      186
 70
     1
 43
0.0
 10
2.454653483024411
 20
0.9666571897248239
 42
-0.4610063144273173
 10
2.472000000000015
 20
0.951841864615897
 10
2.472000000000019
 20
0.3149999999999871
 10
2.522000000000019
 20
0.3149999999999871
 10
2.522000000000016
 20
0.9645126198418623
 42
-0.3689194771098148
 10
2.534653483024413
 20
0.9793279449507892
 10
3.328115610943619
 20
1.104999999999986
 10
3.785000000000021
 20
1.104999999999989
 42
0.1933016534022185
 10
3.836874581658353
 20
1.125833333333364
 42
-0.1933016534006704
 10
3.847249497989979
 20
1.129999999999988
 10
3.900000000000016
 20
1.129999999999988
 42
-0.0851642331747271
 10
3.905000000000015
 20
1.12914213562372
 10
3.905000000000015
 20
1.169999999999991
 10
3.875000000000017
 20
1.169999999999991
 42
-0.4142135623730778
 10
3.86000000000002
 20
1.184999999999991
 10
3.86000000000002
 20
1.949999999999992
 42
-0.4142135623730258
 10
3.875000000000017
 20
1.964999999999985
 10
3.905000000000015
 20
1.964999999999985
 42
-0.4142135623731644
 10
3.920000000000015
 20
1.949999999999988
 10
3.920000000000015
 20
1.184999999999991
 42
-0.4142135623730898
 10
3.905000000000015
 20
1.169999999999991
 10
3.905000000000015
 20
1.12914213562372
 42
-0.3178372451958331
 10
3.915000000000016
 20
1.114999999999987
 10
3.915000000000016
 20
0.3149999999999871
 42
-0.4142135623730951
 10
3.900000000000016
 20
0.2999999999999865
 10
2.53700000000002
 20
0.2999999999999865
 42
-0.4142135623730953
 10
2.522000000000019
 20
0.3149999999999871
 10
2.472000000000019
 20
0.3149999999999871
 42
-0.4142135623730962
 10
2.457000000000018
 20
0.2999999999999865
 10
1.213519948626164
 20
0.2999999999999865
 42
-0.3639702342662557
 10
1.19874783233098
 20
0.3123952773349856
 10
1.198288549447875
 20
0.3149999999999942
 10
1.157440085794176
 20
0.3149999999999942
 42
-0.4142135623730871
 10
1.142440085794175
 20
0.2999999999999936
 10
0.0800000000000125
 20
0.2999999999999936
 42
-0.4142135623730973
 10
0.0650000000000119
 20
0.3149999999999942
 10
0.0650000000000137
 20
0.3199999999999967
 10
0.0000000000000089
 20
0.3199999999999967
 10
0.0000000000000071
 20
0.2499999999999751
 42
-0.4142135623731818
 10
-0.014999999999997
 20
0.2349999999999746
 10
-0.0412885682970021
 20
0.2349999999999817
 42
0.4029900256443238
 10
-0.056277469516342
 20
0.2205769230769015
 42
-0.1051749951051602
 10
-0.0945866973917813
 20
0.0693162958277327
 10
-0.143275535072112
 20
-0.029544197218506
 42
0.1005861722143961
 10
-0.1685991802890818
 20
-0.1258490566037906
 42
-0.3977214534302691
 10
-0.18357513110643
 20
-0.1400000000000183
 10
-0.2029999999999932
 20
-0.1400000000000183
 42
0.4142135623730691
 10
-0.2179999999999911
 20
-0.1550000000000189
 10
-0.2179999999999911
 20
-0.4999589803374782
 42
0.4142135623731111
 10
-0.2029999999999905
 20
-0.5149589803374788
 10
0.6100000000000172
 20
-0.5149589803374824
 42
0.4142135623730951
 10
0.6250000000000178
 20
-0.4999589803374818
 10
0.6250000000000178
 20
-0.4599589803373725
 42
0.7088115080084711
 10
0.5804843812542977
 20
-0.4443339803373334
 42
-0.2277350772958496
 10
0.568775010007176
 20
-0.4499589803374882
 10
-0.137999999999991
 20
-0.4499589803374775
 42
-0.4142135623730811
 10
-0.1529999999999916
 20
-0.434958980337477
 10
-0.1529999999999951
 20
-0.2083541086247997
 42
-0.27418676720839
 10
-0.1451960733325883
 20
-0.1951929335787845
 42
0.259021700948431
 10
-0.103703393413916
 20
-0.1295283018868041
 42
-0.1005861722143766
 10
-0.0849638959533508
 20
-0.0582627059416865
 10
-0.0603930216687196
 20
-0.0083726518330991
 42
-0.2857055510463938
 10
-0.0469364895643913
 20
0.0000000000000107
 10
0.0500000000000078
 20
0.0000000000000071
 10
0.0500000000000078
 20
0.0120000000000111
 10
-0.0263260571768775
 20
0.0120000000000182
 42
-0.5611904343649048
 10
-0.0396669563908176
 20
0.0338571428571477
 42
0.0819489655475605
 10
0.0042083799692936
 20
0.1702414792902793
 42
-0.1971757684667309
 10
0.0100346379126357
 20
0.1800260018829967
 42
0.2358393635306528
 10
0.0300000000000083
 20
0.2199999999999953
 42
-0.414213562373061
 10
0.0450000000000053
 20
0.2349999999999959
 10
0.2650000000000112
 20
0.235000000000003
 42
-0.4142135623730951
 10
0.2800000000000118
 20
0.2200000000000024
 10
0.2800000000000118
 20
0.0800000000000019
 42
-0.4142135623731124
 10
0.2650000000000112
 20
0.0650000000000013
 10
0.1570000000000107
 20
0.0650000000000013
 42
-0.4142135623730606
 10
0.1420000000000137
 20
0.0800000000000019
 10
0.1420000000000137
 20
0.1050000000000004
 10
0.1170000000000133
 20
0.1050000000000004
 10
0.0650000000000084
 20
0.0749777860021475
 10
0.0650000000000084
 20
0.0270000000000117
 42
-0.4142135623730951
 10
0.0500000000000078
 20
0.0120000000000111
 10
0.0500000000000078
 20
0.0000000000000071
 10
0.3300000000000125
 20
0.0
 42
0.4142135623730529
 10
0.3450000000000095
 20
0.0150000000000006
 10
0.3450000000000166
 20
0.2200000000000024
 42
-0.4142135623729563
 10
0.3600000000000101
 20
0.2349999999999888
 10
1.360000000000024
 20
0.2349999999999923
 42
-0.41421356237308
 10
1.375000000000021
 20
0.2199999999999918
 10
1.37500000000001
 20
-1.357500000000023
 42
1.0
 10
1.440000000000011
 20
-1.357500000000023
 10
1.440000000000022
 20
0.2199999999999882
 42
-0.4142135623730951
 10
1.455000000000024
 20
0.2349999999999888
 10
2.055000000000017
 20
0.2349999999999888
 42
-0.4142135623730925
 10
2.070000000000018
 20
0.2199999999999882
 10
2.070000000000018
 20
0.024999999999995
 42
0.4142135623731125
 10
2.085000000000018
 20
0.0099999999999945
 10
2.169019237886487
 20
0.0099999999999945
 10
2.195000000000018
 20
0.0549999999999926
 10
2.195000000000018
 20
0.0749999999999886
 10
2.150000000000019
 20
0.0749999999999886
 42
-0.4142135623730951
 10
2.135000000000019
 20
0.0899999999999892
 10
2.135000000000019
 20
0.2199999999999882
 42
-0.4142135623730951
 10
2.150000000000019
 20
0.2349999999999888
 10
3.620000000000018
 20
0.2349999999999888
 42
-0.4142135623731028
 10
3.635000000000019
 20
0.2199999999999882
 10
3.635000000000015
 20
0.0799999999999912
 42
-0.4142135623731296
 10
3.620000000000018
 20
0.0649999999999906
 10
3.575000000000013
 20
0.0649999999999906
 10
3.575000000000013
 20
0.0449999999999911
 10
3.600980762113547
 20
-0.0000000000000107
 10
3.900000000000019
 20
-0.0000000000000107
 42
0.4142135623731038
 10
3.91500000000002
 20
0.0149999999999899
 10
3.91500000000002
 20
0.0749777860021261
 10
3.86300000000002
 20
0.1049999999999862
 10
3.838000000000018
 20
0.1049999999999898
 10
3.838000000000018
 20
0.0799999999999876
 42
-0.4142135623730951
 10
3.823000000000018
 20
0.0649999999999871
 10
3.715000000000021
 20
0.0649999999999871
 42
-0.4142135623730989
 10
3.70000000000002
 20
0.0799999999999876
 10
3.70000000000002
 20
0.2199999999999882
 42
-0.4142135623731038
 10
3.715000000000021
 20
0.2349999999999888
 10
3.965000000000017
 20
0.2349999999999888
 42
0.4142135623730951
 10
3.980000000000018
 20
0.2499999999999893
 10
3.980000000000018
 20
1.110313730333945
 42
0.182675813681838
 10
3.972500000000035
 20
1.130156865166984
 42
-0.3779644730097633
 10
3.9725
 20
1.169843134833026
 42
0.1826758136818384
 10
3.980000000000018
 20
1.189686269666029
 10
3.980000000000018
 20
2.264999999999989
 42
0.4142135623731124
 10
3.95000000000002
 20
2.294999999999991
 10
3.790000000000016
 20
2.294999999999991
 42
0.4142135623730518
 10
3.760000000000019
 20
2.264999999999993
 10
3.760000000000015
 20
2.249999999999989
 42
0.4142135623730951
 10
3.775000000000016
 20
2.234999999999988
 10
3.805000000000013
 20
2.234999999999988
 42
-0.4142135623730778
 10
3.820000000000014
 20
2.219999999999988
 10
3.820000000000014
 20
2.192499999999984
 10
3.870000000000015
 20
2.192499999999984
 10
3.870000000000015
 20
2.234999999999988
 10
3.920000000000015
 20
2.234999999999988
 10
3.920000000000015
 20
2.024999999999987
 10
3.870000000000015
 20
2.024999999999987
 10
3.870000000000015
 20
2.067499999999984
 10
3.820000000000018
 20
2.067499999999991
 10
3.820000000000014
 20
2.039999999999988
 42
-0.4142135623730951
 10
3.805000000000013
 20
2.024999999999987
 10
3.775000000000019
 20
2.024999999999987
 42
0.4142135623730951
 10
3.760000000000019
 20
2.009999999999987
 10
3.760000000000019
 20
1.979999999999986
 42
0.4142135623730951
 10
3.775000000000019
 20
1.964999999999985
 10
3.785000000000017
 20
1.964999999999985
 42
-0.4142135623730951
 10
3.800000000000018
 20
1.949999999999985
 10
3.800000000000018
 20
1.184999999999991
 42
-0.4142135623730951
 10
3.785000000000017
 20
1.169999999999991
 10
3.323000000000018
 20
1.169999999999991
 10
2.262346516975622
 20
1.002008991712902
 42
-0.4610063144273261
 10
2.245000000000018
 20
1.016824316821828
 10
2.245000000000018
 20
1.738775010008108
 42
-0.2277350772921075
 10
2.25062500000001
 20
1.750484381255095
 42
0.7088115080036478
 10
2.234999999999985
 20
1.795000000000033
 10
2.195000000000021
 20
1.794999999999991
 42
0.4142135623730951
 10
2.180000000000021
 20
1.77999999999999
 10
2.180000000000017
 20
1.001777794990996
 42
-0.3689194771097911
 10
2.167346516975619
 20
0.9869624698820693
 10
0.3523465169756221
 20
0.6994947106930347
 42
-0.4610063144273238
 10
0.3350000000000186
 20
0.7143100358019617
 10
0.3350000000000186
 20
0.9219999999999899
 42
0.4142135623730432
 10
0.3200000000000198
 20
0.9369999999999869
 10
0.2850000000000179
 20
0.9369999999999869
 42
0.7088115080031802
 10
0.2693750000000001
 20
0.8924843812550058
 42
-0.2277350772930197
 10
0.2750000000000199
 20
0.8807750100080049
 10
0.2750000000000199
 20
0.7000554361727538
 42
-0.3689194771098268
 10
0.2623465169756223
 20
0.6852401110638269
 10
0.0253069660488095
 20
0.6476967344555043
 42
0.3689194771098257
 10
0.000000000000016
 20
0.6180660842376505
 10
0.0000000000000124
 20
0.4449999999999932
 10
0.0650000000000137
 20
0.4449999999999932
 10
0.0650000000000155
 20
0.5753620499644754
 42
-0.368919477109824
 10
0.0776534830244113
 20
0.5901773750734023
 10
1.066566884919584
 20
0.7468058707620031
 42
-0.4091108014277064
 10
1.083685518190371
 20
0.7345952683180812
 10
1.157212202089358
 20
0.3176047226649992
 42
-0.0436609429085282
 10
1.157440085794176
 20
0.3149999999999942
 10
1.198288549447875
 20
0.3149999999999942
 10
1.123290001125962
 20
0.7403379035958118
 42
-0.4193348017583827
 10
1.135715600445543
 20
0.7577579513697402
  0
LINE
  5
E3
330
34
100
AcDbEntity
  8
Pel_CS-Cross Section
 62
     4
100
AcDbLine
 10
0.0000000000000124
 20
0.4449999999999932
 30
0.0
 11
0.0000000000000089
 21
0.3199999999999967
 31
0.0
  0
LINE
  5
E4
330
34
100
AcDbEntity
  8
Pel_CS-Cross Section
 62
     4
100
AcDbLine
 10
0.0650000000000137
 20
0.4449999999999932
 30
0.0
 11
0.0650000000000137
 21
0.3199999999999967
 31
0.0
  0
CIRCLE
  5
B6A
330
34
100
AcDbEntity
  8
Pel_CS-Weatherstrip
100
AcDbCircle
 10
0.3651044678205189
 20
4.094999999999991
 30
0.0
 40
0.018
  0
HATCH
  5
B6B
330
34
100
AcDbEntity
  8
Pel_CS-Weatherstrip
100
AcDbHatch
 10
0.0
 20
0.0
 30
0.0
210
0.0
220
0.0
230
1.0
  2
SOLID
 70
     1
 71
     0
 91
        1
 92
        1
 93
        1
 72
     2
 10
0.3651044678205189
 20
4.094999999999991
 40
0.018
 50
0.0
 51
360.0
 73
     1
 97
        0
 75
     0
 76
     1
 98
        1
 10
-0.316895532179478
 20
2.624999999999975
  0
CIRCLE
  5
B6C
330
34
100
AcDbEntity
  8
Pel_CS-Weatherstrip
100
AcDbCircle
 10
0.3651044678205189
 20
4.219999999999991
 30
0.0
 40
0.018
  0
HATCH
  5
B6D
330
34
100
AcDbEntity
  8
Pel_CS-Weatherstrip
100
AcDbHatch
 10
0.0
 20
0.0
 30
0.0
210
0.0
220
0.0
230
1.0
  2
SOLID
 70
     1
 71
     0
 91
        1
 92
        1
 93
        1
 72
     2
 10
0.3651044678205189
 20
4.219999999999991
 40
0.018
 50
0.0
 51
360.0
 73
     1
 97
        0
 75
     0
 76
     1
 98
        1
 10
-0.316895532179478
 20
2.749999999999975
  0
CIRCLE
  5
B6E
330
34
100
AcDbEntity
  8
Pel_CS-Weatherstrip
100
AcDbCircle
 10
0.3651044678205189
 20
4.344999999999991
 30
0.0
 40
0.018
  0
HATCH
  5
B6F
330
34
100
AcDbEntity
  8
Pel_CS-Weatherstrip
100
AcDbHatch
 10
0.0
 20
0.0
 30
0.0
210
0.0
220
0.0
230
1.0
  2
SOLID
 70
     1
 71
     0
 91
        1
 92
        1
 93
        1
 72
     2
 10
0.3651044678205189
 20
4.344999999999991
 40
0.018
 50
0.0
 51
360.0
 73
     1
 97
        0
 75
     0
 76
     1
 98
        1
 10
-0.316895532179478
 20
2.874999999999975
  0
CIRCLE
  5
B70
330
34
100
AcDbEntity
  8
Pel_CS-Weatherstrip
100
AcDbCircle
 10
0.3651044678205189
 20
4.469999999999991
 30
0.0
 40
0.018
  0
HATCH
  5
B71
330
34
100
AcDbEntity
  8
Pel_CS-Weatherstrip
100
AcDbHatch
 10
0.0
 20
0.0
 30
0.0
210
0.0
220
0.0
230
1.0
  2
SOLID
 70
     1
 71
     0
 91
        1
 92
        1
 93
        1
 72
     2
 10
0.3651044678205189
 20
4.469999999999991
 40
0.018
 50
0.0
 51
360.0
 73
     1
 97
        0
 75
     0
 76
     1
 98
        1
 10
-0.316895532179478
 20
2.999999999999975
  0
ENDBLK
  5
E5
330
34
100
AcDbEntity
  8
0
100
AcDbBlockEnd
  0
BLOCK
  5
707
330
6FC
100
AcDbEntity
  8
0
100
AcDbBlockBegin
  2
*D15
 70
     1
 10
0.0
 20
0.0
 30
0.0
  3
*D15
  1

  0
LINE
  5
EB0
330
6FC
100
AcDbEntity
  8
0
100
AcDbLine
 10
7.687499999999999
 20
17.18769999999998
 30
0.0
 11
3.937499999999999
 21
17.18769999999998
 31
0.0
  0
LINE
  5
EB1
330
6FC
100
AcDbEntity
  8
0
100
AcDbLine
 10
7.687499999999999
 20
16.93769999999995
 30
0.0
 11
3.937499999999999
 21
16.93769999999995
 31
0.0
  0
LINE
  5
EB2
330
6FC
100
AcDbEntity
  8
0
100
AcDbLine
 10
4.1875
 20
17.68769999999998
 30
0.0
 11
4.1875
 21
18.18769999999998
 31
0.0
  0
LINE
  5
EB3
330
6FC
100
AcDbEntity
  8
0
100
AcDbLine
 10
4.187499999999999
 20
16.43769999999995
 30
0.0
 11
4.187499999999999
 21
15.93769999999995
 31
0.0
  0
MTEXT
  5
EB4
330
6FC
100
AcDbEntity
  8
0
 62
   255
100
AcDbMText
 10
4.1875
 20
15.93769999999995
 30
0.0
 40
0.28
 41
0.0
 71
     5
 72
     1
  1
\A1;1/4"\P [6]
 11
0.0000000000000001
 21
1.0
 31
0.0
 73
     1
 44
1.0
1001
ACAD
1000
MTEXTBEGIN
1070
    73
1070
     1
1070
    44
1040
1.0
1070
    74
1070
     0
1000
MTEXTEND
  0
SOLID
  5
EB5
330
6FC
100
AcDbEntity
  8
0
100
AcDbTrace
 10
4.104166666666666
 20
17.68769999999998
 30
0.0
 11
4.270833333333333
 21
17.68769999999998
 31
0.0
 12
4.187499999999999
 22
17.18769999999998
 32
0.0
 13
4.187499999999999
 23
17.18769999999998
 33
0.0
  0
SOLID
  5
EB6
330
6FC
100
AcDbEntity
  8
0
100
AcDbTrace
 10
4.104166666666666
 20
16.43769999999995
 30
0.0
 11
4.270833333333332
 21
16.43769999999995
 31
0.0
 12
4.187499999999999
 22
16.93769999999995
 32
0.0
 13
4.187499999999999
 23
16.93769999999995
 33
0.0
  0
POINT
  5
EB7
330
6FC
100
AcDbEntity
  8
Defpoints
 62
     0
100
AcDbPoint
 10
8.1875
 20
17.18769999999998
 30
0.0
  0
POINT
  5
EB8
330
6FC
100
AcDbEntity
  8
Defpoints
 62
     0
100
AcDbPoint
 10
8.1875
 20
16.93769999999994
 30
0.0
  0
POINT
  5
EB9
330
6FC
100
AcDbEntity
  8
Defpoints
 62
     0
100
AcDbPoint
 10
4.187499999999999
 20
16.93769999999995
 30
0.0
  0
ENDBLK
  5
708
330
6FC
100
AcDbEntity
  8
0
100
AcDbBlockEnd
  0
BLOCK
  5
711
330
709
100
AcDbEntity
  8
0
100
AcDbBlockBegin
  2
*D16
 70
     1
 10
0.0
 20
0.0
 30
0.0
  3
*D16
  1

  0
LINE
  5
E9F
330
709
100
AcDbEntity
  8
0
100
AcDbLine
 10
23.93750000000001
 20
18.87356369683269
 30
0.0
 11
23.93750000000001
 21
15.25000000000003
 31
0.0
  0
LINE
  5
EA0
330
709
100
AcDbEntity
  8
0
100
AcDbLine
 10
28.43750000000002
 20
15.50000000000003
 30
0.0
 11
24.43750000000001
 21
15.50000000000003
 31
0.0
  0
MTEXT
  5
EA1
330
709
100
AcDbEntity
  8
0
 62
   255
100
AcDbMText
 10
27.586148551306
 20
15.23500000000003
 30
0.0
 40
0.28
 41
0.0
 71
     5
 72
     1
  1
\A1;FRAME
 73
     1
 44
1.0
1001
ACAD
1000
MTEXTBEGIN
1070
    73
1070
     1
1070
    44
1040
1.0
1070
    74
1070
     0
1000
MTEXTEND
  0
SOLID
  5
EA2
330
709
100
AcDbEntity
  8
0
100
AcDbTrace
 10
24.43750000000001
 20
15.58333333333336
 30
0.0
 11
24.43750000000001
 21
15.41666666666669
 31
0.0
 12
23.93750000000001
 22
15.50000000000003
 32
0.0
 13
23.93750000000001
 23
15.50000000000003
 33
0.0
  0
POINT
  5
EA3
330
709
100
AcDbEntity
  8
Defpoints
 62
     0
100
AcDbPoint
 10
28.43750000000002
 20
17.72811010685979
 30
0.0
  0
POINT
  5
EA4
330
709
100
AcDbEntity
  8
Defpoints
 62
     0
100
AcDbPoint
 10
23.93750000000001
 20
19.37356369683269
 30
0.0
  0
POINT
  5
EA5
330
709
100
AcDbEntity
  8
Defpoints
 62
     0
100
AcDbPoint
 10
23.93750000000001
 20
15.50000000000003
 30
0.0
  0
ENDBLK
  5
712
330
709
100
AcDbEntity
  8
0
100
AcDbBlockEnd
  0
BLOCK
  5
71B
330
713
100
AcDbEntity
  8
0
100
AcDbBlockBegin
  2
*D17
 70
     1
 10
0.0
 20
0.0
 30
0.0
  3
*D17
  1

  0
LINE
  5
E91
330
713
100
AcDbEntity
  8
0
100
AcDbLine
 10
23.6875
 20
18.87356369683269
 30
0.0
 11
23.6875
 21
14.25000000000003
 31
0.0
  0
LINE
  5
E92
330
713
100
AcDbEntity
  8
0
100
AcDbLine
 10
28.43750000000002
 20
14.50000000000003
 30
0.0
 11
24.1875
 21
14.50000000000003
 31
0.0
  0
MTEXT
  5
E93
330
713
100
AcDbEntity
  8
0
 62
   255
100
AcDbMText
 10
26.589097500541
 20
14.23012960436564
 30
0.0
 40
0.28
 41
0.0
 71
     5
 72
     1
  1
\A1;ROUGH OPENING
 73
     1
 44
1.0
1001
ACAD
1000
MTEXTBEGIN
1070
    73
1070
     1
1070
    44
1040
1.0
1070
    74
1070
     0
1000
MTEXTEND
  0
SOLID
  5
E94
330
713
100
AcDbEntity
  8
0
100
AcDbTrace
 10
24.1875
 20
14.58333333333336
 30
0.0
 11
24.1875
 21
14.41666666666669
 31
0.0
 12
23.6875
 22
14.50000000000003
 32
0.0
 13
23.6875
 23
14.50000000000003
 33
0.0
  0
POINT
  5
E95
330
713
100
AcDbEntity
  8
Defpoints
 62
     0
100
AcDbPoint
 10
28.43750000000002
 20
17.72811010685979
 30
0.0
  0
POINT
  5
E96
330
713
100
AcDbEntity
  8
Defpoints
 62
     0
100
AcDbPoint
 10
23.6875
 20
19.37356369683269
 30
0.0
  0
POINT
  5
E97
330
713
100
AcDbEntity
  8
Defpoints
 62
     0
100
AcDbPoint
 10
23.6875
 20
14.50000000000003
 30
0.0
  0
ENDBLK
  5
71C
330
713
100
AcDbEntity
  8
0
100
AcDbBlockEnd
  0
BLOCK
  5
728
330
71D
100
AcDbEntity
  8
0
100
AcDbBlockBegin
  2
*D18
 70
     1
 10
0.0
 20
0.0
 30
0.0
  3
*D18
  1

  0
LINE
  5
E80
330
71D
100
AcDbEntity
  8
0
100
AcDbLine
 10
23.93750000000001
 20
18.87356369683269
 30
0.0
 11
23.93750000000001
 21
15.25000000000003
 31
0.0
  0
LINE
  5
E81
330
71D
100
AcDbEntity
  8
0
100
AcDbLine
 10
23.6875
 20
18.87356369683269
 30
0.0
 11
23.6875
 21
15.25000000000003
 31
0.0
  0
LINE
  5
E82
330
71D
100
AcDbEntity
  8
0
100
AcDbLine
 10
24.43750000000001
 20
15.50000000000003
 30
0.0
 11
24.93750000000001
 21
15.50000000000003
 31
0.0
  0
LINE
  5
E83
330
71D
100
AcDbEntity
  8
0
100
AcDbLine
 10
23.1875
 20
15.50000000000003
 30
0.0
 11
22.6875
 21
15.50000000000003
 31
0.0
  0
MTEXT
  5
E84
330
71D
100
AcDbEntity
  8
0
 62
   255
100
AcDbMText
 10
22.6531058243383
 20
15.50000000000004
 30
0.0
 40
0.28
 41
0.0
 71
     5
 72
     1
  1
\A1;1/4"\P [6]
 73
     1
 44
1.0
1001
ACAD
1000
MTEXTBEGIN
1070
    73
1070
     1
1070
    44
1040
1.0
1070
    74
1070
     0
1000
MTEXTEND
  0
SOLID
  5
E85
330
71D
100
AcDbEntity
  8
0
100
AcDbTrace
 10
24.43750000000001
 20
15.58333333333336
 30
0.0
 11
24.43750000000001
 21
15.41666666666669
 31
0.0
 12
23.93750000000001
 22
15.50000000000003
 32
0.0
 13
23.93750000000001
 23
15.50000000000003
 33
0.0
  0
SOLID
  5
E86
330
71D
100
AcDbEntity
  8
0
100
AcDbTrace
 10
23.1875
 20
15.58333333333336
 30
0.0
 11
23.1875
 21
15.41666666666669
 31
0.0
 12
23.6875
 22
15.50000000000003
 32
0.0
 13
23.6875
 23
15.50000000000003
 33
0.0
  0
POINT
  5
E87
330
71D
100
AcDbEntity
  8
Defpoints
 62
     0
100
AcDbPoint
 10
23.93750000000001
 20
19.37356369683269
 30
0.0
  0
POINT
  5
E88
330
71D
100
AcDbEntity
  8
Defpoints
 62
     0
100
AcDbPoint
 10
23.6875
 20
19.37356369683269
 30
0.0
  0
POINT
  5
E89
330
71D
100
AcDbEntity
  8
Defpoints
 62
     0
100
AcDbPoint
 10
23.6875
 20
15.50000000000003
 30
0.0
  0
ENDBLK
  5
729
330
71D
100
AcDbEntity
  8
0
100
AcDbBlockEnd
  0
BLOCK
  5
735
330
72A
100
AcDbEntity
  8
0
100
AcDbBlockBegin
  2
*D19
 70
     1
 10
0.0
 20
0.0
 30
0.0
  3
*D19
  1

  0
LINE
  5
E6C
330
72A
100
AcDbEntity
  8
0
100
AcDbLine
 10
7.687499999999999
 20
27.31250000000002
 30
0.0
 11
3.937499999999998
 21
27.31250000000002
 31
0.0
  0
LINE
  5
E6D
330
72A
100
AcDbEntity
  8
0
100
AcDbLine
 10
7.6875
 20
27.56250000000005
 30
0.0
 11
3.937499999999998
 21
27.56250000000005
 31
0.0
  0
LINE
  5
E6E
330
72A
100
AcDbEntity
  8
0
100
AcDbLine
 10
4.187499999999998
 20
26.81250000000002
 30
0.0
 11
4.187499999999998
 21
26.31250000000002
 31
0.0
  0
LINE
  5
E6F
330
72A
100
AcDbEntity
  8
0
100
AcDbLine
 10
4.187499999999999
 20
28.06250000000006
 30
0.0
 11
4.187499999999999
 21
28.56250000000005
 31
0.0
  0
MTEXT
  5
E70
330
72A
100
AcDbEntity
  8
0
 62
   255
100
AcDbMText
 10
4.1875
 20
28.56250000000006
 30
0.0
 40
0.28
 41
0.0
 71
     5
 72
     1
  1
\A1;1/4"\P [6]
 11
0.0000000000000001
 21
1.0
 31
0.0
 73
     1
 44
1.0
1001
ACAD
1000
MTEXTBEGIN
1070
    73
1070
     1
1070
    44
1040
1.0
1070
    74
1070
     0
1000
MTEXTEND
  0
SOLID
  5
E71
330
72A
100
AcDbEntity
  8
0
100
AcDbTrace
 10
4.104166666666665
 20
26.81250000000002
 30
0.0
 11
4.270833333333331
 21
26.81250000000002
 31
0.0
 12
4.187499999999998
 22
27.31250000000002
 32
0.0
 13
4.187499999999998
 23
27.31250000000002
 33
0.0
  0
SOLID
  5
E72
330
72A
100
AcDbEntity
  8
0
100
AcDbTrace
 10
4.104166666666666
 20
28.06250000000006
 30
0.0
 11
4.270833333333332
 21
28.06250000000006
 31
0.0
 12
4.187499999999999
 22
27.56250000000005
 32
0.0
 13
4.187499999999999
 23
27.56250000000005
 33
0.0
  0
POINT
  5
E73
330
72A
100
AcDbEntity
  8
Defpoints
 62
     0
100
AcDbPoint
 10
8.1875
 20
27.31250000000001
 30
0.0
  0
POINT
  5
E74
330
72A
100
AcDbEntity
  8
Defpoints
 62
     0
100
AcDbPoint
 10
8.1875
 20
27.56250000000005
 30
0.0
  0
POINT
  5
E75
330
72A
100
AcDbEntity
  8
Defpoints
 62
     0
100
AcDbPoint
 10
4.187499999999999
 20
27.56250000000005
 30
0.0
  0
ENDBLK
  5
736
330
72A
100
AcDbEntity
  8
0
100
AcDbBlockEnd
  0
BLOCK
  5
73F
330
737
100
AcDbEntity
  8
0
100
AcDbBlockBegin
  2
*D20
 70
     1
 10
0.0
 20
0.0
 30
0.0
  3
*D20
  1

  0
LINE
  5
E5B
330
737
100
AcDbEntity
  8
0
100
AcDbLine
 10
7.6875
 20
27.56250000000005
 30
0.0
 11
2.937499999999997
 21
27.56250000000005
 31
0.0
  0
LINE
  5
E5C
330
737
100
AcDbEntity
  8
0
100
AcDbLine
 10
3.187499999999996
 20
22.81250000000003
 30
0.0
 11
3.187499999999997
 21
27.06250000000006
 31
0.0
  0
MTEXT
  5
E5D
330
737
100
AcDbEntity
  8
0
 62
   255
100
AcDbMText
 10
2.9176296043656
 20
24.66022284940206
 30
0.0
 40
0.28
 41
0.0
 71
     5
 72
     1
  1
\A1;ROUGH OPENING
 11
0.0000000000000001
 21
1.0
 31
0.0
 73
     1
 44
1.0
1001
ACAD
1000
MTEXTBEGIN
1070
    73
1070
     1
1070
    44
1040
1.0
1070
    74
1070
     0
1000
MTEXTEND
  0
SOLID
  5
E5E
330
737
100
AcDbEntity
  8
0
100
AcDbTrace
 10
3.104166666666663
 20
27.06250000000006
 30
0.0
 11
3.27083333333333
 21
27.06250000000006
 31
0.0
 12
3.187499999999997
 22
27.56250000000005
 32
0.0
 13
3.187499999999997
 23
27.56250000000005
 33
0.0
  0
POINT
  5
E5F
330
737
100
AcDbEntity
  8
Defpoints
 62
     0
100
AcDbPoint
 10
6.523505115977598
 20
22.81250000000003
 30
0.0
  0
POINT
  5
E60
330
737
100
AcDbEntity
  8
Defpoints
 62
     0
100
AcDbPoint
 10
8.1875
 20
27.56250000000005
 30
0.0
  0
POINT
  5
E61
330
737
100
AcDbEntity
  8
Defpoints
 62
     0
100
AcDbPoint
 10
3.187499999999997
 20
27.56250000000005
 30
0.0
  0
ENDBLK
  5
740
330
737
100
AcDbEntity
  8
0
100
AcDbBlockEnd
  0
BLOCK
  5
749
330
741
100
AcDbEntity
  8
0
100
AcDbBlockBegin
  2
*D21
 70
     1
 10
0.0
 20
0.0
 30
0.0
  3
*D21
  1

  0
LINE
  5
E4D
330
741
100
AcDbEntity
  8
0
100
AcDbLine
 10
7.687499999999999
 20
27.31250000000003
 30
0.0
 11
3.937499999999998
 21
27.31250000000003
 31
0.0
  0
LINE
  5
E4E
330
741
100
AcDbEntity
  8
0
100
AcDbLine
 10
4.187499999999998
 20
22.81250000000003
 30
0.0
 11
4.187499999999998
 21
26.81250000000003
 31
0.0
  0
MTEXT
  5
E4F
330
741
100
AcDbEntity
  8
0
 62
   255
100
AcDbMText
 10
3.922499999999986
 20
23.6610925564376
 30
0.0
 40
0.28
 41
0.0
 71
     5
 72
     1
  1
\A1;FRAME
 11
0.0000000000000001
 21
1.0
 31
0.0
 73
     1
 44
1.0
1001
ACAD
1000
MTEXTBEGIN
1070
    73
1070
     1
1070
    44
1040
1.0
1070
    74
1070
     0
1000
MTEXTEND
  0
SOLID
  5
E50
330
741
100
AcDbEntity
  8
0
100
AcDbTrace
 10
4.104166666666665
 20
26.81250000000003
 30
0.0
 11
4.270833333333331
 21
26.81250000000003
 31
0.0
 12
4.187499999999998
 22
27.31250000000003
 32
0.0
 13
4.187499999999998
 23
27.31250000000003
 33
0.0
  0
POINT
  5
E51
330
741
100
AcDbEntity
  8
Defpoints
 62
     0
100
AcDbPoint
 10
6.523505115977598
 20
22.81250000000003
 30
0.0
  0
POINT
  5
E52
330
741
100
AcDbEntity
  8
Defpoints
 62
     0
100
AcDbPoint
 10
8.1875
 20
27.31250000000003
 30
0.0
  0
POINT
  5
E53
330
741
100
AcDbEntity
  8
Defpoints
 62
     0
100
AcDbPoint
 10
4.187499999999998
 20
27.31250000000003
 30
0.0
  0
ENDBLK
  5
74A
330
741
100
AcDbEntity
  8
0
100
AcDbBlockEnd
  0
BLOCK
  5
753
330
74B
100
AcDbEntity
  8
0
100
AcDbBlockBegin
  2
*D22
 70
     1
 10
0.0
 20
0.0
 30
0.0
  3
*D22
  1

  0
LINE
  5
E3F
330
74B
100
AcDbEntity
  8
0
100
AcDbLine
 10
7.56621531227995
 20
17.18769999999997
 30
0.0
 11
3.937499999999997
 21
17.18769999999997
 31
0.0
  0
LINE
  5
E40
330
74B
100
AcDbEntity
  8
0
100
AcDbLine
 10
4.187499999999998
 20
17.68769999999997
 30
0.0
 11
4.187499999999998
 21
21.68769999999997
 31
0.0
  0
MTEXT
  5
E41
330
74B
100
AcDbEntity
  8
0
 62
   255
100
AcDbMText
 10
3.922499999999985
 20
20.83926250629656
 30
0.0
 40
0.28
 41
0.0
 71
     5
 72
     1
  1
\A1;FRAME
 11
0.0000000000000001
 21
1.0
 31
0.0
 73
     1
 44
1.0
1001
ACAD
1000
MTEXTBEGIN
1070
    73
1070
     1
1070
    44
1040
1.0
1070
    74
1070
     0
1000
MTEXTEND
  0
SOLID
  5
E42
330
74B
100
AcDbEntity
  8
0
100
AcDbTrace
 10
4.104166666666665
 20
17.68769999999997
 30
0.0
 11
4.270833333333331
 21
17.68769999999997
 31
0.0
 12
4.187499999999997
 22
17.18769999999997
 32
0.0
 13
4.187499999999997
 23
17.18769999999997
 33
0.0
  0
POINT
  5
E43
330
74B
100
AcDbEntity
  8
Defpoints
 62
     0
100
AcDbPoint
 10
8.06621531227995
 20
17.18769999999997
 30
0.0
  0
POINT
  5
E44
330
74B
100
AcDbEntity
  8
Defpoints
 62
     0
100
AcDbPoint
 10
6.420761722307033
 20
21.68769999999997
 30
0.0
  0
POINT
  5
E45
330
74B
100
AcDbEntity
  8
Defpoints
 62
     0
100
AcDbPoint
 10
4.187499999999998
 20
21.68769999999997
 30
0.0
  0
ENDBLK
  5
754
330
74B
100
AcDbEntity
  8
0
100
AcDbBlockEnd
  0
BLOCK
  5
75D
330
755
100
AcDbEntity
  8
0
100
AcDbBlockBegin
  2
*D23
 70
     1
 10
0.0
 20
0.0
 30
0.0
  3
*D23
  1

  0
LINE
  5
E31
330
755
100
AcDbEntity
  8
0
100
AcDbLine
 10
7.56621531227995
 20
16.93769999999997
 30
0.0
 11
2.937499999999999
 21
16.93769999999997
 31
0.0
  0
LINE
  5
E32
330
755
100
AcDbEntity
  8
0
100
AcDbLine
 10
3.1875
 20
21.68769999999997
 30
0.0
 11
3.187499999999999
 21
17.43769999999997
 31
0.0
  0
MTEXT
  5
E33
330
755
100
AcDbEntity
  8
0
 62
   255
100
AcDbMText
 10
2.917629604365615
 20
19.81658548535087
 30
0.0
 40
0.28
 41
0.0
 71
     5
 72
     1
  1
\A1;ROUGH OPENING
 11
0.0000000000000001
 21
1.0
 31
0.0
 73
     1
 44
1.0
1001
ACAD
1000
MTEXTBEGIN
1070
    73
1070
     1
1070
    44
1040
1.0
1070
    74
1070
     0
1000
MTEXTEND
  0
SOLID
  5
E34
330
755
100
AcDbEntity
  8
0
100
AcDbTrace
 10
3.104166666666665
 20
17.43769999999997
 30
0.0
 11
3.270833333333332
 21
17.43769999999997
 31
0.0
 12
3.187499999999999
 22
16.93769999999997
 32
0.0
 13
3.187499999999999
 23
16.93769999999997
 33
0.0
  0
POINT
  5
E35
330
755
100
AcDbEntity
  8
Defpoints
 62
     0
100
AcDbPoint
 10
6.420761722307033
 20
21.68769999999997
 30
0.0
  0
POINT
  5
E36
330
755
100
AcDbEntity
  8
Defpoints
 62
     0
100
AcDbPoint
 10
8.06621531227995
 20
16.93769999999997
 30
0.0
  0
POINT
  5
E37
330
755
100
AcDbEntity
  8
Defpoints
 62
     0
100
AcDbPoint
 10
3.187499999999999
 20
16.93769999999997
 30
0.0
  0
ENDBLK
  5
75E
330
755
100
AcDbEntity
  8
0
100
AcDbBlockEnd
  0
ENDSEC
  0
SECTION
  2
ENTITIES
  0
INSERT
  5
33
330
2
100
AcDbEntity
  8
0
100
AcDbBlockReference
  2
TSE25DHS
 10
8.1875
 20
17.18769999999997
 30
0.0
  0
INSERT
  5
E7
330
2
100
AcDbEntity
  8
0
100
AcDbBlockReference
  2
TSE25DHLJ
 10
23.93749999999999
 20
19.3720319416149
 30
0.0
 50
90.0
  0
INSERT
  5
17E
330
2
100
AcDbEntity
  8
0
100
AcDbBlockReference
  2
TSE25DHH
 10
8.1875
 20
27.31250000000002
 30
0.0
  0
POINT
  5
209
330
2
100
AcDbEntity
  8
0
100
AcDbPoint
 10
0.0
 20
0.0
 30
0.0
  0
INSERT
  5
20A
330
2
100
AcDbEntity
  8
0
100
AcDbBlockReference
  2
10sillvinyl
 10
8.1875
 20
17.18769999999997
 30
0.0
  0
INSERT
  5
2B2
330
2
100
AcDbEntity
  8
0
100
AcDbBlockReference
  2
ACC31D0 Colonial
 10
14.39567672726346
 20
17.86991095494148
 30
0.0
 41
-1.0
 50
180.0
  0
POLYLINE
  5
2D7
102
{ACAD_REACTORS
330
2DD
102
}
330
2
100
AcDbEntity
  8
0
100
AcDb2dPolyline
 66
     1
 10
0.0
 20
0.0
 30
0.0
 70
     1
  0
VERTEX
  5
2D8
330
2D7
100
AcDbEntity
  8
0
100
AcDbVertex
100
AcDb2dVertex
 10
14.39567672726347
 20
17.1789794168711
 30
0.0
  0
VERTEX
  5
2D9
330
2D7
100
AcDbEntity
  8
0
100
AcDbVertex
100
AcDb2dVertex
 10
14.39567672726347
 20
18.02817075067311
 30
0.0
  0
VERTEX
  5
2DA
330
2D7
100
AcDbEntity
  8
0
100
AcDbVertex
100
AcDb2dVertex
 10
12.16757356150465
 20
18.02817075067312
 30
0.0
  0
VERTEX
  5
2DB
330
2D7
100
AcDbEntity
  8
0
100
AcDbVertex
100
AcDb2dVertex
 10
12.16742643849538
 20
17.17897941687111
 30
0.0
  0
SEQEND
  5
2DC
330
2D7
100
AcDbEntity
  8
0
  0
HATCH
  5
2DD
330
2
100
AcDbEntity
  8
0
100
AcDbHatch
 10
0.0
 20
0.0
 30
0.0
210
0.0
220
0.0
230
1.0
  2
WOOD
 70
     0
 71
     1
 91
        1
 92
        1
 93
        4
 72
     1
 10
14.39567672726347
 20
17.1789794168711
 11
14.39567672726347
 21
18.02817075067311
 72
     1
 10
14.39567672726347
 20
18.02817075067311
 11
12.16757356150465
 21
18.02817075067312
 72
     1
 10
12.16757356150465
 20
18.02817075067312
 11
12.16742643849538
 21
17.17897941687111
 72
     1
 10
12.16742643849538
 20
17.17897941687111
 11
14.39567672726347
 21
17.1789794168711
 97
        1
330
2D7
 75
     0
 76
     1
 52
135.0
 41
0.14
 77
     0
 78
    12
 53
135.0
 43
-9.49838704833159
 44
41.05978462239707
 45
-0.7919595949289332
 46
-0.0000000000000001
 79
     2
 49
0.5600000000000002
 49
-5.040000000000001
 53
135.0
 43
-10.78532139009111
 44
42.14872906542436
 45
-0.7919595949289332
 46
-0.0000000000000001
 79
     2
 49
0.5600000000000002
 49
-2.24
 53
161.56505118
 43
-9.10240725086712
 44
41.45576441986153
 45
-0.7919595586260602
 46
0.0000000442314982
 79
     2
 49
1.25219808
 49
-11.26978258
 53
120.96375653
 43
-7.716477959741492
 44
39.67385533127143
 45
-0.7919596908495017
 46
0.0000000240384627
 79
     2
 49
0.5772348400000002
 49
-4.04064346
 53
120.96375653
 43
-8.409442605304302
 44
40.56480987556649
 45
-0.7919596908495017
 46
0.0000000240384627
 79
     2
 49
0.5772348400000002
 49
-4.04064346
 53
120.96375653
 43
-8.013462807839839
 44
38.58491088824415
 45
-0.7919596908495017
 46
0.0000000240384627
 79
     2
 49
0.5772348400000002
 49
-4.04064346
 53
149.03624347
 43
-10.29034664326052
 44
41.85174421732599
 45
-0.7919596908495016
 46
-0.0000000240384629
 79
     2
 49
0.5772348400000001
 49
-22.51215666
 53
149.03624347
 43
-17.41798299762092
 44
45.81154219197067
 45
-0.7919596908495016
 46
-0.0000000240384629
 79
     2
 49
0.5772348400000001
 49
-22.51215666
 53
149.03624347
 43
-23.75365975705239
 44
49.77134016661534
 45
-0.7919596908495016
 46
-0.0000000240384629
 79
     2
 49
0.5772348400000001
 49
-22.51215666
 53
108.4349488199999
 43
-11.47828603565392
 44
43.0396836097194
 45
-0.7919595586260602
 46
-0.0000000442314984
 79
     2
 49
0.6260990399999998
 49
-11.89588161999999
 53
108.4349488199999
 43
-9.10240725086712
 44
35.12008766043006
 45
-0.7919595586260602
 46
-0.0000000442314984
 79
     2
 49
0.6260990399999998
 49
-11.89588161999999
 53
108.4349488199999
 43
-10.68632644072499
 44
39.07988563507473
 45
-0.7919595586260602
 46
-0.0000000442314984
 79
     2
 49
0.6260990399999998
 49
-11.89588161999999
 98
        1
 10
39.92054897927119
 20
37.55397941687112
  0
HATCH
  5
2DE
330
2
100
AcDbEntity
  8
0
100
AcDbHatch
 10
0.0
 20
0.0
 30
0.0
210
0.0
220
0.0
230
1.0
  2
LINE
 70
     0
 71
     0
 91
        1
 92
        7
 72
     1
 73
     1
 93
       13
 10
12.16742643849538
 20
17.17897941687115
 42
0.0
 10
12.16742643849538
 20
17.38824624729695
 42
0.4902604554738491
 10
12.13993014383861
 20
17.4095486120731
 42
0.0
 10
11.8974264384954
 20
17.34697941687082
 42
0.0
 10
11.8974264384954
 20
17.33697941687105
 42
0.0
 10
12.00742643849536
 20
17.24497941687095
 42
0.0
 10
12.00742643849541
 20
17.31339593469501
 42
0.0
 10
12.10742643849538
 20
17.33919727043703
 42
0.0
 10
12.10742643849538
 20
17.17897941687115
 42
0.0
 10
11.62742643849535
 20
17.17897941687115
 42
0.0
 10
11.62742643849536
 20
17.11897941687075
 42
0.0
 10
12.7074264384954
 20
17.11897941687075
 42
0.0
 10
12.7074264384954
 20
17.17897941687115
 42
0.0
 97
        0
 75
     0
 76
     1
 52
45.0
 41
0.25
 77
     0
 78
     1
 53
315.0
 43
-9.120533505383566
 44
44.42297941687215
 45
-0.0220970869120796
 46
-0.0220970869120796
 79
     0
 47
0.0025246413765433
 98
        1
 10
12.15743569981235
 20
17.15294897261317
  0
INSERT
  5
2DF
330
2
100
AcDbEntity
  8
0
100
AcDbBlockReference
  2
clip
 10
11.6274263933136
 20
17.41024629124231
 30
0.0
 50
270.0
  0
HATCH
  5
2F2
330
2
100
AcDbEntity
  8
0
100
AcDbHatch
 10
0.0
 20
0.0
 30
0.0
210
0.0
220
0.0
230
1.0
  2
LINE
 70
     0
 71
     0
 91
        1
 92
        7
 72
     1
 73
     1
 93
       13
 10
24.14076683042625
 20
23.35195838011026
 42
-0.4902604554703939
 10
24.16206919520214
 20
23.32446208545349
 42
0.0
 10
24.09949999999986
 20
23.08195838011029
 42
0.0
 10
24.0895000000001
 20
23.08195838011029
 42
0.0
 10
23.9975
 20
23.19195838011025
 42
0.0
 10
24.06591651782406
 20
23.1919583801103
 42
0.0
 10
24.09171785356607
 20
23.29195838011026
 42
0.0
 10
23.93150000000019
 20
23.29195838011026
 42
0.0
 10
23.93150000000019
 20
22.81195838011024
 42
0.0
 10
23.87149999999979
 20
22.81195838011024
 42
0.0
 10
23.87149999999979
 20
23.89195838011028
 42
0.0
 10
23.93150000000019
 20
23.89195838011028
 42
0.0
 10
23.93150000000019
 20
23.35195838011027
 42
0.0
 97
        0
 75
     0
 76
     1
 52
135.0
 41
0.25
 77
     0
 78
     1
 53
135.0
 43
51.17550000000117
 44
2.063998436231319
 45
-0.0220970869120796
 46
-0.0220970869120796
 79
     0
 47
0.0025246413765433
 98
        1
 10
23.90546955574222
 20
23.34196764142724
  0
INSERT
  5
2F3
330
2
100
AcDbEntity
  8
0
100
AcDbBlockReference
  2
clip
 10
24.16276687437135
 20
22.81195833492848
 30
0.0
 41
-1.0
  0
INSERT
  5
2F4
330
2
100
AcDbEntity
  8
0
100
AcDbBlockReference
  2
ACC31D0 Colonial
 10
24.62243153807052
 20
25.50527016570849
 30
0.0
 50
90.0
  0
POLYLINE
  5
2F5
102
{ACAD_REACTORS
330
2FB
102
}
330
2
100
AcDbEntity
  8
0
100
AcDb2dPolyline
 66
     1
 10
0.0
 20
0.0
 30
0.0
 70
     1
  0
VERTEX
  5
2F6
330
2F5
100
AcDbEntity
  8
0
100
AcDbVertex
100
AcDb2dVertex
 10
23.93150000000015
 20
25.5052701657085
 30
0.0
  0
VERTEX
  5
2F7
330
2F5
100
AcDbEntity
  8
0
100
AcDbVertex
100
AcDb2dVertex
 10
24.78069133380216
 20
25.5052701657085
 30
0.0
  0
VERTEX
  5
2F8
330
2F5
100
AcDbEntity
  8
0
100
AcDbVertex
100
AcDb2dVertex
 10
24.78069133380217
 20
23.35210550311954
 30
0.0
  0
VERTEX
  5
2F9
330
2F5
100
AcDbEntity
  8
0
100
AcDbVertex
100
AcDb2dVertex
 10
23.93150000000015
 20
23.35195838011026
 30
0.0
  0
SEQEND
  5
2FA
330
2F5
100
AcDbEntity
  8
0
  0
HATCH
  5
2FB
330
2
100
AcDbEntity
  8
0
100
AcDbHatch
 10
0.0
 20
0.0
 30
0.0
210
0.0
220
0.0
230
1.0
  2
WOOD
 70
     0
 71
     1
 91
        1
 92
        1
 93
        4
 72
     1
 10
23.93150000000015
 20
25.5052701657085
 11
24.78069133380216
 21
25.5052701657085
 72
     1
 10
24.78069133380216
 20
25.5052701657085
 11
24.78069133380217
 21
23.35210550311954
 72
     1
 10
24.78069133380217
 20
23.35210550311954
 11
23.93150000000015
 21
23.35195838011026
 72
     1
 10
23.93150000000015
 20
23.35195838011026
 11
23.93150000000015
 21
25.5052701657085
 97
        1
330
2F5
 75
     0
 76
     1
 52
225.0
 41
0.14
 77
     0
 78
    12
 53
315.0
 43
47.81230520552609
 44
1.686144893283302
 45
-0.0000000000000002
 46
-0.7919595949289332
 79
     2
 49
0.5600000000000001
 49
-5.04
 53
315.0
 43
48.90124964855338
 44
0.3992105515237831
 45
-0.0000000000000002
 46
-0.7919595949289332
 79
     2
 49
0.5600000000000001
 49
-2.24
 53
288.4349488200001
 43
48.20828500299057
 44
2.082124690747765
 45
0.0000000442314982
 46
-0.7919595586260602
 79
     2
 49
1.25219808
 49
-11.26978258
 53
329.03624347
 43
46.42637591440045
 44
3.468053981873399
 45
0.0000000240384626
 46
-0.7919596908495017
 79
     2
 49
0.5772348400000001
 49
-4.04064346
 53
329.03624347
 43
47.31733045869551
 44
2.775089336310575
 45
0.0000000240384626
 46
-0.7919596908495017
 79
     2
 49
0.5772348400000001
 49
-4.04064346
 53
329.03624347
 43
45.33743147137318
 44
3.171069133775045
 45
0.0000000240384626
 46
-0.7919596908495017
 79
     2
 49
0.5772348400000001
 49
-4.04064346
 53
300.96375653
 43
48.60426480045504
 44
0.8941852983543618
 45
-0.0000000240384629
 46
-0.7919596908495016
 79
     2
 49
0.5772348400000001
 49
-22.51215666
 53
300.96375653
 43
52.56406277509969
 44
-6.233451056006035
 45
-0.0000000240384629
 46
-0.7919596908495016
 79
     2
 49
0.5772348400000001
 49
-22.51215666
 53
300.96375653
 43
56.52386074974437
 44
-12.5691278154375
 45
-0.0000000240384629
 46
-0.7919596908495016
 79
     2
 49
0.5772348400000001
 49
-22.51215666
 53
341.56505118
 43
49.79220419284843
 44
-0.2937540940390413
 45
-0.0000000442314984
 46
-0.7919595586260602
 79
     2
 49
0.6260990400000001
 49
-11.89588162
 53
341.56505118
 43
41.87260824355909
 44
2.082124690747765
 45
-0.0000000442314984
 46
-0.7919595586260602
 79
     2
 49
0.6260990400000001
 49
-11.89588162
 53
341.56505118
 43
45.83240621820376
 44
0.4982055008898989
 45
-0.0000000442314984
 46
-0.7919595586260602
 79
     2
 49
0.6260990400000001
 49
-11.89588162
 98
        1
 10
44.30650000000015
 20
51.10508092088608
  0
INSERT
  5
2FC
330
2
100
AcDbEntity
  8
0
100
AcDbBlockReference
  2
clip
 10
11.9200434565747
 20
27.08723312562867
 30
0.0
 41
-1.0
 50
270.0
  0
HATCH
  5
2FD
330
2
100
AcDbEntity
  8
0
100
AcDbHatch
 10
0.0
 20
0.0
 30
0.0
210
0.0
220
0.0
230
1.0
  2
LINE
 70
     0
 71
     0
 91
        1
 92
        7
 72
     1
 73
     1
 93
       13
 10
12.46004350175649
 20
27.10923316957377
 42
-0.4902604554703939
 10
12.43254720709972
 20
27.08793080479787
 42
0.0
 10
12.19004350175651
 20
27.15050000000016
 42
0.0
 10
12.1900435017565
 20
27.16049999999992
 42
0.0
 10
12.30004350175647
 20
27.25250000000002
 42
0.0
 10
12.30004350175653
 20
27.18408348217595
 42
0.0
 10
12.40004350175648
 20
27.15828214643393
 42
0.0
 10
12.40004350175648
 20
27.31849999999983
 42
0.0
 10
11.92004350175646
 20
27.31849999999982
 42
0.0
 10
11.92004350175646
 20
27.37850000000022
 42
0.0
 10
13.0000435017565
 20
27.37850000000022
 42
0.0
 10
13.0000435017565
 20
27.31849999999982
 42
0.0
 10
12.46004350175649
 20
27.31849999999982
 42
0.0
 97
        0
 75
     0
 76
     1
 52
45.0
 41
0.25
 77
     0
 78
     1
 53
45.0
 43
-8.827916442122457
 44
0.0744999999988387
 45
-0.0220970869120796
 46
0.0220970869120796
 79
     0
 47
0.0025246413765433
 98
        1
 10
12.45005276307346
 20
27.34453044425781
  0
HATCH
  5
2FE
330
2
100
AcDbEntity
  8
0
100
AcDbHatch
 10
0.0
 20
0.0
 30
0.0
210
0.0
220
0.0
230
1.0
  2
WOOD
 70
     0
 71
     1
 91
        1
 92
        1
 93
        4
 72
     1
 10
14.2807836076699
 20
27.31849999999987
 11
14.2807836076699
 21
26.46930866619785
 72
     1
 10
14.2807836076699
 20
26.46930866619785
 11
12.16759441381126
 21
26.46930866619785
 72
     1
 10
12.16759441381126
 20
26.46930866619785
 11
12.16744729080198
 21
27.31849999999987
 72
     1
 10
12.16744729080198
 20
27.31849999999987
 11
14.2807836076699
 21
27.31849999999987
 97
        1
330
2FF
 75
     0
 76
     1
 52
135.0
 41
0.14
 77
     0
 78
    12
 53
225.0
 43
-10.53510410367411
 44
3.437694794473918
 45
-0.7919595949289332
 46
0.0000000000000001
 79
     2
 49
0.5600000000000001
 49
-5.04
 53
225.0
 43
-11.82203844543363
 44
2.348750351446635
 45
-0.7919595949289332
 46
0.0000000000000001
 79
     2
 49
0.5600000000000001
 49
-2.24
 53
198.43494882
 43
-10.13912430620964
 44
3.041714997009451
 45
-0.7919595586260602
 46
-0.0000000442314982
 79
     2
 49
1.25219808
 49
-11.26978258
 53
239.03624347
 43
-8.753195015084017
 44
4.823624085599551
 45
-0.7919596908495017
 46
-0.0000000240384627
 79
     2
 49
0.5772348400000001
 49
-4.04064346
 53
239.03624347
 43
-9.446159660646827
 44
3.932669541304501
 45
-0.7919596908495017
 46
-0.0000000240384627
 79
     2
 49
0.5772348400000001
 49
-4.04064346
 53
239.03624347
 43
-9.050179863182364
 44
5.912568528626835
 45
-0.7919596908495017
 46
-0.0000000240384627
 79
     2
 49
0.5772348400000001
 49
-4.04064346
 53
210.96375653
 43
-11.32706369860305
 44
2.645735199544985
 45
-0.7919596908495016
 46
0.0000000240384629
 79
     2
 49
0.5772348400000001
 49
-22.51215666
 53
210.96375653
 43
-18.45470005296344
 44
-1.31406277509968
 45
-0.7919596908495016
 46
0.0000000240384629
 79
     2
 49
0.5772348400000001
 49
-22.51215666
 53
210.96375653
 43
-24.79037681239491
 44
-5.273860749744347
 45
-0.7919596908495016
 46
0.0000000240384629
 79
     2
 49
0.5772348400000001
 49
-22.51215666
 53
251.56505118
 43
-12.51500309099644
 44
1.457795807151585
 45
-0.7919595586260602
 46
0.0000000442314984
 79
     2
 49
0.6260990400000001
 49
-11.89588162
 53
251.56505118
 43
-10.13912430620964
 44
9.377391756440918
 45
-0.7919595586260602
 46
0.0000000442314984
 79
     2
 49
0.6260990400000001
 49
-11.89588162
 53
251.56505118
 43
-11.72304349606752
 44
5.417593781796251
 45
-0.7919595586260602
 46
0.0000000442314984
 79
     2
 49
0.6260990400000001
 49
-11.89588162
 98
        1
 10
38.88383192392865
 20
6.943499999999867
  0
POLYLINE
  5
2FF
102
{ACAD_REACTORS
330
2FE
102
}
330
2
100
AcDbEntity
  8
0
100
AcDb2dPolyline
 66
     1
 10
0.0
 20
0.0
 30
0.0
 70
     1
  0
VERTEX
  5
300
330
2FF
100
AcDbEntity
  8
0
100
AcDbVertex
100
AcDb2dVertex
 10
14.2807836076699
 20
27.31849999999987
 30
0.0
  0
VERTEX
  5
301
330
2FF
100
AcDbEntity
  8
0
100
AcDbVertex
100
AcDb2dVertex
 10
14.2807836076699
 20
26.46930866619785
 30
0.0
  0
VERTEX
  5
302
330
2FF
100
AcDbEntity
  8
0
100
AcDbVertex
100
AcDb2dVertex
 10
12.16759441381126
 20
26.46930866619785
 30
0.0
  0
VERTEX
  5
303
330
2FF
100
AcDbEntity
  8
0
100
AcDbVertex
100
AcDb2dVertex
 10
12.16744729080198
 20
27.31849999999987
 30
0.0
  0
SEQEND
  5
304
330
2FF
100
AcDbEntity
  8
0
  0
INSERT
  5
305
330
2
100
AcDbEntity
  8
0
100
AcDbBlockReference
  2
ACC31D0 Colonial
 10
14.28078360766989
 20
26.62756846192949
 30
0.0
  0
INSERT
  5
306
330
2
100
AcDbEntity
  8
0
100
AcDbBlockReference
  2
10jambvinylsiding
 10
23.93749999999999
 20
19.3720319416149
 30
0.0
 50
90.0
  0
INSERT
  5
33D
330
2
100
AcDbEntity
  8
0
100
AcDbBlockReference
  2
10headvinylsiding
 10
8.1875
 20
27.31250000000002
 30
0.0
  0
POLYLINE
  5
519
330
2
100
AcDbEntity
  8
0
100
AcDb2dPolyline
 66
     1
 10
0.0
 20
0.0
 30
0.0
  0
VERTEX
  5
51A
330
519
100
AcDbEntity
  8
0
100
AcDbVertex
100
AcDb2dVertex
 10
6.969499999999996
 20
31.52626808748065
 30
0.0
  0
VERTEX
  5
51B
330
519
100
AcDbEntity
  8
0
100
AcDbVertex
100
AcDb2dVertex
 10
7.976630115977592
 20
31.52626808748065
 30
0.0
  0
VERTEX
  5
51C
330
519
100
AcDbEntity
  8
0
100
AcDbVertex
100
AcDb2dVertex
 10
8.039130115977592
 20
31.77626808748065
 30
0.0
  0
VERTEX
  5
51D
330
519
100
AcDbEntity
  8
0
100
AcDbVertex
100
AcDb2dVertex
 10
8.164130115977592
 20
31.27626808748065
 30
0.0
  0
VERTEX
  5
51E
330
519
100
AcDbEntity
  8
0
100
AcDbVertex
100
AcDb2dVertex
 10
8.226630115977592
 20
31.52626808748065
 30
0.0
  0
VERTEX
  5
51F
330
519
100
AcDbEntity
  8
0
100
AcDbVertex
100
AcDb2dVertex
 10
13.07056991174435
 20
31.52626808748065
 30
0.0
  0
VERTEX
  5
520
330
519
100
AcDbEntity
  8
0
100
AcDbVertex
100
AcDb2dVertex
 10
13.13306991174435
 20
31.77626808748065
 30
0.0
  0
VERTEX
  5
521
330
519
100
AcDbEntity
  8
0
100
AcDbVertex
100
AcDb2dVertex
 10
13.25806991174435
 20
31.27626808748065
 30
0.0
  0
VERTEX
  5
522
330
519
100
AcDbEntity
  8
0
100
AcDbVertex
100
AcDb2dVertex
 10
13.32056991174435
 20
31.52626808748065
 30
0.0
  0
VERTEX
  5
523
330
519
100
AcDbEntity
  8
0
100
AcDbVertex
100
AcDb2dVertex
 10
15.60163011597759
 20
31.52626808748065
 30
0.0
  0
SEQEND
  5
524
330
519
100
AcDbEntity
  8
0
  0
DIMENSION
  5
6A7
330
2
100
AcDbEntity
  8
0
100
AcDbDimension
  2
*D15
 10
4.187499999999999
 20
16.93769999999995
 30
0.0
 11
4.1875
 21
15.93769999999995
 31
0.0
 70
   160
 71
     5
 42
0.2500000000000355
  3
3 inch Scale
100
AcDbAlignedDimension
 13
8.1875
 23
17.18769999999998
 33
0.0
 14
8.1875
 24
16.93769999999995
 34
0.0
 50
270.0
100
AcDbRotatedDimension
  0
MTEXT
  5
6A9
330
2
100
AcDbEntity
  8
0
100
AcDbMText
 10
10.87024138317549
 20
22.31250000000002
 30
0.0
 40
0.28
 41
1.40369753947796
 71
     5
 72
     5
  1
HEAD
  7
Arial
 73
     1
 44
1.0
1001
ACAD
1000
MTEXTBEGIN
1070
    73
1070
     1
1070
    44
1040
1.0
1070
    74
1070
     0
1000
MTEXTEND
  0
MTEXT
  5
6AA
330
2
100
AcDbEntity
  8
0
100
AcDbMText
 10
10.87024138317549
 20
11.18769999999997
 30
0.0
 40
0.28
 41
1.40369753947796
 71
     2
 72
     5
  1
SILL
  7
Arial
 73
     1
 44
1.0
1001
ACAD
1000
MTEXTBEGIN
1070
    73
1070
     1
1070
    44
1040
1.0
1070
    74
1070
     0
1000
MTEXTEND
  0
MTEXT
  5
6AB
330
2
100
AcDbEntity
  8
0
100
AcDbMText
 10
21.1875
 20
18.12500000000003
 30
0.0
 40
0.28
 41
1.40369753947796
 71
     5
 72
     5
  1
JAMB
  7
Arial
 73
     1
 44
1.0
1001
ACAD
1000
MTEXTBEGIN
1070
    73
1070
     1
1070
    44
1040
1.0
1070
    74
1070
     0
1000
MTEXTEND
  0
POLYLINE
  5
6AC
330
2
100
AcDbEntity
  8
0
100
AcDb2dPolyline
 66
     1
 10
0.0
 20
0.0
 30
0.0
  0
VERTEX
  5
6AD
330
6AC
100
AcDbEntity
  8
0
100
AcDbVertex
100
AcDb2dVertex
 10
18.68750000000001
 20
18.12500000000003
 30
0.0
  0
VERTEX
  5
6AE
330
6AC
100
AcDbEntity
  8
0
100
AcDbVertex
100
AcDb2dVertex
 10
18.68750000000001
 20
18.87500000000003
 30
0.0
  0
VERTEX
  5
6AF
330
6AC
100
AcDbEntity
  8
0
100
AcDbVertex
100
AcDb2dVertex
 10
18.43750000000001
 20
18.93750000000003
 30
0.0
  0
VERTEX
  5
6B0
330
6AC
100
AcDbEntity
  8
0
100
AcDbVertex
100
AcDb2dVertex
 10
18.9375
 20
19.06250000000003
 30
0.0
  0
VERTEX
  5
6B1
330
6AC
100
AcDbEntity
  8
0
100
AcDbVertex
100
AcDb2dVertex
 10
18.68750000000001
 20
19.12500000000003
 30
0.0
  0
VERTEX
  5
6B2
330
6AC
100
AcDbEntity
  8
0
100
AcDbVertex
100
AcDb2dVertex
 10
18.68750000000001
 20
23.95312500000003
 30
0.0
  0
VERTEX
  5
6B3
330
6AC
100
AcDbEntity
  8
0
100
AcDbVertex
100
AcDb2dVertex
 10
18.43750000000001
 20
24.01562500000003
 30
0.0
  0
VERTEX
  5
6B4
330
6AC
100
AcDbEntity
  8
0
100
AcDbVertex
100
AcDb2dVertex
 10
18.9375
 20
24.14062500000003
 30
0.0
  0
VERTEX
  5
6B5
330
6AC
100
AcDbEntity
  8
0
100
AcDbVertex
100
AcDb2dVertex
 10
18.68750000000001
 20
24.20312500000003
 30
0.0
  0
VERTEX
  5
6B6
330
6AC
100
AcDbEntity
  8
0
100
AcDbVertex
100
AcDb2dVertex
 10
18.68750000000001
 20
26.43750000000003
 30
0.0
  0
SEQEND
  5
6B7
330
6AC
100
AcDbEntity
  8
0
  0
POLYLINE
  5
6B8
330
2
100
AcDbEntity
  8
0
100
AcDb2dPolyline
 66
     1
 10
0.0
 20
0.0
 30
0.0
  0
VERTEX
  5
6B9
330
6B8
100
AcDbEntity
  8
0
100
AcDbVertex
100
AcDb2dVertex
 10
28.43750000000002
 20
14.12500000000004
 30
0.0
  0
VERTEX
  5
6BA
330
6B8
100
AcDbEntity
  8
0
100
AcDbVertex
100
AcDb2dVertex
 10
28.43750000000002
 20
18.87500000000003
 30
0.0
  0
VERTEX
  5
6BB
330
6B8
100
AcDbEntity
  8
0
100
AcDbVertex
100
AcDb2dVertex
 10
28.18750000000001
 20
18.93750000000003
 30
0.0
  0
VERTEX
  5
6BC
330
6B8
100
AcDbEntity
  8
0
100
AcDbVertex
100
AcDb2dVertex
 10
28.68750000000002
 20
19.06250000000003
 30
0.0
  0
VERTEX
  5
6BD
330
6B8
100
AcDbEntity
  8
0
100
AcDbVertex
100
AcDb2dVertex
 10
28.43750000000002
 20
19.12500000000003
 30
0.0
  0
VERTEX
  5
6BE
330
6B8
100
AcDbEntity
  8
0
100
AcDbVertex
100
AcDb2dVertex
 10
28.43750000000002
 20
23.95312500000003
 30
0.0
  0
VERTEX
  5
6BF
330
6B8
100
AcDbEntity
  8
0
100
AcDbVertex
100
AcDb2dVertex
 10
28.18750000000001
 20
24.01562500000003
 30
0.0
  0
VERTEX
  5
6C0
330
6B8
100
AcDbEntity
  8
0
100
AcDbVertex
100
AcDb2dVertex
 10
28.68750000000002
 20
24.14062500000003
 30
0.0
  0
VERTEX
  5
6C1
330
6B8
100
AcDbEntity
  8
0
100
AcDbVertex
100
AcDb2dVertex
 10
28.43750000000002
 20
24.20312500000003
 30
0.0
  0
VERTEX
  5
6C2
330
6B8
100
AcDbEntity
  8
0
100
AcDbVertex
100
AcDb2dVertex
 10
28.43750000000001
 20
26.43750000000003
 30
0.0
  0
SEQEND
  5
6C3
330
6B8
100
AcDbEntity
  8
0
  0
DIMENSION
  5
6C4
330
2
100
AcDbEntity
  8
0
100
AcDbDimension
  2
*D16
 10
23.93750000000001
 20
15.50000000000003
 30
0.0
 11
27.586148551306
 21
15.23500000000003
 31
0.0
 70
   160
  1
FRAME
 71
     5
 42
4.500000000000007
  3
3 inch Scale
100
AcDbAlignedDimension
 13
28.43750000000002
 23
17.72811010685979
 33
0.0
 14
23.93750000000001
 24
19.37356369683269
 34
0.0
 50
180.0
100
AcDbRotatedDimension
1001
ACAD
1000
DSTYLE
1002
{
1070
    75
1070
     1
1070
   173
1070
     1
1070
   343
1005
39B
1002
}
  0
DIMENSION
  5
6C5
330
2
100
AcDbEntity
  8
0
100
AcDbDimension
  2
*D17
 10
23.6875
 20
14.50000000000003
 30
0.0
 11
26.589097500541
 21
14.23012960436564
 31
0.0
 70
   160
  1
ROUGH OPENING
 71
     5
 42
4.750000000000014
  3
3 inch Scale
100
AcDbAlignedDimension
 13
28.43750000000002
 23
17.72811010685979
 33
0.0
 14
23.6875
 24
19.37356369683269
 34
0.0
 50
180.0
100
AcDbRotatedDimension
1001
ACAD
1000
DSTYLE
1002
{
1070
    75
1070
     1
1070
   173
1070
     1
1070
   343
1005
39B
1002
}
  0
DIMENSION
  5
6C6
330
2
100
AcDbEntity
  8
0
100
AcDbDimension
  2
*D18
 10
23.6875
 20
15.50000000000003
 30
0.0
 11
22.6531058243383
 21
15.50000000000004
 31
0.0
 70
   160
 71
     5
 42
0.2500000000000071
  3
3 inch Scale
100
AcDbAlignedDimension
 13
23.93750000000001
 23
19.37356369683269
 33
0.0
 14
23.6875
 24
19.37356369683269
 34
0.0
 50
180.0
100
AcDbRotatedDimension
  0
DIMENSION
  5
6D3
330
2
100
AcDbEntity
  8
0
100
AcDbDimension
  2
*D19
 10
4.187499999999999
 20
27.56250000000005
 30
0.0
 11
4.1875
 21
28.56250000000006
 31
0.0
 70
   160
 71
     5
 42
0.2500000000000355
  3
3 inch Scale
100
AcDbAlignedDimension
 13
8.1875
 23
27.31250000000002
 33
0.0
 14
8.1875
 24
27.56250000000005
 34
0.0
 50
90.0
100
AcDbRotatedDimension
  0
DIMENSION
  5
6D4
330
2
100
AcDbEntity
  8
0
100
AcDbDimension
  2
*D20
 10
3.187499999999997
 20
27.56250000000005
 30
0.0
 11
2.9176296043656
 21
24.66022284940206
 31
0.0
 70
   160
  1
ROUGH OPENING
 71
     5
 42
4.750000000000024
  3
3 inch Scale
100
AcDbAlignedDimension
 13
6.523505115977599
 23
22.81250000000003
 33
0.0
 14
8.1875
 24
27.56250000000005
 34
0.0
 50
90.0
100
AcDbRotatedDimension
1001
ACAD
1000
DSTYLE
1002
{
1070
    75
1070
     1
1070
   343
1005
39B
1070
   173
1070
     1
1070
   344
1005
0
1002
}
  0
DIMENSION
  5
6D5
330
2
100
AcDbEntity
  8
0
100
AcDbDimension
  2
*D21
 10
4.187499999999998
 20
27.31250000000003
 30
0.0
 11
3.922499999999986
 21
23.6610925564376
 31
0.0
 70
   160
  1
FRAME
 71
     5
 42
4.5
  3
3 inch Scale
100
AcDbAlignedDimension
 13
6.523505115977599
 23
22.81250000000003
 33
0.0
 14
8.1875
 24
27.31250000000003
 34
0.0
 50
90.0
100
AcDbRotatedDimension
1001
ACAD
1000
DSTYLE
1002
{
1070
    75
1070
     1
1070
   343
1005
39B
1070
   173
1070
     1
1070
   344
1005
0
1002
}
  0
DIMENSION
  5
6D6
330
2
100
AcDbEntity
  8
0
100
AcDbDimension
  2
*D22
 10
4.187499999999998
 20
21.68769999999997
 30
0.0
 11
3.922499999999985
 21
20.83926250629656
 31
0.0
 70
   160
  1
FRAME
 71
     5
 42
4.5
  3
3 inch Scale
100
AcDbAlignedDimension
 13
8.06621531227995
 23
17.18769999999997
 33
0.0
 14
6.420761722307034
 24
21.68769999999997
 34
0.0
 50
90.0
100
AcDbRotatedDimension
1001
ACAD
1000
DSTYLE
1002
{
1070
    76
1070
     1
1070
    75
1070
     0
1070
   343
1005
0
1070
   173
1070
     1
1070
   344
1005
39B
1002
}
  0
DIMENSION
  5
6D7
330
2
100
AcDbEntity
  8
0
100
AcDbDimension
  2
*D23
 10
3.187499999999999
 20
16.93769999999997
 30
0.0
 11
2.917629604365615
 21
19.81658548535087
 31
0.0
 70
   160
  1
ROUGH OPENING
 71
     5
 42
4.75
  3
3 inch Scale
100
AcDbAlignedDimension
 13
6.420761722307034
 23
21.68769999999997
 33
0.0
 14
8.06621531227995
 24
16.93769999999997
 34
0.0
 50
90.0
100
AcDbRotatedDimension
1001
ACAD
1000
DSTYLE
1002
{
1070
    75
1070
     1
1070
   343
1005
39B
1070
   173
1070
     1
1070
   344
1005
0
1002
}
  0
POLYLINE
  5
6D8
330
2
100
AcDbEntity
  8
0
100
AcDb2dPolyline
 66
     1
 10
0.0
 20
0.0
 30
0.0
  0
VERTEX
  5
6D9
330
6D8
100
AcDbEntity
  8
0
100
AcDbVertex
100
AcDb2dVertex
 10
2.8125
 20
21.68769999999997
 30
0.0
  0
VERTEX
  5
6DA
330
6D8
100
AcDbEntity
  8
0
100
AcDbVertex
100
AcDb2dVertex
 10
7.5625
 20
21.68769999999997
 30
0.0
  0
VERTEX
  5
6DB
330
6D8
100
AcDbEntity
  8
0
100
AcDbVertex
100
AcDb2dVertex
 10
7.625
 20
21.93769999999997
 30
0.0
  0
VERTEX
  5
6DC
330
6D8
100
AcDbEntity
  8
0
100
AcDbVertex
100
AcDb2dVertex
 10
7.75
 20
21.43769999999997
 30
0.0
  0
VERTEX
  5
6DD
330
6D8
100
AcDbEntity
  8
0
100
AcDbVertex
100
AcDb2dVertex
 10
7.8125
 20
21.68769999999997
 30
0.0
  0
VERTEX
  5
6DE
330
6D8
100
AcDbEntity
  8
0
100
AcDbVertex
100
AcDb2dVertex
 10
12.75
 20
21.68769999999997
 30
0.0
  0
VERTEX
  5
6DF
330
6D8
100
AcDbEntity
  8
0
100
AcDbVertex
100
AcDb2dVertex
 10
12.8125
 20
21.93769999999997
 30
0.0
  0
VERTEX
  5
6E0
330
6D8
100
AcDbEntity
  8
0
100
AcDbVertex
100
AcDb2dVertex
 10
12.9375
 20
21.43769999999997
 30
0.0
  0
VERTEX
  5
6E1
330
6D8
100
AcDbEntity
  8
0
100
AcDbVertex
100
AcDb2dVertex
 10
13.0
 20
21.68769999999997
 30
0.0
  0
VERTEX
  5
6E2
330
6D8
100
AcDbEntity
  8
0
100
AcDbVertex
100
AcDb2dVertex
 10
15.125
 20
21.68769999999997
 30
0.0
  0
SEQEND
  5
6E3
330
6D8
100
AcDbEntity
  8
0
  0
POLYLINE
  5
6E4
330
2
100
AcDbEntity
  8
0
100
AcDb2dPolyline
 66
     1
 10
0.0
 20
0.0
 30
0.0
  0
VERTEX
  5
6E5
330
6E4
100
AcDbEntity
  8
0
100
AcDbVertex
100
AcDb2dVertex
 10
2.8125
 20
22.81250000000005
 30
0.0
  0
VERTEX
  5
6E6
330
6E4
100
AcDbEntity
  8
0
100
AcDbVertex
100
AcDb2dVertex
 10
7.5625
 20
22.81250000000003
 30
0.0
  0
VERTEX
  5
6E7
330
6E4
100
AcDbEntity
  8
0
100
AcDbVertex
100
AcDb2dVertex
 10
7.625
 20
23.06250000000003
 30
0.0
  0
VERTEX
  5
6E8
330
6E4
100
AcDbEntity
  8
0
100
AcDbVertex
100
AcDb2dVertex
 10
7.75
 20
22.56250000000003
 30
0.0
  0
VERTEX
  5
6E9
330
6E4
100
AcDbEntity
  8
0
100
AcDbVertex
100
AcDb2dVertex
 10
7.8125
 20
22.81250000000003
 30
0.0
  0
VERTEX
  5
6EA
330
6E4
100
AcDbEntity
  8
0
100
AcDbVertex
100
AcDb2dVertex
 10
12.75
 20
22.81250000000003
 30
0.0
  0
VERTEX
  5
6EB
330
6E4
100
AcDbEntity
  8
0
100
AcDbVertex
100
AcDb2dVertex
 10
12.8125
 20
23.06250000000003
 30
0.0
  0
VERTEX
  5
6EC
330
6E4
100
AcDbEntity
  8
0
100
AcDbVertex
100
AcDb2dVertex
 10
12.9375
 20
22.56250000000003
 30
0.0
  0
VERTEX
  5
6ED
330
6E4
100
AcDbEntity
  8
0
100
AcDbVertex
100
AcDb2dVertex
 10
13.0
 20
22.81250000000003
 30
0.0
  0
VERTEX
  5
6EE
330
6E4
100
AcDbEntity
  8
0
100
AcDbVertex
100
AcDb2dVertex
 10
15.125
 20
22.81250000000003
 30
0.0
  0
SEQEND
  5
6EF
330
6E4
100
AcDbEntity
  8
0
  0
POLYLINE
  5
6F0
330
2
100
AcDbEntity
  8
0
100
AcDb2dPolyline
 66
     1
 10
0.0
 20
0.0
 30
0.0
  0
VERTEX
  5
6F1
330
6F0
100
AcDbEntity
  8
0
100
AcDbVertex
100
AcDb2dVertex
 10
6.8125
 20
11.91269999999997
 30
0.0
  0
VERTEX
  5
6F2
330
6F0
100
AcDbEntity
  8
0
100
AcDbVertex
100
AcDb2dVertex
 10
7.5625
 20
11.91269999999997
 30
0.0
  0
VERTEX
  5
6F3
330
6F0
100
AcDbEntity
  8
0
100
AcDbVertex
100
AcDb2dVertex
 10
7.625
 20
12.16269999999997
 30
0.0
  0
VERTEX
  5
6F4
330
6F0
100
AcDbEntity
  8
0
100
AcDbVertex
100
AcDb2dVertex
 10
7.75
 20
11.66269999999997
 30
0.0
  0
VERTEX
  5
6F5
330
6F0
100
AcDbEntity
  8
0
100
AcDbVertex
100
AcDb2dVertex
 10
7.8125
 20
11.91269999999997
 30
0.0
  0
VERTEX
  5
6F6
330
6F0
100
AcDbEntity
  8
0
100
AcDbVertex
100
AcDb2dVertex
 10
12.00101028782873
 20
11.91269999999997
 30
0.0
  0
VERTEX
  5
6F7
330
6F0
100
AcDbEntity
  8
0
100
AcDbVertex
100
AcDb2dVertex
 10
12.06351028782873
 20
12.16269999999997
 30
0.0
  0
VERTEX
  5
6F8
330
6F0
100
AcDbEntity
  8
0
100
AcDbVertex
100
AcDb2dVertex
 10
12.18851028782873
 20
11.66269999999997
 30
0.0
  0
VERTEX
  5
6F9
330
6F0
100
AcDbEntity
  8
0
100
AcDbVertex
100
AcDb2dVertex
 10
12.25101028782873
 20
11.91269999999997
 30
0.0
  0
VERTEX
  5
6FA
330
6F0
100
AcDbEntity
  8
0
100
AcDbVertex
100
AcDb2dVertex
 10
15.125
 20
11.91269999999997
 30
0.0
  0
SEQEND
  5
6FB
330
6F0
100
AcDbEntity
  8
0
  0
ENDSEC
  0
SECTION
  2
OBJECTS
  0
DICTIONARY
  5
8
330
0
100
AcDbDictionary
281
     1
  3
ACAD_COLOR
350
30
  3
ACAD_GROUP
350
2C
  3
ACAD_LAYOUT
350
D
  3
ACAD_MATERIAL
350
2F
  3
ACAD_MLINESTYLE
350
2D
  3
ACAD_PLOTSETTINGS
350
2E
  3
ACAD_PLOTSTYLENAME
350
7
  3
ACDBHEADERROUNDTRIPXREC
350
EBB
  3
AcDbVariableDictionary
350
4A1
  3
AVAT_FILE_STORE
350
4A9
1001
ADE
1000
ADE02C004
1000
[Query]
1000
CaseSensitiveMatch=0
1000
SaveCurrQueryInSession=1
1000
MkSelSetWithQryObj=0
1000
ShowBlockAsInsPt=0
1000
CreateAssociativeHatchObjects=0
1000
ReferenceBoundaryForAreaLocation=1
1000
ShowImageAsBoundary=1
1000
DefaultJoinOperator=2
1000
ColorForAdd=red
1000
ColorForRemove=red
1000
BlockLocnForQuery=1
1000
TextLocnForQuery=1
1000
[Save Back]
1000
RedefineBlockDefinitions=1
1000
RedefineLayerDefinitions=1
1000
RedefineTextStyleDefinitions=1
1000
RemoveUnusedGroups=1
1000
EraseSavedBackObjects=1
1000
RemoveLockAfterSave=1
1000
CreateHistoryFileOfChanges=0
1000
CreateBackupFileOfSourceDwg=1
1000
DontAddObjectsToSaveSet=0
1000
MarkObjectsForEditingWithoutPrompting=0
1000
[Coordinate Transformation]
1000
RestoreLastActiveDwgsOnStartup=1
1000
ActivateDwgsOnAttach=1
1000
AdjustSizesAndScalesForChangesInUnits=1
1000
AdjustRotationsForMapDistortions=1
1000
AdjustSizesAndScalesForMapDistortions=1
1000
AdjustElevations=1
1000
AdjustZeroRotationObjects=1
1000
ReconnectDbOnWSOpen=1
1000
NoOfSQLConditionsInHistory=10
  0
DICTIONARY
  5
14
330
13
100
AcDbDictionary
280
     1
281
     1
  3
ACAD_LAYERFILTERS
360
15
  3
ACAD_LAYERSTATES
360
16
  0
DICTIONARY
  5
3
330
2
100
AcDbDictionary
280
     1
281
     1
  0
DICTIONARY
  5
F
330
E
100
AcDbDictionary
280
     1
281
     1
  0
DICTIONARY
  5
221
330
220
100
AcDbDictionary
280
     1
281
     1
  3
ACAD_SORTENTS
360
222
  0
DICTIONARY
  5
230
330
22F
100
AcDbDictionary
280
     1
281
     1
  3
ACAD_SORTENTS
360
231
  0
DICTIONARY
  5
2B4
330
2B3
100
AcDbDictionary
280
     1
281
     1
  3
ACAD_SORTENTS
360
2B5
  0
DICTIONARY
  5
33F
330
33E
100
AcDbDictionary
280
     1
281
     1
  3
ACAD_SORTENTS
360
340
  0
DICTIONARY
  5
308
330
307
100
AcDbDictionary
280
     1
281
     1
  3
ACAD_SORTENTS
360
309
  0
DICTIONARY
  5
274
330
273
100
AcDbDictionary
280
     1
281
     1
  3
ACAD_SORTENTS
360
275
  0
DICTIONARY
  5
2E1
330
2E0
100
AcDbDictionary
280
     1
281
     1
  3
ACAD_SORTENTS
360
2E2
  0
DICTIONARY
  5
20C
330
20B
100
AcDbDictionary
280
     1
281
     1
  3
ACAD_SORTENTS
360
20D
  0
DICTIONARY
  5
180
330
17F
100
AcDbDictionary
280
     1
281
     1
  3
ACAD_SORTENTS
360
DD8
  0
DICTIONARY
  5
280
330
27F
100
AcDbDictionary
280
     1
281
     1
  0
DICTIONARY
  5
E9
330
E8
100
AcDbDictionary
280
     1
281
     1
  3
ACAD_SORTENTS
360
CA3
  0
DICTIONARY
  5
35
330
34
100
AcDbDictionary
280
     1
281
     1
  3
ACAD_SORTENTS
360
B72
  0
DICTIONARY
  5
30
102
{ACAD_REACTORS
330
8
102
}
330
8
100
AcDbDictionary
281
     1
  0
DICTIONARY
  5
2C
102
{ACAD_REACTORS
330
8
102
}
330
8
100
AcDbDictionary
281
     1
  0
DICTIONARY
  5
D
102
{ACAD_REACTORS
330
8
102
}
330
8
100
AcDbDictionary
281
     1
  3
E(01)
350
12
  3
Model
350
C
  0
DICTIONARY
  5
2F
102
{ACAD_REACTORS
330
8
102
}
330
8
100
AcDbDictionary
281
     1
  0
DICTIONARY
  5
2D
102
{ACAD_REACTORS
330
8
102
}
330
8
100
AcDbDictionary
281
     1
  3
Standard
350
31
  0
DICTIONARY
  5
2E
102
{ACAD_REACTORS
330
8
102
}
330
8
100
AcDbDictionary
281
     1
  0
ACDBDICTIONARYWDFLT
  5
7
102
{ACAD_REACTORS
330
8
102
}
330
8
100
AcDbDictionary
281
     1
  3
Normal
350
6
100
AcDbDictionaryWithDefault
340
6
  0
DICTIONARY
  5
EBB
102
{ACAD_REACTORS
330
8
102
}
330
8
100
AcDbDictionary
281
     1
  3
COLORDICT
350
EBD
  3
MATERIALDICT
350
EBC
  0
DICTIONARY
  5
4A1
102
{ACAD_REACTORS
330
8
102
}
330
8
100
AcDbDictionary
281
     1
  3
DIMASSOC
350
4A3
  3
HIDETEXT
350
4A2
  3
PROJECTNAME
350
4A4
  0
DICTIONARY
  5
4A9
102
{ACAD_REACTORS
330
8
102
}
330
8
100
AcDbDictionary
281
     1
  0
DICTIONARY
  5
15
102
{ACAD_REACTORS
330
14
102
}
330
14
100
AcDbDictionary
281
     1
  0
DICTIONARY
  5
16
102
{ACAD_REACTORS
330
14
102
}
330
14
100
AcDbDictionary
281
     1
  0
SORTENTSTABLE
  5
222
102
{ACAD_REACTORS
330
221
102
}
330
221
100
AcDbSortentsTable
330
220
  0
SORTENTSTABLE
  5
231
102
{ACAD_REACTORS
330
230
102
}
330
230
100
AcDbSortentsTable
330
22F
  0
SORTENTSTABLE
  5
2B5
102
{ACAD_REACTORS
330
2B4
102
}
330
2B4
100
AcDbSortentsTable
330
2B3
  0
SORTENTSTABLE
  5
340
102
{ACAD_REACTORS
330
33F
102
}
330
33F
100
AcDbSortentsTable
330
33E
  0
SORTENTSTABLE
  5
309
102
{ACAD_REACTORS
330
308
102
}
330
308
100
AcDbSortentsTable
330
307
  0
SORTENTSTABLE
  5
275
102
{ACAD_REACTORS
330
274
102
}
330
274
100
AcDbSortentsTable
330
273
  0
SORTENTSTABLE
  5
2E2
102
{ACAD_REACTORS
330
2E1
102
}
330
2E1
100
AcDbSortentsTable
330
2E0
  0
SORTENTSTABLE
  5
20D
102
{ACAD_REACTORS
330
20C
102
}
330
20C
100
AcDbSortentsTable
330
20B
  0
SORTENTSTABLE
  5
DD8
102
{ACAD_REACTORS
330
180
102
}
330
180
100
AcDbSortentsTable
330
17F
  0
SORTENTSTABLE
  5
CA3
102
{ACAD_REACTORS
330
E9
102
}
330
E9
100
AcDbSortentsTable
330
E8
  0
SORTENTSTABLE
  5
B72
102
{ACAD_REACTORS
330
35
102
}
330
35
100
AcDbSortentsTable
330
34
  0
LAYOUT
  5
12
102
{ACAD_XDICTIONARY
360
EC0
102
}
102
{ACAD_REACTORS
330
D
102
}
330
D
100
AcDbPlotSettings
  1

  2
pdfFactory Pro
  4
Letter
  6

 40
7.143749713897705
 41
7.143756389617919
 42
7.14373779296875
 43
7.14373779296875
 44
215.8999938964844
 45
279.3999938964844
 46
2.254410674808918
 47
1.460709406948822
 48
0.0
 49
0.0
140
0.0
141
0.0
142
1.0
143
1.0
 70
   692
 72
     0
 73
     0
 74
     1
  7
PellaCAD 2000.ctb
 75
    16
147
1.0
148
-4.161233276140637
149
-3.62520463970219
100
AcDbLayout
  1
E(01)
 70
     1
 71
     1
 10
-0.2061782327781884
 20
-0.196033903813565
 11
8.293821526925919
 21
10.80396585589054
 12
0.0
 22
0.0
 32
0.0
 14
0.1638280817378204
 24
0.1427245921142595
 34
0.0
 15
7.923815681737822
 25
10.46520809211426
 35
0.0
146
0.0
 13
0.0
 23
0.0
 33
0.0
 16
1.0
 26
0.0
 36
0.0
 17
0.0
 27
1.0
 37
0.0
 76
     0
330
E
  0
LAYOUT
  5
C
102
{ACAD_XDICTIONARY
360
EBE
102
}
102
{ACAD_REACTORS
330
D
102
}
330
D
100
AcDbPlotSettings
  1

  2
pdfFactory Pro
  4
Letter
  6

 40
7.143749713897705
 41
7.143756389617919
 42
7.14373779296875
 43
7.14373779296875
 44
215.8999938964844
 45
279.3999938964844
 46
-2280.661755644982
 47
-972.9365809481938
 48
0.0
 49
0.0
140
0.0
141
0.0
142
1.0
143
1.0
 70
 11956
 72
     0
 73
     0
 74
     1
  7
PellaCAD 2000.ctb
 75
    16
147
1.0
148
0.290662189607724
149
0.1349252068787507
100
AcDbLayout
  1
Model
 70
     1
 71
     0
 10
0.0
 20
0.0
 11
12.0
 21
9.0
 12
0.0
 22
0.0
 32
0.0
 14
0.0
 24
0.0
 34
0.0
 15
0.0
 25
0.0
 35
0.0
146
0.0
 13
0.0
 23
0.0
 33
0.0
 16
1.0
 26
0.0
 36
0.0
 17
0.0
 27
1.0
 37
0.0
 76
     0
330
2
  0
MLINESTYLE
  5
31
102
{ACAD_REACTORS
330
2D
102
}
330
2D
100
AcDbMlineStyle
  2
STANDARD
 70
     0
  3

 62
   256
 51
90.0
 52
90.0
 71
     2
 49
0.5
 62
   256
  6
BYLAYER
 49
-0.5
 62
   256
  6
BYLAYER
  0
ACDBPLACEHOLDER
  5
6
102
{ACAD_REACTORS
330
7
102
}
330
7
  0
XRECORD
  5
EBD
102
{ACAD_REACTORS
330
EBB
102
}
330
EBB
100
AcDbXrecord
280
     1
340
30
  0
XRECORD
  5
EBC
102
{ACAD_REACTORS
330
EBB
102
}
330
EBB
100
AcDbXrecord
280
     1
340
2F
  0
DICTIONARYVAR
  5
4A3
102
{ACAD_REACTORS
330
4A1
102
}
330
4A1
100
DictionaryVariables
280
     0
  1
2
  0
DICTIONARYVAR
  5
4A2
102
{ACAD_REACTORS
330
4A1
102
}
330
4A1
100
DictionaryVariables
280
     0
  1
1
  0
DICTIONARYVAR
  5
4A4
102
{ACAD_REACTORS
330
4A1
102
}
330
4A1
100
DictionaryVariables
280
     0
  1

  0
DICTIONARY
  5
EC0
330
12
100
AcDbDictionary
280
     1
281
     1
  3
ACAD_XREC_ROUNDTRIP
360
EC1
  0
DICTIONARY
  5
EBE
330
C
100
AcDbDictionary
280
     1
281
     1
  3
ACAD_XREC_ROUNDTRIP
360
EBF
  0
XRECORD
  5
EC1
102
{ACAD_REACTORS
330
EC0
102
}
330
EC0
100
AcDbXrecord
280
     1
102
SHADEPLOT
 70
     1
102
SHADEPLOTRESLEVEL
 70
     2
102
SHADEPLOTCUSTOMDPI
 70
   300
  0
XRECORD
  5
EBF
102
{ACAD_REACTORS
330
EBE
102
}
330
EBE
100
AcDbXrecord
280
     1
102
SHADEPLOT
 70
     0
102
SHADEPLOTRESLEVEL
 70
     2
102
SHADEPLOTCUSTOMDPI
 70
   300
  0
ENDSEC
  0
EOF
