  0
SECTION
  2
HEADER
  9
$ACADVER
  1
AC1015
  9
$ACADMAINTVER
 70
    18
  9
$DWGCODEPAGE
  3
ANSI_1252
  9
$INSBASE
 10
0.0
 20
0.0
 30
0.0
  9
$EXTMIN
 10
3.72238551385513
 20
5.938185585076041
 30
-0.0015258207003583
  9
$EXTMAX
 10
40.36219034508358
 20
47.44002828805418
 30
0.0000000349246037
  9
$LIMMIN
 10
0.0
 20
0.0
  9
$LIMMAX
 10
12.0
 20
9.0
  9
$ORTHOMODE
 70
     0
  9
$REGENMODE
 70
     1
  9
$FILLMODE
 70
     1
  9
$QTEXTMODE
 70
     0
  9
$MIRRTEXT
 70
     0
  9
$LTSCALE
 40
0.5
  9
$ATTMODE
 70
     1
  9
$TEXTSIZE
 40
1.0
  9
$TRACEWID
 40
0.05
  9
$TEXTSTYLE
  7
ARCHQUIK
  9
$CLAYER
  8
0
  9
$CELTYPE
  6
ByLayer
  9
$CECOLOR
 62
   256
  9
$CELTSCALE
 40
1.0
  9
$DISPSILH
 70
     0
  9
$DIMSCALE
 40
1.0
  9
$DIMASZ
 40
0.0833333333333333
  9
$DIMEXO
 40
0.0625
  9
$DIMDLI
 40
0.0625
  9
$DIMRND
 40
0.0
  9
$DIMDLE
 40
0.0
  9
$DIMEXE
 40
0.0625
  9
$DIMTP
 40
0.0
  9
$DIMTM
 40
0.0
  9
$DIMTXT
 40
0.08
  9
$DIMCEN
 40
0.09
  9
$DIMTSZ
 40
0.0
  9
$DIMTOL
 70
     0
  9
$DIMLIM
 70
     0
  9
$DIMTIH
 70
     0
  9
$DIMTOH
 70
     0
  9
$DIMSE1
 70
     0
  9
$DIMSE2
 70
     0
  9
$DIMTAD
 70
     1
  9
$DIMZIN
 70
     2
  9
$DIMBLK
  1

  9
$DIMASO
 70
     1
  9
$DIMSHO
 70
     1
  9
$DIMPOST
  1

  9
$DIMAPOST
  1

  9
$DIMALT
 70
     0
  9
$DIMALTD
 70
     2
  9
$DIMALTF
 40
25.4
  9
$DIMLFAC
 40
1.0
  9
$DIMTOFL
 70
     0
  9
$DIMTVP
 40
0.0
  9
$DIMTIX
 70
     0
  9
$DIMSOXD
 70
     0
  9
$DIMSAH
 70
     0
  9
$DIMBLK1
  1

  9
$DIMBLK2
  1

  9
$DIMSTYLE
  2
Standard
  9
$DIMCLRD
 70
     0
  9
$DIMCLRE
 70
     0
  9
$DIMCLRT
 70
     7
  9
$DIMTFAC
 40
0.75
  9
$DIMGAP
 40
0.0625
  9
$DIMJUST
 70
     0
  9
$DIMSD1
 70
     0
  9
$DIMSD2
 70
     0
  9
$DIMTOLJ
 70
     1
  9
$DIMTZIN
 70
     0
  9
$DIMALTZ
 70
     0
  9
$DIMALTTZ
 70
     0
  9
$DIMUPT
 70
     0
  9
$DIMDEC
 70
     4
  9
$DIMTDEC
 70
     4
  9
$DIMALTU
 70
     2
  9
$DIMALTTD
 70
     2
  9
$DIMTXSTY
  7
Standard
  9
$DIMAUNIT
 70
     0
  9
$DIMADEC
 70
     3
  9
$DIMALTRND
 40
0.0
  9
$DIMAZIN
 70
     0
  9
$DIMDSEP
 70
    46
  9
$DIMATFIT
 70
     3
  9
$DIMFRAC
 70
     1
  9
$DIMLDRBLK
  1

  9
$DIMLUNIT
 70
     5
  9
$DIMLWD
 70
    -2
  9
$DIMLWE
 70
    -2
  9
$DIMTMOVE
 70
     0
  9
$LUNITS
 70
     2
  9
$LUPREC
 70
     8
  9
$SKETCHINC
 40
0.1
  9
$FILLETRAD
 40
0.0
  9
$AUNITS
 70
     0
  9
$AUPREC
 70
     3
  9
$MENU
  1
.
  9
$ELEVATION
 40
0.0
  9
$PELEVATION
 40
0.0
  9
$THICKNESS
 40
0.0
  9
$LIMCHECK
 70
     0
  9
$CHAMFERA
 40
0.5
  9
$CHAMFERB
 40
0.5
  9
$CHAMFERC
 40
1.0
  9
$CHAMFERD
 40
0.0
  9
$SKPOLY
 70
     0
  9
$TDCREATE
 40
2453542.509251852
  9
$TDUCREATE
 40
2453542.759251852
  9
$TDUPDATE
 40
2454074.713938275
  9
$TDUUPDATE
 40
2454074.963938276
  9
$TDINDWG
 40
0.2442512731
  9
$TDUSRTIMER
 40
0.2442510880
  9
$USRTIMER
 70
     1
  9
$ANGBASE
 50
0.0
  9
$ANGDIR
 70
     0
  9
$PDMODE
 70
    33
  9
$PDSIZE
 40
0.016
  9
$PLINEWID
 40
0.0
  9
$SPLFRAME
 70
     0
  9
$SPLINETYPE
 70
     6
  9
$SPLINESEGS
 70
     8
  9
$HANDSEED
  5
11991
  9
$SURFTAB1
 70
     6
  9
$SURFTAB2
 70
     6
  9
$SURFTYPE
 70
     6
  9
$SURFU
 70
     6
  9
$SURFV
 70
     6
  9
$UCSBASE
  2

  9
$UCSNAME
  2

  9
$UCSORG
 10
0.0
 20
0.0
 30
0.0
  9
$UCSXDIR
 10
1.0
 20
0.0
 30
0.0
  9
$UCSYDIR
 10
0.0
 20
1.0
 30
0.0
  9
$UCSORTHOREF
  2

  9
$UCSORTHOVIEW
 70
     0
  9
$UCSORGTOP
 10
0.0
 20
0.0
 30
0.0
  9
$UCSORGBOTTOM
 10
0.0
 20
0.0
 30
0.0
  9
$UCSORGLEFT
 10
0.0
 20
0.0
 30
0.0
  9
$UCSORGRIGHT
 10
0.0
 20
0.0
 30
0.0
  9
$UCSORGFRONT
 10
0.0
 20
0.0
 30
0.0
  9
$UCSORGBACK
 10
0.0
 20
0.0
 30
0.0
  9
$PUCSBASE
  2

  9
$PUCSNAME
  2

  9
$PUCSORG
 10
0.0
 20
0.0
 30
0.0
  9
$PUCSXDIR
 10
1.0
 20
0.0
 30
0.0
  9
$PUCSYDIR
 10
0.0
 20
1.0
 30
0.0
  9
$PUCSORTHOREF
  2

  9
$PUCSORTHOVIEW
 70
     0
  9
$PUCSORGTOP
 10
0.0
 20
0.0
 30
0.0
  9
$PUCSORGBOTTOM
 10
0.0
 20
0.0
 30
0.0
  9
$PUCSORGLEFT
 10
0.0
 20
0.0
 30
0.0
  9
$PUCSORGRIGHT
 10
0.0
 20
0.0
 30
0.0
  9
$PUCSORGFRONT
 10
0.0
 20
0.0
 30
0.0
  9
$PUCSORGBACK
 10
0.0
 20
0.0
 30
0.0
  9
$USERI1
 70
     0
  9
$USERI2
 70
     0
  9
$USERI3
 70
     0
  9
$USERI4
 70
     0
  9
$USERI5
 70
     0
  9
$USERR1
 40
1.0
  9
$USERR2
 40
0.0
  9
$USERR3
 40
22.0
  9
$USERR4
 40
0.0
  9
$USERR5
 40
0.0
  9
$WORLDVIEW
 70
     1
  9
$SHADEDGE
 70
     3
  9
$SHADEDIF
 70
    70
  9
$TILEMODE
 70
     1
  9
$MAXACTVP
 70
    64
  9
$PINSBASE
 10
0.0
 20
0.0
 30
0.0
  9
$PLIMCHECK
 70
     0
  9
$PEXTMIN
 10
0.0045044512824113
 20
0.0025467006634372
 30
0.0
  9
$PEXTMAX
 10
7.932995314148659
 20
10.43495255003633
 30
0.0
  9
$PLIMMIN
 10
-0.2812499887361301
 20
-0.2812502515597606
  9
$PLIMMAX
 10
8.218749770967978
 20
10.71874950814434
  9
$UNITMODE
 70
     0
  9
$VISRETAIN
 70
     1
  9
$PLINEGEN
 70
     0
  9
$PSLTSCALE
 70
     1
  9
$TREEDEPTH
 70
  3020
  9
$CMLSTYLE
  2
Standard
  9
$CMLJUST
 70
     0
  9
$CMLSCALE
 40
1.0
  9
$PROXYGRAPHICS
 70
     1
  9
$MEASUREMENT
 70
     0
  9
$CELWEIGHT
370
    -1
  9
$ENDCAPS
280
     0
  9
$JOINSTYLE
280
     0
  9
$LWDISPLAY
290
     0
  9
$INSUNITS
 70
     1
  9
$HYPERLINKBASE
  1

  9
$STYLESHEET
  1

  9
$XEDIT
290
     1
  9
$CEPSNTYPE
380
     0
  9
$PSTYLEMODE
290
     1
  9
$FINGERPRINTGUID
  2
{FDEAD576-A652-11D2-9A35-0060089B3A3F}
  9
$VERSIONGUID
  2
{AE39D3C8-1DB0-4096-BF45-EDEFEEEB2E20}
  9
$EXTNAMES
290
     1
  9
$PSVPSCALE
 40
0.0
  9
$OLESTARTUP
290
     0
  0
ENDSEC
  0
SECTION
  2
CLASSES
  0
CLASS
  1
ACDBDICTIONARYWDFLT
  2
AcDbDictionaryWithDefault
  3
ObjectDBX Classes
 90
        0
280
     0
281
     0
  0
CLASS
  1
ACDBPLACEHOLDER
  2
AcDbPlaceHolder
  3
ObjectDBX Classes
 90
        0
280
     0
281
     0
  0
CLASS
  1
LAYOUT
  2
AcDbLayout
  3
ObjectDBX Classes
 90
        0
280
     0
281
     0
  0
CLASS
  1
PLOTSETTINGS
  2
AcDbPlotSettings
  3
ObjectDBX Classes
 90
        0
280
     0
281
     0
  0
CLASS
  1
AMLOADER
  2
AMLoader
  3
AMAcad
 90
        0
280
     0
281
     0
  0
CLASS
  1
DICTIONARYVAR
  2
AcDbDictionaryVar
  3
ObjectDBX Classes
 90
        0
280
     0
281
     0
  0
CLASS
  1
SORTENTSTABLE
  2
AcDbSortentsTable
  3
ObjectDBX Classes
 90
        0
280
     0
281
     0
  0
CLASS
  1
DIMASSOC
  2
AcDbDimAssoc
  3
"AcDbDimAssoc|Product Desc:     AcDim ARX App For Dimension|Company:          Autodesk, Inc.|WEB Address:      www.autodesk.com"
 90
        0
280
     0
281
     0
  0
ENDSEC
  0
SECTION
  2
TABLES
  0
TABLE
  2
VPORT
  5
8
330
0
100
AcDbSymbolTable
 70
     3
  0
VPORT
  5
11979
330
8
100
AcDbSymbolTableRecord
100
AcDbViewportTableRecord
  2
*Active
 70
     0
 10
0.0
 20
0.0
 11
1.0
 21
1.0
 12
22.04228792946936
 22
26.68910693656511
 13
0.0
 23
0.0
 14
0.0625
 24
0.0625
 15
0.5
 25
0.5
 16
0.0
 26
0.0
 36
1.0
 17
0.0
 27
0.0
 37
0.0
 40
41.8406332556555
 41
1.491825613079019
 42
50.0
 43
0.0
 44
0.0
 50
0.0
 51
0.0
 71
     0
 72
  5000
 73
     1
 74
     0
 75
     0
 76
     0
 77
     0
 78
     0
281
     0
 65
     1
110
0.0
120
0.0
130
0.0
111
1.0
121
0.0
131
0.0
112
0.0
122
1.0
132
0.0
 79
     0
146
0.0
  0
ENDTAB
  0
TABLE
  2
LTYPE
  5
5
330
0
100
AcDbSymbolTable
 70
     1
  0
LTYPE
  5
14
330
5
100
AcDbSymbolTableRecord
100
AcDbLinetypeTableRecord
  2
ByBlock
 70
     0
  3

 72
    65
 73
     0
 40
0.0
  0
LTYPE
  5
15
330
5
100
AcDbSymbolTableRecord
100
AcDbLinetypeTableRecord
  2
ByLayer
 70
     0
  3

 72
    65
 73
     0
 40
0.0
  0
LTYPE
  5
16
330
5
100
AcDbSymbolTableRecord
100
AcDbLinetypeTableRecord
  2
Continuous
 70
     0
  3
Solid line
 72
    65
 73
     0
 40
0.0
  0
ENDTAB
  0
TABLE
  2
LAYER
  5
2
102
{ACAD_XDICTIONARY
360
10CE2
102
}
330
0
100
AcDbSymbolTable
 70
    10
  0
LAYER
  5
10
330
2
100
AcDbSymbolTableRecord
100
AcDbLayerTableRecord
  2
0
 70
     0
 62
     7
  6
Continuous
370
    -3
390
F
  0
LAYER
  5
AD
330
2
100
AcDbSymbolTableRecord
100
AcDbLayerTableRecord
  2
Pel_PEL
 70
     0
 62
     7
  6
Continuous
370
    -3
390
F
  0
LAYER
  5
10E8F
330
2
100
AcDbSymbolTableRecord
100
AcDbLayerTableRecord
  2
Pel_Hatch
 70
     0
 62
     7
  6
Continuous
370
    -3
390
F
  0
LAYER
  5
10E93
330
2
100
AcDbSymbolTableRecord
100
AcDbLayerTableRecord
  2
Pel_CS-Sealant
 70
     0
 62
    40
  6
Continuous
370
    -3
390
F
  0
LAYER
  5
10E94
330
2
100
AcDbSymbolTableRecord
100
AcDbLayerTableRecord
  2
Pel_CS-Cross Section
 70
     0
 62
     7
  6
Continuous
370
    -3
390
F
  0
LAYER
  5
10E95
330
2
100
AcDbSymbolTableRecord
100
AcDbLayerTableRecord
  2
Pel_Clad
 70
     0
 62
    63
  6
Continuous
370
    -3
390
F
  0
LAYER
  5
117A1
330
2
100
AcDbSymbolTableRecord
100
AcDbLayerTableRecord
  2
Defpoints
 70
     0
 62
     7
  6
Continuous
290
     0
370
    -3
390
F
  0
ENDTAB
  0
TABLE
  2
STYLE
  5
3
330
0
100
AcDbSymbolTable
 70
     3
  0
STYLE
  5
11
330
3
100
AcDbSymbolTableRecord
100
AcDbTextStyleTableRecord
  2
Standard
 70
     0
 40
0.0
 41
1.0
 50
0.0
 71
     0
 42
0.2
  3
ARIAL.TTF
  4

1001
ACAD
1000
Arial
1071
       34
  0
STYLE
  5
CB
330
3
100
AcDbSymbolTableRecord
100
AcDbTextStyleTableRecord
  2
ARCHQUIK
 70
     0
 40
0.0
 41
1.0
 50
0.0
 71
     0
 42
1.0
  3
archquik.shx
  4

  0
STYLE
  5
CC4C
330
3
100
AcDbSymbolTableRecord
100
AcDbTextStyleTableRecord
  2
Arial
 70
     0
 40
0.0
 41
1.0
 50
0.0
 71
     0
 42
0.2
  3
ARIAL.TTF
  4

1001
ACAD
1000
Arial
1071
       34
  0
ENDTAB
  0
TABLE
  2
VIEW
  5
6
330
0
100
AcDbSymbolTable
 70
     1
  0
VIEW
  5
D380
330
6
100
AcDbSymbolTableRecord
100
AcDbViewTableRecord
  2
org
 70
     0
 40
27.15590980939017
 10
6.083222462400622
 20
8.786030387711486
 41
41.12824514700171
 11
0.0
 21
0.0
 31
1.0
 12
0.0
 22
0.0
 32
0.0
 42
50.0
 43
0.0
 44
0.0
 50
0.0
 71
     0
281
     0
 72
     1
110
0.0
120
0.0
130
0.0
111
1.0
121
0.0
131
0.0
112
0.0
122
1.0
132
0.0
 79
     0
146
0.0
  0
ENDTAB
  0
TABLE
  2
UCS
  5
7
330
0
100
AcDbSymbolTable
 70
     0
  0
ENDTAB
  0
TABLE
  2
APPID
  5
9
330
0
100
AcDbSymbolTable
 70
    14
  0
APPID
  5
12
330
9
100
AcDbSymbolTableRecord
100
AcDbRegAppTableRecord
  2
ACAD
 70
     0
  0
APPID
  5
1B8
330
9
100
AcDbSymbolTableRecord
100
AcDbRegAppTableRecord
  2
AMAcad
 70
     0
  0
APPID
  5
FBF
330
9
100
AcDbSymbolTableRecord
100
AcDbRegAppTableRecord
  2
ADE
 70
     0
  0
APPID
  5
1010
330
9
100
AcDbSymbolTableRecord
100
AcDbRegAppTableRecord
  2
DCO15
 70
     0
  0
APPID
  5
2B00
330
9
100
AcDbSymbolTableRecord
100
AcDbRegAppTableRecord
  2
ADCADD_ZZ
 70
     0
  0
APPID
  5
2B01
330
9
100
AcDbSymbolTableRecord
100
AcDbRegAppTableRecord
  2
SDSK_PMN
 70
     0
  0
APPID
  5
D27F
330
9
100
AcDbSymbolTableRecord
100
AcDbRegAppTableRecord
  2
GENIUS_GENODEF_13
 70
     0
  0
APPID
  5
D280
330
9
100
AcDbSymbolTableRecord
100
AcDbRegAppTableRecord
  2
GENIUS_GENOBJ-N-FIL_13
 70
     0
  0
APPID
  5
D281
330
9
100
AcDbSymbolTableRecord
100
AcDbRegAppTableRecord
  2
GENIUS_GENDTOL_13
 70
     0
  0
APPID
  5
D282
330
9
100
AcDbSymbolTableRecord
100
AcDbRegAppTableRecord
  2
AVE_RENDER
 70
     0
  0
APPID
  5
D283
330
9
100
AcDbSymbolTableRecord
100
AcDbRegAppTableRecord
  2
AVE_ENTITY_MATERIAL
 70
     0
  0
APPID
  5
D284
330
9
100
AcDbSymbolTableRecord
100
AcDbRegAppTableRecord
  2
AVE_FINISH
 70
     0
  0
APPID
  5
D285
330
9
100
AcDbSymbolTableRecord
100
AcDbRegAppTableRecord
  2
AVE_MATERIAL
 70
     0
  0
APPID
  5
D286
330
9
100
AcDbSymbolTableRecord
100
AcDbRegAppTableRecord
  2
AVE_GLOBAL
 70
     0
  0
ENDTAB
  0
TABLE
  2
DIMSTYLE
  5
A
330
0
100
AcDbSymbolTable
 70
     2
100
AcDbDimStyleTable
 71
     2
340
11614
340
EC0B
  0
DIMSTYLE
105
EC0B
102
{ACAD_REACTORS
330
101FB
330
10172
330
10141
330
1011D
330
FE6F
330
FE3C
330
FD32
330
FD0E
330
FCDE
330
FCAF
330
FBF6
330
FBA7
330
F78A
330
F763
330
F72C
330
F708
330
F69A
330
F653
330
1051D
330
10537
330
1055B
330
10593
330
10609
330
1062D
102
}
330
A
100
AcDbSymbolTableRecord
100
AcDbDimStyleTableRecord
  2
Scale 6
 70
     0
  3
"\X
 41
0.4375
 42
0.5
 43
0.2
 44
0.125
 73
     0
 74
     0
 77
     1
 78
    10
140
0.375
146
0.75
147
0.1
170
     1
171
     0
176
   256
177
   256
178
   255
179
     3
274
     0
276
     2
277
     5
279
     2
340
CC4C
371
    -1
372
    -1
  0
DIMSTYLE
105
11614
330
A
100
AcDbSymbolTableRecord
100
AcDbDimStyleTableRecord
  2
Standard
 70
     0
 41
0.125
 43
0.0625
 44
0.0625
 73
     0
 74
     0
 77
     1
 78
     2
140
0.09375
146
0.75
147
0.0625
178
     7
179
     3
276
     1
277
     5
279
     2
340
11
  0
ENDTAB
  0
TABLE
  2
BLOCK_RECORD
  5
1
330
0
100
AcDbSymbolTable
 70
    47
  0
BLOCK_RECORD
  5
1F
102
{ACAD_XDICTIONARY
360
D9A1
102
}
330
1
100
AcDbSymbolTableRecord
100
AcDbBlockTableRecord
  2
*Model_Space
340
22
  0
BLOCK_RECORD
  5
CBD2
330
1
100
AcDbSymbolTableRecord
100
AcDbBlockTableRecord
  2
*Paper_Space
340
CBD3
  0
BLOCK_RECORD
  5
E18A
330
1
100
AcDbSymbolTableRecord
100
AcDbBlockTableRecord
  2
7363ISO
340
0
102
{BLKREFS
331
EAFA
102
}
  0
BLOCK_RECORD
  5
E1D7
102
{ACAD_XDICTIONARY
360
F3B5
102
}
330
1
100
AcDbSymbolTableRecord
100
AcDbBlockTableRecord
  2
5087
340
0
102
{BLKREFS
331
EAF9
102
}
  0
BLOCK_RECORD
  5
E2B9
102
{ACAD_XDICTIONARY
360
F1F3
102
}
330
1
100
AcDbSymbolTableRecord
100
AcDbBlockTableRecord
  2
5072ISO
340
0
102
{BLKREFS
331
EAF8
102
}
  0
BLOCK_RECORD
  5
E3B4
102
{ACAD_XDICTIONARY
360
11445
102
}
330
1
100
AcDbSymbolTableRecord
100
AcDbBlockTableRecord
  2
ACC47D7
340
0
102
{BLKREFS
331
E958
102
}
  0
BLOCK_RECORD
  5
E3CF
102
{ACAD_XDICTIONARY
360
10990
102
}
330
1
100
AcDbSymbolTableRecord
100
AcDbBlockTableRecord
  2
ACC1918
340
0
102
{BLKREFS
331
E957
102
}
  0
BLOCK_RECORD
  5
EC59
102
{ACAD_XDICTIONARY
360
ED02
102
}
330
1
100
AcDbSymbolTableRecord
100
AcDbBlockTableRecord
  2
7355
340
0
102
{BLKREFS
331
EC84
102
}
  0
BLOCK_RECORD
  5
EF8C
102
{ACAD_XDICTIONARY
360
10776
102
}
330
1
100
AcDbSymbolTableRecord
100
AcDbBlockTableRecord
  2
0DA9
340
0
310
2800000020000000200000000100080000000000000400000000000000000000000000000000000000000000000080000080000000808000800000008000800080800000C0C0C000C0DCC000F0CAA6000020400000206000002080000020A0000020C0000020E00000400000004020000040400000406000004080000040A0
310
000040C0000040E00000600000006020000060400000606000006080000060A0000060C0000060E00000800000008020000080400000806000008080000080A0000080C0000080E00000A0000000A0200000A0400000A0600000A0800000A0A00000A0C00000A0E00000C0000000C0200000C0400000C0600000C0800000C0
310
A00000C0C00000C0E00000E0000000E0200000E0400000E0600000E0800000E0A00000E0C00000E0E00040000000400020004000400040006000400080004000A0004000C0004000E00040200000402020004020400040206000402080004020A0004020C0004020E000404000004040200040404000404060004040800040
310
40A0004040C0004040E00040600000406020004060400040606000406080004060A0004060C0004060E00040800000408020004080400040806000408080004080A0004080C0004080E00040A0000040A0200040A0400040A0600040A0800040A0A00040A0C00040A0E00040C0000040C0200040C0400040C0600040C08000
310
40C0A00040C0C00040C0E00040E0000040E0200040E0400040E0600040E0800040E0A00040E0C00040E0E00080000000800020008000400080006000800080008000A0008000C0008000E00080200000802020008020400080206000802080008020A0008020C0008020E00080400000804020008040400080406000804080
310
008040A0008040C0008040E00080600000806020008060400080606000806080008060A0008060C0008060E00080800000808020008080400080806000808080008080A0008080C0008080E00080A0000080A0200080A0400080A0600080A0800080A0A00080A0C00080A0E00080C0000080C0200080C0400080C0600080C0
310
800080C0A00080C0C00080C0E00080E0000080E0200080E0400080E0600080E0800080E0A00080E0C00080E0E000C0000000C0002000C0004000C0006000C0008000C000A000C000C000C000E000C0200000C0202000C0204000C0206000C0208000C020A000C020C000C020E000C0400000C0402000C0404000C0406000C0
310
408000C040A000C040C000C040E000C0600000C0602000C0604000C0606000C0608000C060A000C060C000C060E000C0800000C0802000C0804000C0806000C0808000C080A000C080C000C080E000C0A00000C0A02000C0A04000C0A06000C0A08000C0A0A000C0A0C000C0A0E000C0C00000C0C02000C0C04000C0C06000
310
C0C08000C0C0A000F0FBFF00A4A0A000808080000000FF0000FF000000FFFF00FF000000FF00FF00FFFF0000FFFFFF0000000000000000000000000000000000000000000000000000000000000000000000000000000000000000000000000000000000000000000000000000000000000000000000000000000000000000
310
00000000000000000000000000000000000000000000000000000000000000000000000000000000000000000000000000000000000000000000000000000000000000000000000000000000000000000000000000000000000000000000000000000000000000000000000000000000000000000000000000000000000000
310
00000000000000000000000000000000000000000000000000000000000000000000000000000000000000000000000000000000000000000000000000000000000000000000000000000000000000000000000000000000000000000000000000000000000000000000000000000000000000000000000000000000000000
310
00000000A4A4A4A4A400000000000000000000000000000000000000000000000000A4A40000A400A4A400000000000000000000000000A4000000A40000000000A40000A4A400A400A4000000000000000000000000A400A400A400A400000000A4A4A400000000A400A4A400000000000000000000A4A40000A4A4000000
310
00A4A4000000000000A40000A4000000000000000000A4A4A4A4A4A4A4A4A4A4A400A400000000000000A400A4000000000000000000A4A4A4A4A4A4A4A4A4A4A400A40000000000000000A4A400000000000000000000A4A40000A4A400000000A400A4000000000000A400A400000000000000000000A400A400A400A400
310
000000A400A4A4000000A400A4A40000000000000000000000A4000000A40000000000A4000000A400A400A4000000000000000000000000000000000000000000000000A4A40000A40000A40000000000000000000000000000000000000000000000000000A4A4A4A4A40000000000000000000000000000000000000000
310
00000000000000000000000000000000000000000000000000000000000000000000000000000000000000000000000000000000000000000000000000000000000000000000000000000000000000000000000000000000000000000000000000000000000000000000000000000000000000000000000000000000000000
310
00000000000000000000000000000000000000000000000000000000000000000000000000000000000000000000000000000000000000000000000000000000000000000000000000000000000000000000000000000000000000000000000000000000000000000000000000000000000000000000000000000000000000
310
0000000000000000000000000000000000000000000000000000000000000000000000000000000000000000000000000000000000000000
102
{BLKREFS
331
EFEB
102
}
1001
ACAD
1000
DesignCenter Data
1002
{
1070
     1
1070
     1
1002
}
  0
BLOCK_RECORD
  5
EFEC
102
{ACAD_XDICTIONARY
360
EFF6
102
}
330
1
100
AcDbSymbolTableRecord
100
AcDbBlockTableRecord
  2
72F6
340
0
102
{BLKREFS
331
EFF0
102
}
  0
BLOCK_RECORD
  5
EFF8
102
{ACAD_XDICTIONARY
360
F001
102
}
330
1
100
AcDbSymbolTableRecord
100
AcDbBlockTableRecord
  2
72AM
340
0
102
{BLKREFS
331
EFFC
102
}
  0
BLOCK_RECORD
  5
F3B7
102
{ACAD_XDICTIONARY
360
F435
102
}
330
1
100
AcDbSymbolTableRecord
100
AcDbBlockTableRecord
  2
7357
340
0
102
{BLKREFS
331
F3E2
102
}
  0
BLOCK_RECORD
  5
F4B5
102
{ACAD_XDICTIONARY
360
F4BE
102
}
330
1
100
AcDbSymbolTableRecord
100
AcDbBlockTableRecord
  2
73H9
340
0
102
{BLKREFS
331
F4B9
102
}
  0
BLOCK_RECORD
  5
F4C0
102
{ACAD_XDICTIONARY
360
F530
102
}
330
1
100
AcDbSymbolTableRecord
100
AcDbBlockTableRecord
  2
7360
340
0
102
{BLKREFS
331
F4DC
102
}
  0
BLOCK_RECORD
  5
F532
102
{ACAD_XDICTIONARY
360
F53B
102
}
330
1
100
AcDbSymbolTableRecord
100
AcDbBlockTableRecord
  2
73H8
340
0
102
{BLKREFS
331
F536
102
}
  0
BLOCK_RECORD
  5
F654
330
1
100
AcDbSymbolTableRecord
100
AcDbBlockTableRecord
  2
*D13
340
0
  0
BLOCK_RECORD
  5
F69B
330
1
100
AcDbSymbolTableRecord
100
AcDbBlockTableRecord
  2
*D14
340
0
  0
BLOCK_RECORD
  5
F709
330
1
100
AcDbSymbolTableRecord
100
AcDbBlockTableRecord
  2
*D15
340
0
  0
BLOCK_RECORD
  5
F72D
330
1
100
AcDbSymbolTableRecord
100
AcDbBlockTableRecord
  2
*D16
340
0
  0
BLOCK_RECORD
  5
F764
330
1
100
AcDbSymbolTableRecord
100
AcDbBlockTableRecord
  2
*D17
340
0
  0
BLOCK_RECORD
  5
F78B
330
1
100
AcDbSymbolTableRecord
100
AcDbBlockTableRecord
  2
*D18
340
0
  0
BLOCK_RECORD
  5
F7B0
102
{ACAD_XDICTIONARY
360
F86C
102
}
330
1
100
AcDbSymbolTableRecord
100
AcDbBlockTableRecord
  2
72D6 Traditional
340
0
102
{BLKREFS
331
F7E9
102
}
  0
BLOCK_RECORD
  5
F7EA
102
{ACAD_XDICTIONARY
360
F890
102
}
330
1
100
AcDbSymbolTableRecord
100
AcDbBlockTableRecord
  2
72D4 Flat Head
340
0
102
{BLKREFS
331
F7FD
102
}
  0
BLOCK_RECORD
  5
F893
102
{ACAD_XDICTIONARY
360
F90B
102
}
330
1
100
AcDbSymbolTableRecord
100
AcDbBlockTableRecord
  2
72D5Flat Jamb
340
0
102
{BLKREFS
331
F8BC
102
}
  0
BLOCK_RECORD
  5
F96B
102
{ACAD_XDICTIONARY
360
FA6D
102
}
330
1
100
AcDbSymbolTableRecord
100
AcDbBlockTableRecord
  2
7SB7+Clip
340
0
102
{BLKREFS
331
F9C2
102
}
  0
BLOCK_RECORD
  5
FB1B
102
{ACAD_XDICTIONARY
360
111D1
102
}
330
1
100
AcDbSymbolTableRecord
100
AcDbBlockTableRecord
  2
72D8 Sill Nose
340
0
102
{BLKREFS
331
FB32
102
}
  0
BLOCK_RECORD
  5
FBA8
330
1
100
AcDbSymbolTableRecord
100
AcDbBlockTableRecord
  2
*D24
340
0
  0
BLOCK_RECORD
  5
FBF7
330
1
100
AcDbSymbolTableRecord
100
AcDbBlockTableRecord
  2
*D25
340
0
  0
BLOCK_RECORD
  5
FCB0
330
1
100
AcDbSymbolTableRecord
100
AcDbBlockTableRecord
  2
*D26
340
0
  0
BLOCK_RECORD
  5
FCDF
330
1
100
AcDbSymbolTableRecord
100
AcDbBlockTableRecord
  2
*D27
340
0
  0
BLOCK_RECORD
  5
FD0F
330
1
100
AcDbSymbolTableRecord
100
AcDbBlockTableRecord
  2
*D28
340
0
  0
BLOCK_RECORD
  5
FD33
330
1
100
AcDbSymbolTableRecord
100
AcDbBlockTableRecord
  2
*D29
340
0
  0
BLOCK_RECORD
  5
FE3D
330
1
100
AcDbSymbolTableRecord
100
AcDbBlockTableRecord
  2
*D30
340
0
  0
BLOCK_RECORD
  5
FE70
330
1
100
AcDbSymbolTableRecord
100
AcDbBlockTableRecord
  2
*D31
340
0
  0
BLOCK_RECORD
  5
FE9C
102
{ACAD_XDICTIONARY
360
FF83
102
}
330
1
100
AcDbSymbolTableRecord
100
AcDbBlockTableRecord
  2
72AN+Clip
340
0
102
{BLKREFS
331
FEA1
102
}
  0
BLOCK_RECORD
  5
FEA2
102
{ACAD_XDICTIONARY
360
FEAE
102
}
330
1
100
AcDbSymbolTableRecord
100
AcDbBlockTableRecord
  2
72AP+Clip
340
0
102
{BLKREFS
331
FEA7
102
}
  0
BLOCK_RECORD
  5
FEB1
102
{ACAD_XDICTIONARY
360
10025
102
}
330
1
100
AcDbSymbolTableRecord
100
AcDbBlockTableRecord
  2
7SB1+Clip
340
0
102
{BLKREFS
331
FEFC
102
}
  0
BLOCK_RECORD
  5
FEFD
102
{ACAD_XDICTIONARY
360
1009B
102
}
330
1
100
AcDbSymbolTableRecord
100
AcDbBlockTableRecord
  2
7SBP+Clip
340
0
102
{BLKREFS
331
FF39
102
}
  0
BLOCK_RECORD
  5
FF3B
102
{ACAD_XDICTIONARY
360
1011B
102
}
330
1
100
AcDbSymbolTableRecord
100
AcDbBlockTableRecord
  2
7SBX+Clip
340
0
102
{BLKREFS
331
FF7C
102
}
  0
BLOCK_RECORD
  5
1011E
330
1
100
AcDbSymbolTableRecord
100
AcDbBlockTableRecord
  2
*D37
340
0
  0
BLOCK_RECORD
  5
10142
330
1
100
AcDbSymbolTableRecord
100
AcDbBlockTableRecord
  2
*D38
340
0
  0
BLOCK_RECORD
  5
10173
330
1
100
AcDbSymbolTableRecord
100
AcDbBlockTableRecord
  2
*D39
340
0
  0
BLOCK_RECORD
  5
101FC
330
1
100
AcDbSymbolTableRecord
100
AcDbBlockTableRecord
  2
*D40
340
0
  0
BLOCK_RECORD
  5
1051E
330
1
100
AcDbSymbolTableRecord
100
AcDbBlockTableRecord
  2
*D41
340
0
  0
BLOCK_RECORD
  5
10538
330
1
100
AcDbSymbolTableRecord
100
AcDbBlockTableRecord
  2
*D42
340
0
  0
BLOCK_RECORD
  5
1055C
330
1
100
AcDbSymbolTableRecord
100
AcDbBlockTableRecord
  2
*D43
340
0
  0
BLOCK_RECORD
  5
10594
330
1
100
AcDbSymbolTableRecord
100
AcDbBlockTableRecord
  2
*D44
340
0
  0
BLOCK_RECORD
  5
1060A
330
1
100
AcDbSymbolTableRecord
100
AcDbBlockTableRecord
  2
*D45
340
0
  0
BLOCK_RECORD
  5
1062E
330
1
100
AcDbSymbolTableRecord
100
AcDbBlockTableRecord
  2
*D46
340
0
  0
ENDTAB
  0
ENDSEC
  0
SECTION
  2
BLOCKS
  0
BLOCK
  5
20
330
1F
100
AcDbEntity
  8
0
100
AcDbBlockBegin
  2
*Model_Space
 70
     0
 10
0.0
 20
0.0
 30
0.0
  3
*Model_Space
  1

  0
ENDBLK
  5
21
330
1F
100
AcDbEntity
  8
0
100
AcDbBlockEnd
  0
BLOCK
  5
CBD4
330
CBD2
100
AcDbEntity
 67
     1
  8
0
100
AcDbBlockBegin
  2
*Paper_Space
 70
     0
 10
0.0
 20
0.0
 30
0.0
  3
*Paper_Space
  1

  0
ENDBLK
  5
CBD5
330
CBD2
100
AcDbEntity
 67
     1
  8
0
100
AcDbBlockEnd
  0
BLOCK
  5
E18B
330
E18A
100
AcDbEntity
  8
0
100
AcDbBlockBegin
  2
7363ISO
 70
     0
 10
0.0
 20
0.0
 30
0.0
  3
7363ISO
  1

  0
LINE
  5
E18C
330
E18A
100
AcDbEntity
  8
Pel_PEL
 62
     2
100
AcDbLine
 10
1.483559628896861
 20
1.121522512433561
 30
0.0
 11
2.521372084199195
 21
1.727407259075764
 31
0.0
  0
LINE
  5
E18D
330
E18A
100
AcDbEntity
  8
Pel_PEL
 62
     2
100
AcDbLine
 10
2.473104235089155
 20
0.5806021541199744
 30
0.0
 11
3.767665222560824
 21
1.328017288473648
 31
0.0
  0
LINE
  5
E18E
330
E18A
100
AcDbEntity
  8
Pel_PEL
 62
     2
100
AcDbLine
 10
0.0671392906324935
 20
1.947172630376707
 30
0.0
 11
1.366177398282684
 21
2.697172631269796
 31
0.0
  0
LINE
  5
E18F
330
E18A
100
AcDbEntity
  8
Pel_PEL
 62
     2
100
AcDbLine
 10
3.594824819774093
 20
1.22822783543066
 30
0.0
 11
2.625215506626147
 21
1.788032033201532
 31
0.0
  0
ARC
  5
E190
330
E18A
100
AcDbEntity
  8
Pel_PEL
 62
     2
100
AcDbCircle
 10
3.785349805313869
 20
1.302556425706401
 30
0.0
 40
0.0310000000000001
100
AcDbArc
 50
60.00000000814831
 51
124.7830354870187
  0
LINE
  5
E191
330
E18A
100
AcDbEntity
  8
Pel_PEL
 62
     2
100
AcDbLine
 10
4.297118163194013
 20
1.042882543305404
 30
0.0
 11
3.800849805310051
 21
1.329403213225923
 31
0.0
  0
LINE
  5
E192
330
E18A
100
AcDbEntity
  8
Pel_PEL
 62
     2
100
AcDbLine
 10
4.297118163194013
 20
0.8227585846902602
 30
0.0
 11
4.166485244085174
 21
0.898179535678004
 31
0.0
  0
ARC
  5
E193
330
E18A
100
AcDbEntity
  8
Pel_PEL
 62
     2
100
AcDbCircle
 10
1.332295451796174
 20
2.922248723084604
 30
0.0
 40
0.0675
100
AcDbArc
 50
300.1294105507893
 51
120.2594923129005
  0
LINE
  5
E194
330
E18A
100
AcDbEntity
  8
Pel_PEL
 62
     2
100
AcDbLine
 10
1.366177398282684
 20
2.697172631269796
 30
0.0
 11
1.366177398282684
 21
2.863868386478129
 31
0.0
  0
LINE
  5
E195
330
E18A
100
AcDbEntity
  8
Pel_PEL
 62
     2
100
AcDbLine
 10
2.632031965451023
 20
1.783620789265215
 30
0.0
 11
1.366177398282684
 21
2.697172631269796
 31
0.0
  0
LINE
  5
E196
330
E18A
100
AcDbEntity
  8
Pel_PEL
 62
     2
100
AcDbLine
 10
0.0671392906324935
 20
2.113868385585041
 30
0.0
 11
1.366177398282684
 21
2.863868386478129
 31
0.0
  0
LINE
  5
E197
330
E18A
100
AcDbEntity
  8
Pel_PEL
 62
     2
100
AcDbLine
 10
-0.0002275604238971
 20
2.230857690497961
 30
0.0
 11
1.298281048654162
 21
2.980551985247995
 31
0.0
  0
POLYLINE
  5
E198
330
E18A
100
AcDbEntity
  8
Pel_PEL
 62
     2
100
AcDb2dPolyline
 66
     1
 10
0.0
 20
0.0
 30
0.0
  0
VERTEX
  5
E199
330
E198
100
AcDbEntity
  8
Pel_PEL
 62
     2
100
AcDbVertex
100
AcDb2dVertex
 10
1.332993857800832
 20
1.033620788372126
 30
0.0
  0
VERTEX
  5
E19A
330
E198
100
AcDbEntity
  8
Pel_PEL
 62
     2
100
AcDbVertex
100
AcDb2dVertex
 10
0.0671392906324935
 20
1.947172630376707
 30
0.0
  0
VERTEX
  5
E19B
330
E198
100
AcDbEntity
  8
Pel_PEL
 62
     2
100
AcDbVertex
100
AcDb2dVertex
 10
0.0671392906324935
 20
2.113868385585041
 30
0.0
 42
3.022569992680684
  0
VERTEX
  5
E19C
330
E198
100
AcDbEntity
  8
Pel_PEL
 62
     2
100
AcDbVertex
100
AcDb2dVertex
 10
-0.0128607093675066
 20
2.12296003038369
 30
0.0
  0
VERTEX
  5
E19D
330
E198
100
AcDbEntity
  8
Pel_PEL
 62
     2
100
AcDbVertex
100
AcDb2dVertex
 10
-0.0128607093675066
 20
1.906249999945873
 30
0.0
  0
VERTEX
  5
E19E
330
E198
100
AcDbEntity
  8
Pel_PEL
 62
     2
100
AcDbVertex
100
AcDb2dVertex
 10
1.286177398985809
 20
0.96875
 30
0.0
  0
VERTEX
  5
E19F
330
E198
100
AcDbEntity
  8
Pel_PEL
 62
     2
100
AcDbVertex
100
AcDb2dVertex
 10
2.958080066291547
 20
0.0034765452892147
 30
0.0
 42
1.000000902407231
  0
VERTEX
  5
E1A0
330
E198
100
AcDbEntity
  8
Pel_PEL
 62
     2
100
AcDbVertex
100
AcDb2dVertex
 10
2.998080055543821
 20
0.0727585837971716
 30
0.0
  0
VERTEX
  5
E1A1
330
E198
100
AcDbEntity
  8
Pel_PEL
 62
     2
100
AcDbVertex
100
AcDb2dVertex
 10
2.552311697667866
 20
0.3301230651285425
 30
0.0
 42
-0.2679491924692302
  0
VERTEX
  5
E1A2
330
E198
100
AcDbEntity
  8
Pel_PEL
 62
     2
100
AcDbVertex
100
AcDb2dVertex
 10
2.535311697663679
 20
0.3595679288596312
 30
0.0
  0
VERTEX
  5
E1A3
330
E198
100
AcDbEntity
  8
Pel_PEL
 62
     2
100
AcDbVertex
100
AcDb2dVertex
 10
2.535311697663679
 20
0.4087962078087042
 30
0.0
 42
-0.5773502691422204
  0
VERTEX
  5
E1A4
330
E198
100
AcDbEntity
  8
Pel_PEL
 62
     2
100
AcDbVertex
100
AcDb2dVertex
 10
2.586311697659491
 20
0.4382410715397932
 30
0.0
  0
VERTEX
  5
E1A5
330
E198
100
AcDbEntity
  8
Pel_PEL
 62
     2
100
AcDbVertex
100
AcDb2dVertex
 10
2.95808005962989
 20
0.2236005077504937
 30
0.0
 42
1.000000998560215
  0
VERTEX
  5
E1A6
330
E198
100
AcDbEntity
  8
Pel_PEL
 62
     2
100
AcDbVertex
100
AcDb2dVertex
 10
2.998080055543821
 20
0.2928825424123163
 30
0.0
  0
VERTEX
  5
E1A7
330
E198
100
AcDbEntity
  8
Pel_PEL
 62
     2
100
AcDbVertex
100
AcDb2dVertex
 10
2.501811697659861
 20
0.5794032123328346
 30
0.0
 42
0.5773502691422193
  0
VERTEX
  5
E1A8
330
E198
100
AcDbEntity
  8
Pel_PEL
 62
     2
100
AcDbVertex
100
AcDb2dVertex
 10
2.455311697663678
 20
0.5525564248133126
 30
0.0
  0
VERTEX
  5
E1A9
330
E198
100
AcDbEntity
  8
Pel_PEL
 62
     2
100
AcDbVertex
100
AcDb2dVertex
 10
2.455311697663678
 20
0.4398196162497785
 30
0.0
 42
-0.5773502691422188
  0
VERTEX
  5
E1AA
330
E198
100
AcDbEntity
  8
Pel_PEL
 62
     2
100
AcDbVertex
100
AcDb2dVertex
 10
2.408811697667496
 20
0.4129728287302566
 30
0.0
  0
VERTEX
  5
E1AB
330
E198
100
AcDbEntity
  8
Pel_PEL
 62
     2
100
AcDbVertex
100
AcDb2dVertex
 10
1.326177398975956
 20
1.038032032308443
 30
0.0
  0
SEQEND
  5
E1AC
330
E198
100
AcDbEntity
  8
Pel_PEL
 62
     2
  0
LINE
  5
E1AD
330
E18A
100
AcDbEntity
  8
Pel_PEL
 62
     2
100
AcDbLine
 10
2.998049531721704
 20
0.2235828628357495
 30
0.0
 11
4.297087639326855
 21
0.9735828637028333
 31
0.0
  0
LINE
  5
E1AE
330
E18A
100
AcDbEntity
  8
Pel_PEL
 62
     2
100
AcDbLine
 10
2.998985090907108
 20
0.0040150388433595
 30
0.0
 11
4.296199338413962
 21
0.7529620335920737
 31
0.0
  0
POLYLINE
  5
E1AF
330
E18A
100
AcDbEntity
  8
Pel_PEL
 62
     2
100
AcDb2dPolyline
 66
     1
 10
0.0
 20
0.0
 30
0.0
  0
VERTEX
  5
E1B0
330
E1AF
100
AcDbEntity
  8
Pel_PEL
 62
     2
100
AcDbVertex
100
AcDb2dVertex
 10
2.449940428580676
 20
1.109076925501397
 30
0.0
  0
VERTEX
  5
E1B1
330
E1AF
100
AcDbEntity
  8
Pel_PEL
 62
     2
100
AcDbVertex
100
AcDb2dVertex
 10
2.471374843973555
 20
1.085616787517872
 30
0.0
 42
0.1013998401969551
  0
VERTEX
  5
E1B2
330
E1AF
100
AcDbEntity
  8
Pel_PEL
 62
     2
100
AcDbVertex
100
AcDb2dVertex
 10
2.501817432975709
 20
1.072148914198333
 30
0.0
 42
0.0951274312067009
  0
VERTEX
  5
E1B3
330
E1AF
100
AcDbEntity
  8
Pel_PEL
 62
     2
100
AcDbVertex
100
AcDb2dVertex
 10
2.535484865486497
 20
1.071316322542201
 30
0.0
  0
VERTEX
  5
E1B4
330
E1AF
100
AcDbEntity
  8
Pel_PEL
 62
     2
100
AcDbVertex
100
AcDb2dVertex
 10
2.568526476754276
 20
1.083254099567747
 30
0.0
  0
VERTEX
  5
E1B5
330
E1AF
100
AcDbEntity
  8
Pel_PEL
 62
     2
100
AcDbVertex
100
AcDb2dVertex
 10
2.595164980966405
 20
1.106159310521221
 30
0.0
 42
0.0951274312066976
  0
VERTEX
  5
E1B6
330
E1AF
100
AcDbEntity
  8
Pel_PEL
 62
     2
100
AcDbVertex
100
AcDb2dVertex
 10
2.610990306803833
 20
1.135887214632905
 30
0.0
 42
0.1013998401969512
  0
VERTEX
  5
E1B7
330
E1AF
100
AcDbEntity
  8
Pel_PEL
 62
     2
100
AcDbVertex
100
AcDb2dVertex
 10
2.614227166863877
 20
1.169018130313836
 30
0.0
  0
VERTEX
  5
E1B8
330
E1AF
100
AcDbEntity
  8
Pel_PEL
 62
     2
100
AcDbVertex
100
AcDb2dVertex
 10
2.604334187391656
 20
1.199216494418581
 30
0.0
  0
VERTEX
  5
E1B9
330
E1AF
100
AcDbEntity
  8
Pel_PEL
 62
     2
100
AcDbVertex
100
AcDb2dVertex
 10
2.582899771998776
 20
1.222676632402107
 30
0.0
 42
0.1013998401969527
  0
VERTEX
  5
E1BA
330
E1AF
100
AcDbEntity
  8
Pel_PEL
 62
     2
100
AcDbVertex
100
AcDb2dVertex
 10
2.552457182996623
 20
1.236144505721646
 30
0.0
 42
0.041222109136077
  0
VERTEX
  5
E1BB
330
E1AF
100
AcDbEntity
  8
Pel_PEL
 62
     2
100
AcDbVertex
100
AcDb2dVertex
 10
2.537884251242724
 20
1.238079551837778
 30
0.0
  0
SEQEND
  5
E1BC
330
E1AF
100
AcDbEntity
  8
Pel_PEL
 62
     2
  0
POLYLINE
  5
E1BD
330
E18A
100
AcDbEntity
  8
Pel_PEL
 62
     2
100
AcDb2dPolyline
 66
     1
 10
0.0
 20
0.0
 30
0.0
  0
VERTEX
  5
E1BE
330
E1BD
100
AcDbEntity
  8
Pel_PEL
 62
     2
100
AcDbVertex
100
AcDb2dVertex
 10
2.537884251242724
 20
1.238079551837778
 30
0.0
 42
0.0536947659203465
  0
VERTEX
  5
E1BF
330
E1BD
100
AcDbEntity
  8
Pel_PEL
 62
     2
100
AcDbVertex
100
AcDb2dVertex
 10
2.518789750485834
 20
1.236977097377777
 30
0.0
  0
VERTEX
  5
E1C0
330
E1BD
100
AcDbEntity
  8
Pel_PEL
 62
     2
100
AcDbVertex
100
AcDb2dVertex
 10
2.485748139218055
 20
1.225039320352231
 30
0.0
  0
VERTEX
  5
E1C1
330
E1BD
100
AcDbEntity
  8
Pel_PEL
 62
     2
100
AcDbVertex
100
AcDb2dVertex
 10
2.459109635005928
 20
1.202134109398759
 30
0.0
 42
0.0951274312067108
  0
VERTEX
  5
E1C2
330
E1BD
100
AcDbEntity
  8
Pel_PEL
 62
     2
100
AcDbVertex
100
AcDb2dVertex
 10
2.443284309168498
 20
1.172406205287073
 30
0.0
 42
0.1013998401969488
  0
VERTEX
  5
E1C3
330
E1BD
100
AcDbEntity
  8
Pel_PEL
 62
     2
100
AcDbVertex
100
AcDb2dVertex
 10
2.440047449108455
 20
1.139275289606144
 30
0.0
  0
VERTEX
  5
E1C4
330
E1BD
100
AcDbEntity
  8
Pel_PEL
 62
     2
100
AcDbVertex
100
AcDb2dVertex
 10
2.449940428580676
 20
1.109076925501397
 30
0.0
  0
SEQEND
  5
E1C5
330
E1BD
100
AcDbEntity
  8
Pel_PEL
 62
     2
  0
POLYLINE
  5
E1C6
330
E18A
100
AcDbEntity
  8
Pel_PEL
 62
     2
100
AcDb2dPolyline
 66
     1
 10
0.0
 20
0.0
 30
0.0
  0
VERTEX
  5
E1C7
330
E1C6
100
AcDbEntity
  8
Pel_PEL
 62
     2
100
AcDbVertex
100
AcDb2dVertex
 10
2.607613694037616
 20
1.126752037672547
 30
0.0
  0
VERTEX
  5
E1C8
330
E1C6
100
AcDbEntity
  8
Pel_PEL
 62
     2
100
AcDbVertex
100
AcDb2dVertex
 10
2.604334187391656
 20
1.136762746383377
 30
0.0
  0
VERTEX
  5
E1C9
330
E1C6
100
AcDbEntity
  8
Pel_PEL
 62
     2
100
AcDbVertex
100
AcDb2dVertex
 10
2.582899771998776
 20
1.160222884366902
 30
0.0
 42
0.1013998401969527
  0
VERTEX
  5
E1CA
330
E1C6
100
AcDbEntity
  8
Pel_PEL
 62
     2
100
AcDbVertex
100
AcDb2dVertex
 10
2.552457182996623
 20
1.173690757686441
 30
0.0
 42
0.095127431206699
  0
VERTEX
  5
E1CB
330
E1C6
100
AcDbEntity
  8
Pel_PEL
 62
     2
100
AcDbVertex
100
AcDb2dVertex
 10
2.518789750485834
 20
1.174523349342573
 30
0.0
  0
VERTEX
  5
E1CC
330
E1C6
100
AcDbEntity
  8
Pel_PEL
 62
     2
100
AcDbVertex
100
AcDb2dVertex
 10
2.511003311792024
 20
1.171710146069994
 30
0.0
  0
SEQEND
  5
E1CD
330
E1C6
100
AcDbEntity
  8
Pel_PEL
 62
     2
  0
POLYLINE
  5
E1CE
330
E18A
100
AcDbEntity
  8
Pel_PEL
 62
     2
100
AcDb2dPolyline
 66
     1
 10
0.0
 20
0.0
 30
0.0
  0
VERTEX
  5
E1CF
330
E1CE
100
AcDbEntity
  8
Pel_PEL
 62
     2
100
AcDbVertex
100
AcDb2dVertex
 10
2.511003311792024
 20
1.171710146069994
 30
0.0
  0
VERTEX
  5
E1D0
330
E1CE
100
AcDbEntity
  8
Pel_PEL
 62
     2
100
AcDbVertex
100
AcDb2dVertex
 10
2.485748139218055
 20
1.162585572317027
 30
0.0
  0
VERTEX
  5
E1D1
330
E1CE
100
AcDbEntity
  8
Pel_PEL
 62
     2
100
AcDbVertex
100
AcDb2dVertex
 10
2.459109635005928
 20
1.139680361363555
 30
0.0
 42
0.0676683541426066
  0
VERTEX
  5
E1D2
330
E1CE
100
AcDbEntity
  8
Pel_PEL
 62
     2
100
AcDbVertex
100
AcDb2dVertex
 10
2.446660921934713
 20
1.119087634212236
 30
0.0
 42
0.1013998401969488
  0
SEQEND
  5
E1D3
330
E1CE
100
AcDbEntity
  8
Pel_PEL
 62
     2
  0
ARC
  5
E1D4
330
E18A
100
AcDbEntity
  8
Pel_PEL
 62
     2
100
AcDbCircle
 10
4.277118199828171
 20
1.008241506003301
 30
0.0
 40
0.040000000000009
100
AcDbArc
 50
299.9494662001739
 51
60.00006059239931
  0
ARC
  5
E1D5
330
E18A
100
AcDbEntity
  8
Pel_PEL
 62
     2
100
AcDbCircle
 10
4.277118199828167
 20
0.7881175473881504
 30
0.0
 40
0.0400000000000167
100
AcDbArc
 50
298.4915055278277
 51
60.0000605923995
  0
ENDBLK
  5
E1D6
330
E18A
100
AcDbEntity
  8
0
100
AcDbBlockEnd
  0
BLOCK
  5
E1D8
330
E1D7
100
AcDbEntity
  8
0
100
AcDbBlockBegin
  2
5087
 70
     0
 10
0.0
 20
0.0
 30
0.0
  3
5087
  1

  0
POLYLINE
  5
E1D9
330
E1D7
100
AcDbEntity
  8
Pel_PEL
 62
     2
100
AcDb2dPolyline
 66
     1
 10
0.0
 20
0.0
 30
0.0
 70
     1
  0
VERTEX
  5
F2D7
330
E1D9
100
AcDbEntity
  8
Pel_PEL
 62
     2
100
AcDbVertex
100
AcDb2dVertex
 10
0.1674235842604688
 20
0.795430751364421
 30
0.0
  0
VERTEX
  5
F2D8
330
E1D9
100
AcDbEntity
  8
Pel_PEL
 62
     2
100
AcDbVertex
100
AcDb2dVertex
 10
0.1638139188171088
 20
0.7891914624238723
 30
0.0
  0
VERTEX
  5
F2D9
330
E1D9
100
AcDbEntity
  8
Pel_PEL
 62
     2
100
AcDbVertex
100
AcDb2dVertex
 10
0.1632099712821642
 20
0.7809193203459018
 30
0.0
  0
VERTEX
  5
F2DA
330
E1D9
100
AcDbEntity
  8
Pel_PEL
 62
     2
100
AcDbVertex
100
AcDb2dVertex
 10
0.1658449303761351
 20
0.7727724650467494
 30
0.0
  0
VERTEX
  5
F2DB
330
E1D9
100
AcDbEntity
  8
Pel_PEL
 62
     2
100
AcDbVertex
100
AcDb2dVertex
 10
0.1715917640462621
 20
0.7651593367692727
 30
0.0
  0
VERTEX
  5
F2DC
330
E1D9
100
AcDbEntity
  8
Pel_PEL
 62
     2
100
AcDbVertex
100
AcDb2dVertex
 10
0.1794178778928241
 20
0.759706102732288
 30
0.0
  0
VERTEX
  5
F2DD
330
E1D9
100
AcDbEntity
  8
Pel_PEL
 62
     2
100
AcDbVertex
100
AcDb2dVertex
 10
0.1876590220285621
 20
0.7573827852709414
 30
0.0
  0
VERTEX
  5
F2DE
330
E1D9
100
AcDbEntity
  8
Pel_PEL
 62
     2
100
AcDbVertex
100
AcDb2dVertex
 10
0.1959022218568833
 20
0.7583007960407287
 30
0.0
  0
VERTEX
  5
F2DF
330
E1D9
100
AcDbEntity
  8
Pel_PEL
 62
     2
100
AcDbVertex
100
AcDb2dVertex
 10
0.2019997634131769
 20
0.7621450642501415
 30
0.0
  0
VERTEX
  5
F2E0
330
E1D9
100
AcDbEntity
  8
Pel_PEL
 62
     2
100
AcDbVertex
100
AcDb2dVertex
 10
0.2056094288565404
 20
0.7683843531906902
 30
0.0
  0
VERTEX
  5
F2E1
330
E1D9
100
AcDbEntity
  8
Pel_PEL
 62
     2
100
AcDbVertex
100
AcDb2dVertex
 10
0.2062133763914886
 20
0.7766564952686608
 30
0.0
  0
VERTEX
  5
F2E2
330
E1D9
100
AcDbEntity
  8
Pel_PEL
 62
     2
100
AcDbVertex
100
AcDb2dVertex
 10
0.2035784172975106
 20
0.7848033505678132
 30
0.0
  0
VERTEX
  5
F2E3
330
E1D9
100
AcDbEntity
  8
Pel_PEL
 62
     2
100
AcDbVertex
100
AcDb2dVertex
 10
0.1978315836273872
 20
0.7924164788452828
 30
0.0
  0
VERTEX
  5
F2E4
330
E1D9
100
AcDbEntity
  8
Pel_PEL
 62
     2
100
AcDbVertex
100
AcDb2dVertex
 10
0.1900054697808251
 20
0.7978697128822674
 30
0.0
  0
VERTEX
  5
F2E5
330
E1D9
100
AcDbEntity
  8
Pel_PEL
 62
     2
100
AcDbVertex
100
AcDb2dVertex
 10
0.1817643256450871
 20
0.8001930303436139
 30
0.0
  0
VERTEX
  5
F2E6
330
E1D9
100
AcDbEntity
  8
Pel_PEL
 62
     2
100
AcDbVertex
100
AcDb2dVertex
 10
0.1735211258167624
 20
0.7992750195738339
 30
0.0
  0
SEQEND
  5
F2E7
330
E1D9
100
AcDbEntity
  8
Pel_PEL
 62
     2
  0
POLYLINE
  5
E1EB
330
E1D7
100
AcDbEntity
  8
Pel_PEL
 62
     2
100
AcDb2dPolyline
 66
     1
 10
0.0
 20
0.0
 30
0.0
 70
     1
  0
VERTEX
  5
F2E9
330
E1EB
100
AcDbEntity
  8
Pel_PEL
 62
     2
100
AcDbVertex
100
AcDb2dVertex
 10
1.167376921219823
 20
0.224015071818016
 30
0.0
  0
VERTEX
  5
F2EA
330
E1EB
100
AcDbEntity
  8
Pel_PEL
 62
     2
100
AcDbVertex
100
AcDb2dVertex
 10
1.163767255776463
 20
0.2177757828774673
 30
0.0
  0
VERTEX
  5
F2EB
330
E1EB
100
AcDbEntity
  8
Pel_PEL
 62
     2
100
AcDbVertex
100
AcDb2dVertex
 10
1.163163308241514
 20
0.2095036407995039
 30
0.0
  0
VERTEX
  5
F2EC
330
E1EB
100
AcDbEntity
  8
Pel_PEL
 62
     2
100
AcDbVertex
100
AcDb2dVertex
 10
1.165798267335489
 20
0.2013567855003444
 30
0.0
  0
VERTEX
  5
F2ED
330
E1EB
100
AcDbEntity
  8
Pel_PEL
 62
     2
100
AcDbVertex
100
AcDb2dVertex
 10
1.171545101005616
 20
0.1937436572228748
 30
0.0
  0
VERTEX
  5
F2EE
330
E1EB
100
AcDbEntity
  8
Pel_PEL
 62
     2
100
AcDbVertex
100
AcDb2dVertex
 10
1.179371214852174
 20
0.1882904231858902
 30
0.0
  0
VERTEX
  5
F2EF
330
E1EB
100
AcDbEntity
  8
Pel_PEL
 62
     2
100
AcDbVertex
100
AcDb2dVertex
 10
1.187612358987916
 20
0.1859671057245435
 30
0.0
  0
VERTEX
  5
F2F0
330
E1EB
100
AcDbEntity
  8
Pel_PEL
 62
     2
100
AcDbVertex
100
AcDb2dVertex
 10
1.195855558816237
 20
0.1868851164943237
 30
0.0
  0
VERTEX
  5
F2F1
330
E1EB
100
AcDbEntity
  8
Pel_PEL
 62
     2
100
AcDbVertex
100
AcDb2dVertex
 10
1.201953100372531
 20
0.1907293847037366
 30
0.0
  0
VERTEX
  5
F2F2
330
E1EB
100
AcDbEntity
  8
Pel_PEL
 62
     2
100
AcDbVertex
100
AcDb2dVertex
 10
1.205562765815894
 20
0.1969686736442853
 30
0.0
  0
VERTEX
  5
F2F3
330
E1EB
100
AcDbEntity
  8
Pel_PEL
 62
     2
100
AcDbVertex
100
AcDb2dVertex
 10
1.206166713350839
 20
0.2052408157222629
 30
0.0
  0
VERTEX
  5
F2F4
330
E1EB
100
AcDbEntity
  8
Pel_PEL
 62
     2
100
AcDbVertex
100
AcDb2dVertex
 10
1.203531754256864
 20
0.2133876710214082
 30
0.0
  0
VERTEX
  5
F2F5
330
E1EB
100
AcDbEntity
  8
Pel_PEL
 62
     2
100
AcDbVertex
100
AcDb2dVertex
 10
1.197784920586741
 20
0.2210007992988849
 30
0.0
  0
VERTEX
  5
F2F6
330
E1EB
100
AcDbEntity
  8
Pel_PEL
 62
     2
100
AcDbVertex
100
AcDb2dVertex
 10
1.189958806740179
 20
0.2264540333358695
 30
0.0
  0
VERTEX
  5
F2F7
330
E1EB
100
AcDbEntity
  8
Pel_PEL
 62
     2
100
AcDbVertex
100
AcDb2dVertex
 10
1.181717662604441
 20
0.2287773507972162
 30
0.0
  0
VERTEX
  5
F2F8
330
E1EB
100
AcDbEntity
  8
Pel_PEL
 62
     2
100
AcDbVertex
100
AcDb2dVertex
 10
1.173474462776116
 20
0.2278593400274289
 30
0.0
  0
SEQEND
  5
F2F9
330
E1EB
100
AcDbEntity
  8
Pel_PEL
 62
     2
  0
POLYLINE
  5
E1FD
330
E1D7
100
AcDbEntity
  8
Pel_PEL
 62
     2
100
AcDb2dPolyline
 66
     1
 10
0.0
 20
0.0
 30
0.0
  0
VERTEX
  5
F2FB
330
E1FD
100
AcDbEntity
  8
Pel_PEL
 62
     2
100
AcDbVertex
100
AcDb2dVertex
 10
1.107758331722649
 20
0.2520171774939897
 30
0.0
  0
VERTEX
  5
F2FC
330
E1FD
100
AcDbEntity
  8
Pel_PEL
 62
     2
100
AcDbVertex
100
AcDb2dVertex
 10
1.106925514245428
 20
0.2508504538768719
 30
0.0
 42
0.1063067328341143
  0
VERTEX
  5
F2FD
330
E1FD
100
AcDbEntity
  8
Pel_PEL
 62
     2
100
AcDbVertex
100
AcDb2dVertex
 10
1.102934859040473
 20
0.2248174097838387
 30
0.0
 42
0.0849147392212466
  0
VERTEX
  5
F2FE
330
E1FD
100
AcDbEntity
  8
Pel_PEL
 62
     2
100
AcDbVertex
100
AcDb2dVertex
 10
1.109162619431778
 20
0.1981150845310182
 30
0.0
  0
VERTEX
  5
F2FF
330
E1FD
100
AcDbEntity
  8
Pel_PEL
 62
     2
100
AcDbVertex
100
AcDb2dVertex
 10
1.125445575885414
 20
0.1713594979034028
 30
0.0
  0
VERTEX
  5
F300
330
E1FD
100
AcDbEntity
  8
Pel_PEL
 62
     2
100
AcDbVertex
100
AcDb2dVertex
 10
1.148831140040684
 20
0.1505241559143968
 30
0.0
 42
0.0849147392212459
  0
VERTEX
  5
F301
330
E1FD
100
AcDbEntity
  8
Pel_PEL
 62
     2
100
AcDbVertex
100
AcDb2dVertex
 10
1.1739752368936
 20
0.1395891860081591
 30
0.0
 42
0.106306732834116
  0
VERTEX
  5
F302
330
E1FD
100
AcDbEntity
  8
Pel_PEL
 62
     2
100
AcDbVertex
100
AcDb2dVertex
 10
1.200301314980148
 20
0.1388260829380528
 30
0.0
  0
VERTEX
  5
F303
330
E1FD
100
AcDbEntity
  8
Pel_PEL
 62
     2
100
AcDbVertex
100
AcDb2dVertex
 10
1.2200958248238
 20
0.1481170919255277
 30
0.0
  0
VERTEX
  5
F304
330
E1FD
100
AcDbEntity
  8
Pel_PEL
 62
     2
100
AcDbVertex
100
AcDb2dVertex
 10
1.232799869566171
 20
0.1659146399347122
 30
0.0
 42
0.1063067328341139
  0
VERTEX
  5
F305
330
E1FD
100
AcDbEntity
  8
Pel_PEL
 62
     2
100
AcDbVertex
100
AcDb2dVertex
 10
1.236790524771127
 20
0.1919476840277454
 30
0.0
 42
0.0849147392212502
  0
VERTEX
  5
F306
330
E1FD
100
AcDbEntity
  8
Pel_PEL
 62
     2
100
AcDbVertex
100
AcDb2dVertex
 10
1.230562764379822
 20
0.2186500092805659
 30
0.0
  0
VERTEX
  5
F307
330
E1FD
100
AcDbEntity
  8
Pel_PEL
 62
     2
100
AcDbVertex
100
AcDb2dVertex
 10
1.214279807926185
 20
0.2454055959081884
 30
0.0
  0
VERTEX
  5
F308
330
E1FD
100
AcDbEntity
  8
Pel_PEL
 62
     2
100
AcDbVertex
100
AcDb2dVertex
 10
1.190894243770916
 20
0.2662409378972015
 30
0.0
 42
0.0849147392212467
  0
VERTEX
  5
F309
330
E1FD
100
AcDbEntity
  8
Pel_PEL
 62
     2
100
AcDbVertex
100
AcDb2dVertex
 10
1.165750146918004
 20
0.2771759078034321
 30
0.0
 42
0.106306732834117
  0
VERTEX
  5
F30A
330
E1FD
100
AcDbEntity
  8
Pel_PEL
 62
     2
100
AcDbVertex
100
AcDb2dVertex
 10
1.139424068831452
 20
0.2779390108735313
 30
0.0
  0
VERTEX
  5
F30B
330
E1FD
100
AcDbEntity
  8
Pel_PEL
 62
     2
100
AcDbVertex
100
AcDb2dVertex
 10
1.119629558987803
 20
0.2686480018860706
 30
0.0
  0
SEQEND
  5
F30C
330
E1FD
100
AcDbEntity
  8
Pel_PEL
 62
     2
  0
POLYLINE
  5
E210
330
E1D7
100
AcDbEntity
  8
Pel_PEL
 62
     2
100
AcDb2dPolyline
 66
     1
 10
0.0
 20
0.0
 30
0.0
  0
VERTEX
  5
F30E
330
E210
100
AcDbEntity
  8
Pel_PEL
 62
     2
100
AcDbVertex
100
AcDb2dVertex
 10
1.119629558987803
 20
0.2686480018860706
 30
0.0
  0
VERTEX
  5
F30F
330
E210
100
AcDbEntity
  8
Pel_PEL
 62
     2
100
AcDbVertex
100
AcDb2dVertex
 10
1.107758331722649
 20
0.2520171774939897
 30
0.0
 42
0.1063067328341143
  0
SEQEND
  5
F310
330
E210
100
AcDbEntity
  8
Pel_PEL
 62
     2
  0
POLYLINE
  5
E214
330
E1D7
100
AcDbEntity
  8
Pel_PEL
 62
     2
100
AcDb2dPolyline
 66
     1
 10
0.0
 20
0.0
 30
0.0
  0
VERTEX
  5
F312
330
E214
100
AcDbEntity
  8
Pel_PEL
 62
     2
100
AcDbVertex
100
AcDb2dVertex
 10
1.468532366066035
 20
1.161491107185327
 30
0.0
  0
VERTEX
  5
F313
330
E214
100
AcDbEntity
  8
Pel_PEL
 62
     2
100
AcDbVertex
100
AcDb2dVertex
 10
1.478122345950531
 20
1.135310806996642
 30
0.0
  0
VERTEX
  5
F314
330
E214
100
AcDbEntity
  8
Pel_PEL
 62
     2
100
AcDbVertex
100
AcDb2dVertex
 10
1.502190657737102
 20
1.105904637710416
 30
0.0
 42
0.0911987084139502
  0
VERTEX
  5
F315
330
E214
100
AcDbEntity
  8
Pel_PEL
 62
     2
100
AcDbVertex
100
AcDb2dVertex
 10
1.532288972851848
 20
1.088042177825549
 30
0.0
 42
0.1038793848005709
  0
VERTEX
  5
F316
330
E214
100
AcDbEntity
  8
Pel_PEL
 62
     2
100
AcDbVertex
100
AcDb2dVertex
 10
1.566105432637698
 20
1.083045614159722
 30
0.0
  0
VERTEX
  5
F317
330
E214
100
AcDbEntity
  8
Pel_PEL
 62
     2
100
AcDbVertex
100
AcDb2dVertex
 10
1.595757367547328
 20
1.0918753861812
 30
0.0
  0
SEQEND
  5
F318
330
E214
100
AcDbEntity
  8
Pel_PEL
 62
     2
  0
POLYLINE
  5
E21C
330
E1D7
100
AcDbEntity
  8
Pel_PEL
 62
     2
100
AcDb2dPolyline
 66
     1
 10
0.0
 20
0.0
 30
0.0
  0
VERTEX
  5
F31A
330
E21C
100
AcDbEntity
  8
Pel_PEL
 62
     2
100
AcDbVertex
100
AcDb2dVertex
 10
1.595757367547328
 20
1.0918753861812
 30
0.0
  0
VERTEX
  5
F31B
330
E21C
100
AcDbEntity
  8
Pel_PEL
 62
     2
100
AcDbVertex
100
AcDb2dVertex
 10
1.618445116382883
 20
1.112910313578531
 30
0.0
 42
0.1038793848005724
  0
VERTEX
  5
F31C
330
E21C
100
AcDbEntity
  8
Pel_PEL
 62
     2
100
AcDbVertex
100
AcDb2dVertex
 10
1.631348605206397
 20
1.144564990596251
 30
0.0
 42
0.0911987084139507
  0
VERTEX
  5
F31D
330
E21C
100
AcDbEntity
  8
Pel_PEL
 62
     2
100
AcDbVertex
100
AcDb2dVertex
 10
1.631284157190869
 20
1.179564589055914
 30
0.0
  0
VERTEX
  5
F31E
330
E21C
100
AcDbEntity
  8
Pel_PEL
 62
     2
100
AcDbVertex
100
AcDb2dVertex
 10
1.618213821510021
 20
1.215246135400434
 30
0.0
  0
VERTEX
  5
F31F
330
E21C
100
AcDbEntity
  8
Pel_PEL
 62
     2
100
AcDbVertex
100
AcDb2dVertex
 10
1.594145509723446
 20
1.244652304686653
 30
0.0
 42
0.0911987084139517
  0
VERTEX
  5
F320
330
E21C
100
AcDbEntity
  8
Pel_PEL
 62
     2
100
AcDbVertex
100
AcDb2dVertex
 10
1.564047194608701
 20
1.262514764571527
 30
0.0
 42
0.1038793848005721
  0
VERTEX
  5
F321
330
E21C
100
AcDbEntity
  8
Pel_PEL
 62
     2
100
AcDbVertex
100
AcDb2dVertex
 10
1.53023073482285
 20
1.267511328237361
 30
0.0
  0
VERTEX
  5
F322
330
E21C
100
AcDbEntity
  8
Pel_PEL
 62
     2
100
AcDbVertex
100
AcDb2dVertex
 10
1.500578799913224
 20
1.258681556215876
 30
0.0
  0
VERTEX
  5
F323
330
E21C
100
AcDbEntity
  8
Pel_PEL
 62
     2
100
AcDbVertex
100
AcDb2dVertex
 10
1.477891051077666
 20
1.237646628818552
 30
0.0
 42
0.1038793848005699
  0
VERTEX
  5
F324
330
E21C
100
AcDbEntity
  8
Pel_PEL
 62
     2
100
AcDbVertex
100
AcDb2dVertex
 10
1.464987562254155
 20
1.205991951800832
 30
0.0
 42
0.0911987084139475
  0
VERTEX
  5
F325
330
E21C
100
AcDbEntity
  8
Pel_PEL
 62
     2
100
AcDbVertex
100
AcDb2dVertex
 10
1.46505201026968
 20
1.170992353341155
 30
0.0
  0
VERTEX
  5
F326
330
E21C
100
AcDbEntity
  8
Pel_PEL
 62
     2
100
AcDbVertex
100
AcDb2dVertex
 10
1.468532366066035
 20
1.161491107185327
 30
0.0
  0
SEQEND
  5
F327
330
E21C
100
AcDbEntity
  8
Pel_PEL
 62
     2
  0
POLYLINE
  5
E22B
330
E1D7
100
AcDbEntity
  8
Pel_PEL
 62
     2
100
AcDb2dPolyline
 66
     1
 10
0.0
 20
0.0
 30
0.0
  0
VERTEX
  5
F329
330
E22B
100
AcDbEntity
  8
Pel_PEL
 62
     2
100
AcDbVertex
100
AcDb2dVertex
 10
1.139673094177428
 20
1.300231860163499
 30
0.0
 42
0.0097962711679553
  0
VERTEX
  5
F32A
330
E22B
100
AcDbEntity
  8
Pel_PEL
 62
     2
100
AcDbVertex
100
AcDb2dVertex
 10
1.140292483509476
 20
1.296492353476473
 30
0.0
  0
VERTEX
  5
F32B
330
E22B
100
AcDbEntity
  8
Pel_PEL
 62
     2
100
AcDbVertex
100
AcDb2dVertex
 10
1.153362819190327
 20
1.260810807131953
 30
0.0
  0
VERTEX
  5
F32C
330
E22B
100
AcDbEntity
  8
Pel_PEL
 62
     2
100
AcDbVertex
100
AcDb2dVertex
 10
1.177431130976898
 20
1.231404637845734
 30
0.0
 42
0.0911987084139502
  0
VERTEX
  5
F32D
330
E22B
100
AcDbEntity
  8
Pel_PEL
 62
     2
100
AcDbVertex
100
AcDb2dVertex
 10
1.207529446091644
 20
1.213542177960867
 30
0.0
 42
0.1038793848005709
  0
VERTEX
  5
F32E
330
E22B
100
AcDbEntity
  8
Pel_PEL
 62
     2
100
AcDbVertex
100
AcDb2dVertex
 10
1.241345905877491
 20
1.208545614295033
 30
0.0
  0
VERTEX
  5
F32F
330
E22B
100
AcDbEntity
  8
Pel_PEL
 62
     2
100
AcDbVertex
100
AcDb2dVertex
 10
1.270997840787121
 20
1.217375386316511
 30
0.0
  0
SEQEND
  5
F330
330
E22B
100
AcDbEntity
  8
Pel_PEL
 62
     2
  0
POLYLINE
  5
E234
330
E1D7
100
AcDbEntity
  8
Pel_PEL
 62
     2
100
AcDb2dPolyline
 66
     1
 10
0.0
 20
0.0
 30
0.0
  0
VERTEX
  5
F332
330
E234
100
AcDbEntity
  8
Pel_PEL
 62
     2
100
AcDbVertex
100
AcDb2dVertex
 10
1.270997840787121
 20
1.217375386316511
 30
0.0
  0
VERTEX
  5
F333
330
E234
100
AcDbEntity
  8
Pel_PEL
 62
     2
100
AcDbVertex
100
AcDb2dVertex
 10
1.293685589622679
 20
1.238410313713849
 30
0.0
 42
0.1038793848005724
  0
VERTEX
  5
F334
330
E234
100
AcDbEntity
  8
Pel_PEL
 62
     2
100
AcDbVertex
100
AcDb2dVertex
 10
1.306589078446194
 20
1.270064990731562
 30
0.0
 42
0.0911987084139507
  0
VERTEX
  5
F335
330
E234
100
AcDbEntity
  8
Pel_PEL
 62
     2
100
AcDbVertex
100
AcDb2dVertex
 10
1.306524630430669
 20
1.305064589191232
 30
0.0
  0
VERTEX
  5
F336
330
E234
100
AcDbEntity
  8
Pel_PEL
 62
     2
100
AcDbVertex
100
AcDb2dVertex
 10
1.293454294749817
 20
1.340746135535752
 30
0.0
  0
VERTEX
  5
F337
330
E234
100
AcDbEntity
  8
Pel_PEL
 62
     2
100
AcDbVertex
100
AcDb2dVertex
 10
1.269385982963239
 20
1.370152304821971
 30
0.0
 42
0.0911987084139517
  0
VERTEX
  5
F338
330
E234
100
AcDbEntity
  8
Pel_PEL
 62
     2
100
AcDbVertex
100
AcDb2dVertex
 10
1.239287667848493
 20
1.388014764706838
 30
0.0
 42
0.1038793848005721
  0
VERTEX
  5
F339
330
E234
100
AcDbEntity
  8
Pel_PEL
 62
     2
100
AcDbVertex
100
AcDb2dVertex
 10
1.205471208062647
 20
1.393011328372672
 30
0.0
  0
VERTEX
  5
F33A
330
E234
100
AcDbEntity
  8
Pel_PEL
 62
     2
100
AcDbVertex
100
AcDb2dVertex
 10
1.17581927315302
 20
1.384181556351194
 30
0.0
  0
VERTEX
  5
F33B
330
E234
100
AcDbEntity
  8
Pel_PEL
 62
     2
100
AcDbVertex
100
AcDb2dVertex
 10
1.153131524317466
 20
1.363146628953863
 30
0.0
 42
0.1038793848005699
  0
VERTEX
  5
F33C
330
E234
100
AcDbEntity
  8
Pel_PEL
 62
     2
100
AcDbVertex
100
AcDb2dVertex
 10
1.140228035493951
 20
1.331491951936143
 30
0.0
 42
0.0813297766316481
  0
VERTEX
  5
F33D
330
E234
100
AcDbEntity
  8
Pel_PEL
 62
     2
100
AcDbVertex
100
AcDb2dVertex
 10
1.139673094177428
 20
1.300231860163499
 30
0.0
  0
SEQEND
  5
F33E
330
E234
100
AcDbEntity
  8
Pel_PEL
 62
     2
  0
POLYLINE
  5
E242
330
E1D7
100
AcDbEntity
  8
Pel_PEL
 62
     2
100
AcDb2dPolyline
 66
     1
 10
0.0
 20
0.0
 30
0.0
  0
VERTEX
  5
F340
330
E242
100
AcDbEntity
  8
Pel_PEL
 62
     2
100
AcDbVertex
100
AcDb2dVertex
 10
0.8147289260226209
 20
1.426065303268984
 30
0.0
 42
0.0132755406389406
  0
VERTEX
  5
F341
330
E242
100
AcDbEntity
  8
Pel_PEL
 62
     2
100
AcDbVertex
100
AcDb2dVertex
 10
0.8155329560930226
 20
1.420992353395284
 30
0.0
  0
VERTEX
  5
F342
330
E242
100
AcDbEntity
  8
Pel_PEL
 62
     2
100
AcDbVertex
100
AcDb2dVertex
 10
0.8286032917738701
 20
1.385310807050764
 30
0.0
  0
VERTEX
  5
F343
330
E242
100
AcDbEntity
  8
Pel_PEL
 62
     2
100
AcDbVertex
100
AcDb2dVertex
 10
0.8526716035604486
 20
1.355904637764545
 30
0.0
 42
0.0911987084139502
  0
VERTEX
  5
F344
330
E242
100
AcDbEntity
  8
Pel_PEL
 62
     2
100
AcDbVertex
100
AcDb2dVertex
 10
0.8827699186751942
 20
1.338042177879678
 30
0.0
 42
0.1038793848005709
  0
VERTEX
  5
F345
330
E242
100
AcDbEntity
  8
Pel_PEL
 62
     2
100
AcDbVertex
100
AcDb2dVertex
 10
0.9165863784610372
 20
1.333045614213844
 30
0.0
  0
VERTEX
  5
F346
330
E242
100
AcDbEntity
  8
Pel_PEL
 62
     2
100
AcDbVertex
100
AcDb2dVertex
 10
0.9462383133706673
 20
1.341875386235322
 30
0.0
  0
SEQEND
  5
F347
330
E242
100
AcDbEntity
  8
Pel_PEL
 62
     2
  0
POLYLINE
  5
E24B
330
E1D7
100
AcDbEntity
  8
Pel_PEL
 62
     2
100
AcDb2dPolyline
 66
     1
 10
0.0
 20
0.0
 30
0.0
  0
VERTEX
  5
F349
330
E24B
100
AcDbEntity
  8
Pel_PEL
 62
     2
100
AcDbVertex
100
AcDb2dVertex
 10
0.9462383133706673
 20
1.341875386235322
 30
0.0
  0
VERTEX
  5
F34A
330
E24B
100
AcDbEntity
  8
Pel_PEL
 62
     2
100
AcDbVertex
100
AcDb2dVertex
 10
0.9689260622062221
 20
1.36291031363266
 30
0.0
 42
0.1038793848005724
  0
VERTEX
  5
F34B
330
E24B
100
AcDbEntity
  8
Pel_PEL
 62
     2
100
AcDbVertex
100
AcDb2dVertex
 10
0.9818295510297367
 20
1.394564990650373
 30
0.0
 42
0.0911987084139507
  0
VERTEX
  5
F34C
330
E24B
100
AcDbEntity
  8
Pel_PEL
 62
     2
100
AcDbVertex
100
AcDb2dVertex
 10
0.9817651030142116
 20
1.429564589110043
 30
0.0
  0
VERTEX
  5
F34D
330
E24B
100
AcDbEntity
  8
Pel_PEL
 62
     2
100
AcDbVertex
100
AcDb2dVertex
 10
0.9686947673333641
 20
1.465246135454563
 30
0.0
  0
VERTEX
  5
F34E
330
E24B
100
AcDbEntity
  8
Pel_PEL
 62
     2
100
AcDbVertex
100
AcDb2dVertex
 10
0.9446264555467855
 20
1.494652304740782
 30
0.0
 42
0.0911987084139517
  0
VERTEX
  5
F34F
330
E24B
100
AcDbEntity
  8
Pel_PEL
 62
     2
100
AcDbVertex
100
AcDb2dVertex
 10
0.9145281404320435
 20
1.512514764625649
 30
0.0
 42
0.1038793848005721
  0
VERTEX
  5
F350
330
E24B
100
AcDbEntity
  8
Pel_PEL
 62
     2
100
AcDbVertex
100
AcDb2dVertex
 10
0.8807116806461969
 20
1.51751132829149
 30
0.0
  0
VERTEX
  5
F351
330
E24B
100
AcDbEntity
  8
Pel_PEL
 62
     2
100
AcDbVertex
100
AcDb2dVertex
 10
0.8510597457365669
 20
1.508681556270005
 30
0.0
  0
VERTEX
  5
F352
330
E24B
100
AcDbEntity
  8
Pel_PEL
 62
     2
100
AcDbVertex
100
AcDb2dVertex
 10
0.8283719969010086
 20
1.487646628872674
 30
0.0
 42
0.1038793848005699
  0
VERTEX
  5
F353
330
E24B
100
AcDbEntity
  8
Pel_PEL
 62
     2
100
AcDbVertex
100
AcDb2dVertex
 10
0.8154685080774974
 20
1.455991951854961
 30
0.0
 42
0.077828939331777
  0
VERTEX
  5
F354
330
E24B
100
AcDbEntity
  8
Pel_PEL
 62
     2
100
AcDbVertex
100
AcDb2dVertex
 10
0.8147289260226209
 20
1.426065303268984
 30
0.0
  0
SEQEND
  5
F355
330
E24B
100
AcDbEntity
  8
Pel_PEL
 62
     2
  0
ARC
  5
E259
330
E1D7
100
AcDbEntity
  8
Pel_PEL
 62
     2
100
AcDbCircle
 10
0.082487297215561
 20
0.9549666789958095
 30
0.0
 40
0.078
100
AcDbArc
 50
119.9999999918514
 51
180.0
  0
POLYLINE
  5
E25A
330
E1D7
100
AcDbEntity
  8
Pel_PEL
 62
     2
100
AcDb2dPolyline
 66
     1
 10
0.0
 20
0.0
 30
0.0
 70
     1
  0
VERTEX
  5
F358
330
E25A
100
AcDbEntity
  8
Pel_PEL
 62
     2
100
AcDbVertex
100
AcDb2dVertex
 10
0.1196762220284491
 20
0.8400636814324613
 30
0.0
  0
VERTEX
  5
F359
330
E25A
100
AcDbEntity
  8
Pel_PEL
 62
     2
100
AcDbVertex
100
AcDb2dVertex
 10
0.1069721772860745
 20
0.8222661334232768
 30
0.0
 42
0.1063067328341143
  0
VERTEX
  5
F35A
330
E25A
100
AcDbEntity
  8
Pel_PEL
 62
     2
100
AcDbVertex
100
AcDb2dVertex
 10
0.102981522081123
 20
0.7962330893302437
 30
0.0
 42
0.0849147392212466
  0
VERTEX
  5
F35B
330
E25A
100
AcDbEntity
  8
Pel_PEL
 62
     2
100
AcDbVertex
100
AcDb2dVertex
 10
0.109209282472424
 20
0.7695307640774232
 30
0.0
  0
VERTEX
  5
F35C
330
E25A
100
AcDbEntity
  8
Pel_PEL
 62
     2
100
AcDbVertex
100
AcDb2dVertex
 10
0.1254922389260606
 20
0.7427751774498006
 30
0.0
  0
VERTEX
  5
F35D
330
E25A
100
AcDbEntity
  8
Pel_PEL
 62
     2
100
AcDbVertex
100
AcDb2dVertex
 10
0.14887780308133
 20
0.7219398354607876
 30
0.0
 42
0.0849147392212459
  0
VERTEX
  5
F35E
330
E25A
100
AcDbEntity
  8
Pel_PEL
 62
     2
100
AcDbVertex
100
AcDb2dVertex
 10
0.1740218999342424
 20
0.711004865554564
 30
0.0
 42
0.106306732834116
  0
VERTEX
  5
F35F
330
E25A
100
AcDbEntity
  8
Pel_PEL
 62
     2
100
AcDbVertex
100
AcDb2dVertex
 10
0.200347978020794
 20
0.7102417624844577
 30
0.0
  0
VERTEX
  5
F360
330
E25A
100
AcDbEntity
  8
Pel_PEL
 62
     2
100
AcDbVertex
100
AcDb2dVertex
 10
0.2201424878644467
 20
0.7195327714719256
 30
0.0
  0
VERTEX
  5
F361
330
E25A
100
AcDbEntity
  8
Pel_PEL
 62
     2
100
AcDbVertex
100
AcDb2dVertex
 10
0.2328465326068176
 20
0.7373303194811172
 30
0.0
 42
0.1063067328341139
  0
VERTEX
  5
F362
330
E25A
100
AcDbEntity
  8
Pel_PEL
 62
     2
100
AcDbVertex
100
AcDb2dVertex
 10
0.2368371878117728
 20
0.7633633635741504
 30
0.0
 42
0.0849147392212502
  0
VERTEX
  5
F363
330
E25A
100
AcDbEntity
  8
Pel_PEL
 62
     2
100
AcDbVertex
100
AcDb2dVertex
 10
0.2306094274204717
 20
0.7900656888269709
 30
0.0
  0
VERTEX
  5
F364
330
E25A
100
AcDbEntity
  8
Pel_PEL
 62
     2
100
AcDbVertex
100
AcDb2dVertex
 10
0.2143264709668315
 20
0.8168212754545933
 30
0.0
  0
VERTEX
  5
F365
330
E25A
100
AcDbEntity
  8
Pel_PEL
 62
     2
100
AcDbVertex
100
AcDb2dVertex
 10
0.1909409068115622
 20
0.8376566174435993
 30
0.0
 42
0.0849147392212467
  0
VERTEX
  5
F366
330
E25A
100
AcDbEntity
  8
Pel_PEL
 62
     2
100
AcDbVertex
100
AcDb2dVertex
 10
0.1657968099586498
 20
0.8485915873498299
 30
0.0
 42
0.106306732834117
  0
VERTEX
  5
F367
330
E25A
100
AcDbEntity
  8
Pel_PEL
 62
     2
100
AcDbVertex
100
AcDb2dVertex
 10
0.1394707318720982
 20
0.8493546904199362
 30
0.0
  0
SEQEND
  5
F368
330
E25A
100
AcDbEntity
  8
Pel_PEL
 62
     2
  0
ARC
  5
E26C
330
E1D7
100
AcDbEntity
  8
Pel_PEL
 62
     2
100
AcDbCircle
 10
1.381525405568876
 20
0.2049666788334292
 30
0.0
 40
0.078
100
AcDbArc
 50
119.9999999918514
 51
180.0
  0
ARC
  5
E26D
330
E1D7
100
AcDbEntity
  8
Pel_PEL
 62
     2
100
AcDbCircle
 10
1.375921419869772
 20
0.2082021414937287
 30
0.0
 40
0.031
100
AcDbArc
 50
119.9999999918514
 51
180.0
  0
LINE
  5
E26E
330
E1D7
100
AcDbEntity
  8
Pel_PEL
 62
     2
100
AcDbLine
 10
0.2209936486077808
 20
0.6562499997834906
 30
0.0
 11
0.2209936486077808
 21
0.6249999997293614
 31
0.0
  0
LINE
  5
E26F
330
E1D7
100
AcDbEntity
  8
Pel_PEL
 62
     2
100
AcDbLine
 10
0.0044872972155616
 20
0.78125
 30
0.0
 11
0.2209936486077808
 21
0.6562499997834906
 31
0.0
  0
LINE
  5
E270
330
E1D7
100
AcDbEntity
  8
Pel_PEL
 62
     2
100
AcDbLine
 10
1.303525405568876
 20
0.03125
 30
0.0
 11
1.344921419869773
 21
0.0551499999921461
 31
0.0
  0
LINE
  5
E271
330
E1D7
100
AcDbEntity
  8
Pel_PEL
 62
     2
100
AcDbLine
 10
1.087019054176657
 20
0.1562500002165024
 30
0.0
 11
1.087019054176657
 21
0.1249999988633377
 31
0.0
  0
LINE
  5
E272
330
E1D7
100
AcDbEntity
  8
Pel_PEL
 62
     2
100
AcDbLine
 10
1.303525405568876
 20
0.03125
 30
0.0
 11
1.087019054176657
 21
0.1562500002165024
 31
0.0
  0
ARC
  5
E273
330
E1D7
100
AcDbEntity
  8
Pel_PEL
 62
     2
100
AcDbCircle
 10
0.5328146866088268
 20
0.614657397754165
 30
0.0
 40
0.1029288626257033
100
AcDbArc
 50
177.213995914259
 51
231.5071387342313
  0
ARC
  5
E274
330
E1D7
100
AcDbEntity
  8
Pel_PEL
 62
     2
100
AcDbCircle
 10
0.46232955512356
 20
0.6223358257503691
 30
0.0
 40
0.0324326174229362
100
AcDbArc
 50
78.58215798651419
 51
184.7319238501031
  0
LINE
  5
E275
330
E1D7
100
AcDbEntity
  8
Pel_PEL
 62
     2
100
AcDbLine
 10
0.4300074817497972
 20
0.6196603359403384
 30
0.0
 11
0.8630201842061069
 21
0.3696603356967714
 31
0.0
  0
LINE
  5
E276
330
E1D7
100
AcDbEntity
  8
Pel_PEL
 62
     2
100
AcDbLine
 10
0.4687500000391794
 20
0.5340964475602022
 30
0.0
 11
0.901762702495489
 21
0.2840964473166352
 31
0.0
  0
ARC
  5
E277
330
E1D7
100
AcDbEntity
  8
Pel_PEL
 62
     2
100
AcDbCircle
 10
0.9658273890651365
 20
0.3646573975105909
 30
0.0
 40
0.1029288626257033
100
AcDbArc
 50
177.213995914259
 51
231.5071387342313
  0
LINE
  5
E278
330
E1D7
100
AcDbEntity
  8
Pel_PEL
 62
     2
100
AcDbLine
 10
0.901762702495489
 20
0.4041265876868465
 30
0.0
 11
0.901762702495489
 21
0.2840964473166352
 31
0.0
  0
ARC
  5
E279
330
E1D7
100
AcDbEntity
  8
Pel_PEL
 62
     2
100
AcDbCircle
 10
0.8953422575798732
 20
0.3723358255068021
 30
0.0
 40
0.0324326174229362
100
AcDbArc
 50
78.58215798651419
 51
184.7319238501031
  0
LINE
  5
E27A
330
E1D7
100
AcDbEntity
  8
Pel_PEL
 62
     2
100
AcDbLine
 10
0.4687500000391794
 20
0.6541265879304135
 30
0.0
 11
0.901762702495489
 21
0.4041265876868465
 31
0.0
  0
LINE
  5
E27B
330
E1D7
100
AcDbEntity
  8
Pel_PEL
 62
     2
100
AcDbLine
 10
0.5744124337244614
 20
1.487139291916172
 30
0.0
 11
0.3833734120581944
 21
1.21875000032476
 31
0.0
  0
LINE
  5
E27C
330
E1D7
100
AcDbEntity
  8
Pel_PEL
 62
     2
100
AcDbLine
 10
1.914846555397694
 20
0.7371392911913546
 30
0.0
 11
1.70310952652731
 21
0.432899999572868
 31
0.0
  0
LINE
  5
E27D
330
E1D7
100
AcDbEntity
  8
Pel_PEL
 62
     2
100
AcDbLine
 10
1.873450541093401
 20
0.7371392911854642
 30
0.0
 11
1.914846555397694
 21
0.7371392911913546
 31
0.0
  0
LINE
  5
E27E
330
E1D7
100
AcDbEntity
  8
Pel_PEL
 62
     2
100
AcDbLine
 10
1.682411519380259
 20
0.4687499995669882
 30
0.0
 11
1.873450541093401
 21
0.7371392911854642
 31
0.0
  0
LINE
  5
E27F
330
E1D7
100
AcDbEntity
  8
Pel_PEL
 62
     2
100
AcDbLine
 10
1.344921419869773
 20
0.0551499999921461
 30
0.0
 11
1.344921419869773
 21
0.2082021414937287
 31
0.0
  0
LINE
  5
E280
330
E1D7
100
AcDbEntity
  8
Pel_PEL
 62
     2
100
AcDbLine
 10
1.087019054364159
 20
0.1250000001082512
 30
0.0
 11
1.114082348236866
 21
0.1406250001108162
 31
0.0
  0
LINE
  5
E281
330
E1D7
100
AcDbEntity
  8
Pel_PEL
 62
     2
100
AcDbLine
 10
1.70310952652731
 20
0.432899999572868
 30
0.0
 11
1.360421419873592
 21
0.2350489290132458
 31
0.0
  0
LINE
  5
E282
330
E1D7
100
AcDbEntity
  8
Pel_PEL
 62
     2
100
AcDbLine
 10
1.682411519380259
 20
0.4687499995669882
 30
0.0
 11
1.70310952652731
 21
0.432899999572868
 31
0.0
  0
LINE
  5
E283
330
E1D7
100
AcDbEntity
  8
Pel_PEL
 62
     2
100
AcDbLine
 10
1.914846555397694
 20
0.9490392911795737
 30
0.0
 11
1.914846555397694
 21
0.7371392911913546
 31
0.0
  0
LINE
  5
E284
330
E1D7
100
AcDbEntity
  8
Pel_PEL
 62
     2
100
AcDbLine
 10
1.873450541093401
 20
0.9251392911854665
 30
0.0
 11
1.914846555397694
 21
0.9490392911795737
 31
0.0
  0
LINE
  5
E285
330
E1D7
100
AcDbEntity
  8
Pel_PEL
 62
     2
100
AcDbLine
 10
1.752466791403225
 20
1.292789291523753
 30
0.0
 11
1.914846555397694
 21
0.9490392911795737
 31
0.0
  0
LINE
  5
E286
330
E1D7
100
AcDbEntity
  8
Pel_PEL
 62
     2
100
AcDbLine
 10
1.752466791403225
 20
1.292789291523753
 30
0.0
 11
0.8323147996821838
 21
1.824039291464785
 31
0.0
  0
LINE
  5
E287
330
E1D7
100
AcDbEntity
  8
Pel_PEL
 62
     2
100
AcDbLine
 10
1.711070777102328
 20
1.268889291523755
 30
0.0
 11
1.752466791403225
 21
1.292789291523753
 31
0.0
  0
LINE
  5
E288
330
E1D7
100
AcDbEntity
  8
Pel_PEL
 62
     2
100
AcDbLine
 10
0.7909187855167091
 20
1.800139291550813
 30
0.0
 11
0.8323147996821838
 21
1.824039291464785
 31
0.0
  0
POLYLINE
  5
E289
330
E1D7
100
AcDbEntity
  8
Pel_PEL
 62
     2
100
AcDb2dPolyline
 66
     1
 10
0.0
 20
0.0
 30
0.0
  0
VERTEX
  5
F387
330
E289
100
AcDbEntity
  8
Pel_PEL
 62
     2
100
AcDbVertex
100
AcDb2dVertex
 10
0.8736789934851145
 20
1.515417130239313
 30
0.0
  0
VERTEX
  5
F388
330
E289
100
AcDbEntity
  8
Pel_PEL
 62
     2
100
AcDbVertex
100
AcDb2dVertex
 10
0.8690692170738749
 20
1.511143179887035
 30
0.0
 42
0.1038793848005699
  0
VERTEX
  5
F389
330
E289
100
AcDbEntity
  8
Pel_PEL
 62
     2
100
AcDbVertex
100
AcDb2dVertex
 10
0.8561657282503638
 20
1.479488502869315
 30
0.0
 42
0.0911987084139475
  0
VERTEX
  5
F38A
330
E289
100
AcDbEntity
  8
Pel_PEL
 62
     2
100
AcDbVertex
100
AcDb2dVertex
 10
0.856230176265889
 20
1.444488904409645
 30
0.0
  0
VERTEX
  5
F38B
330
E289
100
AcDbEntity
  8
Pel_PEL
 62
     2
100
AcDbVertex
100
AcDb2dVertex
 10
0.86930051194674
 20
1.408807358065132
 30
0.0
  0
VERTEX
  5
F38C
330
E289
100
AcDbEntity
  8
Pel_PEL
 62
     2
100
AcDbVertex
100
AcDb2dVertex
 10
0.8933688237333115
 20
1.379401188778899
 30
0.0
 42
0.0911987084139502
  0
VERTEX
  5
F38D
330
E289
100
AcDbEntity
  8
Pel_PEL
 62
     2
100
AcDbVertex
100
AcDb2dVertex
 10
0.923467138848057
 20
1.361538728894032
 30
0.0
 42
0.1038793848005709
  0
VERTEX
  5
F38E
330
E289
100
AcDbEntity
  8
Pel_PEL
 62
     2
100
AcDbVertex
100
AcDb2dVertex
 10
0.9572835986339072
 20
1.356542165228205
 30
0.0
  0
VERTEX
  5
F38F
330
E289
100
AcDbEntity
  8
Pel_PEL
 62
     2
100
AcDbVertex
100
AcDb2dVertex
 10
0.9643162857949896
 20
1.358636363280368
 30
0.0
  0
SEQEND
  5
F390
330
E289
100
AcDbEntity
  8
Pel_PEL
 62
     2
  0
POLYLINE
  5
E294
330
E1D7
100
AcDbEntity
  8
Pel_PEL
 62
     2
100
AcDb2dPolyline
 66
     1
 10
0.0
 20
0.0
 30
0.0
  0
VERTEX
  5
F392
330
E294
100
AcDbEntity
  8
Pel_PEL
 62
     2
100
AcDbVertex
100
AcDb2dVertex
 10
1.198438520901568
 20
1.390917130320502
 30
0.0
  0
VERTEX
  5
F393
330
E294
100
AcDbEntity
  8
Pel_PEL
 62
     2
100
AcDbVertex
100
AcDb2dVertex
 10
1.193828744490328
 20
1.386643179968217
 30
0.0
 42
0.1038793848005699
  0
VERTEX
  5
F394
330
E294
100
AcDbEntity
  8
Pel_PEL
 62
     2
100
AcDbVertex
100
AcDb2dVertex
 10
1.180925255666817
 20
1.354988502950497
 30
0.0
 42
0.0911987084139475
  0
VERTEX
  5
F395
330
E294
100
AcDbEntity
  8
Pel_PEL
 62
     2
100
AcDbVertex
100
AcDb2dVertex
 10
1.180989703682342
 20
1.319988904490834
 30
0.0
  0
VERTEX
  5
F396
330
E294
100
AcDbEntity
  8
Pel_PEL
 62
     2
100
AcDbVertex
100
AcDb2dVertex
 10
1.19406003936319
 20
1.284307358146314
 30
0.0
  0
VERTEX
  5
F397
330
E294
100
AcDbEntity
  8
Pel_PEL
 62
     2
100
AcDbVertex
100
AcDb2dVertex
 10
1.218128351149768
 20
1.254901188860095
 30
0.0
 42
0.0911987084139502
  0
VERTEX
  5
F398
330
E294
100
AcDbEntity
  8
Pel_PEL
 62
     2
100
AcDbVertex
100
AcDb2dVertex
 10
1.248226666264514
 20
1.237038728975221
 30
0.0
 42
0.1038793848005709
  0
VERTEX
  5
F399
330
E294
100
AcDbEntity
  8
Pel_PEL
 62
     2
100
AcDbVertex
100
AcDb2dVertex
 10
1.282043126050361
 20
1.232042165309394
 30
0.0
  0
VERTEX
  5
F39A
330
E294
100
AcDbEntity
  8
Pel_PEL
 62
     2
100
AcDbVertex
100
AcDb2dVertex
 10
1.289075813211439
 20
1.234136363361557
 30
0.0
  0
SEQEND
  5
F39B
330
E294
100
AcDbEntity
  8
Pel_PEL
 62
     2
  0
POLYLINE
  5
E29F
330
E1D7
100
AcDbEntity
  8
Pel_PEL
 62
     2
100
AcDb2dPolyline
 66
     1
 10
0.0
 20
0.0
 30
0.0
  0
VERTEX
  5
F39D
330
E29F
100
AcDbEntity
  8
Pel_PEL
 62
     2
100
AcDbVertex
100
AcDb2dVertex
 10
1.523198047661775
 20
1.265417130185191
 30
0.0
  0
VERTEX
  5
F39E
330
E29F
100
AcDbEntity
  8
Pel_PEL
 62
     2
100
AcDbVertex
100
AcDb2dVertex
 10
1.518588271250536
 20
1.261143179832906
 30
0.0
 42
0.1038793848005699
  0
VERTEX
  5
F39F
330
E29F
100
AcDbEntity
  8
Pel_PEL
 62
     2
100
AcDbVertex
100
AcDb2dVertex
 10
1.505684782427021
 20
1.229488502815186
 30
0.0
 42
0.0911987084139475
  0
VERTEX
  5
F3A0
330
E29F
100
AcDbEntity
  8
Pel_PEL
 62
     2
100
AcDbVertex
100
AcDb2dVertex
 10
1.505749230442546
 20
1.194488904355516
 30
0.0
  0
VERTEX
  5
F3A1
330
E29F
100
AcDbEntity
  8
Pel_PEL
 62
     2
100
AcDbVertex
100
AcDb2dVertex
 10
1.518819566123394
 20
1.158807358011003
 30
0.0
  0
VERTEX
  5
F3A2
330
E29F
100
AcDbEntity
  8
Pel_PEL
 62
     2
100
AcDbVertex
100
AcDb2dVertex
 10
1.542887877909972
 20
1.129401188724777
 30
0.0
 42
0.0911987084139502
  0
VERTEX
  5
F3A3
330
E29F
100
AcDbEntity
  8
Pel_PEL
 62
     2
100
AcDbVertex
100
AcDb2dVertex
 10
1.572986193024718
 20
1.111538728839903
 30
0.0
 42
0.1038793848005709
  0
VERTEX
  5
F3A4
330
E29F
100
AcDbEntity
  8
Pel_PEL
 62
     2
100
AcDbVertex
100
AcDb2dVertex
 10
1.606802652810564
 20
1.106542165174076
 30
0.0
  0
VERTEX
  5
F3A5
330
E29F
100
AcDbEntity
  8
Pel_PEL
 62
     2
100
AcDbVertex
100
AcDb2dVertex
 10
1.613835339971643
 20
1.108636363226239
 30
0.0
  0
SEQEND
  5
F3A6
330
E29F
100
AcDbEntity
  8
Pel_PEL
 62
     2
  0
LINE
  5
E2AA
330
E1D7
100
AcDbEntity
  8
Pel_PEL
 62
     2
100
AcDbLine
 10
0.7909187855167091
 20
1.800139291550813
 30
0.0
 11
0.5744124337244614
 21
1.675139291916174
 31
0.0
  0
LINE
  5
E2AB
330
E1D7
100
AcDbEntity
  8
Pel_PEL
 62
     2
100
AcDbLine
 10
1.711070777102328
 20
1.268889291523755
 30
0.0
 11
1.873450541093401
 21
0.9251392911854665
 31
0.0
  0
LINE
  5
E2AC
330
E1D7
100
AcDbEntity
  8
Pel_PEL
 62
     2
100
AcDbLine
 10
1.223931487408929
 20
1.550139291550813
 30
0.0
 11
1.711070777102328
 21
1.268889291523755
 31
0.0
  0
LINE
  5
E2AD
330
E1D7
100
AcDbEntity
  8
Pel_PEL
 62
     2
100
AcDbLine
 10
1.223931487408929
 20
1.550139291550813
 30
0.0
 11
0.7909187855167091
 21
1.800139291550813
 31
0.0
  0
LINE
  5
E2AE
330
E1D7
100
AcDbEntity
  8
Pel_PEL
 62
     2
100
AcDbLine
 10
0.5744124337244614
 20
1.487139291916172
 30
0.0
 11
0.5744124337244614
 21
1.675139291916174
 31
0.0
  0
LINE
  5
E2AF
330
E1D7
100
AcDbEntity
  8
Pel_PEL
 62
     2
100
AcDbLine
 10
1.873450541093401
 20
0.7371392911854642
 30
0.0
 11
1.873450541093401
 21
0.9251392911854665
 31
0.0
  0
LINE
  5
E2B0
330
E1D7
100
AcDbEntity
  8
Pel_PEL
 62
     2
100
AcDbLine
 10
0.5744124337244614
 20
1.487139291916172
 30
0.0
 11
1.873450541093401
 21
0.7371392911854642
 31
0.0
  0
LINE
  5
E2B1
330
E1D7
100
AcDbEntity
  8
Pel_PEL
 62
     2
100
AcDbLine
 10
1.682411519380259
 20
0.4687499995669882
 30
0.0
 11
1.342525405578484
 21
0.272516660334162
 31
0.0
  0
LINE
  5
E2B2
330
E1D7
100
AcDbEntity
  8
Pel_PEL
 62
     2
100
AcDbLine
 10
0.3833734120581944
 20
1.21875000032476
 30
0.0
 11
1.682411519380259
 21
0.4687499995669882
 31
0.0
  0
LINE
  5
E2B3
330
E1D7
100
AcDbEntity
  8
Pel_PEL
 62
     2
100
AcDbLine
 10
0.0434872972251697
 20
1.022516660496542
 30
0.0
 11
0.3833734120581944
 21
1.21875000032476
 31
0.0
  0
LINE
  5
E2B4
330
E1D7
100
AcDbEntity
  8
Pel_PEL
 62
     2
100
AcDbLine
 10
0.2209936486077808
 20
0.6249999997293614
 30
0.0
 11
1.087019054176657
 21
0.1249999988633377
 31
0.0
  0
LINE
  5
E2B5
330
E1D7
100
AcDbEntity
  8
Pel_PEL
 62
     2
100
AcDbLine
 10
0.0044872972155616
 20
0.9549666789958095
 30
0.0
 11
0.0044872972155616
 21
0.78125
 31
0.0
  0
LINE
  5
E2B6
330
E1D7
100
AcDbEntity
  8
Pel_PEL
 62
     2
100
AcDbLine
 10
1.342525405578484
 20
0.272516660334162
 30
0.0
 11
0.0434872977173555
 21
1.022516661349037
 31
0.0
  0
LINE
  5
E2B7
330
E1D7
100
AcDbEntity
  8
Pel_PEL
 62
     2
100
AcDbLine
 10
1.303525405568876
 20
0.03125
 30
0.0
 11
1.303525405568876
 21
0.2049666788334292
 31
0.0
  0
ENDBLK
  5
E2B8
330
E1D7
100
AcDbEntity
  8
0
100
AcDbBlockEnd
  0
BLOCK
  5
E2BA
330
E2B9
100
AcDbEntity
  8
0
100
AcDbBlockBegin
  2
5072ISO
 70
     0
 10
0.0
 20
0.0
 30
0.0
  3
5072ISO
  1

  0
POLYLINE
  5
E2BB
330
E2B9
100
AcDbEntity
  8
Pel_PEL
 62
     2
100
AcDb2dPolyline
 66
     1
 10
0.0
 20
0.0
 30
0.0
 70
     1
  0
VERTEX
  5
F148
330
E2BB
100
AcDbEntity
  8
Pel_PEL
 62
     2
100
AcDbVertex
100
AcDb2dVertex
 10
0.1411145559552942
 20
0.9177428560223539
 30
0.0
  0
VERTEX
  5
F149
330
E2BB
100
AcDbEntity
  8
Pel_PEL
 62
     2
100
AcDbVertex
100
AcDb2dVertex
 10
0.1372772698861624
 20
0.9130920597705198
 30
0.0
  0
VERTEX
  5
F14A
330
E2BB
100
AcDbEntity
  8
Pel_PEL
 62
     2
100
AcDbVertex
100
AcDb2dVertex
 10
0.1355698356668107
 20
0.9069180205066977
 30
0.0
  0
VERTEX
  5
F14B
330
E2BB
100
AcDbEntity
  8
Pel_PEL
 62
     2
100
AcDbVertex
100
AcDb2dVertex
 10
0.1363572092958698
 20
0.9004637959494132
 30
0.0
  0
VERTEX
  5
F14C
330
E2BB
100
AcDbEntity
  8
Pel_PEL
 62
     2
100
AcDbVertex
100
AcDb2dVertex
 10
0.139566149166658
 20
0.8944002845369034
 30
0.0
  0
VERTEX
  5
F14D
330
E2BB
100
AcDbEntity
  8
Pel_PEL
 62
     2
100
AcDbVertex
100
AcDb2dVertex
 10
0.1446846849693451
 20
0.8898325655240206
 30
0.0
  0
VERTEX
  5
F14E
330
E2BB
100
AcDbEntity
  8
Pel_PEL
 62
     2
100
AcDbVertex
100
AcDb2dVertex
 10
0.1507625102061283
 20
0.8875223680738741
 30
0.0
  0
VERTEX
  5
F14F
330
E2BB
100
AcDbEntity
  8
Pel_PEL
 62
     2
100
AcDbVertex
100
AcDb2dVertex
 10
0.1571657915749505
 20
0.8877014774158453
 30
0.0
  0
VERTEX
  5
F150
330
E2BB
100
AcDbEntity
  8
Pel_PEL
 62
     2
100
AcDbVertex
100
AcDb2dVertex
 10
0.1626002423375148
 20
0.8903132613007791
 30
0.0
  0
VERTEX
  5
F151
330
E2BB
100
AcDbEntity
  8
Pel_PEL
 62
     2
100
AcDbVertex
100
AcDb2dVertex
 10
0.1664375284066466
 20
0.8949640575526061
 30
0.0
  0
VERTEX
  5
F152
330
E2BB
100
AcDbEntity
  8
Pel_PEL
 62
     2
100
AcDbVertex
100
AcDb2dVertex
 10
0.1681449626259983
 20
0.9011380968164353
 30
0.0
  0
VERTEX
  5
F153
330
E2BB
100
AcDbEntity
  8
Pel_PEL
 62
     2
100
AcDbVertex
100
AcDb2dVertex
 10
0.1673575889969392
 20
0.9075923213737127
 30
0.0
  0
VERTEX
  5
F154
330
E2BB
100
AcDbEntity
  8
Pel_PEL
 62
     2
100
AcDbVertex
100
AcDb2dVertex
 10
0.164148649126151
 20
0.913655832786226
 30
0.0
  0
VERTEX
  5
F155
330
E2BB
100
AcDbEntity
  8
Pel_PEL
 62
     2
100
AcDbVertex
100
AcDb2dVertex
 10
0.1590301133234639
 20
0.9182235517991053
 30
0.0
  0
VERTEX
  5
F156
330
E2BB
100
AcDbEntity
  8
Pel_PEL
 62
     2
100
AcDbVertex
100
AcDb2dVertex
 10
0.1529522880866807
 20
0.9205337492492589
 30
0.0
  0
VERTEX
  5
F157
330
E2BB
100
AcDbEntity
  8
Pel_PEL
 62
     2
100
AcDbVertex
100
AcDb2dVertex
 10
0.1465490067178585
 20
0.9203546399072841
 30
0.0
  0
SEQEND
  5
F158
330
E2BB
100
AcDbEntity
  8
Pel_PEL
 62
     2
  0
POLYLINE
  5
E2CD
330
E2B9
100
AcDbEntity
  8
Pel_PEL
 62
     2
100
AcDb2dPolyline
 66
     1
 10
0.0
 20
0.0
 30
0.0
  0
VERTEX
  5
F15A
330
E2CD
100
AcDbEntity
  8
Pel_PEL
 62
     2
100
AcDbVertex
100
AcDb2dVertex
 10
0.0948343923181057
 20
0.8899370524323835
 30
0.0
  0
VERTEX
  5
F15B
330
E2CD
100
AcDbEntity
  8
Pel_PEL
 62
     2
100
AcDbVertex
100
AcDb2dVertex
 10
0.1040503909520751
 20
0.8747936446296762
 30
0.0
  0
VERTEX
  5
F15C
330
E2CD
100
AcDbEntity
  8
Pel_PEL
 62
     2
100
AcDbVertex
100
AcDb2dVertex
 10
0.1215895640685289
 20
0.85916713813792
 30
0.0
 42
0.0849147392212459
  0
VERTEX
  5
F15D
330
E2CD
100
AcDbEntity
  8
Pel_PEL
 62
     2
100
AcDbVertex
100
AcDb2dVertex
 10
0.1404476367082097
 20
0.8509659107082434
 30
0.0
 42
0.106306732834116
  0
VERTEX
  5
F15E
330
E2CD
100
AcDbEntity
  8
Pel_PEL
 62
     2
100
AcDbVertex
100
AcDb2dVertex
 10
0.160192195273126
 20
0.8503935834056655
 30
0.0
  0
VERTEX
  5
F15F
330
E2CD
100
AcDbEntity
  8
Pel_PEL
 62
     2
100
AcDbVertex
100
AcDb2dVertex
 10
0.1750380776558629
 20
0.8573618401462717
 30
0.0
  0
VERTEX
  5
F160
330
E2CD
100
AcDbEntity
  8
Pel_PEL
 62
     2
100
AcDbVertex
100
AcDb2dVertex
 10
0.1845661112126429
 20
0.8707100011531601
 30
0.0
 42
0.1063067328341139
  0
VERTEX
  5
F161
330
E2CD
100
AcDbEntity
  8
Pel_PEL
 62
     2
100
AcDbVertex
100
AcDb2dVertex
 10
0.1875591026163583
 20
0.8902347842229367
 30
0.0
 42
0.0849147392212502
  0
VERTEX
  5
F162
330
E2CD
100
AcDbEntity
  8
Pel_PEL
 62
     2
100
AcDbVertex
100
AcDb2dVertex
 10
0.1828882823228781
 20
0.9102615281625539
 30
0.0
  0
VERTEX
  5
F163
330
E2CD
100
AcDbEntity
  8
Pel_PEL
 62
     2
100
AcDbVertex
100
AcDb2dVertex
 10
0.1706760649826506
 20
0.930328218133269
 30
0.0
  0
VERTEX
  5
F164
330
E2CD
100
AcDbEntity
  8
Pel_PEL
 62
     2
100
AcDbVertex
100
AcDb2dVertex
 10
0.1531368918662004
 20
0.9459547246250252
 30
0.0
 42
0.0849147392212467
  0
VERTEX
  5
F165
330
E2CD
100
AcDbEntity
  8
Pel_PEL
 62
     2
100
AcDbVertex
100
AcDb2dVertex
 10
0.1342788192265161
 20
0.9541559520547018
 30
0.0
 42
0.106306732834117
  0
VERTEX
  5
F166
330
E2CD
100
AcDbEntity
  8
Pel_PEL
 62
     2
100
AcDbVertex
100
AcDb2dVertex
 10
0.1145342606615998
 20
0.9547282793572762
 30
0.0
  0
VERTEX
  5
F167
330
E2CD
100
AcDbEntity
  8
Pel_PEL
 62
     2
100
AcDbVertex
100
AcDb2dVertex
 10
0.0996883782788629
 20
0.9477600226166735
 30
0.0
  0
SEQEND
  5
F168
330
E2CD
100
AcDbEntity
  8
Pel_PEL
 62
     2
  0
POLYLINE
  5
E2DD
330
E2B9
100
AcDbEntity
  8
Pel_PEL
 62
     2
100
AcDb2dPolyline
 66
     1
 10
0.0
 20
0.0
 30
0.0
  0
VERTEX
  5
F16A
330
E2DD
100
AcDbEntity
  8
Pel_PEL
 62
     2
100
AcDbVertex
100
AcDb2dVertex
 10
0.0996883782788629
 20
0.9477600226166735
 30
0.0
  0
VERTEX
  5
F16B
330
E2DD
100
AcDbEntity
  8
Pel_PEL
 62
     2
100
AcDbVertex
100
AcDb2dVertex
 10
0.0901603447220829
 20
0.9344118616097816
 30
0.0
 42
0.1063067328341143
  0
VERTEX
  5
F16C
330
E2DD
100
AcDbEntity
  8
Pel_PEL
 62
     2
100
AcDbVertex
100
AcDb2dVertex
 10
0.0871673533183675
 20
0.9148870785400085
 30
0.0
 42
0.0849147392212466
  0
VERTEX
  5
F16D
330
E2DD
100
AcDbEntity
  8
Pel_PEL
 62
     2
100
AcDbVertex
100
AcDb2dVertex
 10
0.0918381736118477
 20
0.8948603346003913
 30
0.0
  0
VERTEX
  5
F16E
330
E2DD
100
AcDbEntity
  8
Pel_PEL
 62
     2
100
AcDbVertex
100
AcDb2dVertex
 10
0.0948343923181057
 20
0.8899370524323835
 30
0.0
  0
SEQEND
  5
F16F
330
E2DD
100
AcDbEntity
  8
Pel_PEL
 62
     2
  0
POLYLINE
  5
E2E4
330
E2B9
100
AcDbEntity
  8
Pel_PEL
 62
     2
100
AcDb2dPolyline
 66
     1
 10
0.0
 20
0.0
 30
0.0
 70
     1
  0
VERTEX
  5
F171
330
E2E4
100
AcDbEntity
  8
Pel_PEL
 62
     2
100
AcDbVertex
100
AcDb2dVertex
 10
1.438320209973753
 20
0.1693974675783707
 30
0.0
  0
VERTEX
  5
F172
330
E2E4
100
AcDbEntity
  8
Pel_PEL
 62
     2
100
AcDbVertex
100
AcDb2dVertex
 10
1.434482923904624
 20
0.1647466713265402
 30
0.0
  0
VERTEX
  5
F173
330
E2E4
100
AcDbEntity
  8
Pel_PEL
 62
     2
100
AcDbVertex
100
AcDb2dVertex
 10
1.432775489685269
 20
0.1585726320627145
 30
0.0
  0
VERTEX
  5
F174
330
E2E4
100
AcDbEntity
  8
Pel_PEL
 62
     2
100
AcDbVertex
100
AcDb2dVertex
 10
1.433562863314335
 20
0.1521184075054371
 30
0.0
  0
VERTEX
  5
F175
330
E2E4
100
AcDbEntity
  8
Pel_PEL
 62
     2
100
AcDbVertex
100
AcDb2dVertex
 10
1.43677180318512
 20
0.1460548960929238
 30
0.0
  0
VERTEX
  5
F176
330
E2E4
100
AcDbEntity
  8
Pel_PEL
 62
     2
100
AcDbVertex
100
AcDb2dVertex
 10
1.441890338987807
 20
0.1414871770800445
 30
0.0
  0
VERTEX
  5
F177
330
E2E4
100
AcDbEntity
  8
Pel_PEL
 62
     2
100
AcDbVertex
100
AcDb2dVertex
 10
1.447968164224587
 20
0.1391769796298909
 30
0.0
  0
VERTEX
  5
F178
330
E2E4
100
AcDbEntity
  8
Pel_PEL
 62
     2
100
AcDbVertex
100
AcDb2dVertex
 10
1.454371445593409
 20
0.1393560889718657
 30
0.0
  0
VERTEX
  5
F179
330
E2E4
100
AcDbEntity
  8
Pel_PEL
 62
     2
100
AcDbVertex
100
AcDb2dVertex
 10
1.45980589635598
 20
0.1419678728567995
 30
0.0
  0
VERTEX
  5
F17A
330
E2E4
100
AcDbEntity
  8
Pel_PEL
 62
     2
100
AcDbVertex
100
AcDb2dVertex
 10
1.463643182425109
 20
0.14661866910863
 30
0.0
  0
VERTEX
  5
F17B
330
E2E4
100
AcDbEntity
  8
Pel_PEL
 62
     2
100
AcDbVertex
100
AcDb2dVertex
 10
1.465350616644464
 20
0.1527927083724521
 30
0.0
  0
VERTEX
  5
F17C
330
E2E4
100
AcDbEntity
  8
Pel_PEL
 62
     2
100
AcDbVertex
100
AcDb2dVertex
 10
1.464563243015398
 20
0.1592469329297366
 30
0.0
  0
VERTEX
  5
F17D
330
E2E4
100
AcDbEntity
  8
Pel_PEL
 62
     2
100
AcDbVertex
100
AcDb2dVertex
 10
1.461354303144609
 20
0.1653104443422464
 30
0.0
  0
VERTEX
  5
F17E
330
E2E4
100
AcDbEntity
  8
Pel_PEL
 62
     2
100
AcDbVertex
100
AcDb2dVertex
 10
1.456235767341926
 20
0.1698781633551292
 30
0.0
  0
VERTEX
  5
F17F
330
E2E4
100
AcDbEntity
  8
Pel_PEL
 62
     2
100
AcDbVertex
100
AcDb2dVertex
 10
1.450157942105143
 20
0.1721883608052757
 30
0.0
  0
VERTEX
  5
F180
330
E2E4
100
AcDbEntity
  8
Pel_PEL
 62
     2
100
AcDbVertex
100
AcDb2dVertex
 10
1.443754660736324
 20
0.1720092514633045
 30
0.0
  0
SEQEND
  5
F181
330
E2E4
100
AcDbEntity
  8
Pel_PEL
 62
     2
  0
POLYLINE
  5
E2F6
330
E2B9
100
AcDbEntity
  8
Pel_PEL
 62
     2
100
AcDb2dPolyline
 66
     1
 10
0.0
 20
0.0
 30
0.0
  0
VERTEX
  5
F183
330
E2F6
100
AcDbEntity
  8
Pel_PEL
 62
     2
100
AcDbVertex
100
AcDb2dVertex
 10
1.388888252199329
 20
0.1835735623016923
 30
0.0
 42
0.1014984947904696
  0
VERTEX
  5
F184
330
E2F6
100
AcDbEntity
  8
Pel_PEL
 62
     2
100
AcDbVertex
100
AcDb2dVertex
 10
1.386205461671686
 20
0.1648870772409694
 30
0.0
 42
0.0849147392212466
  0
VERTEX
  5
F185
330
E2F6
100
AcDbEntity
  8
Pel_PEL
 62
     2
100
AcDbVertex
100
AcDb2dVertex
 10
1.390876281965162
 20
0.1448603333013523
 30
0.0
  0
VERTEX
  5
F186
330
E2F6
100
AcDbEntity
  8
Pel_PEL
 62
     2
100
AcDbVertex
100
AcDb2dVertex
 10
1.40308849930539
 20
0.1247936433306371
 30
0.0
  0
VERTEX
  5
F187
330
E2F6
100
AcDbEntity
  8
Pel_PEL
 62
     2
100
AcDbVertex
100
AcDb2dVertex
 10
1.420627672421844
 20
0.1091671368388809
 30
0.0
 42
0.0849147392212459
  0
VERTEX
  5
F188
330
E2F6
100
AcDbEntity
  8
Pel_PEL
 62
     2
100
AcDbVertex
100
AcDb2dVertex
 10
1.439485745061528
 20
0.1009659094092044
 30
0.0
 42
0.106306732834116
  0
VERTEX
  5
F189
330
E2F6
100
AcDbEntity
  8
Pel_PEL
 62
     2
100
AcDbVertex
100
AcDb2dVertex
 10
1.459230303626441
 20
0.10039358210663
 30
0.0
  0
VERTEX
  5
F18A
330
E2F6
100
AcDbEntity
  8
Pel_PEL
 62
     2
100
AcDbVertex
100
AcDb2dVertex
 10
1.474076186009178
 20
0.1073618388472326
 30
0.0
  0
VERTEX
  5
F18B
330
E2F6
100
AcDbEntity
  8
Pel_PEL
 62
     2
100
AcDbVertex
100
AcDb2dVertex
 10
1.483604219565958
 20
0.120709999854121
 30
0.0
 42
0.1063067328341139
  0
VERTEX
  5
F18C
330
E2F6
100
AcDbEntity
  8
Pel_PEL
 62
     2
100
AcDbVertex
100
AcDb2dVertex
 10
1.486597210969673
 20
0.1402347829238977
 30
0.0
 42
0.0849147392212502
  0
VERTEX
  5
F18D
330
E2F6
100
AcDbEntity
  8
Pel_PEL
 62
     2
100
AcDbVertex
100
AcDb2dVertex
 10
1.481926390676196
 20
0.1602615268635148
 30
0.0
  0
VERTEX
  5
F18E
330
E2F6
100
AcDbEntity
  8
Pel_PEL
 62
     2
100
AcDbVertex
100
AcDb2dVertex
 10
1.469714173335969
 20
0.1803282168342299
 30
0.0
  0
VERTEX
  5
F18F
330
E2F6
100
AcDbEntity
  8
Pel_PEL
 62
     2
100
AcDbVertex
100
AcDb2dVertex
 10
1.452175000219515
 20
0.1959547233259862
 30
0.0
 42
0.0849147392212467
  0
VERTEX
  5
F190
330
E2F6
100
AcDbEntity
  8
Pel_PEL
 62
     2
100
AcDbVertex
100
AcDb2dVertex
 10
1.433316927579831
 20
0.2041559507556592
 30
0.0
 42
0.106306732834117
  0
VERTEX
  5
F191
330
E2F6
100
AcDbEntity
  8
Pel_PEL
 62
     2
100
AcDbVertex
100
AcDb2dVertex
 10
1.413572369014918
 20
0.2047282780582371
 30
0.0
  0
VERTEX
  5
F192
330
E2F6
100
AcDbEntity
  8
Pel_PEL
 62
     2
100
AcDbVertex
100
AcDb2dVertex
 10
1.398726486632181
 20
0.197760021317638
 30
0.0
  0
SEQEND
  5
F193
330
E2F6
100
AcDbEntity
  8
Pel_PEL
 62
     2
  0
POLYLINE
  5
E308
330
E2B9
100
AcDbEntity
  8
Pel_PEL
 62
     2
100
AcDb2dPolyline
 66
     1
 10
0.0
 20
0.0
 30
0.0
  0
VERTEX
  5
F195
330
E308
100
AcDbEntity
  8
Pel_PEL
 62
     2
100
AcDbVertex
100
AcDb2dVertex
 10
1.398726486632181
 20
0.197760021317638
 30
0.0
  0
VERTEX
  5
F196
330
E308
100
AcDbEntity
  8
Pel_PEL
 62
     2
100
AcDbVertex
100
AcDb2dVertex
 10
1.389198453075401
 20
0.1844118603107425
 30
0.0
 42
0.004756911099564
  0
VERTEX
  5
F197
330
E308
100
AcDbEntity
  8
Pel_PEL
 62
     2
100
AcDbVertex
100
AcDb2dVertex
 10
1.388888252199329
 20
0.1835735623016923
 30
0.0
 42
0.0849147392212466
  0
SEQEND
  5
F198
330
E308
100
AcDbEntity
  8
Pel_PEL
 62
     2
  0
POLYLINE
  5
E30D
330
E2B9
100
AcDbEntity
  8
Pel_PEL
 62
     2
100
AcDb2dPolyline
 66
     1
 10
0.0
 20
0.0
 30
0.0
  0
VERTEX
  5
F19A
330
E30D
100
AcDbEntity
  8
Pel_PEL
 62
     2
100
AcDbVertex
100
AcDb2dVertex
 10
3.275147739591023
 20
2.384358609142985
 30
0.0
  0
VERTEX
  5
F19B
330
E30D
100
AcDbEntity
  8
Pel_PEL
 62
     2
100
AcDbVertex
100
AcDb2dVertex
 10
3.282974830415174
 20
2.347491135991099
 30
0.0
 42
0.0838538721264862
  0
VERTEX
  5
F19C
330
E30D
100
AcDbEntity
  8
Pel_PEL
 62
     2
100
AcDbVertex
100
AcDb2dVertex
 10
3.302917352755475
 20
2.312800614131838
 30
0.0
 42
0.1065560454386392
  0
VERTEX
  5
F19D
330
E30D
100
AcDbEntity
  8
Pel_PEL
 62
     2
100
AcDbVertex
100
AcDb2dVertex
 10
3.332980122127541
 20
2.289010998841156
 30
0.0
  0
VERTEX
  5
F19E
330
E30D
100
AcDbEntity
  8
Pel_PEL
 62
     2
100
AcDbVertex
100
AcDb2dVertex
 10
3.363734907363085
 20
2.282886328701714
 30
0.0
  0
VERTEX
  5
F19F
330
E30D
100
AcDbEntity
  8
Pel_PEL
 62
     2
100
AcDbVertex
100
AcDb2dVertex
 10
3.393456779630628
 20
2.292885264050717
 30
0.0
 42
0.1065560454386384
  0
VERTEX
  5
F1A0
330
E30D
100
AcDbEntity
  8
Pel_PEL
 62
     2
100
AcDbVertex
100
AcDb2dVertex
 10
3.420238234369396
 20
2.320316443027785
 30
0.0
 42
0.083853872126485
  0
VERTEX
  5
F1A1
330
E30D
100
AcDbEntity
  8
Pel_PEL
 62
     2
100
AcDbVertex
100
AcDb2dVertex
 10
3.435591206000243
 20
2.357268070410945
 30
0.0
  0
VERTEX
  5
F1A2
330
E30D
100
AcDbEntity
  8
Pel_PEL
 62
     2
100
AcDbVertex
100
AcDb2dVertex
 10
3.439328451133302
 20
2.403164903779014
 30
0.0
  0
VERTEX
  5
F1A3
330
E30D
100
AcDbEntity
  8
Pel_PEL
 62
     2
100
AcDbVertex
100
AcDb2dVertex
 10
3.429765289923459
 20
2.448209684409803
 30
0.0
 42
0.0838538721264845
  0
VERTEX
  5
F1A4
330
E30D
100
AcDbEntity
  8
Pel_PEL
 62
     2
100
AcDbVertex
100
AcDb2dVertex
 10
3.409822767583158
 20
2.482900206269071
 30
0.0
 42
0.1065560454386397
  0
VERTEX
  5
F1A5
330
E30D
100
AcDbEntity
  8
Pel_PEL
 62
     2
100
AcDbVertex
100
AcDb2dVertex
 10
3.379759998211092
 20
2.506689821559753
 30
0.0
  0
VERTEX
  5
F1A6
330
E30D
100
AcDbEntity
  8
Pel_PEL
 62
     2
100
AcDbVertex
100
AcDb2dVertex
 10
3.349005212975548
 20
2.512814491699195
 30
0.0
  0
SEQEND
  5
F1A7
330
E30D
100
AcDbEntity
  8
Pel_PEL
 62
     2
  0
POLYLINE
  5
E31C
330
E2B9
100
AcDbEntity
  8
Pel_PEL
 62
     2
100
AcDb2dPolyline
 66
     1
 10
0.0
 20
0.0
 30
0.0
  0
VERTEX
  5
F1A9
330
E31C
100
AcDbEntity
  8
Pel_PEL
 62
     2
100
AcDbVertex
100
AcDb2dVertex
 10
3.349005212975548
 20
2.512814491699195
 30
0.0
  0
VERTEX
  5
F1AA
330
E31C
100
AcDbEntity
  8
Pel_PEL
 62
     2
100
AcDbVertex
100
AcDb2dVertex
 10
3.319283340708011
 20
2.502815556350185
 30
0.0
 42
0.1065560454386363
  0
VERTEX
  5
F1AB
330
E31C
100
AcDbEntity
  8
Pel_PEL
 62
     2
100
AcDbVertex
100
AcDb2dVertex
 10
3.292501885969244
 20
2.475384377373117
 30
0.0
 42
0.0838538721264846
  0
VERTEX
  5
F1AC
330
E31C
100
AcDbEntity
  8
Pel_PEL
 62
     2
100
AcDbVertex
100
AcDb2dVertex
 10
3.27714891433839
 20
2.438432749989964
 30
0.0
  0
VERTEX
  5
F1AD
330
E31C
100
AcDbEntity
  8
Pel_PEL
 62
     2
100
AcDbVertex
100
AcDb2dVertex
 10
3.273411669205334
 20
2.392535916621888
 30
0.0
  0
VERTEX
  5
F1AE
330
E31C
100
AcDbEntity
  8
Pel_PEL
 62
     2
100
AcDbVertex
100
AcDb2dVertex
 10
3.275147739591023
 20
2.384358609142985
 30
0.0
 42
0.0838538721264862
  0
SEQEND
  5
F1AF
330
E31C
100
AcDbEntity
  8
Pel_PEL
 62
     2
  0
POLYLINE
  5
E324
330
E2B9
100
AcDbEntity
  8
Pel_PEL
 62
     2
100
AcDb2dPolyline
 66
     1
 10
0.0
 20
0.0
 30
0.0
  0
VERTEX
  5
F1B1
330
E324
100
AcDbEntity
  8
Pel_PEL
 62
     2
100
AcDbVertex
100
AcDb2dVertex
 10
1.618716571478298
 20
1.273067581271146
 30
0.0
 42
0.0535774748558795
  0
VERTEX
  5
F1B2
330
E324
100
AcDbEntity
  8
Pel_PEL
 62
     2
100
AcDbVertex
100
AcDb2dVertex
 10
1.583152252130616
 20
1.277429615824349
 30
0.0
 42
0.0818857169543329
  0
VERTEX
  5
F1B3
330
E324
100
AcDbEntity
  8
Pel_PEL
 62
     2
100
AcDbVertex
100
AcDb2dVertex
 10
1.518163033062581
 20
1.267712658368647
 30
0.0
 42
0.0818857169543329
  0
VERTEX
  5
F1B4
330
E324
100
AcDbEntity
  8
Pel_PEL
 62
     2
100
AcDbVertex
100
AcDb2dVertex
 10
1.45973309708091
 20
1.237646723517958
 30
0.0
 42
0.0899948163468052
  0
VERTEX
  5
F1B5
330
E324
100
AcDbEntity
  8
Pel_PEL
 62
     2
100
AcDbVertex
100
AcDb2dVertex
 10
1.418805016086576
 20
1.193946456201274
 30
0.0
 42
0.1044791440870665
  0
VERTEX
  5
F1B6
330
E324
100
AcDbEntity
  8
Pel_PEL
 62
     2
100
AcDbVertex
100
AcDb2dVertex
 10
1.39800555505775
 20
1.139505808323761
 30
0.0
  0
VERTEX
  5
F1B7
330
E324
100
AcDbEntity
  8
Pel_PEL
 62
     2
100
AcDbVertex
100
AcDb2dVertex
 10
1.402025256879781
 20
1.087770404294769
 30
0.0
  0
SEQEND
  5
F1B8
330
E324
100
AcDbEntity
  8
Pel_PEL
 62
     2
  0
POLYLINE
  5
E32D
330
E2B9
100
AcDbEntity
  8
Pel_PEL
 62
     2
100
AcDb2dPolyline
 66
     1
 10
0.0
 20
0.0
 30
0.0
  0
VERTEX
  5
F1BA
330
E32D
100
AcDbEntity
  8
Pel_PEL
 62
     2
100
AcDbVertex
100
AcDb2dVertex
 10
1.402025256879781
 20
1.087770404294769
 30
0.0
  0
VERTEX
  5
F1BB
330
E32D
100
AcDbEntity
  8
Pel_PEL
 62
     2
100
AcDbVertex
100
AcDb2dVertex
 10
1.42897573023723
 20
1.043426498077668
 30
0.0
 42
0.1044791440870653
  0
VERTEX
  5
F1BC
330
E32D
100
AcDbEntity
  8
Pel_PEL
 62
     2
100
AcDbVertex
100
AcDb2dVertex
 10
1.47765311081218
 20
1.011380993856736
 30
0.0
 42
0.0899948163468066
  0
VERTEX
  5
F1BD
330
E32D
100
AcDbEntity
  8
Pel_PEL
 62
     2
100
AcDbVertex
100
AcDb2dVertex
 10
1.53639758767532
 20
0.9998091480443918
 30
0.0
 42
0.0818857169543335
  0
VERTEX
  5
F1BE
330
E32D
100
AcDbEntity
  8
Pel_PEL
 62
     2
100
AcDbVertex
100
AcDb2dVertex
 10
1.601386806743352
 20
1.009526105500093
 30
0.0
 42
0.0818857169543352
  0
VERTEX
  5
F1BF
330
E32D
100
AcDbEntity
  8
Pel_PEL
 62
     2
100
AcDbVertex
100
AcDb2dVertex
 10
1.659816742725027
 20
1.039592040350786
 30
0.0
 42
0.0899948163468065
  0
VERTEX
  5
F1C0
330
E32D
100
AcDbEntity
  8
Pel_PEL
 62
     2
100
AcDbVertex
100
AcDb2dVertex
 10
1.700744823719361
 20
1.08329230766747
 30
0.0
 42
0.1044791440870654
  0
VERTEX
  5
F1C1
330
E32D
100
AcDbEntity
  8
Pel_PEL
 62
     2
100
AcDbVertex
100
AcDb2dVertex
 10
1.721544284748183
 20
1.137732955544976
 30
0.0
  0
VERTEX
  5
F1C2
330
E32D
100
AcDbEntity
  8
Pel_PEL
 62
     2
100
AcDbVertex
100
AcDb2dVertex
 10
1.717524582926156
 20
1.189468359573972
 30
0.0
  0
VERTEX
  5
F1C3
330
E32D
100
AcDbEntity
  8
Pel_PEL
 62
     2
100
AcDbVertex
100
AcDb2dVertex
 10
1.690574109568704
 20
1.233812265791073
 30
0.0
 42
0.1044791440870689
  0
VERTEX
  5
F1C4
330
E32D
100
AcDbEntity
  8
Pel_PEL
 62
     2
100
AcDbVertex
100
AcDb2dVertex
 10
1.641896728993749
 20
1.265857770012008
 30
0.0
 42
0.0362425907718538
  0
VERTEX
  5
F1C5
330
E32D
100
AcDbEntity
  8
Pel_PEL
 62
     2
100
AcDbVertex
100
AcDb2dVertex
 10
1.618716571478298
 20
1.273067581271146
 30
0.0
 42
0.0818857169543329
  0
SEQEND
  5
F1C6
330
E32D
100
AcDbEntity
  8
Pel_PEL
 62
     2
  0
LINE
  5
E33B
330
E2B9
100
AcDbEntity
  8
Pel_PEL
 62
     2
100
AcDbLine
 10
1.563637934647807
 20
0.2422649718085985
 30
0.0
 11
1.238878405590728
 21
0.4297649732700144
 31
0.0
  0
LINE
  5
E33C
330
E2B9
100
AcDbEntity
  8
Pel_PEL
 62
     2
100
AcDbLine
 10
0.0846960166472002
 20
0.8461324848108375
 30
0.0
 11
1.475240475027206
 21
0.043301267708685
 31
0.0
  0
LINE
  5
E33D
330
E2B9
100
AcDbEntity
  8
Pel_PEL
 62
     2
100
AcDbLine
 10
1.87499999990625
 20
0.3750000002165059
 30
0.0
 11
4.193003600453579
 21
1.713300002535476
 31
0.0
  0
LINE
  5
E33E
330
E2B9
100
AcDbEntity
  8
Pel_PEL
 62
     2
100
AcDbLine
 10
4.148316689758928
 20
1.750000000135315
 30
0.0
 11
2.632772231325894
 21
2.625000000893095
 31
0.0
  0
LINE
  5
E33F
330
E2B9
100
AcDbEntity
  8
Pel_PEL
 62
     2
100
AcDbLine
 10
2.515079377142122
 20
2.619550000195474
 30
0.0
 11
0.2512023678396069
 21
1.312499999891748
 31
0.0
  0
LINE
  5
E340
330
E2B9
100
AcDbEntity
  8
Pel_PEL
 62
     2
100
AcDbLine
 10
2.632772231325894
 20
2.625000000893095
 30
0.0
 11
2.632772231325894
 21
2.999999999161033
 31
0.0
  0
LINE
  5
E341
330
E2B9
100
AcDbEntity
  8
Pel_PEL
 62
     2
100
AcDbLine
 10
2.632772231325894
 20
2.999999999161033
 30
0.0
 11
4.148316689618305
 21
2.124999998484462
 31
0.0
  0
LINE
  5
E342
330
E2B9
100
AcDbEntity
  8
Pel_PEL
 62
     2
100
AcDbLine
 10
1.875
 20
0.3154174524951578
 30
0.0
 11
4.138877012828579
 21
1.622467454834655
 31
0.0
  0
LINE
  5
E343
330
E2B9
100
AcDbEntity
  8
Pel_PEL
 62
     2
100
AcDbLine
 10
4.148316689618305
 20
2.124999998484462
 30
0.0
 11
4.193003600453579
 21
2.150799998484458
 31
0.0
  0
LINE
  5
E344
330
E2B9
100
AcDbEntity
  8
Pel_PEL
 62
     2
100
AcDbLine
 10
4.193003600453579
 20
2.150799998484458
 30
0.0
 11
4.193003600453579
 21
1.713300002535476
 31
0.0
  0
LINE
  5
E345
330
E2B9
100
AcDbEntity
  8
Pel_PEL
 62
     2
100
AcDbLine
 10
4.138877012828579
 20
1.682049998430329
 30
0.0
 11
4.084750423610714
 21
1.713299999275314
 31
0.0
  0
LINE
  5
E346
330
E2B9
100
AcDbEntity
  8
Pel_PEL
 62
     2
100
AcDbLine
 10
4.084750423610714
 20
1.713299999275314
 30
0.0
 11
4.148316689758928
 21
1.750000000135315
 31
0.0
  0
LINE
  5
E347
330
E2B9
100
AcDbEntity
  8
Pel_PEL
 62
     2
100
AcDbLine
 10
4.148316689618305
 20
1.750000000054129
 30
0.0
 11
4.148316689618305
 21
2.125
 31
0.0
  0
LINE
  5
E348
330
E2B9
100
AcDbEntity
  8
Pel_PEL
 62
     2
100
AcDbLine
 10
4.138877012828579
 20
1.682049998430329
 30
0.0
 11
4.138877012828579
 21
1.622467454834655
 31
0.0
  0
LINE
  5
E349
330
E2B9
100
AcDbEntity
  8
Pel_PEL
 62
     2
100
AcDbLine
 10
4.193003600453579
 20
2.150799998484458
 30
0.0
 11
2.677459140902882
 21
3.02579999988751
 31
0.0
  0
LINE
  5
E34A
330
E2B9
100
AcDbEntity
  8
Pel_PEL
 62
     2
100
AcDbLine
 10
2.632772231325894
 20
3.000000000622456
 30
0.0
 11
2.677459140902882
 21
3.02579999988751
 31
0.0
  0
LINE
  5
E34B
330
E2B9
100
AcDbEntity
  8
Pel_PEL
 62
     2
100
AcDbLine
 10
2.569205965177673
 20
2.588300000033093
 30
0.0
 11
2.632772231325894
 21
2.625000000893095
 31
0.0
  0
LINE
  5
E34C
330
E2B9
100
AcDbEntity
  8
Pel_PEL
 62
     2
100
AcDbLine
 10
2.569205965177673
 20
2.588300000033093
 30
0.0
 11
2.515079377142122
 21
2.619550000195474
 31
0.0
  0
POLYLINE
  5
E34D
330
E2B9
100
AcDbEntity
  8
Pel_PEL
 62
     2
100
AcDb2dPolyline
 66
     1
 10
0.0
 20
0.0
 30
0.0
  0
VERTEX
  5
F1DA
330
E34D
100
AcDbEntity
  8
Pel_PEL
 62
     2
100
AcDbVertex
100
AcDb2dVertex
 10
3.339853257184721
 20
2.509735620575405
 30
0.0
 42
0.0430030992557036
  0
VERTEX
  5
F1DB
330
E34D
100
AcDbEntity
  8
Pel_PEL
 62
     2
100
AcDbVertex
100
AcDb2dVertex
 10
3.330437796986206
 20
2.497274217245205
 30
0.0
 42
0.0838538721264846
  0
VERTEX
  5
F1DC
330
E34D
100
AcDbEntity
  8
Pel_PEL
 62
     2
100
AcDbVertex
100
AcDb2dVertex
 10
3.315084825355352
 20
2.460322589862045
 30
0.0
  0
VERTEX
  5
F1DD
330
E34D
100
AcDbEntity
  8
Pel_PEL
 62
     2
100
AcDbVertex
100
AcDb2dVertex
 10
3.3113475802223
 20
2.414425756493976
 30
0.0
  0
VERTEX
  5
F1DE
330
E34D
100
AcDbEntity
  8
Pel_PEL
 62
     2
100
AcDbVertex
100
AcDb2dVertex
 10
3.32091074143214
 20
2.369380975863187
 30
0.0
 42
0.0838538721264862
  0
VERTEX
  5
F1DF
330
E34D
100
AcDbEntity
  8
Pel_PEL
 62
     2
100
AcDbVertex
100
AcDb2dVertex
 10
3.340853263772437
 20
2.334690454003926
 30
0.0
 42
0.1065560454386392
  0
VERTEX
  5
F1E0
330
E34D
100
AcDbEntity
  8
Pel_PEL
 62
     2
100
AcDbVertex
100
AcDb2dVertex
 10
3.370916033144503
 20
2.31090083871323
 30
0.0
  0
VERTEX
  5
F1E1
330
E34D
100
AcDbEntity
  8
Pel_PEL
 62
     2
100
AcDbVertex
100
AcDb2dVertex
 10
3.401670818380054
 20
2.304776168573802
 30
0.0
  0
VERTEX
  5
F1E2
330
E34D
100
AcDbEntity
  8
Pel_PEL
 62
     2
100
AcDbVertex
100
AcDb2dVertex
 10
3.410822774170888
 20
2.307855039697585
 30
0.0
 42
0.1065560454386384
  0
SEQEND
  5
F1E3
330
E34D
100
AcDbEntity
  8
Pel_PEL
 62
     2
  0
POLYLINE
  5
E358
330
E2B9
100
AcDbEntity
  8
Pel_PEL
 62
     2
100
AcDb2dPolyline
 66
     1
 10
0.0
 20
0.0
 30
0.0
  0
VERTEX
  5
F1E5
330
E358
100
AcDbEntity
  8
Pel_PEL
 62
     2
100
AcDbVertex
100
AcDb2dVertex
 10
1.718806825835894
 20
1.124537708128993
 30
0.0
  0
VERTEX
  5
F1E6
330
E358
100
AcDbEntity
  8
Pel_PEL
 62
     2
100
AcDbVertex
100
AcDb2dVertex
 10
1.717524582926156
 20
1.141040761821969
 30
0.0
  0
VERTEX
  5
F1E7
330
E358
100
AcDbEntity
  8
Pel_PEL
 62
     2
100
AcDbVertex
100
AcDb2dVertex
 10
1.690574109568704
 20
1.18538466803907
 30
0.0
 42
0.1044791440870689
  0
VERTEX
  5
F1E8
330
E358
100
AcDbEntity
  8
Pel_PEL
 62
     2
100
AcDbVertex
100
AcDb2dVertex
 10
1.641896728993749
 20
1.217430172260002
 30
0.0
 42
0.0899948163468077
  0
VERTEX
  5
F1E9
330
E358
100
AcDbEntity
  8
Pel_PEL
 62
     2
100
AcDbVertex
100
AcDb2dVertex
 10
1.583152252130616
 20
1.229002018072346
 30
0.0
 42
0.0818857169543329
  0
VERTEX
  5
F1EA
330
E358
100
AcDbEntity
  8
Pel_PEL
 62
     2
100
AcDbVertex
100
AcDb2dVertex
 10
1.518163033062581
 20
1.219285060616645
 30
0.0
 42
0.0818857169543329
  0
VERTEX
  5
F1EB
330
E358
100
AcDbEntity
  8
Pel_PEL
 62
     2
100
AcDbVertex
100
AcDb2dVertex
 10
1.45973309708091
 20
1.189219125765955
 30
0.0
 42
0.0899948163468052
  0
VERTEX
  5
F1EC
330
E358
100
AcDbEntity
  8
Pel_PEL
 62
     2
100
AcDbVertex
100
AcDb2dVertex
 10
1.418805016086576
 20
1.145518858449268
 30
0.0
 42
0.0803660774078969
  0
VERTEX
  5
F1ED
330
E358
100
AcDbEntity
  8
Pel_PEL
 62
     2
100
AcDbVertex
100
AcDb2dVertex
 10
1.400743013970039
 20
1.104273457987748
 30
0.0
  0
SEQEND
  5
F1EE
330
E358
100
AcDbEntity
  8
Pel_PEL
 62
     2
  0
LINE
  5
E363
330
E2B9
100
AcDbEntity
  8
Pel_PEL
 62
     2
100
AcDbLine
 10
0.4677087159505753
 20
1.000000000595392
 30
0.0
 11
1.333734121238205
 21
0.4999999998917453
 31
0.0
  0
LINE
  5
E364
330
E2B9
100
AcDbEntity
  8
Pel_PEL
 62
     2
100
AcDbLine
 10
1.333734121238205
 20
0.4999999998917453
 30
0.0
 11
1.275480945835656
 21
0.4663675134029859
 31
0.0
  0
LINE
  5
E365
330
E2B9
100
AcDbEntity
  8
Pel_PEL
 62
     2
100
AcDbLine
 10
0.4677087159505753
 20
1.000000000054125
 30
0.0
 11
0.4094555403136582
 21
0.9663675134300468
 31
0.0
  0
LINE
  5
E366
330
E2B9
100
AcDbEntity
  8
Pel_PEL
 62
     2
100
AcDbLine
 10
0.3594555403013402
 20
0.8797649730444909
 30
0.0
 11
0.3594555403013402
 21
0.8125000001353193
 31
0.0
  0
LINE
  5
E367
330
E2B9
100
AcDbEntity
  8
Pel_PEL
 62
     2
100
AcDbLine
 10
0.4478438879496594
 20
0.7241116524869966
 30
0.0
 11
1.104740217468521
 21
0.3448523799341672
 31
0.0
  0
LINE
  5
E368
330
E2B9
100
AcDbEntity
  8
Pel_PEL
 62
     2
100
AcDbLine
 10
1.225480945823342
 20
0.3124999992963566
 30
0.0
 11
1.225480945823342
 21
0.3797649730174299
 31
0.0
  0
LINE
  5
E369
330
E2B9
100
AcDbEntity
  8
Pel_PEL
 62
     2
100
AcDbLine
 10
0.3728530004202888
 20
0.9297649739060034
 30
0.0
 11
0.0480934762616485
 21
1.117264972539306
 31
0.0
  0
LINE
  5
E36A
330
E2B9
100
AcDbEntity
  8
Pel_PEL
 62
     2
100
AcDbLine
 10
0.4677087159505753
 20
1.000000000054125
 30
0.0
 11
0.4677087159505753
 21
0.9485000000541283
 31
0.0
  0
LINE
  5
E36B
330
E2B9
100
AcDbEntity
  8
Pel_PEL
 62
     2
100
AcDbLine
 10
0.4677087159505753
 20
0.9485000000541283
 30
0.0
 11
1.289133812459905
 21
0.4742499996211152
 31
0.0
  0
LINE
  5
E36C
330
E2B9
100
AcDbEntity
  8
Pel_PEL
 62
     2
100
AcDbLine
 10
0.4677087159505753
 20
0.9485000000541283
 30
0.0
 11
0.4291424511427735
 21
0.9262337566930192
 31
0.0
  0
LINE
  5
E36D
330
E2B9
100
AcDbEntity
  8
Pel_PEL
 62
     2
100
AcDbLine
 10
0.3594555403013402
 20
0.8125000001353193
 30
0.0
 11
0.4041424511366145
 21
0.838300000135316
 31
0.0
  0
LINE
  5
E36E
330
E2B9
100
AcDbEntity
  8
Pel_PEL
 62
     2
100
AcDbLine
 10
0.4041424511366145
 20
0.838300000135316
 30
0.0
 11
0.4041424511366145
 21
0.8829324865002412
 31
0.0
  0
LINE
  5
E36F
330
E2B9
100
AcDbEntity
  8
Pel_PEL
 62
     2
100
AcDbLine
 10
0.3594555403013402
 20
0.8125000001353193
 30
0.0
 11
0.4478438879496594
 21
0.7241116524869966
 31
0.0
  0
LINE
  5
E370
330
E2B9
100
AcDbEntity
  8
Pel_PEL
 62
     2
100
AcDbLine
 10
0.4041424511366145
 20
0.838300000135316
 30
0.0
 11
0.4925307988444203
 21
0.7499116524526564
 31
0.0
  0
LINE
  5
E371
330
E2B9
100
AcDbEntity
  8
Pel_PEL
 62
     2
100
AcDbLine
 10
0.4925307988444203
 20
0.7499116524526564
 30
0.0
 11
1.149427128303798
 21
0.370652379934171
 31
0.0
  0
ARC
  5
E372
330
E2B9
100
AcDbEntity
  8
Pel_PEL
 62
     2
100
AcDbCircle
 10
0.4541424511366153
 20
0.8829324865002412
 30
0.0
 40
0.05
100
AcDbArc
 50
119.9999999918517
 51
180.0
  0
ARC
  5
E373
330
E2B9
100
AcDbEntity
  8
Pel_PEL
 62
     2
100
AcDbCircle
 10
0.4594555403013417
 20
0.8797649730444909
 30
0.0
 40
0.1
100
AcDbArc
 50
119.9999999918514
 51
180.0
  0
LINE
  5
E374
330
E2B9
100
AcDbEntity
  8
Pel_PEL
 62
     2
100
AcDbLine
 10
1.225480945823342
 20
0.3124999992963566
 30
0.0
 11
1.104740217468521
 21
0.3448523799341672
 31
0.0
  0
LINE
  5
E375
330
E2B9
100
AcDbEntity
  8
Pel_PEL
 62
     2
100
AcDbLine
 10
1.225480945823342
 20
0.3502738209600977
 30
0.0
 11
1.149427128303798
 21
0.370652379934171
 31
0.0
  0
ARC
  5
E376
330
E2B9
100
AcDbEntity
  8
Pel_PEL
 62
     2
100
AcDbCircle
 10
1.32548094582334
 20
0.3797649730174299
 30
0.0
 40
0.1
100
AcDbArc
 50
119.9999999918514
 51
180.0
  0
LINE
  5
E377
330
E2B9
100
AcDbEntity
  8
Pel_PEL
 62
     2
100
AcDbLine
 10
1.225480945823342
 20
0.3125
 30
0.0
 11
1.225480945823342
 21
0.21875
 31
0.0
  0
LINE
  5
E378
330
E2B9
100
AcDbEntity
  8
Pel_PEL
 62
     2
100
AcDbLine
 10
1.225480945823342
 20
0.21875
 30
0.0
 11
1.104740217468521
 21
0.3448523799341672
 31
0.0
  0
LINE
  5
E379
330
E2B9
100
AcDbEntity
  8
Pel_PEL
 62
     2
100
AcDbLine
 10
1.550240475021045
 20
0.1922649717995846
 30
0.0
 11
1.550240475021045
 21
0.086602537901463
 31
0.0
  0
LINE
  5
E37A
330
E2B9
100
AcDbEntity
  8
Pel_PEL
 62
     2
100
AcDbLine
 10
1.594927385856323
 20
0.1014256466642962
 30
0.0
 11
1.594927385856323
 21
0.187349937588106
 31
0.0
  0
LINE
  5
E37B
330
E2B9
100
AcDbEntity
  8
Pel_PEL
 62
     2
100
AcDbLine
 10
1.875
 20
0.3750000001623803
 30
0.0
 11
1.875
 21
0.3154174524951578
 31
0.0
  0
LINE
  5
E37C
330
E2B9
100
AcDbEntity
  8
Pel_PEL
 62
     2
100
AcDbLine
 10
1.820873414261317
 20
0.406249998998657
 30
0.0
 11
1.600240475033363
 21
0.2788675121851369
 31
0.0
  0
LINE
  5
E37D
330
E2B9
100
AcDbEntity
  8
Pel_PEL
 62
     2
100
AcDbLine
 10
1.820873414261317
 20
0.406249998998657
 30
0.0
 11
1.87499999990625
 21
0.3750000002165059
 31
0.0
  0
LINE
  5
E37E
330
E2B9
100
AcDbEntity
  8
Pel_PEL
 62
     2
100
AcDbLine
 10
1.875
 20
0.3154174524951578
 30
0.0
 11
1.820873414261317
 21
0.3466674513314345
 31
0.0
  0
LINE
  5
E37F
330
E2B9
100
AcDbEntity
  8
Pel_PEL
 62
     2
100
AcDbLine
 10
1.820873414261317
 20
0.406249998998657
 30
0.0
 11
1.820873414261317
 21
0.3466674513314345
 31
0.0
  0
LINE
  5
E380
330
E2B9
100
AcDbEntity
  8
Pel_PEL
 62
     2
100
AcDbLine
 10
1.820873414261317
 20
0.3466674513314345
 30
0.0
 11
1.619927385862482
 21
0.230651207780884
 31
0.0
  0
ARC
  5
E381
330
E2B9
100
AcDbEntity
  8
Pel_PEL
 62
     2
100
AcDbCircle
 10
1.644927385856323
 20
0.187349937588106
 30
0.0
 40
0.05
100
AcDbArc
 50
119.9999999918514
 51
180.0
  0
ARC
  5
E382
330
E2B9
100
AcDbEntity
  8
Pel_PEL
 62
     2
100
AcDbCircle
 10
1.650240475021046
 20
0.1922649717995846
 30
0.0
 40
0.1
100
AcDbArc
 50
119.9999999918514
 51
180.0
  0
LINE
  5
E383
330
E2B9
100
AcDbEntity
  8
Pel_PEL
 62
     2
100
AcDbLine
 10
0.0346960166348858
 20
1.067264972530292
 30
0.0
 11
0.0346960166348858
 21
0.9327350251963935
 31
0.0
  0
LINE
  5
E384
330
E2B9
100
AcDbEntity
  8
Pel_PEL
 62
     2
100
AcDbLine
 10
0.305328955875158
 20
1.281249999729364
 30
0.0
 11
0.0846960166472002
 21
1.153867512915844
 31
0.0
  0
LINE
  5
E385
330
E2B9
100
AcDbEntity
  8
Pel_PEL
 62
     2
100
AcDbLine
 10
0.305328955875158
 20
1.281249999729364
 30
0.0
 11
0.2512023678396069
 21
1.312499999891748
 31
0.0
  0
ARC
  5
E386
330
E2B9
100
AcDbEntity
  8
Pel_PEL
 62
     2
100
AcDbCircle
 10
0.1346960166348836
 20
1.067264972530292
 30
0.0
 40
0.1
100
AcDbArc
 50
119.9999999918514
 51
180.0
  0
LINE
  5
E387
330
E2B9
100
AcDbEntity
  8
Pel_PEL
 62
     2
100
AcDbLine
 10
1.225480945823342
 20
0.21875
 30
0.0
 11
0.4026557736502099
 21
0.6938083344941326
 31
0.0
  0
LINE
  5
E388
330
E2B9
100
AcDbEntity
  8
Pel_PEL
 62
     2
100
AcDbLine
 10
0.3594555403013402
 20
0.8125000001353193
 30
0.0
 11
0.4026557736502099
 21
0.6938083344941326
 31
0.0
  0
LINE
  5
E389
330
E2B9
100
AcDbEntity
  8
Pel_PEL
 62
     2
100
AcDbLine
 10
0.4478438879496594
 20
0.7241116524869966
 30
0.0
 11
0.4026557736502099
 21
0.6938083344941326
 31
0.0
  0
ARC
  5
E38A
330
E2B9
100
AcDbEntity
  8
Pel_PEL
 62
     2
100
AcDbCircle
 10
0.1346960166348836
 20
0.9327350251963935
 30
0.0
 40
0.1
100
AcDbArc
 50
180.0
 51
240.0000000081486
  0
ARC
  5
E38B
330
E2B9
100
AcDbEntity
  8
Pel_PEL
 62
     2
100
AcDbCircle
 10
1.500240475021048
 20
0.086602537901463
 30
0.0
 40
0.05
100
AcDbArc
 50
240.0000000081486
 51
0.0
  0
LINE
  5
E38C
330
E2B9
100
AcDbEntity
  8
Pel_PEL
 62
     2
100
AcDbLine
 10
1.52714268921467
 20
0.0444567092646899
 30
0.0
 11
1.583378492953137
 21
0.0803527323459115
 31
0.0
  0
ARC
  5
E38D
330
E2B9
100
AcDbEntity
  8
Pel_PEL
 62
     2
100
AcDbCircle
 10
1.569927385856324
 20
0.1014256466642962
 30
0.0
 40
0.025
100
AcDbArc
 50
302.5506037586075
 51
0.0
  0
ENDBLK
  5
E38E
330
E2B9
100
AcDbEntity
  8
0
100
AcDbBlockEnd
  0
BLOCK
  5
E3B5
330
E3B4
100
AcDbEntity
  8
0
100
AcDbBlockBegin
  2
ACC47D7
 70
     0
 10
0.0
 20
0.0
 30
0.0
  3
ACC47D7
  1

  0
POLYLINE
  5
E3B6
330
E3B4
100
AcDbEntity
  8
Pel_Clad
100
AcDb2dPolyline
 66
     1
 10
0.0
 20
0.0
 30
0.0
 70
   129
  0
VERTEX
  5
1142E
330
E3B6
100
AcDbEntity
  8
Pel_Clad
100
AcDbVertex
100
AcDb2dVertex
 10
-0.0393388717978596
 20
-0.0570000000000039
 30
0.0
 42
0.4142135623730868
  0
VERTEX
  5
1142F
330
E3B6
100
AcDbEntity
  8
Pel_Clad
100
AcDbVertex
100
AcDb2dVertex
 10
0.1006611282021339
 20
-0.1970000000000027
 30
0.0
  0
VERTEX
  5
11430
330
E3B6
100
AcDbEntity
  8
Pel_Clad
100
AcDbVertex
100
AcDb2dVertex
 10
0.2739003889049272
 20
-0.1970000000000045
 30
0.0
 42
0.9999999999999998
  0
VERTEX
  5
11431
330
E3B6
100
AcDbEntity
  8
Pel_Clad
100
AcDbVertex
100
AcDb2dVertex
 10
0.2739003889049272
 20
-0.1070000000000029
 30
0.0
  0
VERTEX
  5
11432
330
E3B6
100
AcDbEntity
  8
Pel_Clad
100
AcDbVertex
100
AcDb2dVertex
 10
0.2039003889049198
 20
-0.1070000000000029
 30
0.0
  0
VERTEX
  5
11433
330
E3B6
100
AcDbEntity
  8
Pel_Clad
100
AcDbVertex
100
AcDb2dVertex
 10
0.1377609018479333
 20
-0.0720000000000027
 30
0.0
  0
VERTEX
  5
11434
330
E3B6
100
AcDbEntity
  8
Pel_Clad
100
AcDbVertex
100
AcDb2dVertex
 10
0.1190516656437381
 20
-0.1073548367363806
 30
0.0
  0
VERTEX
  5
11435
330
E3B6
100
AcDbEntity
  8
Pel_Clad
100
AcDbVertex
100
AcDb2dVertex
 10
0.1939691160022079
 20
-0.1470000000000056
 30
0.0
  0
VERTEX
  5
11436
330
E3B6
100
AcDbEntity
  8
Pel_Clad
100
AcDbVertex
100
AcDb2dVertex
 10
0.2739003889049272
 20
-0.1470000000000038
 30
0.0
 42
-0.9999999999999998
  0
VERTEX
  5
11437
330
E3B6
100
AcDbEntity
  8
Pel_Clad
100
AcDbVertex
100
AcDb2dVertex
 10
0.2739003889049272
 20
-0.1570000000000054
 30
0.0
  0
VERTEX
  5
11438
330
E3B6
100
AcDbEntity
  8
Pel_Clad
100
AcDbVertex
100
AcDb2dVertex
 10
0.1006611282021339
 20
-0.1570000000000054
 30
0.0
 42
-0.4142135623730951
  0
VERTEX
  5
11439
330
E3B6
100
AcDbEntity
  8
Pel_Clad
100
AcDbVertex
100
AcDb2dVertex
 10
0.0006611282021325
 20
-0.0570000000000039
 30
0.0
  0
VERTEX
  5
1143A
330
E3B6
100
AcDbEntity
  8
Pel_Clad
100
AcDbVertex
100
AcDb2dVertex
 10
0.0006611282021325
 20
0.8510000000000026
 30
0.0
 42
-0.4142135623730951
  0
VERTEX
  5
1143B
330
E3B6
100
AcDbEntity
  8
Pel_Clad
100
AcDbVertex
100
AcDb2dVertex
 10
0.1006611282021339
 20
0.9510000000000005
 30
0.0
  0
VERTEX
  5
1143C
330
E3B6
100
AcDbEntity
  8
Pel_Clad
100
AcDbVertex
100
AcDb2dVertex
 10
1.140661128202133
 20
0.9509999999999951
 30
0.0
 42
-0.4142135623730938
  0
VERTEX
  5
1143D
330
E3B6
100
AcDbEntity
  8
Pel_Clad
100
AcDbVertex
100
AcDb2dVertex
 10
1.240661128202127
 20
0.8509999999999955
 30
0.0
  0
VERTEX
  5
1143E
330
E3B6
100
AcDbEntity
  8
Pel_Clad
100
AcDbVertex
100
AcDb2dVertex
 10
1.240661128202127
 20
0.6789999999999985
 30
0.0
  0
VERTEX
  5
1143F
330
E3B6
100
AcDbEntity
  8
Pel_Clad
100
AcDbVertex
100
AcDb2dVertex
 10
1.280661128202133
 20
0.6789999999999985
 30
0.0
  0
VERTEX
  5
11440
330
E3B6
100
AcDbEntity
  8
Pel_Clad
100
AcDbVertex
100
AcDb2dVertex
 10
1.280661128202133
 20
0.850999999999999
 30
0.0
 42
0.4142135623730951
  0
VERTEX
  5
11441
330
E3B6
100
AcDbEntity
  8
Pel_Clad
100
AcDbVertex
100
AcDb2dVertex
 10
1.140661128202133
 20
0.9909999999999961
 30
0.0
  0
VERTEX
  5
11442
330
E3B6
100
AcDbEntity
  8
Pel_Clad
100
AcDbVertex
100
AcDb2dVertex
 10
0.100661128202141
 20
0.9909999999999996
 30
0.0
 42
0.4142135623730961
  0
VERTEX
  5
11443
330
E3B6
100
AcDbEntity
  8
Pel_Clad
100
AcDbVertex
100
AcDb2dVertex
 10
-0.0393388717978596
 20
0.8510000000000008
 30
0.0
  0
SEQEND
  5
11444
330
E3B6
100
AcDbEntity
  8
Pel_Clad
  0
ENDBLK
  5
E3CE
330
E3B4
100
AcDbEntity
  8
0
100
AcDbBlockEnd
  0
BLOCK
  5
E3D0
330
E3CF
100
AcDbEntity
  8
0
100
AcDbBlockBegin
  2
ACC1918
 70
     0
 10
0.0
 20
0.0
 30
0.0
  3
ACC1918
  1

  0
POLYLINE
  5
E3D2
330
E3CF
100
AcDbEntity
  8
Pel_CS-Cross Section
 62
     3
100
AcDb2dPolyline
 66
     1
 10
0.0
 20
0.0
 30
0.0
 70
   129
  0
VERTEX
  5
11090
330
E3D2
100
AcDbEntity
  8
Pel_CS-Cross Section
 62
     3
100
AcDbVertex
100
AcDb2dVertex
 10
1.168749999999995
 20
-1.0
 30
0.0
  0
VERTEX
  5
11091
330
E3D2
100
AcDbEntity
  8
Pel_CS-Cross Section
 62
     3
100
AcDbVertex
100
AcDb2dVertex
 10
1.168749999999995
 20
0.0
 30
0.0
  0
VERTEX
  5
11092
330
E3D2
100
AcDbEntity
  8
Pel_CS-Cross Section
 62
     3
100
AcDbVertex
100
AcDb2dVertex
 10
0.0
 20
0.0
 30
0.0
  0
VERTEX
  5
11093
330
E3D2
100
AcDbEntity
  8
Pel_CS-Cross Section
 62
     3
100
AcDbVertex
100
AcDb2dVertex
 10
0.0
 20
-0.5
 30
0.0
  0
VERTEX
  5
11094
330
E3D2
100
AcDbEntity
  8
Pel_CS-Cross Section
 62
     3
100
AcDbVertex
100
AcDb2dVertex
 10
-0.0500000000000043
 20
-0.5
 30
0.0
  0
VERTEX
  5
11095
330
E3D2
100
AcDbEntity
  8
Pel_CS-Cross Section
 62
     3
100
AcDbVertex
100
AcDb2dVertex
 10
-0.0500000000000043
 20
-1.0
 30
0.0
  0
VERTEX
  5
11096
330
E3D2
100
AcDbEntity
  8
Pel_CS-Cross Section
 62
     3
100
AcDbVertex
100
AcDb2dVertex
 10
0.0
 20
-1.0
 30
0.0
  0
VERTEX
  5
11097
330
E3D2
100
AcDbEntity
  8
Pel_CS-Cross Section
 62
     3
100
AcDbVertex
100
AcDb2dVertex
 10
0.0
 20
-1.5
 30
0.0
  0
VERTEX
  5
11098
330
E3D2
100
AcDbEntity
  8
Pel_CS-Cross Section
 62
     3
100
AcDbVertex
100
AcDb2dVertex
 10
1.118999999999999
 20
-1.5
 30
0.0
  0
VERTEX
  5
11099
330
E3D2
100
AcDbEntity
  8
Pel_CS-Cross Section
 62
     3
100
AcDbVertex
100
AcDb2dVertex
 10
1.118999999999999
 20
-1.0
 30
0.0
  0
VERTEX
  5
1109A
330
E3D2
100
AcDbEntity
  8
Pel_CS-Cross Section
 62
     3
100
AcDbVertex
100
AcDb2dVertex
 10
1.168999999999996
 20
-1.0
 30
0.0
  0
SEQEND
  5
1109B
330
E3D2
100
AcDbEntity
  8
Pel_CS-Cross Section
 62
     3
  0
POLYLINE
  5
E3DF
330
E3CF
100
AcDbEntity
  8
Pel_Clad
100
AcDb2dPolyline
 66
     1
 10
0.0
 20
0.0
 30
0.0
 70
     1
  0
VERTEX
  5
1109D
330
E3DF
100
AcDbEntity
  8
Pel_Clad
100
AcDbVertex
100
AcDb2dVertex
 10
-0.0016237190966422
 20
-1.506514286278649
 30
0.0
  0
VERTEX
  5
1109E
330
E3DF
100
AcDbEntity
  8
Pel_Clad
100
AcDbVertex
100
AcDb2dVertex
 10
-0.0016237190966422
 20
-1.05351428627865
 30
0.0
  0
VERTEX
  5
1109F
330
E3DF
100
AcDbEntity
  8
Pel_Clad
100
AcDbVertex
100
AcDb2dVertex
 10
-0.0266237190966408
 20
-1.05351428627865
 30
0.0
  0
VERTEX
  5
110A0
330
E3DF
100
AcDbEntity
  8
Pel_Clad
100
AcDbVertex
100
AcDb2dVertex
 10
-0.0266237190966408
 20
-1.516514286278651
 30
0.0
 42
0.4142135623730948
  0
VERTEX
  5
110A1
330
E3DF
100
AcDbEntity
  8
Pel_Clad
100
AcDbVertex
100
AcDb2dVertex
 10
-0.0116237190966402
 20
-1.53151428627865
 30
0.0
  0
VERTEX
  5
110A2
330
E3DF
100
AcDbEntity
  8
Pel_Clad
100
AcDbVertex
100
AcDb2dVertex
 10
1.133376280903355
 20
-1.531514286278651
 30
0.0
 42
0.4142135623730953
  0
VERTEX
  5
110A3
330
E3DF
100
AcDbEntity
  8
Pel_Clad
100
AcDbVertex
100
AcDb2dVertex
 10
1.148376280903356
 20
-1.516514286278651
 30
0.0
  0
VERTEX
  5
110A4
330
E3DF
100
AcDbEntity
  8
Pel_Clad
100
AcDbVertex
100
AcDb2dVertex
 10
1.148376280903356
 20
-1.05351428627865
 30
0.0
  0
VERTEX
  5
110A5
330
E3DF
100
AcDbEntity
  8
Pel_Clad
100
AcDbVertex
100
AcDb2dVertex
 10
1.123376280903357
 20
-1.05351428627865
 30
0.0
  0
VERTEX
  5
110A6
330
E3DF
100
AcDbEntity
  8
Pel_Clad
100
AcDbVertex
100
AcDb2dVertex
 10
1.123376280903357
 20
-1.506514286278649
 30
0.0
  0
SEQEND
  5
110A7
330
E3DF
100
AcDbEntity
  8
Pel_Clad
  0
HATCH
  5
110A8
330
E3CF
100
AcDbEntity
  8
Pel_Hatch
 62
     2
100
AcDbHatch
 10
0.0
 20
0.0
 30
0.0
210
0.0
220
0.0
230
1.0
  2
WOOD
 70
     0
 71
     0
 91
        1
 92
        1
 93
       11
 72
     1
 10
1.168749999999995
 20
-1.0
 11
1.168749999999995
 21
0.0
 72
     1
 10
1.168749999999995
 20
0.0
 11
0.0
 21
0.0
 72
     1
 10
0.0
 20
0.0
 11
0.0
 21
-0.5
 72
     1
 10
0.0
 20
-0.5
 11
-0.0500000000000043
 21
-0.5
 72
     1
 10
-0.0500000000000043
 20
-0.5
 11
-0.0500000000000043
 21
-1.0
 72
     1
 10
-0.0500000000000043
 20
-1.0
 11
0.0
 21
-1.0
 72
     1
 10
0.0
 20
-1.0
 11
0.0
 21
-1.5
 72
     1
 10
0.0
 20
-1.5
 11
1.118999999999999
 21
-1.5
 72
     1
 10
1.118999999999999
 20
-1.5
 11
1.118999999999999
 21
-1.0
 72
     1
 10
1.118999999999999
 20
-1.0
 11
1.168999999999996
 21
-1.0
 72
     1
 10
1.168999999999996
 20
-1.0
 11
1.168749999999995
 21
-1.0
 97
        0
 75
     0
 76
     1
 52
135.0
 41
0.12
 77
     0
 78
    12
 53
225.0
 43
-38.1171142232539
 44
-9.565290622632211
 45
-0.6788225099390856
 46
0.0000000000000001
 79
     2
 49
0.48
 49
-4.32
 53
225.0
 43
-39.22020080190492
 44
-10.49867157379845
 45
-0.6788225099390856
 46
0.0000000000000001
 79
     2
 49
0.48
 49
-1.919999999999999
 53
198.43494882
 43
-37.77770296828436
 44
-9.904701877601754
 45
-0.6788224788223372
 46
-0.0000000379127128
 79
     2
 49
1.073312639999999
 49
-9.659813639999999
 53
239.03624347
 43
-36.58976357589097
 44
-8.377351230238812
 45
-0.6788225921567158
 46
-0.0000000206043966
 79
     2
 49
0.49477272
 49
-3.463408679999999
 53
239.03624347
 43
-37.18373327208766
 44
-9.141026553920283
 45
-0.6788225921567158
 46
-0.0000000206043966
 79
     2
 49
0.49477272
 49
-3.463408679999999
 53
239.03624347
 43
-36.84432201711812
 44
-7.443970279072569
 45
-0.6788225921567158
 46
-0.0000000206043966
 79
     2
 49
0.49477272
 49
-3.463408679999999
 53
210.96375653
 43
-38.79593673319299
 44
-10.2441131325713
 45
-0.6788225921567158
 46
0.0000000206043968
 79
     2
 49
0.49477272
 49
-19.29613428
 53
210.96375653
 43
-44.90533932264475
 44
-13.63822568226672
 45
-0.6788225921567158
 46
0.0000000206043968
 79
     2
 49
0.49477272
 49
-19.29613428
 53
210.96375653
 43
-50.33591940215744
 44
-17.03233823196215
 45
-0.6788225921567158
 46
0.0000000206043968
 79
     2
 49
0.49477272
 49
-19.29613428
 53
251.56505118
 43
-39.81417049810162
 44
-11.26234689747992
 45
-0.6788224788223372
 46
0.0000000379127128
 79
     2
 49
0.53665632
 49
-10.19646996
 53
251.56505118
 43
-37.77770296828436
 44
-4.47412179808907
 45
-0.6788224788223372
 46
0.0000000379127128
 79
     2
 49
0.53665632
 49
-10.19646996
 53
251.56505118
 43
-39.13534798816253
 44
-7.868234347784497
 45
-0.6788224788223372
 46
0.0000000379127128
 79
     2
 49
0.53665632
 49
-10.19646996
 98
        1
 10
-38.28681985073867
 20
-10.07440750508652
  0
ENDBLK
  5
E3EB
330
E3CF
100
AcDbEntity
  8
0
100
AcDbBlockEnd
  0
BLOCK
  5
EC82
330
EC59
100
AcDbEntity
  8
0
100
AcDbBlockBegin
  2
7355
 70
     0
 10
0.0
 20
0.0
 30
0.0
  3
7355
  1

  0
POLYLINE
  5
ECD9
330
EC59
100
AcDbEntity
  8
Pel_Clad
100
AcDb2dPolyline
 66
     1
 10
0.0
 20
0.0
 30
0.0
 70
     1
  0
VERTEX
  5
11036
330
ECD9
100
AcDbEntity
  8
Pel_Clad
100
AcDbVertex
100
AcDb2dVertex
 10
1.649
 20
0.4399999999999978
 30
0.0
  0
VERTEX
  5
11037
330
ECD9
100
AcDbEntity
  8
Pel_Clad
100
AcDbVertex
100
AcDb2dVertex
 10
1.171499999999999
 20
0.4400000999999989
 30
0.0
 42
-0.9999997905759371
  0
VERTEX
  5
11038
330
ECD9
100
AcDbEntity
  8
Pel_Clad
100
AcDbVertex
100
AcDb2dVertex
 10
1.171499999999999
 20
0.5800001499999965
 30
0.0
  0
VERTEX
  5
11039
330
ECD9
100
AcDbEntity
  8
Pel_Clad
100
AcDbVertex
100
AcDb2dVertex
 10
1.649
 20
0.5800000999999995
 30
0.0
 42
1.000000104712041
  0
VERTEX
  5
1103A
330
ECD9
100
AcDbEntity
  8
Pel_Clad
100
AcDbVertex
100
AcDb2dVertex
 10
1.649
 20
0.6450002300000009
 30
0.0
  0
VERTEX
  5
1103B
330
ECD9
100
AcDbEntity
  8
Pel_Clad
100
AcDbVertex
100
AcDb2dVertex
 10
1.0625
 20
0.6450000999999972
 30
0.0
 42
0.4141775277499783
  0
VERTEX
  5
1103C
330
ECD9
100
AcDbEntity
  8
Pel_Clad
100
AcDbVertex
100
AcDb2dVertex
 10
1.031499999999999
 20
0.6140039000000002
 30
0.0
  0
VERTEX
  5
1103D
330
ECD9
100
AcDbEntity
  8
Pel_Clad
100
AcDbVertex
100
AcDb2dVertex
 10
1.031500020000001
 20
0.4709999999999966
 30
0.0
 42
-0.4142136442990431
  0
VERTEX
  5
1103E
330
ECD9
100
AcDbEntity
  8
Pel_Clad
100
AcDbVertex
100
AcDb2dVertex
 10
1.0005
 20
0.4399999799999961
 30
0.0
  0
VERTEX
  5
1103F
330
ECD9
100
AcDbEntity
  8
Pel_Clad
100
AcDbVertex
100
AcDb2dVertex
 10
0.4500791999999994
 20
0.4399999799999961
 30
0.0
 42
-0.5374222886880647
  0
VERTEX
  5
11040
330
ECD9
100
AcDbEntity
  8
Pel_Clad
100
AcDbVertex
100
AcDb2dVertex
 10
0.4362735734978749
 20
0.4608652454195124
 30
0.0
 42
0.3621125350955851
  0
VERTEX
  5
11041
330
ECD9
100
AcDbEntity
  8
Pel_Clad
100
AcDbVertex
100
AcDb2dVertex
 10
0.3841063404815035
 20
0.6337210937643221
 30
0.0
  0
VERTEX
  5
11042
330
ECD9
100
AcDbEntity
  8
Pel_Clad
100
AcDbVertex
100
AcDb2dVertex
 10
0.3515000163951942
 20
0.5772454455811485
 30
0.0
 42
-3.049900366406645
  0
VERTEX
  5
11043
330
ECD9
100
AcDbEntity
  8
Pel_Clad
100
AcDbVertex
100
AcDb2dVertex
 10
0.2615000263622047
 20
0.5772454769970708
 30
0.0
  0
VERTEX
  5
11044
330
ECD9
100
AcDbEntity
  8
Pel_Clad
100
AcDbVertex
100
AcDb2dVertex
 10
0.2288937999999998
 20
0.6337211999999966
 30
0.0
 42
0.3621135063111574
  0
VERTEX
  5
11045
330
ECD9
100
AcDbEntity
  8
Pel_Clad
100
AcDbVertex
100
AcDb2dVertex
 10
0.1767265042367985
 20
0.4608653414671409
 30
0.0
 42
-0.5374211579337738
  0
VERTEX
  5
11046
330
ECD9
100
AcDbEntity
  8
Pel_Clad
100
AcDbVertex
100
AcDb2dVertex
 10
0.1629208000000002
 20
0.4399999999999978
 30
0.0
  0
VERTEX
  5
11047
330
ECD9
100
AcDbEntity
  8
Pel_Clad
100
AcDbVertex
100
AcDb2dVertex
 10
-0.1185001000000003
 20
0.4399999999999978
 30
0.0
  0
VERTEX
  5
11048
330
ECD9
100
AcDbEntity
  8
Pel_Clad
100
AcDbVertex
100
AcDb2dVertex
 10
-0.1285000000000007
 20
0.4299998999999986
 30
0.0
  0
VERTEX
  5
11049
330
ECD9
100
AcDbEntity
  8
Pel_Clad
100
AcDbVertex
100
AcDb2dVertex
 10
-0.1385000000000005
 20
0.4399999999999978
 30
0.0
  0
VERTEX
  5
1104A
330
ECD9
100
AcDbEntity
  8
Pel_Clad
100
AcDbVertex
100
AcDb2dVertex
 10
-2.303499999999999
 20
0.4399999999999978
 30
0.0
  0
VERTEX
  5
1104B
330
ECD9
100
AcDbEntity
  8
Pel_Clad
100
AcDbVertex
100
AcDb2dVertex
 10
-2.313499999999999
 20
0.4299999999999998
 30
0.0
  0
VERTEX
  5
1104C
330
ECD9
100
AcDbEntity
  8
Pel_Clad
100
AcDbVertex
100
AcDb2dVertex
 10
-2.3235
 20
0.4399999999999978
 30
0.0
  0
VERTEX
  5
1104D
330
ECD9
100
AcDbEntity
  8
Pel_Clad
100
AcDbVertex
100
AcDb2dVertex
 10
-3.0975
 20
0.4399998599999933
 30
0.0
 42
-0.4142136683293394
  0
VERTEX
  5
1104E
330
ECD9
100
AcDbEntity
  8
Pel_Clad
100
AcDbVertex
100
AcDb2dVertex
 10
-3.128500139999999
 20
0.4709999999999966
 30
0.0
  0
VERTEX
  5
1104F
330
ECD9
100
AcDbEntity
  8
Pel_Clad
100
AcDbVertex
100
AcDb2dVertex
 10
-3.128499999999999
 20
3.842505000000002
 30
0.0
 42
1.000000041524482
  0
VERTEX
  5
11050
330
ECD9
100
AcDbEntity
  8
Pel_Clad
100
AcDbVertex
100
AcDb2dVertex
 10
-3.1935
 20
3.842505000000002
 30
0.0
  0
VERTEX
  5
11051
330
ECD9
100
AcDbEntity
  8
Pel_Clad
100
AcDbVertex
100
AcDb2dVertex
 10
-3.1935
 20
-0.342494600000002
 30
0.0
 42
0.9999999999999998
  0
VERTEX
  5
11052
330
ECD9
100
AcDbEntity
  8
Pel_Clad
100
AcDbVertex
100
AcDb2dVertex
 10
-3.128499999999999
 20
-0.342494600000002
 30
0.0
  0
VERTEX
  5
11053
330
ECD9
100
AcDbEntity
  8
Pel_Clad
100
AcDbVertex
100
AcDb2dVertex
 10
-3.128499999999999
 20
0.344003800000003
 30
0.0
 42
-0.4142494680692585
  0
VERTEX
  5
11054
330
ECD9
100
AcDbEntity
  8
Pel_Clad
100
AcDbVertex
100
AcDb2dVertex
 10
-3.0975
 20
0.375
 30
0.0
  0
VERTEX
  5
11055
330
ECD9
100
AcDbEntity
  8
Pel_Clad
100
AcDbVertex
100
AcDb2dVertex
 10
-0.2245000000000008
 20
0.375
 30
0.0
 42
-0.4141776154103171
  0
VERTEX
  5
11056
330
ECD9
100
AcDbEntity
  8
Pel_Clad
100
AcDbVertex
100
AcDb2dVertex
 10
-0.1935000102347093
 20
0.3440038146971887
 30
0.0
  0
VERTEX
  5
11057
330
ECD9
100
AcDbEntity
  8
Pel_Clad
100
AcDbVertex
100
AcDb2dVertex
 10
-0.1935000102347093
 20
-0.5924945999999949
 30
0.0
 42
0.9998307836033665
  0
VERTEX
  5
11058
330
ECD9
100
AcDbEntity
  8
Pel_Clad
100
AcDbVertex
100
AcDb2dVertex
 10
-0.1285000004653831
 20
-0.5925055999981979
 30
0.0
  0
VERTEX
  5
11059
330
ECD9
100
AcDbEntity
  8
Pel_Clad
100
AcDbVertex
100
AcDb2dVertex
 10
-0.1285000000000007
 20
0.344003800000003
 30
0.0
 42
-0.4142492787868904
  0
VERTEX
  5
1105A
330
ECD9
100
AcDbEntity
  8
Pel_Clad
100
AcDbVertex
100
AcDb2dVertex
 10
-0.0975000000000002
 20
0.3750000200000016
 30
0.0
  0
VERTEX
  5
1105B
330
ECD9
100
AcDbEntity
  8
Pel_Clad
100
AcDbVertex
100
AcDb2dVertex
 10
1.649
 20
0.375
 30
0.0
 42
1.000000011451475
  0
VERTEX
  5
1105C
330
ECD9
100
AcDbEntity
  8
Pel_Clad
100
AcDbVertex
100
AcDb2dVertex
 10
1.649
 20
0.4400000300000002
 30
0.0
 42
0.9999999885485156
  0
SEQEND
  5
1105D
330
ECD9
100
AcDbEntity
  8
Pel_Clad
  0
ENDBLK
  5
EC83
330
EC59
100
AcDbEntity
  8
0
100
AcDbBlockEnd
  0
BLOCK
  5
EF8D
330
EF8C
100
AcDbEntity
  8
0
 62
     2
100
AcDbBlockBegin
  2
0DA9
 70
     0
 10
0.0
 20
0.0
 30
0.0
  3
0DA9
  1

  0
POLYLINE
  5
EF8F
330
EF8C
100
AcDbEntity
  8
Pel_CS-Sealant
100
AcDb2dPolyline
 66
     1
 10
0.0
 20
0.0
 30
0.0
 70
     1
  0
VERTEX
  5
114CB
330
EF8F
100
AcDbEntity
  8
Pel_CS-Sealant
100
AcDbVertex
100
AcDb2dVertex
 10
2.448712319242901
 20
-0.0004269056352797
 30
0.0
 42
-0.8646890412967337
  0
VERTEX
  5
114CC
330
EF8F
100
AcDbEntity
  8
Pel_CS-Sealant
100
AcDbVertex
100
AcDb2dVertex
 10
1.469554895492962
 20
-0.1432840484924895
 30
0.0
  0
VERTEX
  5
114CD
330
EF8F
100
AcDbEntity
  8
Pel_CS-Sealant
100
AcDbVertex
100
AcDb2dVertex
 10
1.34055097371413
 20
-0.1817455869540581
 30
0.0
 42
0.0820392205551862
  0
VERTEX
  5
114CE
330
EF8F
100
AcDbEntity
  8
Pel_CS-Sealant
100
AcDbVertex
100
AcDb2dVertex
 10
1.431173039791175
 20
-0.3677003468410334
 30
0.0
 42
0.2167115964031243
  0
VERTEX
  5
114CF
330
EF8F
100
AcDbEntity
  8
Pel_CS-Sealant
100
AcDbVertex
100
AcDb2dVertex
 10
1.428780060924253
 20
-0.3747537897416606
 30
0.0
 42
0.2686973499222933
  0
VERTEX
  5
114D0
330
EF8F
100
AcDbEntity
  8
Pel_CS-Sealant
100
AcDbVertex
100
AcDb2dVertex
 10
1.45968008399177
 20
-0.4139284535119288
 30
0.0
 42
0.2136688678308253
  0
VERTEX
  5
114D1
330
EF8F
100
AcDbEntity
  8
Pel_CS-Sealant
100
AcDbVertex
100
AcDb2dVertex
 10
1.466748875714543
 20
-0.4132803003078607
 30
0.0
 42
0.0598982024750072
  0
VERTEX
  5
114D2
330
EF8F
100
AcDbEntity
  8
Pel_CS-Sealant
100
AcDbVertex
100
AcDb2dVertex
 10
1.578341991917241
 20
-0.5157544781821244
 30
0.0
 42
0.2123581314686383
  0
VERTEX
  5
114D3
330
EF8F
100
AcDbEntity
  8
Pel_CS-Sealant
100
AcDbVertex
100
AcDb2dVertex
 10
1.578537263352941
 20
-0.5235168084584388
 30
0.0
 42
0.297574272993908
  0
VERTEX
  5
114D4
330
EF8F
100
AcDbEntity
  8
Pel_CS-Sealant
100
AcDbVertex
100
AcDb2dVertex
 10
1.623620590194235
 20
-0.5495714160683321
 30
0.0
 42
0.19004032294479
  0
VERTEX
  5
114D5
330
EF8F
100
AcDbEntity
  8
Pel_CS-Sealant
100
AcDbVertex
100
AcDb2dVertex
 10
1.626782285556416
 20
-0.5473251958145724
 30
0.0
 42
0.0598982024751702
  0
VERTEX
  5
114D6
330
EF8F
100
AcDbEntity
  8
Pel_CS-Sealant
100
AcDbVertex
100
AcDb2dVertex
 10
1.765587419966678
 20
-0.6080468177970531
 30
0.0
 42
0.2206153967666608
  0
VERTEX
  5
114D7
330
EF8F
100
AcDbEntity
  8
Pel_CS-Sealant
100
AcDbVertex
100
AcDb2dVertex
 10
1.768497788520136
 20
-0.6155314298323731
 30
0.0
 42
0.2630314464201922
  0
VERTEX
  5
114D8
330
EF8F
100
AcDbEntity
  8
Pel_CS-Sealant
100
AcDbVertex
100
AcDb2dVertex
 10
1.816169697077768
 20
-0.6271292672947127
 30
0.0
 42
0.2157927764288054
  0
VERTEX
  5
114D9
330
EF8F
100
AcDbEntity
  8
Pel_CS-Sealant
100
AcDbVertex
100
AcDb2dVertex
 10
1.821650616805897
 20
-0.6221921428143276
 30
0.0
 42
0.059898202475133
  0
VERTEX
  5
114DA
330
EF8F
100
AcDbEntity
  8
Pel_CS-Sealant
100
AcDbVertex
100
AcDb2dVertex
 10
1.972648151984586
 20
-0.6345907348635365
 30
0.0
 42
0.1852384300782908
  0
VERTEX
  5
114DB
330
EF8F
100
AcDbEntity
  8
Pel_CS-Sealant
100
AcDbVertex
100
AcDb2dVertex
 10
1.974293690735592
 20
-0.638001500807377
 30
0.0
 42
0.2948223963367314
  0
VERTEX
  5
114DC
330
EF8F
100
AcDbEntity
  8
Pel_CS-Sealant
100
AcDbVertex
100
AcDb2dVertex
 10
2.026679927352219
 20
-0.6366268174964205
 30
0.0
 42
0.1685176433526181
  0
VERTEX
  5
114DD
330
EF8F
100
AcDbEntity
  8
Pel_CS-Sealant
100
AcDbVertex
100
AcDb2dVertex
 10
2.030286226952426
 20
-0.6302204559666507
 30
0.0
 42
0.0570180057182728
  0
VERTEX
  5
114DE
330
EF8F
100
AcDbEntity
  8
Pel_CS-Sealant
100
AcDbVertex
100
AcDb2dVertex
 10
2.177118871375128
 20
-0.5925140050839915
 30
0.0
 42
0.2970900136480169
  0
VERTEX
  5
114DF
330
EF8F
100
AcDbEntity
  8
Pel_CS-Sealant
100
AcDbVertex
100
AcDb2dVertex
 10
2.184307085820464
 20
-0.5966627094668838
 30
0.0
 42
0.2608018549432472
  0
VERTEX
  5
114E0
330
EF8F
100
AcDbEntity
  8
Pel_CS-Sealant
100
AcDbVertex
100
AcDb2dVertex
 10
2.228751859177094
 20
-0.5765472744937484
 30
0.0
 42
0.2164148382350359
  0
VERTEX
  5
114E1
330
EF8F
100
AcDbEntity
  8
Pel_CS-Sealant
100
AcDbVertex
100
AcDb2dVertex
 10
2.230060244572271
 20
-0.5692678599481127
 30
0.0
 42
0.0821830266255474
  0
VERTEX
  5
114E2
330
EF8F
100
AcDbEntity
  8
Pel_CS-Sealant
100
AcDbVertex
100
AcDb2dVertex
 10
2.356874517737509
 20
-0.4863696040170993
 30
0.0
 42
0.2463180961355644
  0
VERTEX
  5
114E3
330
EF8F
100
AcDbEntity
  8
Pel_CS-Sealant
100
AcDbVertex
100
AcDb2dVertex
 10
2.362244739312345
 20
-0.4881452027525129
 30
0.0
 42
0.2804756986382771
  0
VERTEX
  5
114E4
330
EF8F
100
AcDbEntity
  8
Pel_CS-Sealant
100
AcDbVertex
100
AcDb2dVertex
 10
2.400323002090686
 20
-0.4551656032039162
 30
0.0
 42
0.2970979048008735
  0
VERTEX
  5
114E5
330
EF8F
100
AcDbEntity
  8
Pel_CS-Sealant
100
AcDbVertex
100
AcDb2dVertex
 10
2.399408965694945
 20
-0.4472033813674159
 30
0.0
 42
0.0598982024758966
  0
VERTEX
  5
114E6
330
EF8F
100
AcDbEntity
  8
Pel_CS-Sealant
100
AcDbVertex
100
AcDb2dVertex
 10
2.492464362160589
 20
-0.3276430455388635
 30
0.0
 42
-1.562646829145835
  0
VERTEX
  5
114E7
330
EF8F
100
AcDbEntity
  8
Pel_CS-Sealant
100
AcDbVertex
100
AcDb2dVertex
 10
2.496219405886705
 20
-0.3281337274303269
 30
0.0
 42
0.3059515415094541
  0
VERTEX
  5
114E8
330
EF8F
100
AcDbEntity
  8
Pel_CS-Sealant
100
AcDbVertex
100
AcDb2dVertex
 10
2.523383714235777
 20
-0.282716376131944
 30
0.0
 42
0.204715420701343
  0
VERTEX
  5
114E9
330
EF8F
100
AcDbEntity
  8
Pel_CS-Sealant
100
AcDbVertex
100
AcDb2dVertex
 10
2.519989381238758
 20
-0.2767947851513099
 30
0.0
 42
0.0598982024749647
  0
VERTEX
  5
114EA
330
EF8F
100
AcDbEntity
  8
Pel_CS-Sealant
100
AcDbVertex
100
AcDb2dVertex
 10
2.569216702473511
 20
-0.1335095746135693
 30
0.0
 42
0.216711596394965
  0
VERTEX
  5
114EB
330
EF8F
100
AcDbEntity
  8
Pel_CS-Sealant
100
AcDbVertex
100
AcDb2dVertex
 10
2.576031972125718
 20
-0.1305046612743439
 30
0.0
 42
0.2686973499185001
  0
VERTEX
  5
114EC
330
EF8F
100
AcDbEntity
  8
Pel_CS-Sealant
100
AcDbVertex
100
AcDb2dVertex
 10
2.584010158277763
 20
-0.0812521054749311
 30
0.0
 42
0.2136688678277578
  0
VERTEX
  5
114ED
330
EF8F
100
AcDbEntity
  8
Pel_CS-Sealant
100
AcDbVertex
100
AcDb2dVertex
 10
2.578753906762202
 20
-0.0764813886520699
 30
0.0
 42
0.0598982024765596
  0
VERTEX
  5
114EE
330
EF8F
100
AcDbEntity
  8
Pel_CS-Sealant
100
AcDbVertex
100
AcDb2dVertex
 10
2.578826436750276
 20
0.0750243058091513
 30
0.0
 42
0.2167001094561992
  0
VERTEX
  5
114EF
330
EF8F
100
AcDbEntity
  8
Pel_CS-Sealant
100
AcDbVertex
100
AcDb2dVertex
 10
2.584297827514859
 20
0.0800776150414748
 30
0.0
 42
0.2687113249777866
  0
VERTEX
  5
114F0
330
EF8F
100
AcDbEntity
  8
Pel_CS-Sealant
100
AcDbVertex
100
AcDb2dVertex
 10
2.575863397610717
 20
0.1292547545936884
 30
0.0
 42
0.2136574684762968
  0
VERTEX
  5
114F1
330
EF8F
100
AcDbEntity
  8
Pel_CS-Sealant
100
AcDbVertex
100
AcDb2dVertex
 10
2.569343838777115
 20
0.1320615970789021
 30
0.0
 42
0.0598982024765343
  0
VERTEX
  5
114F2
330
EF8F
100
AcDbEntity
  8
Pel_CS-Sealant
100
AcDbVertex
100
AcDb2dVertex
 10
2.520253729302737
 20
0.2753938749040685
 30
0.0
 42
0.2227373932355273
  0
VERTEX
  5
114F3
330
EF8F
100
AcDbEntity
  8
Pel_CS-Sealant
100
AcDbVertex
100
AcDb2dVertex
 10
2.523821364109281
 20
0.287649380725739
 30
0.0
 42
0.2305058196211257
  0
VERTEX
  5
114F4
330
EF8F
100
AcDbEntity
  8
Pel_CS-Sealant
100
AcDbVertex
100
AcDb2dVertex
 10
2.500321309731702
 20
0.3254450497227026
 30
0.0
 42
0.2190892779737886
  0
VERTEX
  5
114F5
330
EF8F
100
AcDbEntity
  8
Pel_CS-Sealant
100
AcDbVertex
100
AcDb2dVertex
 10
2.492777407782014
 20
0.3262684659629116
 30
0.0
 42
0.0598982024750353
  0
VERTEX
  5
114F6
330
EF8F
100
AcDbEntity
  8
Pel_CS-Sealant
100
AcDbVertex
100
AcDb2dVertex
 10
2.399836527656901
 20
0.4459178433800873
 30
0.0
 42
0.2186211507726583
  0
VERTEX
  5
114F7
330
EF8F
100
AcDbEntity
  8
Pel_CS-Sealant
100
AcDbVertex
100
AcDb2dVertex
 10
2.400943386375331
 20
0.4536117487692338
 30
0.0
 42
0.2667435004803069
  0
VERTEX
  5
114F8
330
EF8F
100
AcDbEntity
  8
Pel_CS-Sealant
100
AcDbVertex
100
AcDb2dVertex
 10
2.364209694716819
 20
0.4869107475230266
 30
0.0
 42
0.2136688678271988
  0
VERTEX
  5
114F9
330
EF8F
100
AcDbEntity
  8
Pel_CS-Sealant
100
AcDbVertex
100
AcDb2dVertex
 10
2.357339599106282
 20
0.485124772914098
 30
0.0
 42
0.0598982024751136
  0
VERTEX
  5
114FA
330
EF8F
100
AcDbEntity
  8
Pel_CS-Sealant
100
AcDbVertex
100
AcDb2dVertex
 10
2.230604755449618
 20
0.5681444098565649
 30
0.0
 42
0.2167005834633735
  0
VERTEX
  5
114FB
330
EF8F
100
AcDbEntity
  8
Pel_CS-Sealant
100
AcDbVertex
100
AcDb2dVertex
 10
2.229372249877243
 20
0.5754896941961932
 30
0.0
 42
0.2687107482875696
  0
VERTEX
  5
114FC
330
EF8F
100
AcDbEntity
  8
Pel_CS-Sealant
100
AcDbVertex
100
AcDb2dVertex
 10
2.183604215358926
 20
0.5953596463416062
 30
0.0
 42
0.2136579388656037
  0
VERTEX
  5
114FD
330
EF8F
100
AcDbEntity
  8
Pel_CS-Sealant
100
AcDbVertex
100
AcDb2dVertex
 10
2.177685663665243
 20
0.591441233340504
 30
0.0
 42
0.0598982024755398
  0
VERTEX
  5
114FE
330
EF8F
100
AcDbEntity
  8
Pel_CS-Sealant
100
AcDbVertex
100
AcDb2dVertex
 10
2.030870390029136
 20
0.6288478656651649
 30
0.0
 42
0.2630735697886126
  0
VERTEX
  5
114FF
330
EF8F
100
AcDbEntity
  8
Pel_CS-Sealant
100
AcDbVertex
100
AcDb2dVertex
 10
2.026536972114229
 20
0.6359262598433162
 30
0.0
 42
0.2639364209124823
  0
VERTEX
  5
11500
330
EF8F
100
AcDbEntity
  8
Pel_CS-Sealant
100
AcDbVertex
100
AcDb2dVertex
 10
1.977573165701784
 20
0.6393355985907761
 30
0.0
 42
0.2133467379845553
  0
VERTEX
  5
11501
330
EF8F
100
AcDbEntity
  8
Pel_CS-Sealant
100
AcDbVertex
100
AcDb2dVertex
 10
1.97325532458754
 20
0.6337137154253654
 30
0.0
 42
0.0598982024751356
  0
VERTEX
  5
11502
330
EF8F
100
AcDbEntity
  8
Pel_CS-Sealant
100
AcDbVertex
100
AcDb2dVertex
 10
1.822245987521796
 20
0.6214597024626585
 30
0.0
 42
0.2167115963969251
  0
VERTEX
  5
11503
330
EF8F
100
AcDbEntity
  8
Pel_CS-Sealant
100
AcDbVertex
100
AcDb2dVertex
 10
1.816763910319693
 20
0.6265019474157754
 30
0.0
 42
0.2686973499210783
  0
VERTEX
  5
11504
330
EF8F
100
AcDbEntity
  8
Pel_CS-Sealant
100
AcDbVertex
100
AcDb2dVertex
 10
1.768436644741868
 20
0.6140946467892406
 30
0.0
 42
0.213668867824412
  0
VERTEX
  5
11505
330
EF8F
100
AcDbEntity
  8
Pel_CS-Sealant
100
AcDbVertex
100
AcDb2dVertex
 10
1.766169272861731
 20
0.607368061938729
 30
0.0
 42
0.0598982024751938
  0
VERTEX
  5
11506
330
EF8F
100
AcDbEntity
  8
Pel_CS-Sealant
100
AcDbVertex
100
AcDb2dVertex
 10
1.627306063830488
 20
0.5467793675124284
 30
0.0
 42
0.2538143772284522
  0
VERTEX
  5
11507
330
EF8F
100
AcDbEntity
  8
Pel_CS-Sealant
100
AcDbVertex
100
AcDb2dVertex
 10
1.61879581922696
 20
0.5497205415586564
 30
0.0
 42
0.2578231418981885
  0
VERTEX
  5
11508
330
EF8F
100
AcDbEntity
  8
Pel_CS-Sealant
100
AcDbVertex
100
AcDb2dVertex
 10
1.578811875967659
 20
0.5223853197948785
 30
0.0
 42
0.2147206829331845
  0
VERTEX
  5
11509
330
EF8F
100
AcDbEntity
  8
Pel_CS-Sealant
100
AcDbVertex
100
AcDb2dVertex
 10
1.57883556484046
 20
0.5152550437706509
 30
0.0
 42
0.0598982024750809
  0
VERTEX
  5
1150A
330
EF8F
100
AcDbEntity
  8
Pel_CS-Sealant
100
AcDbVertex
100
AcDb2dVertex
 10
1.467144385334307
 20
0.4128877582969324
 30
0.0
 42
0.2124910135477249
  0
VERTEX
  5
1150B
330
EF8F
100
AcDbEntity
  8
Pel_CS-Sealant
100
AcDbVertex
100
AcDb2dVertex
 10
1.459399711108517
 20
0.4133632368838392
 30
0.0
 42
0.297435874709286
  0
VERTEX
  5
1150C
330
EF8F
100
AcDbEntity
  8
Pel_CS-Sealant
100
AcDbVertex
100
AcDb2dVertex
 10
1.429558920884019
 20
0.3706850378630975
 30
0.0
 42
0.1900403229477347
  0
VERTEX
  5
1150D
330
EF8F
100
AcDbEntity
  8
Pel_CS-Sealant
100
AcDbVertex
100
AcDb2dVertex
 10
1.431524924945478
 20
0.3673418879975756
 30
0.0
 42
0.0822802001973394
  0
VERTEX
  5
1150E
330
EF8F
100
AcDbEntity
  8
Pel_CS-Sealant
100
AcDbVertex
100
AcDb2dVertex
 10
1.340550973714272
 20
0.1808917756833637
 30
0.0
 42
-0.3316792665675123
  0
VERTEX
  5
1150F
330
EF8F
100
AcDbEntity
  8
Pel_CS-Sealant
100
AcDbVertex
100
AcDb2dVertex
 10
1.217690095829368
 20
0.0893166841083257
 30
0.0
  0
VERTEX
  5
11510
330
EF8F
100
AcDbEntity
  8
Pel_CS-Sealant
100
AcDbVertex
100
AcDb2dVertex
 10
0.667989623227399
 20
0.0893166841083044
 30
0.0
  0
VERTEX
  5
11511
330
EF8F
100
AcDbEntity
  8
Pel_CS-Sealant
100
AcDbVertex
100
AcDb2dVertex
 10
0.8081636068531565
 20
0.332105145646814
 30
0.0
 42
1.0
  0
VERTEX
  5
11512
330
EF8F
100
AcDbEntity
  8
Pel_CS-Sealant
100
AcDbVertex
100
AcDb2dVertex
 10
0.7110133211722172
 20
0.3881948892365656
 30
0.0
  0
VERTEX
  5
11513
330
EF8F
100
AcDbEntity
  8
Pel_CS-Sealant
100
AcDbVertex
100
AcDb2dVertex
 10
0.5384559089864212
 20
0.0893166841081836
 30
0.0
  0
VERTEX
  5
11514
330
EF8F
100
AcDbEntity
  8
Pel_CS-Sealant
100
AcDbVertex
100
AcDb2dVertex
 10
0.232092187329954
 20
0.0893166841083044
 30
0.0
  0
VERTEX
  5
11515
330
EF8F
100
AcDbEntity
  8
Pel_CS-Sealant
100
AcDbVertex
100
AcDb2dVertex
 10
0.3722661709557116
 20
0.332105145646814
 30
0.0
 42
1.0
  0
VERTEX
  5
11516
330
EF8F
100
AcDbEntity
  8
Pel_CS-Sealant
100
AcDbVertex
100
AcDb2dVertex
 10
0.2751158852747579
 20
0.3881948892365656
 30
0.0
  0
VERTEX
  5
11517
330
EF8F
100
AcDbEntity
  8
Pel_CS-Sealant
100
AcDbVertex
100
AcDb2dVertex
 10
0.1025584730889903
 20
0.0893166841081907
 30
0.0
 42
1.0688124244698
  0
VERTEX
  5
11518
330
EF8F
100
AcDbEntity
  8
Pel_CS-Sealant
100
AcDbVertex
100
AcDb2dVertex
 10
0.0897379602682804
 20
-0.0901704953788709
 30
0.0
  0
VERTEX
  5
11519
330
EF8F
100
AcDbEntity
  8
Pel_CS-Sealant
100
AcDbVertex
100
AcDb2dVertex
 10
0.102558473089843
 20
-0.0901704953788851
 30
0.0
  0
VERTEX
  5
1151A
330
EF8F
100
AcDbEntity
  8
Pel_CS-Sealant
100
AcDbVertex
100
AcDb2dVertex
 10
0.2751158852748006
 20
-0.3890487005071961
 30
0.0
 42
1.0
  0
VERTEX
  5
1151B
330
EF8F
100
AcDbEntity
  8
Pel_CS-Sealant
100
AcDbVertex
100
AcDb2dVertex
 10
0.37226617095574
 20
-0.3329589569174516
 30
0.0
  0
VERTEX
  5
1151C
330
EF8F
100
AcDbEntity
  8
Pel_CS-Sealant
100
AcDbVertex
100
AcDb2dVertex
 10
0.2320921873302666
 20
-0.0901704953788283
 30
0.0
  0
VERTEX
  5
1151D
330
EF8F
100
AcDbEntity
  8
Pel_CS-Sealant
100
AcDbVertex
100
AcDb2dVertex
 10
0.5384559089872738
 20
-0.0901704953788638
 30
0.0
  0
VERTEX
  5
1151E
330
EF8F
100
AcDbEntity
  8
Pel_CS-Sealant
100
AcDbVertex
100
AcDb2dVertex
 10
0.7110133211722456
 20
-0.3890487005071961
 30
0.0
 42
1.0
  0
VERTEX
  5
1151F
330
EF8F
100
AcDbEntity
  8
Pel_CS-Sealant
100
AcDbVertex
100
AcDb2dVertex
 10
0.8081636068531139
 20
-0.332958956917345
 30
0.0
  0
VERTEX
  5
11520
330
EF8F
100
AcDbEntity
  8
Pel_CS-Sealant
100
AcDbVertex
100
AcDb2dVertex
 10
0.6679896232276974
 20
-0.0901704953788212
 30
0.0
  0
VERTEX
  5
11521
330
EF8F
100
AcDbEntity
  8
Pel_CS-Sealant
100
AcDbVertex
100
AcDb2dVertex
 10
1.21769009582951
 20
-0.0901704953788709
 30
0.0
 42
-0.3316792665684573
  0
VERTEX
  5
11522
330
EF8F
100
AcDbEntity
  8
Pel_CS-Sealant
100
AcDbVertex
100
AcDb2dVertex
 10
1.34055097371413
 20
-0.1817455869540581
 30
0.0
  0
VERTEX
  5
11523
330
EF8F
100
AcDbEntity
  8
Pel_CS-Sealant
100
AcDbVertex
100
AcDb2dVertex
 10
1.469554895492962
 20
-0.1432840484924895
 30
0.0
 42
-0.0725648918970478
  0
VERTEX
  5
11524
330
EF8F
100
AcDbEntity
  8
Pel_CS-Sealant
100
AcDbVertex
100
AcDb2dVertex
 10
1.448712319242901
 20
-0.0004269056352797
 30
0.0
 42
-1.0
  0
SEQEND
  5
11525
330
EF8F
100
AcDbEntity
  8
Pel_CS-Sealant
  0
ENDBLK
  5
EF8E
330
EF8C
100
AcDbEntity
  8
0
 62
     2
100
AcDbBlockEnd
  0
BLOCK
  5
EFEE
330
EFEC
100
AcDbEntity
  8
0
 62
     2
100
AcDbBlockBegin
  2
72F6
 70
     0
 10
0.0
 20
0.0
 30
0.0
  3
72F6
  1

  0
LWPOLYLINE
  5
EFED
330
EFEC
100
AcDbEntity
  8
Pel_Clad
100
AcDbPolyline
 90
       57
 70
     1
 43
0.0
 10
2.927999999999997
 20
0.4449998999999992
 10
3.112000034444442
 20
0.4450001044444818
 42
0.4142132369362223
 10
3.143
 20
0.4760001044444664
 10
3.143
 20
0.6240001000000035
 42
-0.4142135623730934
 10
3.173999999999999
 20
0.6550001000000023
 10
3.732999999999996
 20
0.6550001000000023
 42
-0.9999999999999998
 10
3.732999999999996
 20
0.5850002000000032
 10
3.302999999999997
 20
0.5850000000000009
 42
0.9999999999999998
 10
3.302999999999997
 20
0.4450000000000003
 10
3.732999999999996
 20
0.4450001000000015
 42
-0.9999999999999998
 10
3.732999999999996
 20
0.3750001000000012
 10
-0.1110000008064524
 20
0.375
 42
0.4142135547536042
 10
-0.1419999999999995
 20
0.3440000000000012
 10
-0.1419999999999995
 20
-0.0200000999999972
 10
-0.1669999999999998
 20
-0.0450001099999966
 10
-0.1419999999999995
 20
-0.0699999500000033
 10
-0.1669999000000004
 20
-0.0944975099999965
 10
-0.1419999999999995
 20
-0.1194974000000002
 10
-0.1669999000000004
 20
-0.1439949999999968
 10
-0.1422512000000005
 20
-0.1687437000000003
 10
-0.1669999999999998
 20
-0.1934924999999978
 10
-0.1419999999999995
 20
-0.2184924000000024
 10
-0.1669999999999998
 20
-0.2429899999999989
 10
-0.1419999999999995
 20
-0.2674875000000014
 10
-0.1669999999999998
 20
-0.2924873999999988
 10
-0.1419999999999995
 20
-0.3174873999999974
 10
-0.1669999999999998
 20
-0.3419848999999999
 10
-0.1422512999999999
 20
-0.3667336000000034
 10
-0.1669999999999998
 20
-0.391482400000001
 10
-0.1419999999999995
 20
-0.4159798000000024
 10
-0.1669999999999998
 20
-0.4409799000000021
 10
-0.1422512999999999
 20
-0.4657285999999985
 10
-0.1669999999999998
 20
-0.490477300000002
 10
-0.1419999999999995
 20
-0.5154773000000006
 10
-0.1669999999999998
 20
-0.5404774000000004
 10
-0.1419999999999995
 20
-0.5654772999999978
 10
-0.1419999999999995
 20
-0.5850000000000009
 42
-0.9999999999999996
 10
-0.2219999999999995
 20
-0.5850000000000009
 10
-0.2219999999999995
 20
0.5210000000000008
 10
-0.2219999999999995
 20
3.839999999999996
 42
-0.999828586122463
 10
-0.1519999999999992
 20
3.839999999999996
 10
-0.1519999999999992
 20
0.5210000000000008
 10
-0.1519999999999992
 20
0.4760001004761918
 42
0.4142135275048591
 10
-0.1210000036904759
 20
0.445000100476193
 10
0.7230001000000002
 20
0.4450000000000003
 10
0.7330001
 20
0.4350000000000023
 10
0.7430000999999998
 20
0.4449998999999992
 10
2.163990941357582
 20
0.4450000999999944
 42
0.4940496577636832
 10
2.193911175094271
 20
0.4841105470930174
 42
-0.340263472343419
 10
2.259499171226359
 20
0.643109103437169
 10
2.292000001711926
 20
0.5868178970349618
 42
3.732051755926187
 10
2.367999954986821
 20
0.5868179220349603
 10
2.40050004217705
 20
0.6431096730527344
 42
-0.3402656755522823
 10
2.46608888279357
 20
0.4841103784241625
 42
0.49405010271862
 10
2.496009119924934
 20
0.4449999000000276
 10
2.908000000000001
 20
0.4450000000000003
 10
2.917999999999999
 20
0.4350000000000023
  0
ENDBLK
  5
EFEF
330
EFEC
100
AcDbEntity
  8
0
 62
     2
100
AcDbBlockEnd
  0
BLOCK
  5
EFFA
330
EFF8
100
AcDbEntity
  8
0
 62
     2
100
AcDbBlockBegin
  2
72AM
 70
     0
 10
0.0
 20
0.0
 30
0.0
  3
72AM
  1

  0
LWPOLYLINE
  5
EFF9
330
EFF8
100
AcDbEntity
  8
Pel_Clad
100
AcDbPolyline
 90
       32
 70
   129
 43
0.0
 10
0.111591433379516
 20
-0.7349999999999995
 10
0.2257333999412268
 20
-0.0356242163225531
 42
0.4624311654547095
 10
0.1300001595961966
 20
0.0769999999999982
 10
0.032
 20
0.0769999999999982
 42
-0.4142135623730951
 10
0.0
 20
0.1090000000000018
 10
0.0
 20
2.877283423215295
 42
-0.3616214947864464
 10
0.0122727272727268
 20
2.892033405705824
 42
0.9125200992135429
 10
0.0010000000000012
 20
3.015
 10
-0.0470000000000006
 20
3.015
 42
0.4142135623730778
 10
-0.0620000000000012
 20
3.0
 10
-0.0620000000000012
 20
-0.7142892773576009
 10
-0.1560000000000024
 20
-0.8392892773576008
 10
-0.1559999999999988
 20
-0.9540000000000006
 42
-0.4142135623730951
 10
-0.1870000000000012
 20
-0.9849999999999994
 10
-0.1879999999999988
 20
-0.9849999999999994
 42
0.9999999999999998
 10
-0.1879999999999988
 20
-1.047000000000004
 10
-0.125
 20
-1.047000000000004
 42
0.4142135623730951
 10
-0.0940000000000012
 20
-1.015999999999998
 10
-0.0940000000000012
 20
-0.8599999999999994
 10
0.0
 20
-0.7349999999999995
 10
0.0
 20
0.0
 42
-0.4142135623730778
 10
0.0150000000000006
 20
0.0150000000000006
 10
0.152291086201398
 20
0.0149999999999935
 42
-0.6032392102716646
 10
0.1811699972841119
 20
-0.039773912297008
 10
0.1358430445876095
 20
-0.1059719267881505
 42
0.3348138483621337
 10
0.1392591668385279
 20
-0.1805577154166826
 10
0.078430148065813
 20
-0.5532720110959844
 10
0.0399999999999992
 20
-0.5470000000000042
 10
0.0400000000000027
 20
-0.7349999999999995
 10
0.103219854476265
 20
-0.8445000000000035
 42
1.000000000000056
 10
0.1569134295108974
 20
-0.8134999999999976
 10
0.111591433379516
 20
-0.7349999999999995
  0
ENDBLK
  5
EFFB
330
EFF8
100
AcDbEntity
  8
0
 62
     2
100
AcDbBlockEnd
  0
BLOCK
  5
F3E0
330
F3B7
100
AcDbEntity
  8
0
 62
     2
100
AcDbBlockBegin
  2
7357
 70
     0
 10
0.0
 20
0.0
 30
0.0
  3
7357
  1

  0
POLYLINE
  5
F48A
330
F3B7
100
AcDbEntity
  8
Pel_Clad
100
AcDb2dPolyline
 66
     1
 10
0.0
 20
0.0
 30
0.0
 70
     1
  0
VERTEX
  5
11553
330
F48A
100
AcDbEntity
  8
Pel_Clad
100
AcDbVertex
100
AcDb2dVertex
 10
1.648999929427999
 20
0.4400000870228027
 30
0.0
  0
VERTEX
  5
11554
330
F48A
100
AcDbEntity
  8
Pel_Clad
100
AcDbVertex
100
AcDb2dVertex
 10
1.171499967575
 20
0.4400000870227956
 30
0.0
 42
-1.000000000000015
  0
VERTEX
  5
11555
330
F48A
100
AcDbEntity
  8
Pel_Clad
100
AcDbVertex
100
AcDb2dVertex
 10
1.171499967575
 20
0.5800001919269988
 30
0.0
  0
VERTEX
  5
11556
330
F48A
100
AcDbEntity
  8
Pel_Clad
100
AcDbVertex
100
AcDb2dVertex
 10
1.648999929427999
 20
0.5799999535083984
 30
0.0
 42
1.000000499306133
  0
VERTEX
  5
11557
330
F48A
100
AcDbEntity
  8
Pel_Clad
100
AcDbVertex
100
AcDb2dVertex
 10
1.648999929427999
 20
0.6450000107287935
 30
0.0
  0
VERTEX
  5
11558
330
F48A
100
AcDbEntity
  8
Pel_Clad
100
AcDbVertex
100
AcDb2dVertex
 10
1.0625
 20
0.6450000107288006
 30
0.0
 42
0.4141786450116246
  0
VERTEX
  5
11559
330
F48A
100
AcDbEntity
  8
Pel_Clad
100
AcDbVertex
100
AcDb2dVertex
 10
1.031500101088999
 20
0.6140038073062968
 30
0.0
  0
VERTEX
  5
1155A
330
F48A
100
AcDbEntity
  8
Pel_Clad
100
AcDbVertex
100
AcDb2dVertex
 10
1.031500101088999
 20
0.4710039198399017
 30
0.0
 42
-0.414176396881944
  0
VERTEX
  5
1155B
330
F48A
100
AcDbEntity
  8
Pel_Clad
100
AcDbVertex
100
AcDb2dVertex
 10
1.000500202178999
 20
0.4400000870228027
 30
0.0
  0
VERTEX
  5
1155C
330
F48A
100
AcDbEntity
  8
Pel_Clad
100
AcDbVertex
100
AcDb2dVertex
 10
0.0160791873931903
 20
0.439999967813499
 30
0.0
 42
-0.5374235445063259
  0
VERTEX
  5
1155D
330
F48A
100
AcDbEntity
  8
Pel_Clad
100
AcDbVertex
100
AcDb2dVertex
 10
0.0022734999656677
 20
0.4608654081821016
 30
0.0
 42
0.3621144275459479
  0
VERTEX
  5
1155E
330
F48A
100
AcDbEntity
  8
Pel_Clad
100
AcDbVertex
100
AcDb2dVertex
 10
-0.0498936176299996
 20
0.6337211430072998
 30
0.0
  0
VERTEX
  5
1155F
330
F48A
100
AcDbEntity
  8
Pel_Clad
100
AcDbVertex
100
AcDb2dVertex
 10
-0.0824999660252992
 20
0.5772452652454021
 30
0.0
 42
-3.049895849766213
  0
VERTEX
  5
11560
330
F48A
100
AcDbEntity
  8
Pel_Clad
100
AcDbVertex
100
AcDb2dVertex
 10
-0.1724999845020001
 20
0.5772455036640026
 30
0.0
  0
VERTEX
  5
11561
330
F48A
100
AcDbEntity
  8
Pel_Clad
100
AcDbVertex
100
AcDb2dVertex
 10
-0.205106198787
 20
0.6337212622165965
 30
0.0
 42
0.3621133296919411
  0
VERTEX
  5
11562
330
F48A
100
AcDbEntity
  8
Pel_Clad
100
AcDbVertex
100
AcDb2dVertex
 10
-0.2572735455512269
 20
0.4608654121118932
 30
0.0
 42
-0.5374217185350454
  0
VERTEX
  5
11563
330
F48A
100
AcDbEntity
  8
Pel_Clad
100
AcDbVertex
100
AcDb2dVertex
 10
-0.2710792422289998
 20
0.4400000870228027
 30
0.0
  0
VERTEX
  5
11564
330
F48A
100
AcDbEntity
  8
Pel_Clad
100
AcDbVertex
100
AcDb2dVertex
 10
-2.1689209938
 20
0.439999967813499
 30
0.0
 42
-0.5374282144845605
  0
VERTEX
  5
11565
330
F48A
100
AcDbEntity
  8
Pel_Clad
100
AcDbVertex
100
AcDb2dVertex
 10
-2.1827263832
 20
0.4608652889728973
 30
0.0
 42
0.3621221214606475
  0
VERTEX
  5
11566
330
F48A
100
AcDbEntity
  8
Pel_Clad
100
AcDbVertex
100
AcDb2dVertex
 10
-2.23489332199
 20
0.6337210237980031
 30
0.0
  0
VERTEX
  5
11567
330
F48A
100
AcDbEntity
  8
Pel_Clad
100
AcDbVertex
100
AcDb2dVertex
 10
-2.267499696177704
 20
0.5772453364840402
 30
0.0
 42
-3.049885562698881
  0
VERTEX
  5
11568
330
F48A
100
AcDbEntity
  8
Pel_Clad
100
AcDbVertex
100
AcDb2dVertex
 10
-2.35750007629
 20
0.5772455036640026
 30
0.0
  0
VERTEX
  5
11569
330
F48A
100
AcDbEntity
  8
Pel_Clad
100
AcDbVertex
100
AcDb2dVertex
 10
-2.390106678
 20
0.6337209045886994
 30
0.0
 42
0.3621118697234256
  0
VERTEX
  5
1156A
330
F48A
100
AcDbEntity
  8
Pel_Clad
100
AcDbVertex
100
AcDb2dVertex
 10
-2.442273566691882
 20
0.4608655486756704
 30
0.0
 42
-0.5374123585788367
  0
VERTEX
  5
1156B
330
F48A
100
AcDbEntity
  8
Pel_Clad
100
AcDbVertex
100
AcDb2dVertex
 10
-2.456079483029999
 20
0.4400000870228027
 30
0.0
  0
VERTEX
  5
1156C
330
F48A
100
AcDbEntity
  8
Pel_Clad
100
AcDbVertex
100
AcDb2dVertex
 10
-3.031499862669998
 20
0.4400000870228027
 30
0.0
 42
-0.4142484761525966
  0
VERTEX
  5
1156D
330
F48A
100
AcDbEntity
  8
Pel_Clad
100
AcDbVertex
100
AcDb2dVertex
 10
-3.0625
 20
0.4710039198399017
 30
0.0
  0
VERTEX
  5
1156E
330
F48A
100
AcDbEntity
  8
Pel_Clad
100
AcDbVertex
100
AcDb2dVertex
 10
-3.0625
 20
3.842505484819
 30
0.0
 42
0.9999999987084622
  0
VERTEX
  5
1156F
330
F48A
100
AcDbEntity
  8
Pel_Clad
100
AcDbVertex
100
AcDb2dVertex
 10
-3.127500534039985
 20
3.84250548490295
 30
0.0
  0
VERTEX
  5
11570
330
F48A
100
AcDbEntity
  8
Pel_Clad
100
AcDbVertex
100
AcDb2dVertex
 10
-3.127500057689418
 20
0.4370000573695734
 30
0.0
 42
0.4142135214041939
  0
VERTEX
  5
11571
330
F48A
100
AcDbEntity
  8
Pel_Clad
100
AcDbVertex
100
AcDb2dVertex
 10
-3.06550025939
 20
0.3750002677424788
 30
0.0
  0
VERTEX
  5
11572
330
F48A
100
AcDbEntity
  8
Pel_Clad
100
AcDbVertex
100
AcDb2dVertex
 10
-0.1584999859330001
 20
0.3750000298023011
 30
0.0
 42
-0.4141777523529643
  0
VERTEX
  5
11573
330
F48A
100
AcDbEntity
  8
Pel_Clad
100
AcDbVertex
100
AcDb2dVertex
 10
-0.1274999976150006
 20
0.3440038263797973
 30
0.0
  0
VERTEX
  5
11574
330
F48A
100
AcDbEntity
  8
Pel_Clad
100
AcDbVertex
100
AcDb2dVertex
 10
-0.1274999980676164
 20
-0.5925000011920006
 30
0.0
 42
1.000000000483303
  0
VERTEX
  5
11575
330
F48A
100
AcDbEntity
  8
Pel_Clad
100
AcDbVertex
100
AcDb2dVertex
 10
-0.0624999995481837
 20
-0.5925000011920006
 30
0.0
  0
VERTEX
  5
11576
330
F48A
100
AcDbEntity
  8
Pel_Clad
100
AcDbVertex
100
AcDb2dVertex
 10
-0.0625
 20
0.3440038263797973
 30
0.0
 42
-0.4142493960259627
  0
VERTEX
  5
11577
330
F48A
100
AcDbEntity
  8
Pel_Clad
100
AcDbVertex
100
AcDb2dVertex
 10
-0.0315000042318996
 20
0.3750000298023011
 30
0.0
  0
VERTEX
  5
11578
330
F48A
100
AcDbEntity
  8
Pel_Clad
100
AcDbVertex
100
AcDb2dVertex
 10
1.648999929427999
 20
0.3750000298023011
 30
0.0
 42
0.9999999999999998
  0
VERTEX
  5
11579
330
F48A
100
AcDbEntity
  8
Pel_Clad
100
AcDbVertex
100
AcDb2dVertex
 10
1.648999929427999
 20
0.4400000870229022
 30
0.0
 42
0.9999999999999998
  0
SEQEND
  5
1157A
330
F48A
100
AcDbEntity
  8
Pel_Clad
  0
ENDBLK
  5
F3E1
330
F3B7
100
AcDbEntity
  8
0
 62
     2
100
AcDbBlockEnd
  0
BLOCK
  5
F4B7
330
F4B5
100
AcDbEntity
  8
0
 62
     2
100
AcDbBlockBegin
  2
73H9
 70
     0
 10
0.0
 20
0.0
 30
0.0
  3
73H9
  1

  0
LWPOLYLINE
  5
F4B6
330
F4B5
100
AcDbEntity
  8
Pel_Clad
100
AcDbPolyline
 90
       59
 70
     1
 43
0.0
 10
3.358
 20
0.4450002000000027
 10
3.823
 20
0.4450001000000015
 42
-0.9999999999999998
 10
3.823
 20
0.3750001000000012
 10
-0.0270000009090907
 20
0.375
 42
0.4142135547654785
 10
-0.0619999999999994
 20
0.3400000000000034
 10
-0.0619999999999994
 20
-0.0200000999999972
 10
-0.0869999999999998
 20
-0.0450001099999966
 10
-0.0619999999999994
 20
-0.0699999500000033
 10
-0.0869999200000003
 20
-0.0944975099999965
 10
-0.0619999999999994
 20
-0.1194974000000002
 10
-0.0869999400000001
 20
-0.1439949999999968
 10
-0.0622512099999995
 20
-0.1687437000000003
 10
-0.0869999999999998
 20
-0.1934924999999978
 10
-0.0619999999999994
 20
-0.2184924000000024
 10
-0.0869999999999998
 20
-0.2429899999999989
 10
-0.0619999999999994
 20
-0.2674875000000014
 10
-0.0869999700000008
 20
-0.2924873999999988
 10
-0.0619999999999994
 20
-0.3174873999999974
 10
-0.0869999999999998
 20
-0.3419848999999999
 10
-0.0622512799999999
 20
-0.3667336000000034
 10
-0.0869999999999998
 20
-0.391482400000001
 10
-0.0619999999999994
 20
-0.4159798000000024
 10
-0.0870000100000006
 20
-0.4409799000000021
 10
-0.0622512799999999
 20
-0.4657285999999985
 10
-0.0869999999999998
 20
-0.490477300000002
 10
-0.0620000100000002
 20
-0.5154773000000006
 10
-0.0869999999999998
 20
-0.5404774000000004
 10
-0.0619999999999994
 20
-0.5654772999999978
 10
-0.0619999999999994
 20
-0.5850000000000009
 42
-0.9999999999999998
 10
-0.1419999999999995
 20
-0.5850000000000009
 10
-0.1419999999999995
 20
3.840006000000002
 42
-0.9999999999999998
 10
-0.0719999999999992
 20
3.840006000000002
 10
-0.0719999999999992
 20
0.5850000000000009
 10
-0.0719999999999992
 20
0.4800000999999981
 42
0.4142135623730948
 10
-0.0370000000000008
 20
0.4450001000000015
 10
0.5718422541383799
 20
0.4450001000000015
 42
0.4848787726590387
 10
0.6058793257585898
 20
0.4881534892045423
 42
-0.3320303950820121
 10
0.6724998712204365
 20
0.6431094498473798
 10
0.7050000267120211
 20
0.5868178537336917
 42
3.732047503238594
 10
0.7810000549867198
 20
0.5868179220350243
 10
0.8135001671769135
 20
0.6431095431489738
 42
-0.3320310867466125
 10
0.8801208358597669
 20
0.488153328977262
 42
0.4848791669824528
 10
0.9141579017514249
 20
0.444999899999992
 10
2.756842260766237
 20
0.4450001000000299
 42
0.4848787811711918
 10
2.790879327477924
 20
0.4881534938371815
 42
-0.3320306753945734
 10
2.857499927920816
 20
0.6431094248485323
 10
2.889999100110259
 20
0.5868175265987646
 42
3.732004318819051
 10
2.966000019986839
 20
0.5868180346182541
 10
2.998499948875782
 20
0.6431096114501785
 42
-0.332031355651674
 10
3.065120735859689
 20
0.4881533289769351
 42
0.484879969787566
 10
3.09915789274952
 20
0.4449998999997078
 10
3.173000094797
 20
0.4450001000002573
 42
0.4142127690762268
 10
3.207999999999998
 20
0.480000100000126
 10
3.208000000000001
 20
0.6200000999999986
 42
-0.4142136128719258
 10
3.243000006034485
 20
0.6550001000000023
 10
3.823
 20
0.6550000000000012
 42
-0.9999999999999998
 10
3.823
 20
0.5850000000000009
 10
3.358
 20
0.5850002000000032
 42
0.9999999999999998
 10
3.358
 20
0.4450000000000003
  0
ENDBLK
  5
F4B8
330
F4B5
100
AcDbEntity
  8
0
 62
     2
100
AcDbBlockEnd
  0
BLOCK
  5
F4DA
330
F4C0
100
AcDbEntity
  8
0
 62
     2
100
AcDbBlockBegin
  2
7360
 70
     0
 10
0.0
 20
0.0
 30
0.0
  3
7360
  1

  0
POLYLINE
  5
F514
330
F4C0
100
AcDbEntity
  8
Pel_Clad
100
AcDb2dPolyline
 66
     1
 10
0.0
 20
0.0
 30
0.0
 70
     1
  0
VERTEX
  5
115A0
330
F514
100
AcDbEntity
  8
Pel_Clad
100
AcDbVertex
100
AcDb2dVertex
 10
-3.189999999999999
 20
-0.3870000000000004
 30
0.0
  0
VERTEX
  5
115A1
330
F514
100
AcDbEntity
  8
Pel_Clad
100
AcDbVertex
100
AcDb2dVertex
 10
-2.325
 20
-0.3870000000000004
 30
0.0
  0
VERTEX
  5
115A2
330
F514
100
AcDbEntity
  8
Pel_Clad
100
AcDbVertex
100
AcDb2dVertex
 10
-2.314999999999999
 20
-0.3769998000000001
 30
0.0
  0
VERTEX
  5
115A3
330
F514
100
AcDbEntity
  8
Pel_Clad
100
AcDbVertex
100
AcDb2dVertex
 10
-2.304999
 20
-0.3870000000000004
 30
0.0
  0
VERTEX
  5
115A4
330
F514
100
AcDbEntity
  8
Pel_Clad
100
AcDbVertex
100
AcDb2dVertex
 10
-2.075
 20
-0.3870000000000004
 30
0.0
  0
VERTEX
  5
115A5
330
F514
100
AcDbEntity
  8
Pel_Clad
100
AcDbVertex
100
AcDb2dVertex
 10
-2.064999800001999
 20
-0.3770000000019991
 30
0.0
  0
VERTEX
  5
115A6
330
F514
100
AcDbEntity
  8
Pel_Clad
100
AcDbVertex
100
AcDb2dVertex
 10
-2.054999999999999
 20
-0.3870000000000004
 30
0.0
  0
VERTEX
  5
115A7
330
F514
100
AcDbEntity
  8
Pel_Clad
100
AcDbVertex
100
AcDb2dVertex
 10
-1.910999999999999
 20
-0.3870000000000004
 30
0.0
  0
VERTEX
  5
115A8
330
F514
100
AcDbEntity
  8
Pel_Clad
100
AcDbVertex
100
AcDb2dVertex
 10
-1.910999999999999
 20
-0.2607933000000031
 30
0.0
  0
VERTEX
  5
115A9
330
F514
100
AcDbEntity
  8
Pel_Clad
100
AcDbVertex
100
AcDb2dVertex
 10
-0.1410874
 20
-0.0942135600000001
 30
0.0
  0
VERTEX
  5
115AA
330
F514
100
AcDbEntity
  8
Pel_Clad
100
AcDbVertex
100
AcDb2dVertex
 10
-0.1299995999999997
 20
-0.0831257999999977
 30
0.0
  0
VERTEX
  5
115AB
330
F514
100
AcDbEntity
  8
Pel_Clad
100
AcDbVertex
100
AcDb2dVertex
 10
-0.1208194999999996
 20
-0.0923059899999999
 30
0.0
  0
VERTEX
  5
115AC
330
F514
100
AcDbEntity
  8
Pel_Clad
100
AcDbVertex
100
AcDb2dVertex
 10
0.0630568100000009
 20
-0.0750000000000029
 30
0.0
  0
VERTEX
  5
115AD
330
F514
100
AcDbEntity
  8
Pel_Clad
100
AcDbVertex
100
AcDb2dVertex
 10
0.1100004000000005
 20
-0.0750000000000029
 30
0.0
  0
VERTEX
  5
115AE
330
F514
100
AcDbEntity
  8
Pel_Clad
100
AcDbVertex
100
AcDb2dVertex
 10
0.1200004000000003
 20
-0.0649999999999977
 30
0.0
  0
VERTEX
  5
115AF
330
F514
100
AcDbEntity
  8
Pel_Clad
100
AcDbVertex
100
AcDb2dVertex
 10
0.1300004000000001
 20
-0.0750000000000029
 30
0.0
  0
VERTEX
  5
115B0
330
F514
100
AcDbEntity
  8
Pel_Clad
100
AcDbVertex
100
AcDb2dVertex
 10
1.112
 20
-0.0750000000000029
 30
0.0
  0
VERTEX
  5
115B1
330
F514
100
AcDbEntity
  8
Pel_Clad
100
AcDbVertex
100
AcDb2dVertex
 10
1.112
 20
0.1839999999999975
 30
0.0
 42
0.9999999999999998
  0
VERTEX
  5
115B2
330
F514
100
AcDbEntity
  8
Pel_Clad
100
AcDbVertex
100
AcDb2dVertex
 10
1.061999999999999
 20
0.1839999999999975
 30
0.0
  0
VERTEX
  5
115B3
330
F514
100
AcDbEntity
  8
Pel_Clad
100
AcDbVertex
100
AcDb2dVertex
 10
1.061999999999999
 20
-0.009999999999998
 30
0.0
  0
VERTEX
  5
115B4
330
F514
100
AcDbEntity
  8
Pel_Clad
100
AcDbVertex
100
AcDb2dVertex
 10
0.0599999400000009
 20
-0.009999999999998
 30
0.0
  0
VERTEX
  5
115B5
330
F514
100
AcDbEntity
  8
Pel_Clad
100
AcDbVertex
100
AcDb2dVertex
 10
-3.198809999999999
 20
-0.3167114999999967
 30
0.0
 42
0.3869538817123904
  0
VERTEX
  5
115B6
330
F514
100
AcDbEntity
  8
Pel_Clad
100
AcDbVertex
100
AcDb2dVertex
 10
-3.254999999999999
 20
-0.3784309999999991
 30
0.0
  0
VERTEX
  5
115B7
330
F514
100
AcDbEntity
  8
Pel_Clad
100
AcDbVertex
100
AcDb2dVertex
 10
-3.254999789581032
 20
-3.539494781499278
 30
0.0
 42
0.9999999334340749
  0
VERTEX
  5
115B8
330
F514
100
AcDbEntity
  8
Pel_Clad
100
AcDbVertex
100
AcDb2dVertex
 10
-3.189999999999999
 20
-3.539494781499282
 30
0.0
  0
VERTEX
  5
115B9
330
F514
100
AcDbEntity
  8
Pel_Clad
100
AcDbVertex
100
AcDb2dVertex
 10
-3.189999999999999
 20
-0.3870000000000004
 30
0.0
  0
SEQEND
  5
115BA
330
F514
100
AcDbEntity
  8
Pel_Clad
  0
ENDBLK
  5
F4DB
330
F4C0
100
AcDbEntity
  8
0
 62
     2
100
AcDbBlockEnd
  0
BLOCK
  5
F534
330
F532
100
AcDbEntity
  8
0
 62
     2
100
AcDbBlockBegin
  2
73H8
 70
     0
 10
0.0
 20
0.0
 30
0.0
  3
73H8
  1

  0
LWPOLYLINE
  5
F533
330
F532
100
AcDbEntity
  8
Pel_Clad
100
AcDbPolyline
 90
       37
 70
     1
 43
0.0
 10
0.3420000000000005
 20
-0.0200000000000031
 10
0.3520000000000003
 20
-0.009999999999998
 10
1.059999999999998
 20
-0.009999999999998
 10
1.059999999999998
 20
0.1840000000000046
 42
-0.9999999999999998
 10
1.109999999999999
 20
0.1840000000000046
 10
1.109999999999999
 20
-0.009999999999998
 10
3.245499999999999
 20
-0.009999998000005
 42
-0.9999999999999998
 10
3.245499999999999
 20
-0.0749999999999957
 10
2.995
 20
-0.0749999999999957
 10
2.984999999999999
 20
-0.0649998900000028
 10
2.975000000000001
 20
-0.0749999999999957
 10
2.716999999999998
 20
-0.0749999999999957
 10
2.685000000000002
 20
-0.1069999999999993
 10
2.560000000000002
 20
-0.1069999999999993
 10
2.527999999999998
 20
-0.0749999999999957
 10
1.966999999999998
 20
-0.0749999999999957
 10
1.934999999999998
 20
-0.1069999999999993
 10
1.809999999999998
 20
-0.1069999999999993
 10
1.777999999999998
 20
-0.0749999999999957
 10
1.216999999999998
 20
-0.0749999999999957
 10
1.184999999999998
 20
-0.1069999999999993
 10
1.059999999999998
 20
-0.1069999999999993
 10
1.027999999999998
 20
-0.0749999999999957
 10
0.8100000999999998
 20
-0.0749999999999957
 10
0.8000001000000001
 20
-0.0650000000000048
 10
0.7899999999999992
 20
-0.0749999999999957
 10
0.4669999000000012
 20
-0.0749999999999957
 10
0.4349999000000011
 20
-0.1069999999999993
 10
0.3099999000000011
 20
-0.1069999999999993
 10
0.2779999000000011
 20
-0.0749999999999957
 10
-0.1349999999999998
 20
-0.0749999999999957
 42
0.4142135623730951
 10
-0.1449999999999996
 20
-0.0850000000000009
 10
-0.1449999999999996
 20
-2.987494999999999
 42
-1.000153857988159
 10
-0.2100000000000008
 20
-2.987494999999999
 10
-0.2100000000000008
 20
-0.0719999980000026
 42
-0.4142135635934833
 10
-0.1479999997416677
 20
-0.009999998000005
 10
0.3320000000000007
 20
-0.009999999999998
  0
ENDBLK
  5
F535
330
F532
100
AcDbEntity
  8
0
 62
     2
100
AcDbBlockEnd
  0
BLOCK
  5
F65F
330
F654
100
AcDbEntity
  8
0
 62
     2
100
AcDbBlockBegin
  2
*D13
 70
     1
 10
0.0
 20
0.0
 30
0.0
  3
*D13
  1

  0
LINE
  5
1196E
330
F654
100
AcDbEntity
  8
0
100
AcDbLine
 10
4.959077888623266
 20
42.26927599072143
 30
0.0
 11
4.25
 21
42.26927599072143
 31
0.0
  0
LINE
  5
1196F
330
F654
100
AcDbEntity
  8
0
100
AcDbLine
 10
4.9075
 20
45.77166393854655
 30
0.0
 11
4.25
 21
45.77166393854655
 31
0.0
  0
LINE
  5
11970
330
F654
100
AcDbEntity
  8
0
100
AcDbLine
 10
4.375
 20
42.70677599072143
 30
0.0
 11
4.375
 21
43.26818483502963
 31
0.0
  0
LINE
  5
11971
330
F654
100
AcDbEntity
  8
0
100
AcDbLine
 10
4.375
 20
45.33416393854655
 30
0.0
 11
4.375
 21
44.77275509423836
 31
0.0
  0
MTEXT
  5
11972
330
F654
100
AcDbEntity
  8
0
 62
   255
100
AcDbMText
 10
4.375
 20
44.020469964634
 30
0.0
 40
0.375
 41
0.0
 71
     5
 72
     1
  1
\A1;3 1/2"\P [89]
  7
Arial
 11
0.0000000000000001
 21
1.0
 31
0.0
 73
     1
 44
1.0
1001
ACAD
1000
MTEXTBEGIN
1070
    73
1070
     1
1070
    44
1040
1.0
1070
    74
1070
     0
1000
MTEXTEND
  0
SOLID
  5
11973
330
F654
100
AcDbEntity
  8
0
100
AcDbTrace
 10
4.302083333333333
 20
42.70677599072143
 30
0.0
 11
4.447916666666666
 21
42.70677599072143
 31
0.0
 12
4.375
 22
42.26927599072143
 32
0.0
 13
4.375
 23
42.26927599072143
 33
0.0
  0
SOLID
  5
11974
330
F654
100
AcDbEntity
  8
0
100
AcDbTrace
 10
4.302083333333333
 20
45.33416393854655
 30
0.0
 11
4.447916666666666
 21
45.33416393854655
 31
0.0
 12
4.375
 22
45.77166393854655
 32
0.0
 13
4.375
 23
45.77166393854655
 33
0.0
  0
POINT
  5
11975
330
F654
100
AcDbEntity
  8
Defpoints
 62
     0
100
AcDbPoint
 10
5.459077888623266
 20
42.26927599072143
 30
0.0
  0
POINT
  5
11976
330
F654
100
AcDbEntity
  8
Defpoints
 62
     0
100
AcDbPoint
 10
5.4075
 20
45.77166393854655
 30
0.0
  0
POINT
  5
11977
330
F654
100
AcDbEntity
  8
Defpoints
 62
     0
100
AcDbPoint
 10
4.375
 20
45.77166393854655
 30
0.0
  0
ENDBLK
  5
F660
330
F654
100
AcDbEntity
  8
0
 62
     2
100
AcDbBlockEnd
  0
BLOCK
  5
F6A6
330
F69B
100
AcDbEntity
  8
0
 62
     2
100
AcDbBlockBegin
  2
*D14
 70
     1
 10
0.0
 20
0.0
 30
0.0
  3
*D14
  1

  0
LINE
  5
1195A
330
F69B
100
AcDbEntity
  8
0
100
AcDbLine
 10
13.48599999919355
 20
42.271658937197
 30
0.0
 11
12.75
 21
42.271658937197
 31
0.0
  0
LINE
  5
1195B
330
F69B
100
AcDbEntity
  8
0
100
AcDbLine
 10
13.41
 20
45.77165293771129
 30
0.0
 11
12.75
 21
45.77165293771129
 31
0.0
  0
LINE
  5
1195C
330
F69B
100
AcDbEntity
  8
0
100
AcDbLine
 10
12.875
 20
42.709158937197
 30
0.0
 11
12.875
 21
43.26937080784977
 31
0.0
  0
LINE
  5
1195D
330
F69B
100
AcDbEntity
  8
0
100
AcDbLine
 10
12.875
 20
45.33415293771128
 30
0.0
 11
12.875
 21
44.7739410670585
 31
0.0
  0
MTEXT
  5
1195E
330
F69B
100
AcDbEntity
  8
0
 62
   255
100
AcDbMText
 10
12.875
 20
44.02165593745414
 30
0.0
 40
0.375
 41
0.0
 71
     5
 72
     1
  1
\A1;3 1/2"\P [89]
  7
Arial
 11
0.0000000000000001
 21
1.0
 31
0.0
 73
     1
 44
1.0
1001
ACAD
1000
MTEXTBEGIN
1070
    73
1070
     1
1070
    44
1040
1.0
1070
    74
1070
     0
1000
MTEXTEND
  0
SOLID
  5
1195F
330
F69B
100
AcDbEntity
  8
0
100
AcDbTrace
 10
12.80208333333333
 20
42.709158937197
 30
0.0
 11
12.94791666666666
 21
42.709158937197
 31
0.0
 12
12.875
 22
42.271658937197
 32
0.0
 13
12.875
 23
42.271658937197
 33
0.0
  0
SOLID
  5
11960
330
F69B
100
AcDbEntity
  8
0
100
AcDbTrace
 10
12.80208333333333
 20
45.33415293771128
 30
0.0
 11
12.94791666666666
 21
45.33415293771128
 31
0.0
 12
12.875
 22
45.77165293771129
 32
0.0
 13
12.875
 23
45.77165293771129
 33
0.0
  0
POINT
  5
11961
330
F69B
100
AcDbEntity
  8
Defpoints
 62
     0
100
AcDbPoint
 10
13.98599999919355
 20
42.271658937197
 30
0.0
  0
POINT
  5
11962
330
F69B
100
AcDbEntity
  8
Defpoints
 62
     0
100
AcDbPoint
 10
13.91
 20
45.77165293771129
 30
0.0
  0
POINT
  5
11963
330
F69B
100
AcDbEntity
  8
Defpoints
 62
     0
100
AcDbPoint
 10
12.875
 20
45.77165293771129
 30
0.0
  0
ENDBLK
  5
F6A7
330
F69B
100
AcDbEntity
  8
0
 62
     2
100
AcDbBlockEnd
  0
BLOCK
  5
F714
330
F709
100
AcDbEntity
  8
0
 62
     2
100
AcDbBlockBegin
  2
*D15
 70
     1
 10
0.0
 20
0.0
 30
0.0
  3
*D15
  1

  0
LINE
  5
11946
330
F709
100
AcDbEntity
  8
0
100
AcDbLine
 10
4.9370000364747
 20
36.02200199037051
 30
0.0
 11
4.249999999999999
 21
36.02200199037051
 31
0.0
  0
LINE
  5
11947
330
F709
100
AcDbEntity
  8
0
100
AcDbLine
 10
4.90275306871687
 20
39.521658937197
 30
0.0
 11
4.25
 21
39.521658937197
 31
0.0
  0
LINE
  5
11948
330
F709
100
AcDbEntity
  8
0
100
AcDbLine
 10
4.374999999999999
 20
36.45950199037051
 30
0.0
 11
4.374999999999999
 21
37.01954533417939
 31
0.0
  0
LINE
  5
11949
330
F709
100
AcDbEntity
  8
0
100
AcDbLine
 10
4.375
 20
39.08415893719701
 30
0.0
 11
4.375
 21
38.52411559338813
 31
0.0
  0
MTEXT
  5
1194A
330
F709
100
AcDbEntity
  8
0
 62
   255
100
AcDbMText
 10
4.375
 20
37.77183046378376
 30
0.0
 40
0.375
 41
0.0
 71
     5
 72
     1
  1
\A1;3 1/2"\P [89]
  7
Arial
 11
0.0000000000000001
 21
1.0
 31
0.0
 73
     1
 44
1.0
1001
ACAD
1000
MTEXTBEGIN
1070
    73
1070
     1
1070
    44
1040
1.0
1070
    74
1070
     0
1000
MTEXTEND
  0
SOLID
  5
1194B
330
F709
100
AcDbEntity
  8
0
100
AcDbTrace
 10
4.302083333333332
 20
36.45950199037051
 30
0.0
 11
4.447916666666666
 21
36.45950199037051
 31
0.0
 12
4.374999999999999
 22
36.02200199037051
 32
0.0
 13
4.374999999999999
 23
36.02200199037051
 33
0.0
  0
SOLID
  5
1194C
330
F709
100
AcDbEntity
  8
0
100
AcDbTrace
 10
4.302083333333333
 20
39.08415893719701
 30
0.0
 11
4.447916666666666
 21
39.08415893719701
 31
0.0
 12
4.375
 22
39.521658937197
 32
0.0
 13
4.375
 23
39.521658937197
 33
0.0
  0
POINT
  5
1194D
330
F709
100
AcDbEntity
  8
Defpoints
 62
     0
100
AcDbPoint
 10
5.4370000364747
 20
36.02200199037051
 30
0.0
  0
POINT
  5
1194E
330
F709
100
AcDbEntity
  8
Defpoints
 62
     0
100
AcDbPoint
 10
5.40275306871687
 20
39.521658937197
 30
0.0
  0
POINT
  5
1194F
330
F709
100
AcDbEntity
  8
Defpoints
 62
     0
100
AcDbPoint
 10
4.375
 20
39.521658937197
 30
0.0
  0
ENDBLK
  5
F715
330
F709
100
AcDbEntity
  8
0
 62
     2
100
AcDbBlockEnd
  0
BLOCK
  5
F738
330
F72D
100
AcDbEntity
  8
0
 62
     2
100
AcDbBlockBegin
  2
*D16
 70
     1
 10
0.0
 20
0.0
 30
0.0
  3
*D16
  1

  0
LINE
  5
11932
330
F72D
100
AcDbEntity
  8
0
100
AcDbLine
 10
13.49
 20
36.02200183773827
 30
0.0
 11
12.75
 21
36.02200183773827
 31
0.0
  0
LINE
  5
11933
330
F72D
100
AcDbEntity
  8
0
100
AcDbLine
 10
13.414929635514
 20
39.521658937197
 30
0.0
 11
12.75
 21
39.521658937197
 31
0.0
  0
LINE
  5
11934
330
F72D
100
AcDbEntity
  8
0
100
AcDbLine
 10
12.875
 20
36.45950183773827
 30
0.0
 11
12.875
 21
37.01954525786327
 31
0.0
  0
LINE
  5
11935
330
F72D
100
AcDbEntity
  8
0
100
AcDbLine
 10
12.875
 20
39.08415893719701
 30
0.0
 11
12.875
 21
38.524115517072
 31
0.0
  0
MTEXT
  5
11936
330
F72D
100
AcDbEntity
  8
0
 62
   255
100
AcDbMText
 10
12.875
 20
37.77183038746763
 30
0.0
 40
0.375
 41
0.0
 71
     5
 72
     1
  1
\A1;3 1/2"\P [89]
  7
Arial
 11
0.0000000000000001
 21
1.0
 31
0.0
 73
     1
 44
1.0
1001
ACAD
1000
MTEXTBEGIN
1070
    73
1070
     1
1070
    44
1040
1.0
1070
    74
1070
     0
1000
MTEXTEND
  0
SOLID
  5
11937
330
F72D
100
AcDbEntity
  8
0
100
AcDbTrace
 10
12.80208333333333
 20
36.45950183773827
 30
0.0
 11
12.94791666666666
 21
36.45950183773827
 31
0.0
 12
12.875
 22
36.02200183773827
 32
0.0
 13
12.875
 23
36.02200183773827
 33
0.0
  0
SOLID
  5
11938
330
F72D
100
AcDbEntity
  8
0
100
AcDbTrace
 10
12.80208333333333
 20
39.08415893719701
 30
0.0
 11
12.94791666666666
 21
39.08415893719701
 31
0.0
 12
12.875
 22
39.521658937197
 32
0.0
 13
12.875
 23
39.521658937197
 33
0.0
  0
POINT
  5
11939
330
F72D
100
AcDbEntity
  8
Defpoints
 62
     0
100
AcDbPoint
 10
13.99
 20
36.02200183773827
 30
0.0
  0
POINT
  5
1193A
330
F72D
100
AcDbEntity
  8
Defpoints
 62
     0
100
AcDbPoint
 10
13.914929635514
 20
39.521658937197
 30
0.0
  0
POINT
  5
1193B
330
F72D
100
AcDbEntity
  8
Defpoints
 62
     0
100
AcDbPoint
 10
12.875
 20
39.521658937197
 30
0.0
  0
ENDBLK
  5
F739
330
F72D
100
AcDbEntity
  8
0
 62
     2
100
AcDbBlockEnd
  0
BLOCK
  5
F76F
330
F764
100
AcDbEntity
  8
0
 62
     2
100
AcDbBlockBegin
  2
*D17
 70
     1
 10
0.0
 20
0.0
 30
0.0
  3
*D17
  1

  0
LINE
  5
1191E
330
F764
100
AcDbEntity
  8
0
100
AcDbLine
 10
8.18999985177605
 20
33.05300172216061
 30
0.0
 11
4.25
 21
33.05300172216061
 31
0.0
  0
LINE
  5
1191F
330
F764
100
AcDbEntity
  8
0
100
AcDbLine
 10
4.907500016985533
 20
29.4910070480342
 30
0.0
 11
4.25
 21
29.4910070480342
 31
0.0
  0
LINE
  5
11920
330
F764
100
AcDbEntity
  8
0
100
AcDbLine
 10
4.375
 20
32.61550172216061
 30
0.0
 11
4.375
 21
32.16996652698008
 31
0.0
  0
LINE
  5
11921
330
F764
100
AcDbEntity
  8
0
100
AcDbLine
 10
4.375
 20
29.9285070480342
 30
0.0
 11
4.375
 21
30.37404224321473
 31
0.0
  0
MTEXT
  5
11922
330
F764
100
AcDbEntity
  8
0
 62
   255
100
AcDbMText
 10
4.375
 20
31.27200438509741
 30
0.0
 40
0.375
 41
0.0
 71
     5
 72
     1
  1
\A1;3 9/16"\P [90]
  7
Arial
 11
0.0000000000000001
 21
1.0
 31
0.0
 73
     1
 44
1.0
1001
ACAD
1000
MTEXTBEGIN
1070
    73
1070
     1
1070
    44
1040
1.0
1070
    74
1070
     0
1000
MTEXTEND
  0
SOLID
  5
11923
330
F764
100
AcDbEntity
  8
0
100
AcDbTrace
 10
4.302083333333333
 20
32.61550172216061
 30
0.0
 11
4.447916666666667
 21
32.61550172216061
 31
0.0
 12
4.375
 22
33.05300172216061
 32
0.0
 13
4.375
 23
33.05300172216061
 33
0.0
  0
SOLID
  5
11924
330
F764
100
AcDbEntity
  8
0
100
AcDbTrace
 10
4.302083333333333
 20
29.9285070480342
 30
0.0
 11
4.447916666666666
 21
29.9285070480342
 31
0.0
 12
4.375
 22
29.4910070480342
 32
0.0
 13
4.375
 23
29.4910070480342
 33
0.0
  0
POINT
  5
11925
330
F764
100
AcDbEntity
  8
Defpoints
 62
     0
100
AcDbPoint
 10
8.68999985177605
 20
33.05300172216061
 30
0.0
  0
POINT
  5
11926
330
F764
100
AcDbEntity
  8
Defpoints
 62
     0
100
AcDbPoint
 10
5.407500016985533
 20
29.4910070480342
 30
0.0
  0
POINT
  5
11927
330
F764
100
AcDbEntity
  8
Defpoints
 62
     0
100
AcDbPoint
 10
4.375
 20
29.4910070480342
 30
0.0
  0
ENDBLK
  5
F770
330
F764
100
AcDbEntity
  8
0
 62
     2
100
AcDbBlockEnd
  0
BLOCK
  5
F796
330
F78B
100
AcDbEntity
  8
0
 62
     2
100
AcDbBlockBegin
  2
*D18
 70
     1
 10
0.0
 20
0.0
 30
0.0
  3
*D18
  1

  0
LINE
  5
1190A
330
F78B
100
AcDbEntity
  8
0
100
AcDbLine
 10
13.4075
 20
30.04300172177599
 30
0.0
 11
12.74999999999999
 21
30.04300172177599
 31
0.0
  0
LINE
  5
1190B
330
F78B
100
AcDbEntity
  8
0
100
AcDbLine
 10
13.43700000025833
 20
33.0530017241606
 30
0.0
 11
12.74999999999999
 21
33.0530017241606
 31
0.0
  0
LINE
  5
1190C
330
F78B
100
AcDbEntity
  8
0
100
AcDbLine
 10
12.87499999999999
 20
30.48050172177599
 30
0.0
 11
12.87499999999999
 21
30.90033801219067
 31
0.0
  0
LINE
  5
1190D
330
F78B
100
AcDbEntity
  8
0
100
AcDbLine
 10
12.87499999999999
 20
32.6155017241606
 30
0.0
 11
12.87499999999999
 21
32.19566543374592
 31
0.0
  0
MTEXT
  5
1190E
330
F78B
100
AcDbEntity
  8
0
 62
   255
100
AcDbMText
 10
12.87499999999999
 20
31.54800172296829
 30
0.0
 40
0.375
 41
0.0
 71
     5
 72
     1
  1
\A1;3"\P [76]
  7
Arial
 11
0.0000000000000001
 21
1.0
 31
0.0
 73
     1
 44
1.0
1001
ACAD
1000
MTEXTBEGIN
1070
    73
1070
     1
1070
    44
1040
1.0
1070
    74
1070
     0
1000
MTEXTEND
  0
SOLID
  5
1190F
330
F78B
100
AcDbEntity
  8
0
100
AcDbTrace
 10
12.80208333333333
 20
30.48050172177599
 30
0.0
 11
12.94791666666666
 21
30.48050172177599
 31
0.0
 12
12.87499999999999
 22
30.04300172177599
 32
0.0
 13
12.87499999999999
 23
30.04300172177599
 33
0.0
  0
SOLID
  5
11910
330
F78B
100
AcDbEntity
  8
0
100
AcDbTrace
 10
12.80208333333333
 20
32.6155017241606
 30
0.0
 11
12.94791666666666
 21
32.6155017241606
 31
0.0
 12
12.87499999999999
 22
33.0530017241606
 32
0.0
 13
12.87499999999999
 23
33.0530017241606
 33
0.0
  0
POINT
  5
11911
330
F78B
100
AcDbEntity
  8
Defpoints
 62
     0
100
AcDbPoint
 10
13.9075
 20
30.04300172177599
 30
0.0
  0
POINT
  5
11912
330
F78B
100
AcDbEntity
  8
Defpoints
 62
     0
100
AcDbPoint
 10
13.93700000025833
 20
33.0530017241606
 30
0.0
  0
POINT
  5
11913
330
F78B
100
AcDbEntity
  8
Defpoints
 62
     0
100
AcDbPoint
 10
12.87499999999999
 20
33.0530017241606
 30
0.0
  0
ENDBLK
  5
F797
330
F78B
100
AcDbEntity
  8
0
 62
     2
100
AcDbBlockEnd
  0
BLOCK
  5
F7E7
330
F7B0
100
AcDbEntity
  8
0
 62
     2
100
AcDbBlockBegin
  2
72D6 Traditional
 70
     0
 10
0.0
 20
0.0
 30
0.0
  3
72D6 Traditional
  1

  0
POLYLINE
  5
F7B1
330
F7B0
100
AcDbEntity
  8
Pel_Clad
100
AcDb2dPolyline
 66
     1
 10
0.0
 20
0.0
 30
0.0
 70
     1
  0
VERTEX
  5
110FF
330
F7B1
100
AcDbEntity
  8
Pel_Clad
100
AcDbVertex
100
AcDb2dVertex
 10
-0.1802999999999999
 20
-0.1875
 30
0.0
  0
VERTEX
  5
11100
330
F7B1
100
AcDbEntity
  8
Pel_Clad
100
AcDbVertex
100
AcDb2dVertex
 10
-0.1802999999999999
 20
0.4245000000000019
 30
0.0
 42
0.4142135623730951
  0
VERTEX
  5
11101
330
F7B1
100
AcDbEntity
  8
Pel_Clad
100
AcDbVertex
100
AcDb2dVertex
 10
-0.1932999999999998
 20
0.4375
 30
0.0
  0
VERTEX
  5
11102
330
F7B1
100
AcDbEntity
  8
Pel_Clad
100
AcDbVertex
100
AcDb2dVertex
 10
-0.2401999999999997
 20
0.4375
 30
0.0
 42
-0.3439752689084679
  0
VERTEX
  5
11103
330
F7B1
100
AcDbEntity
  8
Pel_Clad
100
AcDbVertex
100
AcDb2dVertex
 10
-0.252809871345411
 20
0.4473391228033706
 30
0.0
  0
VERTEX
  5
11104
330
F7B1
100
AcDbEntity
  8
Pel_Clad
100
AcDbVertex
100
AcDb2dVertex
 10
-0.3417901286545888
 20
0.8026608771966294
 30
0.0
 42
0.3439752689084681
  0
VERTEX
  5
11105
330
F7B1
100
AcDbEntity
  8
Pel_Clad
100
AcDbVertex
100
AcDb2dVertex
 10
-0.3544
 20
0.8125
 30
0.0
  0
VERTEX
  5
11106
330
F7B1
100
AcDbEntity
  8
Pel_Clad
100
AcDbVertex
100
AcDb2dVertex
 10
-0.4013
 20
0.8125
 30
0.0
 42
-0.4142135623730951
  0
VERTEX
  5
11107
330
F7B1
100
AcDbEntity
  8
Pel_Clad
100
AcDbVertex
100
AcDb2dVertex
 10
-0.4142999999999999
 20
0.8254999999999981
 30
0.0
  0
VERTEX
  5
11108
330
F7B1
100
AcDbEntity
  8
Pel_Clad
100
AcDbVertex
100
AcDb2dVertex
 10
-0.4142999999999999
 20
1.299499999999998
 30
0.0
 42
-0.4142135623730951
  0
VERTEX
  5
11109
330
F7B1
100
AcDbEntity
  8
Pel_Clad
100
AcDbVertex
100
AcDb2dVertex
 10
-0.4013
 20
1.3125
 30
0.0
  0
VERTEX
  5
1110A
330
F7B1
100
AcDbEntity
  8
Pel_Clad
100
AcDbVertex
100
AcDb2dVertex
 10
1.1867
 20
1.3125
 30
0.0
  0
VERTEX
  5
1110B
330
F7B1
100
AcDbEntity
  8
Pel_Clad
100
AcDbVertex
100
AcDb2dVertex
 10
1.1867
 20
2.012499999999999
 30
0.0
  0
VERTEX
  5
1110C
330
F7B1
100
AcDbEntity
  8
Pel_Clad
100
AcDbVertex
100
AcDb2dVertex
 10
1.236699999999999
 20
2.012499999999999
 30
0.0
  0
VERTEX
  5
1110D
330
F7B1
100
AcDbEntity
  8
Pel_Clad
100
AcDbVertex
100
AcDb2dVertex
 10
1.236699999999999
 20
1.2755
 30
0.0
 42
-0.4142135623730951
  0
VERTEX
  5
1110E
330
F7B1
100
AcDbEntity
  8
Pel_Clad
100
AcDbVertex
100
AcDb2dVertex
 10
1.2237
 20
1.262499999999999
 30
0.0
  0
VERTEX
  5
1110F
330
F7B1
100
AcDbEntity
  8
Pel_Clad
100
AcDbVertex
100
AcDb2dVertex
 10
0.7607
 20
1.262499999999999
 30
0.0
 42
0.4142135623730951
  0
VERTEX
  5
11110
330
F7B1
100
AcDbEntity
  8
Pel_Clad
100
AcDbVertex
100
AcDb2dVertex
 10
0.7477000000000001
 20
1.249500000000001
 30
0.0
  0
VERTEX
  5
11111
330
F7B1
100
AcDbEntity
  8
Pel_Clad
100
AcDbVertex
100
AcDb2dVertex
 10
0.7477000000000001
 20
1.163499999999999
 30
0.0
 42
-0.4142135623730951
  0
VERTEX
  5
11112
330
F7B1
100
AcDbEntity
  8
Pel_Clad
100
AcDbVertex
100
AcDb2dVertex
 10
0.7347000000000002
 20
1.1505
 30
0.0
  0
VERTEX
  5
11113
330
F7B1
100
AcDbEntity
  8
Pel_Clad
100
AcDbVertex
100
AcDb2dVertex
 10
0.6475999999999998
 20
1.1505
 30
0.0
 42
0.559749522506278
  0
VERTEX
  5
11114
330
F7B1
100
AcDbEntity
  8
Pel_Clad
100
AcDbVertex
100
AcDb2dVertex
 10
0.6360119337715365
 20
1.131607910295596
 30
0.0
 42
-0.3560605651249113
  0
VERTEX
  5
11115
330
F7B1
100
AcDbEntity
  8
Pel_Clad
100
AcDbVertex
100
AcDb2dVertex
 10
0.6022940571193854
 20
0.9760596473277125
 30
0.0
 42
-1.000135744564124
  0
VERTEX
  5
11116
330
F7B1
100
AcDbEntity
  8
Pel_Clad
100
AcDbVertex
100
AcDb2dVertex
 10
0.5711059336429312
 20
1.015097327876247
 30
0.0
 42
2.856238907636066
  0
VERTEX
  5
11117
330
F7B1
100
AcDbEntity
  8
Pel_Clad
100
AcDbVertex
100
AcDb2dVertex
 10
0.4762940663570694
 20
1.015097327876247
 30
0.0
 42
-0.9989263126452486
  0
VERTEX
  5
11118
330
F7B1
100
AcDbEntity
  8
Pel_Clad
100
AcDbVertex
100
AcDb2dVertex
 10
0.4451059521182988
 20
0.9760166225316737
 30
0.0
 42
-0.7094068338592256
  0
VERTEX
  5
11119
330
F7B1
100
AcDbEntity
  8
Pel_Clad
100
AcDbVertex
100
AcDb2dVertex
 10
0.5236999999999999
 20
1.200500000000001
 30
0.0
  0
VERTEX
  5
1111A
330
F7B1
100
AcDbEntity
  8
Pel_Clad
100
AcDbVertex
100
AcDb2dVertex
 10
0.6847000000000003
 20
1.200499999999998
 30
0.0
 42
0.4142135623730951
  0
VERTEX
  5
1111B
330
F7B1
100
AcDbEntity
  8
Pel_Clad
100
AcDbVertex
100
AcDb2dVertex
 10
0.6977000000000002
 20
1.213499999999999
 30
0.0
  0
VERTEX
  5
1111C
330
F7B1
100
AcDbEntity
  8
Pel_Clad
100
AcDbVertex
100
AcDb2dVertex
 10
0.6977000000000002
 20
1.249500000000001
 30
0.0
 42
0.4142135623730951
  0
VERTEX
  5
1111D
330
F7B1
100
AcDbEntity
  8
Pel_Clad
100
AcDbVertex
100
AcDb2dVertex
 10
0.6847000000000003
 20
1.262499999999999
 30
0.0
  0
VERTEX
  5
1111E
330
F7B1
100
AcDbEntity
  8
Pel_Clad
100
AcDbVertex
100
AcDb2dVertex
 10
-0.3513000000000002
 20
1.262499999999999
 30
0.0
 42
0.4142135623730951
  0
VERTEX
  5
1111F
330
F7B1
100
AcDbEntity
  8
Pel_Clad
100
AcDbVertex
100
AcDb2dVertex
 10
-0.3643000000000001
 20
1.249500000000001
 30
0.0
  0
VERTEX
  5
11120
330
F7B1
100
AcDbEntity
  8
Pel_Clad
100
AcDbVertex
100
AcDb2dVertex
 10
-0.3643000000000001
 20
1.213499999999999
 30
0.0
 42
0.4142135623730951
  0
VERTEX
  5
11121
330
F7B1
100
AcDbEntity
  8
Pel_Clad
100
AcDbVertex
100
AcDb2dVertex
 10
-0.3513000000000002
 20
1.200499999999998
 30
0.0
  0
VERTEX
  5
11122
330
F7B1
100
AcDbEntity
  8
Pel_Clad
100
AcDbVertex
100
AcDb2dVertex
 10
-0.2083000000000004
 20
1.200499999999998
 30
0.0
  0
VERTEX
  5
11123
330
F7B1
100
AcDbEntity
  8
Pel_Clad
100
AcDbVertex
100
AcDb2dVertex
 10
-0.2083000000000004
 20
1.1505
 30
0.0
  0
VERTEX
  5
11124
330
F7B1
100
AcDbEntity
  8
Pel_Clad
100
AcDbVertex
100
AcDb2dVertex
 10
-0.3513000000000002
 20
1.1505
 30
0.0
 42
0.4142135623730951
  0
VERTEX
  5
11125
330
F7B1
100
AcDbEntity
  8
Pel_Clad
100
AcDbVertex
100
AcDb2dVertex
 10
-0.3643000000000001
 20
1.137499999999999
 30
0.0
  0
VERTEX
  5
11126
330
F7B1
100
AcDbEntity
  8
Pel_Clad
100
AcDbVertex
100
AcDb2dVertex
 10
-0.3643000000000001
 20
0.8754999999999988
 30
0.0
 42
0.4142135623730951
  0
VERTEX
  5
11127
330
F7B1
100
AcDbEntity
  8
Pel_Clad
100
AcDbVertex
100
AcDb2dVertex
 10
-0.3513000000000002
 20
0.8625000000000007
 30
0.0
  0
VERTEX
  5
11128
330
F7B1
100
AcDbEntity
  8
Pel_Clad
100
AcDbVertex
100
AcDb2dVertex
 10
-0.3154000000000003
 20
0.8625000000000007
 30
0.0
 42
-0.3439752689084681
  0
VERTEX
  5
11129
330
F7B1
100
AcDbEntity
  8
Pel_Clad
100
AcDbVertex
100
AcDb2dVertex
 10
-0.3027901286545891
 20
0.8526608771966301
 30
0.0
  0
VERTEX
  5
1112A
330
F7B1
100
AcDbEntity
  8
Pel_Clad
100
AcDbVertex
100
AcDb2dVertex
 10
-0.2137098713454115
 20
0.4973391228033713
 30
0.0
 42
0.3439752689084679
  0
VERTEX
  5
1112B
330
F7B1
100
AcDbEntity
  8
Pel_Clad
100
AcDbVertex
100
AcDb2dVertex
 10
-0.2011000000000003
 20
0.4875000000000007
 30
0.0
  0
VERTEX
  5
1112C
330
F7B1
100
AcDbEntity
  8
Pel_Clad
100
AcDbVertex
100
AcDb2dVertex
 10
-0.1433
 20
0.4875000000000007
 30
0.0
 42
-0.4142135623730951
  0
VERTEX
  5
1112D
330
F7B1
100
AcDbEntity
  8
Pel_Clad
100
AcDbVertex
100
AcDb2dVertex
 10
-0.1303000000000001
 20
0.4744999999999991
 30
0.0
  0
VERTEX
  5
1112E
330
F7B1
100
AcDbEntity
  8
Pel_Clad
100
AcDbVertex
100
AcDb2dVertex
 10
-0.1303000000000001
 20
0.1644000000000005
 30
0.0
  0
VERTEX
  5
1112F
330
F7B1
100
AcDbEntity
  8
Pel_Clad
100
AcDbVertex
100
AcDb2dVertex
 10
-0.1303000000000001
 20
-0.1245000000000012
 30
0.0
 42
0.4142135623730951
  0
VERTEX
  5
11130
330
F7B1
100
AcDbEntity
  8
Pel_Clad
100
AcDbVertex
100
AcDb2dVertex
 10
-0.1173000000000002
 20
-0.1374999999999993
 30
0.0
  0
VERTEX
  5
11131
330
F7B1
100
AcDbEntity
  8
Pel_Clad
100
AcDbVertex
100
AcDb2dVertex
 10
0.3076999999999996
 20
-0.1374999999999993
 30
0.0
  0
VERTEX
  5
11132
330
F7B1
100
AcDbEntity
  8
Pel_Clad
100
AcDbVertex
100
AcDb2dVertex
 10
0.3076999999999996
 20
-0.1875
 30
0.0
  0
SEQEND
  5
11133
330
F7B1
100
AcDbEntity
  8
Pel_Clad
  0
ENDBLK
  5
F7E8
330
F7B0
100
AcDbEntity
  8
0
 62
     2
100
AcDbBlockEnd
  0
BLOCK
  5
F7FB
330
F7EA
100
AcDbEntity
  8
0
 62
     2
100
AcDbBlockBegin
  2
72D4 Flat Head
 70
     0
 10
0.0
 20
0.0
 30
0.0
  3
72D4 Flat Head
  1

  0
POLYLINE
  5
F7EB
330
F7EA
100
AcDbEntity
  8
Pel_Clad
100
AcDb2dPolyline
 66
     1
 10
0.0
 20
0.0
 30
0.0
 70
     1
  0
VERTEX
  5
11148
330
F7EB
100
AcDbEntity
  8
Pel_Clad
100
AcDbVertex
100
AcDb2dVertex
 10
-0.1173000000000002
 20
-0.129999999999999
 30
0.0
  0
VERTEX
  5
11149
330
F7EB
100
AcDbEntity
  8
Pel_Clad
100
AcDbVertex
100
AcDb2dVertex
 10
0.3077000000000005
 20
-0.129999999999999
 30
0.0
  0
VERTEX
  5
1114A
330
F7EB
100
AcDbEntity
  8
Pel_Clad
100
AcDbVertex
100
AcDb2dVertex
 10
0.3077000000000005
 20
-0.1799999999999997
 30
0.0
  0
VERTEX
  5
1114B
330
F7EB
100
AcDbEntity
  8
Pel_Clad
100
AcDbVertex
100
AcDb2dVertex
 10
-0.1803000000000008
 20
-0.1799999999999997
 30
0.0
  0
VERTEX
  5
1114C
330
F7EB
100
AcDbEntity
  8
Pel_Clad
100
AcDbVertex
100
AcDb2dVertex
 10
-0.1803000000000008
 20
3.306999999999998
 30
0.0
 42
-0.4142135623730951
  0
VERTEX
  5
1114D
330
F7EB
100
AcDbEntity
  8
Pel_Clad
100
AcDbVertex
100
AcDb2dVertex
 10
-0.1673000000000009
 20
3.32
 30
0.0
  0
VERTEX
  5
1114E
330
F7EB
100
AcDbEntity
  8
Pel_Clad
100
AcDbVertex
100
AcDb2dVertex
 10
1.1667
 20
3.32
 30
0.0
  0
VERTEX
  5
1114F
330
F7EB
100
AcDbEntity
  8
Pel_Clad
100
AcDbVertex
100
AcDb2dVertex
 10
1.1667
 20
4.019999999999999
 30
0.0
  0
VERTEX
  5
11150
330
F7EB
100
AcDbEntity
  8
Pel_Clad
100
AcDbVertex
100
AcDb2dVertex
 10
1.216699999999999
 20
4.019999999999999
 30
0.0
  0
VERTEX
  5
11151
330
F7EB
100
AcDbEntity
  8
Pel_Clad
100
AcDbVertex
100
AcDb2dVertex
 10
1.216699999999999
 20
3.283000000000001
 30
0.0
 42
-0.4142135623730951
  0
VERTEX
  5
11152
330
F7EB
100
AcDbEntity
  8
Pel_Clad
100
AcDbVertex
100
AcDb2dVertex
 10
1.203700000000001
 20
3.269999999999999
 30
0.0
  0
VERTEX
  5
11153
330
F7EB
100
AcDbEntity
  8
Pel_Clad
100
AcDbVertex
100
AcDb2dVertex
 10
-0.1173000000000002
 20
3.269999999999999
 30
0.0
 42
0.4142135623730951
  0
VERTEX
  5
11154
330
F7EB
100
AcDbEntity
  8
Pel_Clad
100
AcDbVertex
100
AcDb2dVertex
 10
-0.1303000000000001
 20
3.256999999999997
 30
0.0
  0
VERTEX
  5
11155
330
F7EB
100
AcDbEntity
  8
Pel_Clad
100
AcDbVertex
100
AcDb2dVertex
 10
-0.1303000000000001
 20
-0.1170000000000009
 30
0.0
 42
0.4142135623730951
  0
SEQEND
  5
11156
330
F7EB
100
AcDbEntity
  8
Pel_Clad
  0
ENDBLK
  5
F7FC
330
F7EA
100
AcDbEntity
  8
0
 62
     2
100
AcDbBlockEnd
  0
BLOCK
  5
F8BA
330
F893
100
AcDbEntity
  8
0
 62
     2
100
AcDbBlockBegin
  2
72D5Flat Jamb
 70
     0
 10
0.0
 20
0.0
 30
0.0
  3
72D5Flat Jamb
  1

  0
POLYLINE
  5
F894
330
F893
100
AcDbEntity
  8
Pel_Clad
100
AcDb2dPolyline
 66
     1
 10
0.0
 20
0.0
 30
0.0
 70
     1
  0
VERTEX
  5
11181
330
F894
100
AcDbEntity
  8
Pel_Clad
100
AcDbVertex
100
AcDb2dVertex
 10
0.3077000000000005
 20
-0.129999999999999
 30
0.0
  0
VERTEX
  5
11182
330
F894
100
AcDbEntity
  8
Pel_Clad
100
AcDbVertex
100
AcDb2dVertex
 10
0.3077000000000005
 20
-0.1799999999999997
 30
0.0
  0
VERTEX
  5
11183
330
F894
100
AcDbEntity
  8
Pel_Clad
100
AcDbVertex
100
AcDb2dVertex
 10
-0.1803000000000008
 20
-0.1799999999999997
 30
0.0
  0
VERTEX
  5
11184
330
F894
100
AcDbEntity
  8
Pel_Clad
100
AcDbVertex
100
AcDb2dVertex
 10
-0.1803000000000008
 20
3.306999999999998
 30
0.0
 42
-0.4142135623730951
  0
VERTEX
  5
11185
330
F894
100
AcDbEntity
  8
Pel_Clad
100
AcDbVertex
100
AcDb2dVertex
 10
-0.1673000000000009
 20
3.32
 30
0.0
  0
VERTEX
  5
11186
330
F894
100
AcDbEntity
  8
Pel_Clad
100
AcDbVertex
100
AcDb2dVertex
 10
1.1667
 20
3.32
 30
0.0
  0
VERTEX
  5
11187
330
F894
100
AcDbEntity
  8
Pel_Clad
100
AcDbVertex
100
AcDb2dVertex
 10
1.1667
 20
4.019999999999999
 30
0.0
  0
VERTEX
  5
11188
330
F894
100
AcDbEntity
  8
Pel_Clad
100
AcDbVertex
100
AcDb2dVertex
 10
1.216700000000001
 20
4.019999999999999
 30
0.0
  0
VERTEX
  5
11189
330
F894
100
AcDbEntity
  8
Pel_Clad
100
AcDbVertex
100
AcDb2dVertex
 10
1.216700000000001
 20
3.283000000000001
 30
0.0
 42
-0.4142135623730951
  0
VERTEX
  5
1118A
330
F894
100
AcDbEntity
  8
Pel_Clad
100
AcDbVertex
100
AcDb2dVertex
 10
1.203700000000003
 20
3.269999999999999
 30
0.0
  0
VERTEX
  5
1118B
330
F894
100
AcDbEntity
  8
Pel_Clad
100
AcDbVertex
100
AcDb2dVertex
 10
0.9747000000000003
 20
3.269999999999999
 30
0.0
 42
0.4142135623730951
  0
VERTEX
  5
1118C
330
F894
100
AcDbEntity
  8
Pel_Clad
100
AcDbVertex
100
AcDb2dVertex
 10
0.9616999999999986
 20
3.256999999999997
 30
0.0
  0
VERTEX
  5
1118D
330
F894
100
AcDbEntity
  8
Pel_Clad
100
AcDbVertex
100
AcDb2dVertex
 10
0.9616999999999986
 20
3.170999999999999
 30
0.0
 42
-0.4142135623730951
  0
VERTEX
  5
1118E
330
F894
100
AcDbEntity
  8
Pel_Clad
100
AcDbVertex
100
AcDb2dVertex
 10
0.9487000000000005
 20
3.158000000000001
 30
0.0
  0
VERTEX
  5
1118F
330
F894
100
AcDbEntity
  8
Pel_Clad
100
AcDbVertex
100
AcDb2dVertex
 10
0.8616030000000005
 20
3.158000000000001
 30
0.0
 42
0.559749425088845
  0
VERTEX
  5
11190
330
F894
100
AcDbEntity
  8
Pel_Clad
100
AcDbVertex
100
AcDb2dVertex
 10
0.8500149320233187
 20
3.139107913733845
 30
0.0
 42
-0.3558536219854956
  0
VERTEX
  5
11191
330
F894
100
AcDbEntity
  8
Pel_Clad
100
AcDbVertex
100
AcDb2dVertex
 10
0.816294059913714
 20
2.983516632133749
 30
0.0
 42
-1.00265147080235
  0
VERTEX
  5
11192
330
F894
100
AcDbEntity
  8
Pel_Clad
100
AcDbVertex
100
AcDb2dVertex
 10
0.7851059409003352
 20
3.022597333667974
 30
0.0
 42
2.861670862174097
  0
VERTEX
  5
11193
330
F894
100
AcDbEntity
  8
Pel_Clad
100
AcDbVertex
100
AcDb2dVertex
 10
0.6902940595066891
 20
3.022597350767114
 30
0.0
 42
-0.9999999999999998
  0
VERTEX
  5
11194
330
F894
100
AcDbEntity
  8
Pel_Clad
100
AcDbVertex
100
AcDb2dVertex
 10
0.6591059404933102
 20
2.983516649232885
 30
0.0
 42
-0.7098948352478569
  0
VERTEX
  5
11195
330
F894
100
AcDbEntity
  8
Pel_Clad
100
AcDbVertex
100
AcDb2dVertex
 10
0.7377000000000021
 20
3.207999999999998
 30
0.0
  0
VERTEX
  5
11196
330
F894
100
AcDbEntity
  8
Pel_Clad
100
AcDbVertex
100
AcDb2dVertex
 10
0.8986999999999998
 20
3.207999999999998
 30
0.0
 42
0.4142135623730951
  0
VERTEX
  5
11197
330
F894
100
AcDbEntity
  8
Pel_Clad
100
AcDbVertex
100
AcDb2dVertex
 10
0.9117000000000015
 20
3.221
 30
0.0
  0
VERTEX
  5
11198
330
F894
100
AcDbEntity
  8
Pel_Clad
100
AcDbVertex
100
AcDb2dVertex
 10
0.9117000000000015
 20
3.256999999999997
 30
0.0
 42
0.4142135623730951
  0
VERTEX
  5
11199
330
F894
100
AcDbEntity
  8
Pel_Clad
100
AcDbVertex
100
AcDb2dVertex
 10
0.8986999999999998
 20
3.269999999999999
 30
0.0
  0
VERTEX
  5
1119A
330
F894
100
AcDbEntity
  8
Pel_Clad
100
AcDbVertex
100
AcDb2dVertex
 10
0.521700000000001
 20
3.269999999999999
 30
0.0
  0
VERTEX
  5
1119B
330
F894
100
AcDbEntity
  8
Pel_Clad
100
AcDbVertex
100
AcDb2dVertex
 10
-0.1173000000000002
 20
3.269999999999999
 30
0.0
 42
0.4142135623730951
  0
VERTEX
  5
1119C
330
F894
100
AcDbEntity
  8
Pel_Clad
100
AcDbVertex
100
AcDb2dVertex
 10
-0.1303000000000001
 20
3.256999999999997
 30
0.0
  0
VERTEX
  5
1119D
330
F894
100
AcDbEntity
  8
Pel_Clad
100
AcDbVertex
100
AcDb2dVertex
 10
-0.1303000000000001
 20
3.221
 30
0.0
 42
0.4142135623730951
  0
VERTEX
  5
1119E
330
F894
100
AcDbEntity
  8
Pel_Clad
100
AcDbVertex
100
AcDb2dVertex
 10
-0.1173000000000002
 20
3.207999999999998
 30
0.0
  0
VERTEX
  5
1119F
330
F894
100
AcDbEntity
  8
Pel_Clad
100
AcDbVertex
100
AcDb2dVertex
 10
0.0257000000000005
 20
3.207999999999998
 30
0.0
  0
VERTEX
  5
111A0
330
F894
100
AcDbEntity
  8
Pel_Clad
100
AcDbVertex
100
AcDb2dVertex
 10
0.0257000000000005
 20
3.158000000000001
 30
0.0
  0
VERTEX
  5
111A1
330
F894
100
AcDbEntity
  8
Pel_Clad
100
AcDbVertex
100
AcDb2dVertex
 10
-0.1173000000000002
 20
3.158000000000001
 30
0.0
 42
0.4142135623730951
  0
VERTEX
  5
111A2
330
F894
100
AcDbEntity
  8
Pel_Clad
100
AcDbVertex
100
AcDb2dVertex
 10
-0.1303000000000001
 20
3.144999999999999
 30
0.0
  0
VERTEX
  5
111A3
330
F894
100
AcDbEntity
  8
Pel_Clad
100
AcDbVertex
100
AcDb2dVertex
 10
-0.1303000000000001
 20
-0.1170000000000009
 30
0.0
 42
0.4142135623730951
  0
VERTEX
  5
111A4
330
F894
100
AcDbEntity
  8
Pel_Clad
100
AcDbVertex
100
AcDb2dVertex
 10
-0.1173000000000002
 20
-0.129999999999999
 30
0.0
  0
SEQEND
  5
111A5
330
F894
100
AcDbEntity
  8
Pel_Clad
  0
ENDBLK
  5
F8BB
330
F893
100
AcDbEntity
  8
0
 62
     2
100
AcDbBlockEnd
  0
BLOCK
  5
F9C0
330
F96B
100
AcDbEntity
  8
0
 62
     2
100
AcDbBlockBegin
  2
7SB7+Clip
 70
     0
 10
0.0
 20
0.0
 30
0.0
  3
7SB7+Clip
  1

  0
POLYLINE
  5
F96C
330
F96B
100
AcDbEntity
  8
Pel_Clad
100
AcDb2dPolyline
 66
     1
 10
0.0
 20
0.0
 30
0.0
 70
     1
  0
VERTEX
  5
1122A
330
F96C
100
AcDbEntity
  8
Pel_Clad
100
AcDbVertex
100
AcDb2dVertex
 10
-0.8883250588432503
 20
-1.0
 30
0.0
 42
0.3168470802516613
  0
VERTEX
  5
1122B
330
F96C
100
AcDbEntity
  8
Pel_Clad
100
AcDbVertex
100
AcDb2dVertex
 10
-0.9024491115017951
 20
-1.009949144973504
 30
0.0
 42
-1.579480932327059
  0
VERTEX
  5
1122C
330
F96C
100
AcDbEntity
  8
Pel_Clad
100
AcDbVertex
100
AcDb2dVertex
 10
-1.846920212398245
 20
-0.0654780440770502
 30
0.0
 42
0.3168470802517019
  0
VERTEX
  5
1122D
330
F96C
100
AcDbEntity
  8
Pel_Clad
100
AcDbVertex
100
AcDb2dVertex
 10
-1.836971067424737
 20
-0.0513539914185053
 30
0.0
  0
VERTEX
  5
1122E
330
F96C
100
AcDbEntity
  8
Pel_Clad
100
AcDbVertex
100
AcDb2dVertex
 10
-1.836971067424741
 20
-0.014999999999997
 30
0.0
 42
-0.4142135623731037
  0
VERTEX
  5
1122F
330
F96C
100
AcDbEntity
  8
Pel_Clad
100
AcDbVertex
100
AcDb2dVertex
 10
-1.82197106742474
 20
0.0
 30
0.0
  0
VERTEX
  5
11230
330
F96C
100
AcDbEntity
  8
Pel_Clad
100
AcDbVertex
100
AcDb2dVertex
 10
-1.476971067424738
 20
0.0
 30
0.0
 42
-0.4142135623731125
  0
VERTEX
  5
11231
330
F96C
100
AcDbEntity
  8
Pel_Clad
100
AcDbVertex
100
AcDb2dVertex
 10
-1.461971067424737
 20
-0.014999999999997
 30
0.0
  0
VERTEX
  5
11232
330
F96C
100
AcDbEntity
  8
Pel_Clad
100
AcDbVertex
100
AcDb2dVertex
 10
-1.461971067424737
 20
-0.053803974845053
 30
0.0
 42
-0.2513185152973702
  0
VERTEX
  5
11233
330
F96C
100
AcDbEntity
  8
Pel_Clad
100
AcDbVertex
100
AcDb2dVertex
 10
-1.46867658254343
 20
-0.0663020355167632
 30
0.0
  0
VERTEX
  5
11234
330
F96C
100
AcDbEntity
  8
Pel_Clad
100
AcDbVertex
100
AcDb2dVertex
 10
-1.563676582543436
 20
-0.1293499022556475
 30
0.0
 42
-0.5983140787495681
  0
VERTEX
  5
11235
330
F96C
100
AcDbEntity
  8
Pel_Clad
100
AcDbVertex
100
AcDb2dVertex
 10
-1.586971067424741
 20
-0.1168518415839337
 30
0.0
  0
VERTEX
  5
11236
330
F96C
100
AcDbEntity
  8
Pel_Clad
100
AcDbVertex
100
AcDb2dVertex
 10
-1.586971067424737
 20
-0.0769999999999982
 30
0.0
 42
0.4142135623730951
  0
VERTEX
  5
11237
330
F96C
100
AcDbEntity
  8
Pel_Clad
100
AcDbVertex
100
AcDb2dVertex
 10
-1.601971067424738
 20
-0.0620000000000012
 30
0.0
  0
VERTEX
  5
11238
330
F96C
100
AcDbEntity
  8
Pel_Clad
100
AcDbVertex
100
AcDb2dVertex
 10
-1.685971067424738
 20
-0.0620000000000012
 30
0.0
 42
0.4142135623730776
  0
VERTEX
  5
11239
330
F96C
100
AcDbEntity
  8
Pel_Clad
100
AcDbVertex
100
AcDb2dVertex
 10
-1.700971067424738
 20
-0.0770000000000017
 30
0.0
  0
VERTEX
  5
1123A
330
F96C
100
AcDbEntity
  8
Pel_Clad
100
AcDbVertex
100
AcDb2dVertex
 10
-1.700971067424738
 20
-0.1849999999999987
 30
0.0
 42
-0.4142135623730951
  0
VERTEX
  5
1123B
330
F96C
100
AcDbEntity
  8
Pel_Clad
100
AcDbVertex
100
AcDb2dVertex
 10
-1.715971067424739
 20
-0.1999999999999993
 30
0.0
  0
VERTEX
  5
1123C
330
F96C
100
AcDbEntity
  8
Pel_Clad
100
AcDbVertex
100
AcDb2dVertex
 10
-1.747971067424739
 20
-0.1999999999999993
 30
0.0
 42
-0.4142135623731038
  0
VERTEX
  5
1123D
330
F96C
100
AcDbEntity
  8
Pel_Clad
100
AcDbVertex
100
AcDb2dVertex
 10
-1.762971067424736
 20
-0.1849999999999987
 30
0.0
  0
VERTEX
  5
1123E
330
F96C
100
AcDbEntity
  8
Pel_Clad
100
AcDbVertex
100
AcDb2dVertex
 10
-1.762971067424736
 20
-0.1242334038249915
 30
0.0
 42
0.4973110208118229
  0
VERTEX
  5
1123F
330
F96C
100
AcDbEntity
  8
Pel_Clad
100
AcDbVertex
100
AcDb2dVertex
 10
-1.7820468717508
 20
-0.1097977597764697
 30
0.0
 42
1.595385413319268
  0
VERTEX
  5
11240
330
F96C
100
AcDbEntity
  8
Pel_Clad
100
AcDbVertex
100
AcDb2dVertex
 10
-0.9730626030207716
 20
-1.020752962997981
 30
0.0
 42
0.5348060577298332
  0
VERTEX
  5
11241
330
F96C
100
AcDbEntity
  8
Pel_Clad
100
AcDbVertex
100
AcDb2dVertex
 10
-0.9869155238948685
 20
-1.0
 30
0.0
  0
VERTEX
  5
11242
330
F96C
100
AcDbEntity
  8
Pel_Clad
100
AcDbVertex
100
AcDb2dVertex
 10
-1.122971067424739
 20
-1.0
 30
0.0
 42
-0.4142135623730951
  0
VERTEX
  5
11243
330
F96C
100
AcDbEntity
  8
Pel_Clad
100
AcDbVertex
100
AcDb2dVertex
 10
-1.137971067424739
 20
-0.9849999999999994
 30
0.0
  0
VERTEX
  5
11244
330
F96C
100
AcDbEntity
  8
Pel_Clad
100
AcDbVertex
100
AcDb2dVertex
 10
-1.137971067424739
 20
-0.8149999999999977
 30
0.0
 42
-0.4142135623731124
  0
VERTEX
  5
11245
330
F96C
100
AcDbEntity
  8
Pel_Clad
100
AcDbVertex
100
AcDb2dVertex
 10
-1.122971067424739
 20
-0.7999999999999972
 30
0.0
  0
VERTEX
  5
11246
330
F96C
100
AcDbEntity
  8
Pel_Clad
100
AcDbVertex
100
AcDb2dVertex
 10
-1.090971067424739
 20
-0.8000000000000007
 30
0.0
 42
-0.4142135623730951
  0
VERTEX
  5
11247
330
F96C
100
AcDbEntity
  8
Pel_Clad
100
AcDbVertex
100
AcDb2dVertex
 10
-1.075971067424738
 20
-0.8149999999999977
 30
0.0
  0
VERTEX
  5
11248
330
F96C
100
AcDbEntity
  8
Pel_Clad
100
AcDbVertex
100
AcDb2dVertex
 10
-1.075971067424738
 20
-0.9229999999999982
 30
0.0
 42
0.4142135623730777
  0
VERTEX
  5
11249
330
F96C
100
AcDbEntity
  8
Pel_Clad
100
AcDbVertex
100
AcDb2dVertex
 10
-1.060971067424738
 20
-0.9379999999999988
 30
0.0
  0
VERTEX
  5
1124A
330
F96C
100
AcDbEntity
  8
Pel_Clad
100
AcDbVertex
100
AcDb2dVertex
 10
-0.9769710674247384
 20
-0.9379999999999988
 30
0.0
 42
0.4142135623730951
  0
VERTEX
  5
1124B
330
F96C
100
AcDbEntity
  8
Pel_Clad
100
AcDbVertex
100
AcDb2dVertex
 10
-0.9619710674247379
 20
-0.9229999999999982
 30
0.0
  0
VERTEX
  5
1124C
330
F96C
100
AcDbEntity
  8
Pel_Clad
100
AcDbVertex
100
AcDb2dVertex
 10
-0.9619710674247379
 20
-0.8829999999999991
 30
0.0
 42
-0.5983140787495826
  0
VERTEX
  5
1124D
330
F96C
100
AcDbEntity
  8
Pel_Clad
100
AcDbVertex
100
AcDb2dVertex
 10
-0.9386765825434366
 20
-0.8705019393282853
 30
0.0
  0
VERTEX
  5
1124E
330
F96C
100
AcDbEntity
  8
Pel_Clad
100
AcDbVertex
100
AcDb2dVertex
 10
-0.8436765825434306
 20
-0.9335498060671696
 30
0.0
 42
-0.2513185152973702
  0
VERTEX
  5
1124F
330
F96C
100
AcDbEntity
  8
Pel_Clad
100
AcDbVertex
100
AcDb2dVertex
 10
-0.8369710674247379
 20
-0.9460478667388798
 30
0.0
  0
VERTEX
  5
11250
330
F96C
100
AcDbEntity
  8
Pel_Clad
100
AcDbVertex
100
AcDb2dVertex
 10
-0.8369710674247379
 20
-0.9849999999999994
 30
0.0
 42
-0.4142135623730776
  0
VERTEX
  5
11251
330
F96C
100
AcDbEntity
  8
Pel_Clad
100
AcDbVertex
100
AcDb2dVertex
 10
-0.8519710674247384
 20
-1.0
 30
0.0
  0
SEQEND
  5
11252
330
F96C
100
AcDbEntity
  8
Pel_Clad
  0
POLYLINE
  5
F996
330
F96B
100
AcDbEntity
  8
Pel_Clad
100
AcDb2dPolyline
 66
     1
 10
0.0
 20
0.0
 30
0.0
 70
     1
  0
VERTEX
  5
11254
330
F996
100
AcDbEntity
  8
Pel_Clad
100
AcDbVertex
100
AcDb2dVertex
 10
-0.8749710674247417
 20
-0.0619999999999976
 30
0.0
 42
0.4142135623730948
  0
VERTEX
  5
11255
330
F996
100
AcDbEntity
  8
Pel_Clad
100
AcDbVertex
100
AcDb2dVertex
 10
-0.8899710674247423
 20
-0.0769999999999982
 30
0.0
  0
VERTEX
  5
11256
330
F996
100
AcDbEntity
  8
Pel_Clad
100
AcDbVertex
100
AcDb2dVertex
 10
-0.8899710674247423
 20
-0.1789999999999807
 30
0.0
 42
-0.4142135623730951
  0
VERTEX
  5
11257
330
F996
100
AcDbEntity
  8
Pel_Clad
100
AcDbVertex
100
AcDb2dVertex
 10
-0.9049710674247428
 20
-0.1939999999999777
 30
0.0
  0
VERTEX
  5
11258
330
F996
100
AcDbEntity
  8
Pel_Clad
100
AcDbVertex
100
AcDb2dVertex
 10
-1.175971067424743
 20
-0.1939999999999813
 30
0.0
 42
-0.4142135623730945
  0
VERTEX
  5
11259
330
F996
100
AcDbEntity
  8
Pel_Clad
100
AcDbVertex
100
AcDb2dVertex
 10
-1.190971067424744
 20
-0.1789999999999807
 30
0.0
  0
VERTEX
  5
1125A
330
F996
100
AcDbEntity
  8
Pel_Clad
100
AcDbVertex
100
AcDb2dVertex
 10
-1.190971067424744
 20
-0.139937769283371
 30
0.0
 42
-0.2482818178776696
  0
VERTEX
  5
1125B
330
F996
100
AcDbEntity
  8
Pel_Clad
100
AcDbVertex
100
AcDb2dVertex
 10
-1.184407901656197
 20
-0.1275353570925475
 30
0.0
  0
VERTEX
  5
1125C
330
F996
100
AcDbEntity
  8
Pel_Clad
100
AcDbVertex
100
AcDb2dVertex
 10
-1.115407901656194
 20
-0.0805975878091587
 30
0.0
 42
-0.6022023002794392
  0
VERTEX
  5
1125D
330
F996
100
AcDbEntity
  8
Pel_Clad
100
AcDbVertex
100
AcDb2dVertex
 10
-1.091971067424744
 20
-0.0929999999999822
 30
0.0
  0
VERTEX
  5
1125E
330
F996
100
AcDbEntity
  8
Pel_Clad
100
AcDbVertex
100
AcDb2dVertex
 10
-1.091971067424744
 20
-0.1169999999999796
 30
0.0
 42
0.4142135623730982
  0
VERTEX
  5
1125F
330
F996
100
AcDbEntity
  8
Pel_Clad
100
AcDbVertex
100
AcDb2dVertex
 10
-1.076971067424743
 20
-0.1319999999999801
 30
0.0
  0
VERTEX
  5
11260
330
F996
100
AcDbEntity
  8
Pel_Clad
100
AcDbVertex
100
AcDb2dVertex
 10
-0.9669710674247404
 20
-0.1319999999999801
 30
0.0
 42
0.4142135623730943
  0
VERTEX
  5
11261
330
F996
100
AcDbEntity
  8
Pel_Clad
100
AcDbVertex
100
AcDb2dVertex
 10
-0.9519710674247399
 20
-0.1169999999999796
 30
0.0
  0
VERTEX
  5
11262
330
F996
100
AcDbEntity
  8
Pel_Clad
100
AcDbVertex
100
AcDb2dVertex
 10
-0.9519710674247434
 20
-0.0150000000000006
 30
0.0
 42
-0.4142135623730951
  0
VERTEX
  5
11263
330
F996
100
AcDbEntity
  8
Pel_Clad
100
AcDbVertex
100
AcDb2dVertex
 10
-0.9369710674247428
 20
0.0
 30
0.0
  0
VERTEX
  5
11264
330
F996
100
AcDbEntity
  8
Pel_Clad
100
AcDbVertex
100
AcDb2dVertex
 10
-0.351971067424742
 20
0.0
 30
0.0
 42
-0.4142135623730951
  0
VERTEX
  5
11265
330
F996
100
AcDbEntity
  8
Pel_Clad
100
AcDbVertex
100
AcDb2dVertex
 10
-0.3369710674247415
 20
-0.0150000000000006
 30
0.0
  0
VERTEX
  5
11266
330
F996
100
AcDbEntity
  8
Pel_Clad
100
AcDbVertex
100
AcDb2dVertex
 10
-0.336971067424745
 20
-0.7260763450803403
 30
0.0
 42
0.4142135623730951
  0
VERTEX
  5
11267
330
F996
100
AcDbEntity
  8
Pel_Clad
100
AcDbVertex
100
AcDb2dVertex
 10
-0.3219710674247445
 20
-0.7410763450803409
 30
0.0
  0
VERTEX
  5
11268
330
F996
100
AcDbEntity
  8
Pel_Clad
100
AcDbVertex
100
AcDb2dVertex
 10
-0.3209710674247468
 20
-0.7410763450803409
 30
0.0
 42
-0.4142135623730951
  0
VERTEX
  5
11269
330
F996
100
AcDbEntity
  8
Pel_Clad
100
AcDbVertex
100
AcDb2dVertex
 10
-0.3059710674247462
 20
-0.7560763450803414
 30
0.0
  0
VERTEX
  5
1126A
330
F996
100
AcDbEntity
  8
Pel_Clad
100
AcDbVertex
100
AcDb2dVertex
 10
-0.3059710674247462
 20
-0.7880763450803415
 30
0.0
 42
-0.4142135623730951
  0
VERTEX
  5
1126B
330
F996
100
AcDbEntity
  8
Pel_Clad
100
AcDbVertex
100
AcDb2dVertex
 10
-0.3209710674247468
 20
-0.8030763450803419
 30
0.0
  0
VERTEX
  5
1126C
330
F996
100
AcDbEntity
  8
Pel_Clad
100
AcDbVertex
100
AcDb2dVertex
 10
-0.3219710674247445
 20
-0.8030763450803419
 30
0.0
 42
0.4142135623730951
  0
VERTEX
  5
1126D
330
F996
100
AcDbEntity
  8
Pel_Clad
100
AcDbVertex
100
AcDb2dVertex
 10
-0.336971067424745
 20
-0.8180763450803425
 30
0.0
  0
VERTEX
  5
1126E
330
F996
100
AcDbEntity
  8
Pel_Clad
100
AcDbVertex
100
AcDb2dVertex
 10
-0.336971067424745
 20
-0.8530000000000264
 30
0.0
 42
-0.4142135623730951
  0
VERTEX
  5
1126F
330
F996
100
AcDbEntity
  8
Pel_Clad
100
AcDbVertex
100
AcDb2dVertex
 10
-0.3519710674247456
 20
-0.8680000000000269
 30
0.0
  0
VERTEX
  5
11270
330
F996
100
AcDbEntity
  8
Pel_Clad
100
AcDbVertex
100
AcDb2dVertex
 10
-0.4519710674247471
 20
-0.8680000000000269
 30
0.0
 42
0.4142135623730951
  0
VERTEX
  5
11271
330
F996
100
AcDbEntity
  8
Pel_Clad
100
AcDbVertex
100
AcDb2dVertex
 10
-0.4669710674247476
 20
-0.8830000000000275
 30
0.0
  0
VERTEX
  5
11272
330
F996
100
AcDbEntity
  8
Pel_Clad
100
AcDbVertex
100
AcDb2dVertex
 10
-0.4669710674247476
 20
-0.9070000000000284
 30
0.0
 42
-0.6022023002797447
  0
VERTEX
  5
11273
330
F996
100
AcDbEntity
  8
Pel_Clad
100
AcDbVertex
100
AcDb2dVertex
 10
-0.490407901656198
 20
-0.9194024121908483
 30
0.0
  0
VERTEX
  5
11274
330
F996
100
AcDbEntity
  8
Pel_Clad
100
AcDbVertex
100
AcDb2dVertex
 10
-0.5594079016562006
 20
-0.872464642907456
 30
0.0
 42
-0.2482818178776662
  0
VERTEX
  5
11275
330
F996
100
AcDbEntity
  8
Pel_Clad
100
AcDbVertex
100
AcDb2dVertex
 10
-0.5659710674247478
 20
-0.8600622307166396
 30
0.0
  0
VERTEX
  5
11276
330
F996
100
AcDbEntity
  8
Pel_Clad
100
AcDbVertex
100
AcDb2dVertex
 10
-0.5659710674247478
 20
-0.8210000000000299
 30
0.0
 42
-0.4142135623730951
  0
VERTEX
  5
11277
330
F996
100
AcDbEntity
  8
Pel_Clad
100
AcDbVertex
100
AcDb2dVertex
 10
-0.5509710674247473
 20
-0.8060000000000293
 30
0.0
  0
VERTEX
  5
11278
330
F996
100
AcDbEntity
  8
Pel_Clad
100
AcDbVertex
100
AcDb2dVertex
 10
-0.4139710674247468
 20
-0.8060000000000258
 30
0.0
 42
0.4142135623730951
  0
VERTEX
  5
11279
330
F996
100
AcDbEntity
  8
Pel_Clad
100
AcDbVertex
100
AcDb2dVertex
 10
-0.3989710674247462
 20
-0.7910000000000288
 30
0.0
  0
VERTEX
  5
1127A
330
F996
100
AcDbEntity
  8
Pel_Clad
100
AcDbVertex
100
AcDb2dVertex
 10
-0.3989710674247426
 20
-0.0769999999999982
 30
0.0
 42
0.414213562373095
  0
VERTEX
  5
1127B
330
F996
100
AcDbEntity
  8
Pel_Clad
100
AcDbVertex
100
AcDb2dVertex
 10
-0.4139710674247432
 20
-0.0620000000000012
 30
0.0
  0
SEQEND
  5
1127C
330
F996
100
AcDbEntity
  8
Pel_Clad
  0
ENDBLK
  5
F9C1
330
F96B
100
AcDbEntity
  8
0
 62
     2
100
AcDbBlockEnd
  0
BLOCK
  5
FB30
330
FB1B
100
AcDbEntity
  8
0
 62
     2
100
AcDbBlockBegin
  2
72D8 Sill Nose
 70
     0
 10
0.0
 20
0.0
 30
0.0
  3
72D8 Sill Nose
  1

  0
POLYLINE
  5
FB1C
330
FB1B
100
AcDbEntity
  8
Pel_Clad
100
AcDb2dPolyline
 66
     1
 10
0.0
 20
0.0
 30
0.0
 70
     1
  0
VERTEX
  5
111BE
330
FB1C
100
AcDbEntity
  8
Pel_Clad
100
AcDbVertex
100
AcDb2dVertex
 10
0.0090776695296633
 20
-0.4038776695296633
 30
0.0
  0
VERTEX
  5
111BF
330
FB1C
100
AcDbEntity
  8
Pel_Clad
100
AcDbVertex
100
AcDb2dVertex
 10
-0.1499999999999986
 20
-0.5629999999999989
 30
0.0
  0
VERTEX
  5
111C0
330
FB1C
100
AcDbEntity
  8
Pel_Clad
100
AcDbVertex
100
AcDb2dVertex
 10
-0.3999999999999986
 20
-0.5629999999999989
 30
0.0
  0
VERTEX
  5
111C1
330
FB1C
100
AcDbEntity
  8
Pel_Clad
100
AcDbVertex
100
AcDb2dVertex
 10
-0.3999999999999986
 20
0.0
 30
0.0
  0
VERTEX
  5
111C2
330
FB1C
100
AcDbEntity
  8
Pel_Clad
100
AcDbVertex
100
AcDb2dVertex
 10
-0.0249999999999986
 20
0.0
 30
0.0
  0
VERTEX
  5
111C3
330
FB1C
100
AcDbEntity
  8
Pel_Clad
100
AcDbVertex
100
AcDb2dVertex
 10
-0.0249999999999986
 20
0.1700000000000017
 30
0.0
  0
VERTEX
  5
111C4
330
FB1C
100
AcDbEntity
  8
Pel_Clad
100
AcDbVertex
100
AcDb2dVertex
 10
0.2910000000000004
 20
0.1700000000000017
 30
0.0
  0
VERTEX
  5
111C5
330
FB1C
100
AcDbEntity
  8
Pel_Clad
100
AcDbVertex
100
AcDb2dVertex
 10
0.2910000000000004
 20
0.120000000000001
 30
0.0
  0
VERTEX
  5
111C6
330
FB1C
100
AcDbEntity
  8
Pel_Clad
100
AcDbVertex
100
AcDb2dVertex
 10
0.0249999999999986
 20
0.120000000000001
 30
0.0
  0
VERTEX
  5
111C7
330
FB1C
100
AcDbEntity
  8
Pel_Clad
100
AcDbVertex
100
AcDb2dVertex
 10
0.0249999999999986
 20
0.0
 30
0.0
  0
VERTEX
  5
111C8
330
FB1C
100
AcDbEntity
  8
Pel_Clad
100
AcDbVertex
100
AcDb2dVertex
 10
0.9604999999999996
 20
0.0
 30
0.0
  0
VERTEX
  5
111C9
330
FB1C
100
AcDbEntity
  8
Pel_Clad
100
AcDbVertex
100
AcDb2dVertex
 10
1.183470476127563
 20
-0.0597518543427746
 30
0.0
 42
-1.0
  0
VERTEX
  5
111CA
330
FB1C
100
AcDbEntity
  8
Pel_Clad
100
AcDbVertex
100
AcDb2dVertex
 10
1.170529523872438
 20
-0.1080481456572251
 30
0.0
  0
VERTEX
  5
111CB
330
FB1C
100
AcDbEntity
  8
Pel_Clad
100
AcDbVertex
100
AcDb2dVertex
 10
0.9539000000000008
 20
-0.0500000000000007
 30
0.0
  0
VERTEX
  5
111CC
330
FB1C
100
AcDbEntity
  8
Pel_Clad
100
AcDbVertex
100
AcDb2dVertex
 10
-0.3500000000000014
 20
-0.0500000000000007
 30
0.0
  0
VERTEX
  5
111CD
330
FB1C
100
AcDbEntity
  8
Pel_Clad
100
AcDbVertex
100
AcDb2dVertex
 10
-0.3500000000000014
 20
-0.5130000000000017
 30
0.0
  0
VERTEX
  5
111CE
330
FB1C
100
AcDbEntity
  8
Pel_Clad
100
AcDbVertex
100
AcDb2dVertex
 10
-0.1707000000000001
 20
-0.5130000000000017
 30
0.0
  0
VERTEX
  5
111CF
330
FB1C
100
AcDbEntity
  8
Pel_Clad
100
AcDbVertex
100
AcDb2dVertex
 10
-0.0262776695296623
 20
-0.3685223304703378
 30
0.0
 42
-1.0
  0
SEQEND
  5
111D0
330
FB1C
100
AcDbEntity
  8
Pel_Clad
  0
ENDBLK
  5
FB31
330
FB1B
100
AcDbEntity
  8
0
 62
     2
100
AcDbBlockEnd
  0
BLOCK
  5
FBB3
330
FBA8
100
AcDbEntity
  8
0
 62
     2
100
AcDbBlockBegin
  2
*D24
 70
     1
 10
0.0
 20
0.0
 30
0.0
  3
*D24
  1

  0
LINE
  5
118F6
330
FBA8
100
AcDbEntity
  8
0
100
AcDbLine
 10
25.37500000000001
 20
19.5
 30
0.0
 11
25.37500000000001
 21
20.125
 31
0.0
  0
LINE
  5
118F7
330
FBA8
100
AcDbEntity
  8
0
100
AcDbLine
 10
26.87321773946671
 20
19.5
 30
0.0
 11
26.87321773946671
 21
20.125
 31
0.0
  0
LINE
  5
118F8
330
FBA8
100
AcDbEntity
  8
0
100
AcDbLine
 10
24.93750000000001
 20
20.0
 30
0.0
 11
24.50000000000001
 21
20.0
 31
0.0
  0
LINE
  5
118F9
330
FBA8
100
AcDbEntity
  8
0
100
AcDbLine
 10
27.31071773946672
 20
20.0
 30
0.0
 11
27.74821773946671
 21
20.0
 31
0.0
  0
MTEXT
  5
118FA
330
FBA8
100
AcDbEntity
  8
0
 62
   255
100
AcDbMText
 10
26.12410886973336
 20
20.0
 30
0.0
 40
0.375
 41
0.0
 71
     5
 72
     1
  1
\A1;1 1/2"\P [38]
  7
Arial
 73
     1
 44
1.0
1001
ACAD
1000
MTEXTBEGIN
1070
    73
1070
     1
1070
    44
1040
1.0
1070
    74
1070
     0
1000
MTEXTEND
  0
SOLID
  5
118FB
330
FBA8
100
AcDbEntity
  8
0
100
AcDbTrace
 10
24.93750000000001
 20
20.07291666666667
 30
0.0
 11
24.93750000000001
 21
19.92708333333333
 31
0.0
 12
25.37500000000001
 22
20.0
 32
0.0
 13
25.37500000000001
 23
20.0
 33
0.0
  0
SOLID
  5
118FC
330
FBA8
100
AcDbEntity
  8
0
100
AcDbTrace
 10
27.31071773946672
 20
20.07291666666667
 30
0.0
 11
27.31071773946672
 21
19.92708333333333
 31
0.0
 12
26.87321773946671
 22
20.0
 32
0.0
 13
26.87321773946671
 23
20.0
 33
0.0
  0
POINT
  5
118FD
330
FBA8
100
AcDbEntity
  8
Defpoints
 62
     0
100
AcDbPoint
 10
25.37500000000001
 20
19.0
 30
0.0
  0
POINT
  5
118FE
330
FBA8
100
AcDbEntity
  8
Defpoints
 62
     0
100
AcDbPoint
 10
26.87321773946671
 20
19.0
 30
0.0
  0
POINT
  5
118FF
330
FBA8
100
AcDbEntity
  8
Defpoints
 62
     0
100
AcDbPoint
 10
26.87321773946671
 20
20.0
 30
0.0
  0
ENDBLK
  5
FBB4
330
FBA8
100
AcDbEntity
  8
0
 62
     2
100
AcDbBlockEnd
  0
BLOCK
  5
FC03
330
FBF7
100
AcDbEntity
  8
0
 62
     2
100
AcDbBlockBegin
  2
*D25
 70
     1
 10
0.0
 20
0.0
 30
0.0
  3
*D25
  1

  0
LINE
  5
118E2
330
FBF7
100
AcDbEntity
  8
0
100
AcDbLine
 10
19.875
 20
17.5
 30
0.0
 11
19.25
 21
17.5
 31
0.0
  0
LINE
  5
118E3
330
FBF7
100
AcDbEntity
  8
0
100
AcDbLine
 10
19.875
 20
18.06299999999999
 30
0.0
 11
19.25
 21
18.06299999999999
 31
0.0
  0
LINE
  5
118E4
330
FBF7
100
AcDbEntity
  8
0
100
AcDbLine
 10
19.375
 20
17.0625
 30
0.0
 11
19.375
 21
16.625
 31
0.0
  0
LINE
  5
118E5
330
FBF7
100
AcDbEntity
  8
0
100
AcDbLine
 10
19.375
 20
18.50049999999999
 30
0.0
 11
19.375
 21
18.93799999999999
 31
0.0
  0
MTEXT
  5
118E6
330
FBF7
100
AcDbEntity
  8
0
 62
   255
100
AcDbMText
 10
17.72329866062984
 20
17.7815
 30
0.0
 40
0.375
 41
0.0
 71
     5
 72
     1
  1
\A1;9/16"\P [14]
  7
Arial
 11
0.0000000000000001
 21
1.0
 31
0.0
 73
     1
 44
1.0
1001
ACAD
1000
MTEXTBEGIN
1070
    73
1070
     1
1070
    44
1040
1.0
1070
    74
1070
     0
1000
MTEXTEND
  0
SOLID
  5
118E7
330
FBF7
100
AcDbEntity
  8
0
100
AcDbTrace
 10
19.30208333333333
 20
17.0625
 30
0.0
 11
19.44791666666667
 21
17.0625
 31
0.0
 12
19.375
 22
17.5
 32
0.0
 13
19.375
 23
17.5
 33
0.0
  0
SOLID
  5
118E8
330
FBF7
100
AcDbEntity
  8
0
100
AcDbTrace
 10
19.30208333333333
 20
18.50049999999999
 30
0.0
 11
19.44791666666667
 21
18.50049999999999
 31
0.0
 12
19.375
 22
18.06299999999999
 32
0.0
 13
19.375
 23
18.06299999999999
 33
0.0
  0
POINT
  5
118E9
330
FBF7
100
AcDbEntity
  8
Defpoints
 62
     0
100
AcDbPoint
 10
20.375
 20
17.5
 30
0.0
  0
POINT
  5
118EA
330
FBF7
100
AcDbEntity
  8
Defpoints
 62
     0
100
AcDbPoint
 10
20.375
 20
18.06299999999999
 30
0.0
  0
POINT
  5
118EB
330
FBF7
100
AcDbEntity
  8
Defpoints
 62
     0
100
AcDbPoint
 10
19.375
 20
18.06299999999999
 30
0.0
  0
ENDBLK
  5
FC04
330
FBF7
100
AcDbEntity
  8
0
 62
     2
100
AcDbBlockEnd
  0
BLOCK
  5
FCBB
330
FCB0
100
AcDbEntity
  8
0
 62
     2
100
AcDbBlockBegin
  2
*D26
 70
     1
 10
0.0
 20
0.0
 30
0.0
  3
*D26
  1

  0
LINE
  5
118CE
330
FCB0
100
AcDbEntity
  8
0
100
AcDbLine
 10
24.875
 20
17.5
 30
0.0
 11
24.25
 21
17.5
 31
0.0
  0
LINE
  5
118CF
330
FCB0
100
AcDbEntity
  8
0
100
AcDbLine
 10
25.5625
 20
19.0
 30
0.0
 11
24.25
 21
19.0
 31
0.0
  0
LINE
  5
118D0
330
FCB0
100
AcDbEntity
  8
0
100
AcDbLine
 10
24.375
 20
17.0625
 30
0.0
 11
24.375
 21
16.625
 31
0.0
  0
LINE
  5
118D1
330
FCB0
100
AcDbEntity
  8
0
100
AcDbLine
 10
24.375
 20
19.43749999999999
 30
0.0
 11
24.375
 21
19.875
 31
0.0
  0
MTEXT
  5
118D2
330
FCB0
100
AcDbEntity
  8
0
 62
   255
100
AcDbMText
 10
24.375
 20
18.25000000000001
 30
0.0
 40
0.375
 41
0.0
 71
     5
 72
     1
  1
\A1;1 1/2"\P [38]
  7
Arial
 11
0.0000000000000001
 21
1.0
 31
0.0
 73
     1
 44
1.0
1001
ACAD
1000
MTEXTBEGIN
1070
    73
1070
     1
1070
    44
1040
1.0
1070
    74
1070
     0
1000
MTEXTEND
  0
SOLID
  5
118D3
330
FCB0
100
AcDbEntity
  8
0
100
AcDbTrace
 10
24.30208333333333
 20
17.0625
 30
0.0
 11
24.44791666666667
 21
17.0625
 31
0.0
 12
24.375
 22
17.5
 32
0.0
 13
24.375
 23
17.5
 33
0.0
  0
SOLID
  5
118D4
330
FCB0
100
AcDbEntity
  8
0
100
AcDbTrace
 10
24.30208333333333
 20
19.43749999999999
 30
0.0
 11
24.44791666666667
 21
19.43749999999999
 31
0.0
 12
24.375
 22
19.0
 32
0.0
 13
24.375
 23
19.0
 33
0.0
  0
POINT
  5
118D5
330
FCB0
100
AcDbEntity
  8
Defpoints
 62
     0
100
AcDbPoint
 10
25.375
 20
17.5
 30
0.0
  0
POINT
  5
118D6
330
FCB0
100
AcDbEntity
  8
Defpoints
 62
     0
100
AcDbPoint
 10
26.0625
 20
19.0
 30
0.0
  0
POINT
  5
118D7
330
FCB0
100
AcDbEntity
  8
Defpoints
 62
     0
100
AcDbPoint
 10
24.375
 20
19.0
 30
0.0
  0
ENDBLK
  5
FCBC
330
FCB0
100
AcDbEntity
  8
0
 62
     2
100
AcDbBlockEnd
  0
BLOCK
  5
FCEA
330
FCDF
100
AcDbEntity
  8
0
 62
     2
100
AcDbBlockBegin
  2
*D27
 70
     1
 10
0.0
 20
0.0
 30
0.0
  3
*D27
  1

  0
LINE
  5
118BA
330
FCDF
100
AcDbEntity
  8
0
100
AcDbLine
 10
14.875
 20
17.5
 30
0.0
 11
14.25
 21
17.5
 31
0.0
  0
LINE
  5
118BB
330
FCDF
100
AcDbEntity
  8
0
100
AcDbLine
 10
14.888
 20
21.0
 30
0.0
 11
14.25
 21
21.0
 31
0.0
  0
LINE
  5
118BC
330
FCDF
100
AcDbEntity
  8
0
100
AcDbLine
 10
14.375
 20
17.9375
 30
0.0
 11
14.375
 21
18.49121487039562
 31
0.0
  0
LINE
  5
118BD
330
FCDF
100
AcDbEntity
  8
0
100
AcDbLine
 10
14.375
 20
20.5625
 30
0.0
 11
14.375
 21
19.99578512960436
 31
0.0
  0
MTEXT
  5
118BE
330
FCDF
100
AcDbEntity
  8
0
 62
   255
100
AcDbMText
 10
14.375
 20
19.2435
 30
0.0
 40
0.375
 41
0.0
 71
     5
 72
     1
  1
\A1;3 1/2"\P [89]
  7
Arial
 11
0.0000000000000001
 21
1.0
 31
0.0
 73
     1
 44
1.0
1001
ACAD
1000
MTEXTBEGIN
1070
    73
1070
     1
1070
    44
1040
1.0
1070
    74
1070
     0
1000
MTEXTEND
  0
SOLID
  5
118BF
330
FCDF
100
AcDbEntity
  8
0
100
AcDbTrace
 10
14.30208333333333
 20
17.9375
 30
0.0
 11
14.44791666666666
 21
17.9375
 31
0.0
 12
14.375
 22
17.5
 32
0.0
 13
14.375
 23
17.5
 33
0.0
  0
SOLID
  5
118C0
330
FCDF
100
AcDbEntity
  8
0
100
AcDbTrace
 10
14.30208333333333
 20
20.5625
 30
0.0
 11
14.44791666666666
 21
20.5625
 31
0.0
 12
14.375
 22
21.0
 32
0.0
 13
14.375
 23
21.0
 33
0.0
  0
POINT
  5
118C1
330
FCDF
100
AcDbEntity
  8
Defpoints
 62
     0
100
AcDbPoint
 10
15.375
 20
17.5
 30
0.0
  0
POINT
  5
118C2
330
FCDF
100
AcDbEntity
  8
Defpoints
 62
     0
100
AcDbPoint
 10
15.388
 20
21.0
 30
0.0
  0
POINT
  5
118C3
330
FCDF
100
AcDbEntity
  8
Defpoints
 62
     0
100
AcDbPoint
 10
14.375
 20
21.0
 30
0.0
  0
ENDBLK
  5
FCEB
330
FCDF
100
AcDbEntity
  8
0
 62
     2
100
AcDbBlockEnd
  0
BLOCK
  5
FD1A
330
FD0F
100
AcDbEntity
  8
0
 62
     2
100
AcDbBlockBegin
  2
*D28
 70
     1
 10
0.0
 20
0.0
 30
0.0
  3
*D28
  1

  0
LINE
  5
118A6
330
FD0F
100
AcDbEntity
  8
0
100
AcDbLine
 10
9.875
 20
21.0
 30
0.0
 11
9.250000000000001
 21
21.0
 31
0.0
  0
LINE
  5
118A7
330
FD0F
100
AcDbEntity
  8
0
100
AcDbLine
 10
9.875
 20
17.5
 30
0.0
 11
9.25
 21
17.5
 31
0.0
  0
LINE
  5
118A8
330
FD0F
100
AcDbEntity
  8
0
100
AcDbLine
 10
9.375000000000001
 20
20.5625
 30
0.0
 11
9.375
 21
19.99578512960436
 31
0.0
  0
LINE
  5
118A9
330
FD0F
100
AcDbEntity
  8
0
100
AcDbLine
 10
9.375
 20
17.9375
 30
0.0
 11
9.375
 21
18.49121487039562
 31
0.0
  0
MTEXT
  5
118AA
330
FD0F
100
AcDbEntity
  8
0
 62
   255
100
AcDbMText
 10
9.375
 20
19.2435
 30
0.0
 40
0.375
 41
0.0
 71
     5
 72
     1
  1
\A1;3 1/2"\P [89]
  7
Arial
 11
0.0000000000000001
 21
1.0
 31
0.0
 73
     1
 44
1.0
1001
ACAD
1000
MTEXTBEGIN
1070
    73
1070
     1
1070
    44
1040
1.0
1070
    74
1070
     0
1000
MTEXTEND
  0
SOLID
  5
118AB
330
FD0F
100
AcDbEntity
  8
0
100
AcDbTrace
 10
9.302083333333335
 20
20.5625
 30
0.0
 11
9.447916666666667
 21
20.5625
 31
0.0
 12
9.375000000000001
 22
21.0
 32
0.0
 13
9.375000000000001
 23
21.0
 33
0.0
  0
SOLID
  5
118AC
330
FD0F
100
AcDbEntity
  8
0
100
AcDbTrace
 10
9.302083333333333
 20
17.9375
 30
0.0
 11
9.447916666666666
 21
17.9375
 31
0.0
 12
9.375
 22
17.5
 32
0.0
 13
9.375
 23
17.5
 33
0.0
  0
POINT
  5
118AD
330
FD0F
100
AcDbEntity
  8
Defpoints
 62
     0
100
AcDbPoint
 10
10.375
 20
21.0
 30
0.0
  0
POINT
  5
118AE
330
FD0F
100
AcDbEntity
  8
Defpoints
 62
     0
100
AcDbPoint
 10
10.375
 20
17.5
 30
0.0
  0
POINT
  5
118AF
330
FD0F
100
AcDbEntity
  8
Defpoints
 62
     0
100
AcDbPoint
 10
9.375
 20
17.5
 30
0.0
  0
ENDBLK
  5
FD1B
330
FD0F
100
AcDbEntity
  8
0
 62
     2
100
AcDbBlockEnd
  0
BLOCK
  5
FD3E
330
FD33
100
AcDbEntity
  8
0
 62
     2
100
AcDbBlockBegin
  2
*D29
 70
     1
 10
0.0
 20
0.0
 30
0.0
  3
*D29
  1

  0
LINE
  5
11892
330
FD33
100
AcDbEntity
  8
0
100
AcDbLine
 10
4.887999999999999
 20
19.99349999999999
 30
0.0
 11
4.25
 21
19.99349999999999
 31
0.0
  0
LINE
  5
11893
330
FD33
100
AcDbEntity
  8
0
100
AcDbLine
 10
5.108999999999999
 20
18.4935
 30
0.0
 11
4.25
 21
18.4935
 31
0.0
  0
LINE
  5
11894
330
FD33
100
AcDbEntity
  8
0
100
AcDbLine
 10
4.375
 20
20.431
 30
0.0
 11
4.375
 21
20.8685
 31
0.0
  0
LINE
  5
11895
330
FD33
100
AcDbEntity
  8
0
100
AcDbLine
 10
4.375
 20
18.056
 30
0.0
 11
4.374999999999999
 21
17.6185
 31
0.0
  0
MTEXT
  5
11896
330
FD33
100
AcDbEntity
  8
0
 62
   255
100
AcDbMText
 10
4.375
 20
19.2435
 30
0.0
 40
0.375
 41
0.0
 71
     5
 72
     1
  1
\A1;1 1/2"\P [38]
  7
Arial
 11
0.0000000000000001
 21
1.0
 31
0.0
 73
     1
 44
1.0
1001
ACAD
1000
MTEXTBEGIN
1070
    73
1070
     1
1070
    44
1040
1.0
1070
    74
1070
     0
1000
MTEXTEND
  0
SOLID
  5
11897
330
FD33
100
AcDbEntity
  8
0
100
AcDbTrace
 10
4.302083333333333
 20
20.431
 30
0.0
 11
4.447916666666666
 21
20.431
 31
0.0
 12
4.375
 22
19.99349999999999
 32
0.0
 13
4.375
 23
19.99349999999999
 33
0.0
  0
SOLID
  5
11898
330
FD33
100
AcDbEntity
  8
0
100
AcDbTrace
 10
4.302083333333333
 20
18.056
 30
0.0
 11
4.447916666666666
 21
18.056
 31
0.0
 12
4.375
 22
18.4935
 32
0.0
 13
4.375
 23
18.4935
 33
0.0
  0
POINT
  5
11899
330
FD33
100
AcDbEntity
  8
Defpoints
 62
     0
100
AcDbPoint
 10
5.387999999999999
 20
19.99349999999999
 30
0.0
  0
POINT
  5
1189A
330
FD33
100
AcDbEntity
  8
Defpoints
 62
     0
100
AcDbPoint
 10
5.608999999999999
 20
18.4935
 30
0.0
  0
POINT
  5
1189B
330
FD33
100
AcDbEntity
  8
Defpoints
 62
     0
100
AcDbPoint
 10
4.375
 20
18.4935
 30
0.0
  0
ENDBLK
  5
FD3F
330
FD33
100
AcDbEntity
  8
0
 62
     2
100
AcDbBlockEnd
  0
BLOCK
  5
FE48
330
FE3D
100
AcDbEntity
  8
0
 62
     2
100
AcDbBlockBegin
  2
*D30
 70
     1
 10
0.0
 20
0.0
 30
0.0
  3
*D30
  1

  0
LINE
  5
1187F
330
FE3D
100
AcDbEntity
  8
0
100
AcDbLine
 10
10.375
 20
21.5
 30
0.0
 11
10.375
 21
22.575
 31
0.0
  0
LINE
  5
11880
330
FE3D
100
AcDbEntity
  8
0
100
AcDbLine
 10
11.772
 20
22.2
 30
0.0
 11
11.772
 21
22.575
 31
0.0
  0
LINE
  5
11881
330
FE3D
100
AcDbEntity
  8
0
100
AcDbLine
 10
10.8125
 20
22.45
 30
0.0
 11
11.3345
 21
22.45
 31
0.0
  0
MTEXT
  5
11882
330
FE3D
100
AcDbEntity
  8
0
 62
   255
100
AcDbMText
 10
11.0735
 20
22.45
 30
0.0
 40
0.375
 41
0.0
 71
     5
 72
     1
  1
\A1;1 3/8"\P [35]
  7
Arial
 73
     1
 44
1.0
1001
ACAD
1000
MTEXTBEGIN
1070
    73
1070
     1
1070
    44
1040
1.0
1070
    74
1070
     0
1000
MTEXTEND
  0
SOLID
  5
11883
330
FE3D
100
AcDbEntity
  8
0
100
AcDbTrace
 10
10.8125
 20
22.52291666666667
 30
0.0
 11
10.8125
 21
22.37708333333333
 31
0.0
 12
10.375
 22
22.45
 32
0.0
 13
10.375
 23
22.45
 33
0.0
  0
SOLID
  5
11884
330
FE3D
100
AcDbEntity
  8
0
100
AcDbTrace
 10
11.3345
 20
22.52291666666667
 30
0.0
 11
11.3345
 21
22.37708333333333
 31
0.0
 12
11.772
 22
22.45
 32
0.0
 13
11.772
 23
22.45
 33
0.0
  0
POINT
  5
11885
330
FE3D
100
AcDbEntity
  8
Defpoints
 62
     0
100
AcDbPoint
 10
10.375
 20
21.0
 30
0.0
  0
POINT
  5
11886
330
FE3D
100
AcDbEntity
  8
Defpoints
 62
     0
100
AcDbPoint
 10
11.772
 20
21.7
 30
0.0
  0
POINT
  5
11887
330
FE3D
100
AcDbEntity
  8
Defpoints
 62
     0
100
AcDbPoint
 10
11.772
 20
22.45
 30
0.0
  0
ENDBLK
  5
FE49
330
FE3D
100
AcDbEntity
  8
0
 62
     2
100
AcDbBlockEnd
  0
BLOCK
  5
FE7B
330
FE70
100
AcDbEntity
  8
0
 62
     2
100
AcDbBlockBegin
  2
*D31
 70
     1
 10
0.0
 20
0.0
 30
0.0
  3
*D31
  1

  0
LINE
  5
1186D
330
FE70
100
AcDbEntity
  8
0
100
AcDbLine
 10
15.375
 20
21.487
 30
0.0
 11
15.375
 21
22.575
 31
0.0
  0
LINE
  5
1186E
330
FE70
100
AcDbEntity
  8
0
100
AcDbLine
 10
16.772
 20
22.2
 30
0.0
 11
16.772
 21
22.575
 31
0.0
  0
LINE
  5
1186F
330
FE70
100
AcDbEntity
  8
0
100
AcDbLine
 10
15.8125
 20
22.45
 30
0.0
 11
16.3345
 21
22.45
 31
0.0
  0
MTEXT
  5
11870
330
FE70
100
AcDbEntity
  8
0
 62
   255
100
AcDbMText
 10
16.0735
 20
22.45
 30
0.0
 40
0.375
 41
0.0
 71
     5
 72
     1
  1
\A1;1 3/8"\P [35]
  7
Arial
 73
     1
 44
1.0
1001
ACAD
1000
MTEXTBEGIN
1070
    73
1070
     1
1070
    44
1040
1.0
1070
    74
1070
     0
1000
MTEXTEND
  0
SOLID
  5
11871
330
FE70
100
AcDbEntity
  8
0
100
AcDbTrace
 10
15.8125
 20
22.52291666666667
 30
0.0
 11
15.8125
 21
22.37708333333333
 31
0.0
 12
15.375
 22
22.45
 32
0.0
 13
15.375
 23
22.45
 33
0.0
  0
SOLID
  5
11872
330
FE70
100
AcDbEntity
  8
0
100
AcDbTrace
 10
16.3345
 20
22.52291666666667
 30
0.0
 11
16.3345
 21
22.37708333333333
 31
0.0
 12
16.772
 22
22.45
 32
0.0
 13
16.772
 23
22.45
 33
0.0
  0
POINT
  5
11873
330
FE70
100
AcDbEntity
  8
Defpoints
 62
     0
100
AcDbPoint
 10
15.375
 20
20.987
 30
0.0
  0
POINT
  5
11874
330
FE70
100
AcDbEntity
  8
Defpoints
 62
     0
100
AcDbPoint
 10
16.772
 20
21.7
 30
0.0
  0
POINT
  5
11875
330
FE70
100
AcDbEntity
  8
Defpoints
 62
     0
100
AcDbPoint
 10
16.772
 20
22.45
 30
0.0
  0
ENDBLK
  5
FE7C
330
FE70
100
AcDbEntity
  8
0
 62
     2
100
AcDbBlockEnd
  0
BLOCK
  5
FE9F
330
FE9C
100
AcDbEntity
  8
0
 62
     2
100
AcDbBlockBegin
  2
72AN+Clip
 70
     0
 10
0.0
 20
0.0
 30
0.0
  3
72AN+Clip
  1

  0
LWPOLYLINE
  5
FE9D
330
FE9C
100
AcDbEntity
  8
Pel_Clad
100
AcDbPolyline
 90
       18
 70
     1
 43
0.0
 10
0.2623541676233403
 20
-1.88187497139584
 42
0.7058173083408263
 10
0.2522547800458925
 20
-1.910284740554068
 10
0.3600300000000001
 20
-1.997994971395844
 10
0.3600300000000001
 20
-1.959874971395841
 42
-0.4142135623730948
 10
0.376030000000001
 20
-1.943874971395842
 10
0.4220000000000006
 20
-1.943874971395842
 42
0.414213562373094
 10
0.5
 20
-1.865874971395841
 10
0.5
 20
-0.1941249713958406
 42
0.4142135623731005
 10
0.4219999999999989
 20
-0.1161249713958412
 10
0.376030000000001
 20
-0.1161249713958412
 42
-0.4142135623730948
 10
0.3600300000000001
 20
-0.1001249713958412
 10
0.3600300000000001
 20
-0.0620049713958402
 10
0.2522547800458899
 20
-0.1497152022376156
 42
0.7058173083408292
 10
0.2623541676233394
 20
-0.1781249713958424
 10
0.4219999999999997
 20
-0.1781249713958388
 42
-0.4142135623731003
 10
0.4379999999999998
 20
-0.1941249713958388
 10
0.4379999999999998
 20
-1.865874971395843
 42
-0.4142135623730951
 10
0.4219999999999997
 20
-1.881874971395841
  0
LWPOLYLINE
  5
FE9E
330
FE9C
100
AcDbEntity
  8
Pel_Clad
100
AcDbPolyline
 90
       21
 70
     1
 43
0.0
 10
-0.0079010409884326
 20
-2.030387034763599
 10
-0.1155623406851198
 20
-1.963892827375136
 42
0.5872859774601937
 10
-0.1399699999999999
 20
-1.977505735398219
 10
-0.1399699999999999
 20
-1.997999943793974
 10
-0.687999963743903
 20
-1.997999943807579
 10
-0.6879999637655736
 20
-1.681619027646737
 42
-0.4348585139129959
 10
-1.561989754889363
 20
-0.8772047649336123
 42
-0.4530431622450006
 10
-0.9999996748034538
 20
-0.3778587800198263
 10
-1.000000017367296
 20
-0.062000038164312
 10
-0.6720023155349999
 20
-0.0619999990011841
 10
-0.1399699999999999
 20
-0.0619999990011841
 10
-0.1399699999999999
 20
-0.0824942073934629
 42
0.587285977460194
 10
-0.1155623406851198
 20
-0.0961071154165456
 10
-0.0079010409803368
 20
-0.0296129080230827
 42
0.7556051231716038
 10
-0.0163087002955269
 20
0.0
 10
-1.062000036254
 20
-0.0000000000202149
 10
-1.062000036254
 20
-0.3119999650062759
 42
0.4131716947688881
 10
-1.623996347095199
 20
-0.8719999795642721
 42
0.4142136849377968
 10
-0.7500000000008509
 20
-1.745996475219182
 10
-0.7499999999850005
 20
-2.059999942786681
 10
-0.0163087003033127
 20
-2.059999942786681
 42
0.7556051231640265
  0
ENDBLK
  5
FEA0
330
FE9C
100
AcDbEntity
  8
0
 62
     2
100
AcDbBlockEnd
  0
BLOCK
  5
FEA5
330
FEA2
100
AcDbEntity
  8
0
 62
     2
100
AcDbBlockBegin
  2
72AP+Clip
 70
     0
 10
0.0
 20
0.0
 30
0.0
  3
72AP+Clip
  1

  0
LWPOLYLINE
  5
FEA3
330
FEA2
100
AcDbEntity
  8
Pel_Clad
100
AcDbPolyline
 90
       22
 70
     1
 43
0.0
 10
0.5470000000005051
 20
-1.129211806095092
 10
0.4850333425966049
 20
-1.129211806094691
 42
-0.4142135623730951
 10
0.4690333425970046
 20
-1.11321180609509
 10
0.4690333425970046
 20
-1.074972509650091
 10
0.3754129461449018
 20
-1.163592009062092
 42
0.206052188364104
 10
0.3704120514212015
 20
-1.175211806097092
 42
0.4142135624060435
 10
0.386412051422699
 20
-1.19121180609709
 10
0.5470000000005051
 20
-1.19121180609649
 42
-0.4142135623730951
 10
0.5630000000001055
 20
-1.20721180609609
 10
0.5630000000001055
 20
-2.145766399331392
 42
-0.4142135623730951
 10
0.5470000000005051
 20
-2.161766399331391
 10
0.3864120514209013
 20
-2.161766399331391
 42
0.4142135623730951
 10
0.3704120514208036
 20
-2.177766399331492
 42
0.2064040259345294
 10
0.3754286421609727
 20
-2.189401033877508
 10
0.4690333425970046
 20
-2.27776639933392
 10
0.4690333425970046
 20
-2.27776639933392
 10
0.4690333425970046
 20
-2.24164870901869
 10
0.4690333425970046
 20
-2.239766399332292
 42
-0.4142135623730951
 10
0.4850333425966049
 20
-2.223766399331793
 10
0.5470000000005051
 20
-2.22376639933179
 42
0.4142135623730951
 10
0.625000000000906
 20
-2.145766399331392
 10
0.6250000000000036
 20
-1.20721180609609
 42
0.4142135623730951
  0
LWPOLYLINE
  5
FEA4
330
FEA2
100
AcDbEntity
  8
Pel_Clad
100
AcDbPolyline
 90
       54
 70
     1
 43
0.0
 10
0.1161050311654357
 20
-2.321196601125009
 10
0.1161050311654357
 20
-2.311114161899066
 42
0.2477228914654598
 10
0.1095679681981529
 20
-2.298729546572772
 10
0.0145679681981541
 20
-2.233811985798713
 42
0.6029200182830453
 10
-0.0088949688345643
 20
-2.246196601125006
 10
-0.0088949688345643
 20
-2.288196601125008
 42
-0.4142135623731125
 10
-0.0238949688345649
 20
-2.303196601125009
 10
-0.1938949688345666
 20
-2.303196601125009
 42
-0.4142135623730951
 10
-0.2088949688345671
 20
-2.288196601125008
 10
-0.2088949688345671
 20
-1.991737620787507
 42
0.1164338214658486
 10
-0.2104785609695732
 20
-1.985029416855006
 10
-0.4573113766995612
 20
-1.491363785395009
 42
-0.1164338214659474
 10
-0.4588949688345672
 20
-1.484655581462511
 10
-0.4588949688345672
 20
-1.065000000000001
 42
-0.4142135623731125
 10
-0.4438949688345666
 20
-1.05
 10
-0.2034801331496645
 20
-1.05
 42
-0.4142135623730951
 10
-0.1884801331496639
 20
-1.065000000000001
 10
-0.1884801331496639
 20
-1.24479039977054
 42
0.4142135623730951
 10
-0.1734801331496634
 20
-1.25979039977054
 10
-0.1534801331496673
 20
-1.25979039977054
 42
0.4142135623731125
 10
-0.1384801331496668
 20
-1.24479039977054
 10
-0.1384801331496668
 20
-1.065000000000001
 42
-0.4142135623731125
 10
-0.1234801331496662
 20
-1.05
 10
-0.0238949688345649
 20
-1.05
 42
-0.4142135623730951
 10
-0.0088949688345643
 20
-1.065000000000001
 10
-0.0088949688345643
 20
-1.117
 42
0.6250703376306151
 10
0.0153467853639562
 20
-1.128814820325935
 10
0.1103467853639621
 20
-1.054504198188705
 42
0.230715959603373
 10
0.1161050311654357
 20
-1.042689377862771
 10
0.1161050311654357
 20
-1.032
 42
0.4142135623730951
 10
0.0841050311654392
 20
-1.0
 10
-0.4938949688345638
 20
-1.0
 42
0.4142135623731125
 10
-0.5088949688345643
 20
-1.015
 10
-0.5088949688345643
 20
-1.496458980337504
 42
0.1164338214658534
 10
-0.5073113766995654
 20
-1.503167184270001
 10
-0.2604785609695703
 20
-1.996832815729998
 42
-0.1164338214658547
 10
-0.2588949688345643
 20
-2.003541019662499
 10
-0.2588949688345643
 20
-2.371458980337504
 42
0.116433821465855
 10
-0.2573113766995654
 20
-2.378167184270004
 10
-0.0729785609695704
 20
-2.746832815729998
 42
-0.1164338214658486
 10
-0.0713949688345643
 20
-2.753541019662495
 10
-0.0713949688345643
 20
-2.859999999999999
 42
0.4142135623730951
 10
-0.0563949688345638
 20
-2.875
 10
0.1011050311654351
 20
-2.875
 42
0.4142135623730951
 10
0.1161050311654357
 20
-2.859999999999999
 10
0.1161050311654357
 20
-2.839999999999999
 42
0.4142135623730951
 10
0.1011050311654351
 20
-2.824999999999999
 10
-0.0063949688345666
 20
-2.825000000000002
 42
-0.4142135623730951
 10
-0.0213949688345672
 20
-2.810000000000002
 10
-0.0213949688345672
 20
-2.741737620787507
 42
0.116433821465862
 10
-0.0229785609695732
 20
-2.735029416855006
 10
-0.2030408668683172
 20
-2.374904805057507
 42
-0.5575365158350689
 10
-0.1896244590033227
 20
-2.353196601125009
 10
0.0841050311654392
 20
-2.353196601125009
 42
0.4142135623730951
  0
ENDBLK
  5
FEA6
330
FEA2
100
AcDbEntity
  8
0
 62
     2
100
AcDbBlockEnd
  0
BLOCK
  5
FEFA
330
FEB1
100
AcDbEntity
  8
0
 62
     2
100
AcDbBlockBegin
  2
7SB1+Clip
 70
     0
 10
0.0
 20
0.0
 30
0.0
  3
7SB1+Clip
  1

  0
POLYLINE
  5
FEB2
330
FEB1
100
AcDbEntity
  8
Pel_Clad
100
AcDb2dPolyline
 66
     1
 10
0.0
 20
0.0
 30
0.0
 70
     1
  0
VERTEX
  5
112D7
330
FEB2
100
AcDbEntity
  8
Pel_Clad
100
AcDbVertex
100
AcDb2dVertex
 10
-0.6704301492604757
 20
-0.4370000000000012
 30
0.0
  0
VERTEX
  5
112D8
330
FEB2
100
AcDbEntity
  8
Pel_Clad
100
AcDbVertex
100
AcDb2dVertex
 10
-0.6704301492604757
 20
-0.3290000000000024
 30
0.0
 42
0.4142135623730792
  0
VERTEX
  5
112D9
330
FEB2
100
AcDbEntity
  8
Pel_Clad
100
AcDbVertex
100
AcDb2dVertex
 10
-0.6864301492604774
 20
-0.3129999999999988
 30
0.0
  0
VERTEX
  5
112DA
330
FEB2
100
AcDbEntity
  8
Pel_Clad
100
AcDbVertex
100
AcDb2dVertex
 10
-0.8414301492604749
 20
-0.3130000000000024
 30
0.0
 42
-0.4142135623730789
  0
VERTEX
  5
112DB
330
FEB2
100
AcDbEntity
  8
Pel_Clad
100
AcDbVertex
100
AcDb2dVertex
 10
-0.8574301492604767
 20
-0.2970000000000006
 30
0.0
  0
VERTEX
  5
112DC
330
FEB2
100
AcDbEntity
  8
Pel_Clad
100
AcDbVertex
100
AcDb2dVertex
 10
-0.8574301492604767
 20
-0.0780000000000012
 30
0.0
 42
-0.414213562373111
  0
VERTEX
  5
112DD
330
FEB2
100
AcDbEntity
  8
Pel_Clad
100
AcDbVertex
100
AcDb2dVertex
 10
-0.8414301492604785
 20
-0.0620000000000012
 30
0.0
  0
VERTEX
  5
112DE
330
FEB2
100
AcDbEntity
  8
Pel_Clad
100
AcDbVertex
100
AcDb2dVertex
 10
-0.716430149260475
 20
-0.0620000000000012
 30
0.0
 42
-0.4142135623731113
  0
VERTEX
  5
112DF
330
FEB2
100
AcDbEntity
  8
Pel_Clad
100
AcDbVertex
100
AcDb2dVertex
 10
-0.7004301492604768
 20
-0.0779999999999994
 30
0.0
  0
VERTEX
  5
112E0
330
FEB2
100
AcDbEntity
  8
Pel_Clad
100
AcDbVertex
100
AcDb2dVertex
 10
-0.7004301492604768
 20
-0.121000000000004
 30
0.0
 42
0.7983385921199322
  0
VERTEX
  5
112E1
330
FEB2
100
AcDbEntity
  8
Pel_Clad
100
AcDbVertex
100
AcDb2dVertex
 10
-0.6700000000000017
 20
-0.1279116417963024
 30
0.0
  0
VERTEX
  5
112E2
330
FEB2
100
AcDbEntity
  8
Pel_Clad
100
AcDbVertex
100
AcDb2dVertex
 10
-0.6400000000000006
 20
-0.0652775397156926
 30
0.0
 42
0.1121376190022058
  0
VERTEX
  5
112E3
330
FEB2
100
AcDbEntity
  8
Pel_Clad
100
AcDbVertex
100
AcDb2dVertex
 10
-0.6384301492604756
 20
-0.0583658979193871
 30
0.0
  0
VERTEX
  5
112E4
330
FEB2
100
AcDbEntity
  8
Pel_Clad
100
AcDbVertex
100
AcDb2dVertex
 10
-0.6384301492604756
 20
-0.0160000000000036
 30
0.0
 42
0.4142135623730792
  0
VERTEX
  5
112E5
330
FEB2
100
AcDbEntity
  8
Pel_Clad
100
AcDbVertex
100
AcDb2dVertex
 10
-0.6544301492604774
 20
0.0
 30
0.0
  0
VERTEX
  5
112E6
330
FEB2
100
AcDbEntity
  8
Pel_Clad
100
AcDbVertex
100
AcDb2dVertex
 10
-0.9034301492604761
 20
-0.0000000000000018
 30
0.0
 42
0.4142135623730788
  0
VERTEX
  5
112E7
330
FEB2
100
AcDbEntity
  8
Pel_Clad
100
AcDbVertex
100
AcDb2dVertex
 10
-0.9194301492604779
 20
-0.0160000000000018
 30
0.0
  0
VERTEX
  5
112E8
330
FEB2
100
AcDbEntity
  8
Pel_Clad
100
AcDbVertex
100
AcDb2dVertex
 10
-0.9194301492604743
 20
-0.3590000000000035
 30
0.0
 42
0.4142135623731115
  0
VERTEX
  5
112E9
330
FEB2
100
AcDbEntity
  8
Pel_Clad
100
AcDbVertex
100
AcDb2dVertex
 10
-0.9034301492604761
 20
-0.375
 30
0.0
  0
VERTEX
  5
112EA
330
FEB2
100
AcDbEntity
  8
Pel_Clad
100
AcDbVertex
100
AcDb2dVertex
 10
-0.7484301492604786
 20
-0.3750000000000018
 30
0.0
 42
-0.4142135623730792
  0
VERTEX
  5
112EB
330
FEB2
100
AcDbEntity
  8
Pel_Clad
100
AcDbVertex
100
AcDb2dVertex
 10
-0.7324301492604768
 20
-0.3910000000000018
 30
0.0
  0
VERTEX
  5
112EC
330
FEB2
100
AcDbEntity
  8
Pel_Clad
100
AcDbVertex
100
AcDb2dVertex
 10
-0.7324301492604768
 20
-0.437000000000003
 30
0.0
 42
0.2360679774997897
  0
VERTEX
  5
112ED
330
FEB2
100
AcDbEntity
  8
Pel_Clad
100
AcDbVertex
100
AcDb2dVertex
 10
-0.5824301492604782
 20
-0.7370000000000019
 30
0.0
  0
VERTEX
  5
112EE
330
FEB2
100
AcDbEntity
  8
Pel_Clad
100
AcDbVertex
100
AcDb2dVertex
 10
-0.3824301492604753
 20
-0.8870000000000022
 30
0.0
 42
-0.23606797749979
  0
VERTEX
  5
112EF
330
FEB2
100
AcDbEntity
  8
Pel_Clad
100
AcDbVertex
100
AcDb2dVertex
 10
-0.2324301492604768
 20
-1.187000000000001
 30
0.0
  0
VERTEX
  5
112F0
330
FEB2
100
AcDbEntity
  8
Pel_Clad
100
AcDbVertex
100
AcDb2dVertex
 10
-0.2324301492604768
 20
-1.296000000000001
 30
0.0
 42
0.4142135623730789
  0
VERTEX
  5
112F1
330
FEB2
100
AcDbEntity
  8
Pel_Clad
100
AcDbVertex
100
AcDb2dVertex
 10
-0.2164301492604785
 20
-1.312000000000001
 30
0.0
  0
VERTEX
  5
112F2
330
FEB2
100
AcDbEntity
  8
Pel_Clad
100
AcDbVertex
100
AcDb2dVertex
 10
-0.0144301492604768
 20
-1.312000000000001
 30
0.0
 42
0.4142135623730789
  0
VERTEX
  5
112F3
330
FEB2
100
AcDbEntity
  8
Pel_Clad
100
AcDbVertex
100
AcDb2dVertex
 10
0.001569850739525
 20
-1.296000000000001
 30
0.0
  0
VERTEX
  5
112F4
330
FEB2
100
AcDbEntity
  8
Pel_Clad
100
AcDbVertex
100
AcDb2dVertex
 10
0.0015698507395214
 20
-1.253634102080614
 30
0.0
 42
0.1121376190021417
  0
VERTEX
  5
112F5
330
FEB2
100
AcDbEntity
  8
Pel_Clad
100
AcDbVertex
100
AcDb2dVertex
 10
0.0
 20
-1.24672246028431
 30
0.0
  0
VERTEX
  5
112F6
330
FEB2
100
AcDbEntity
  8
Pel_Clad
100
AcDbVertex
100
AcDb2dVertex
 10
-0.0300000000000011
 20
-1.184088358203698
 30
0.0
 42
0.7983385921199241
  0
VERTEX
  5
112F7
330
FEB2
100
AcDbEntity
  8
Pel_Clad
100
AcDbVertex
100
AcDb2dVertex
 10
-0.0604301492604762
 20
-1.191
 30
0.0
  0
VERTEX
  5
112F8
330
FEB2
100
AcDbEntity
  8
Pel_Clad
100
AcDbVertex
100
AcDb2dVertex
 10
-0.0604301492604762
 20
-1.234000000000001
 30
0.0
 42
-0.4142135623731111
  0
VERTEX
  5
112F9
330
FEB2
100
AcDbEntity
  8
Pel_Clad
100
AcDbVertex
100
AcDb2dVertex
 10
-0.0764301492604744
 20
-1.250000000000001
 30
0.0
  0
VERTEX
  5
112FA
330
FEB2
100
AcDbEntity
  8
Pel_Clad
100
AcDbVertex
100
AcDb2dVertex
 10
-0.1544301492604774
 20
-1.25
 30
0.0
 42
-0.4142135623731117
  0
VERTEX
  5
112FB
330
FEB2
100
AcDbEntity
  8
Pel_Clad
100
AcDbVertex
100
AcDb2dVertex
 10
-0.1704301492604756
 20
-1.234000000000003
 30
0.0
  0
VERTEX
  5
112FC
330
FEB2
100
AcDbEntity
  8
Pel_Clad
100
AcDbVertex
100
AcDb2dVertex
 10
-0.1704301492604756
 20
-1.187000000000001
 30
0.0
 42
0.23606797749979
  0
VERTEX
  5
112FD
330
FEB2
100
AcDbEntity
  8
Pel_Clad
100
AcDbVertex
100
AcDb2dVertex
 10
-0.3452301492604768
 20
-0.8374000000000005
 30
0.0
  0
VERTEX
  5
112FE
330
FEB2
100
AcDbEntity
  8
Pel_Clad
100
AcDbVertex
100
AcDb2dVertex
 10
-0.5452301492604761
 20
-0.6874000000000003
 30
0.0
 42
-0.2360679774997897
  0
SEQEND
  5
112FF
330
FEB2
100
AcDbEntity
  8
Pel_Clad
  0
POLYLINE
  5
FEDC
330
FEB1
100
AcDbEntity
  8
Pel_Clad
100
AcDb2dPolyline
 66
     1
 10
0.0
 20
0.0
 30
0.0
 70
     1
  0
VERTEX
  5
11301
330
FEDC
100
AcDbEntity
  8
Pel_Clad
100
AcDbVertex
100
AcDb2dVertex
 10
0.4840000000000018
 20
-1.179999999999999
 30
0.0
  0
VERTEX
  5
11302
330
FEDC
100
AcDbEntity
  8
Pel_Clad
100
AcDbVertex
100
AcDb2dVertex
 10
0.4380000000000024
 20
-1.179999999999999
 30
0.0
 42
0.4142135623730951
  0
VERTEX
  5
11303
330
FEDC
100
AcDbEntity
  8
Pel_Clad
100
AcDbVertex
100
AcDb2dVertex
 10
0.4220000000000042
 20
-1.195999999999997
 30
0.0
  0
VERTEX
  5
11304
330
FEDC
100
AcDbEntity
  8
Pel_Clad
100
AcDbVertex
100
AcDb2dVertex
 10
0.4220000000000042
 20
-1.216000000000001
 30
0.0
 42
-0.7225031889037826
  0
VERTEX
  5
11305
330
FEDC
100
AcDbEntity
  8
Pel_Clad
100
AcDbVertex
100
AcDb2dVertex
 10
0.3931560984327298
 20
-1.225541184021402
 30
0.0
  0
VERTEX
  5
11306
330
FEDC
100
AcDbEntity
  8
Pel_Clad
100
AcDbVertex
100
AcDb2dVertex
 10
0.3411560984327266
 20
-1.155541184021402
 30
0.0
 42
-0.6164502982041142
  0
VERTEX
  5
11307
330
FEDC
100
AcDbEntity
  8
Pel_Clad
100
AcDbVertex
100
AcDb2dVertex
 10
0.3539999999999992
 20
-1.129999999999999
 30
0.0
  0
VERTEX
  5
11308
330
FEDC
100
AcDbEntity
  8
Pel_Clad
100
AcDbVertex
100
AcDb2dVertex
 10
0.4340000000000011
 20
-1.129999999999999
 30
0.0
 42
0.4142135623730951
  0
VERTEX
  5
11309
330
FEDC
100
AcDbEntity
  8
Pel_Clad
100
AcDbVertex
100
AcDb2dVertex
 10
0.4500000000000029
 20
-1.114
 30
0.0
  0
VERTEX
  5
1130A
330
FEDC
100
AcDbEntity
  8
Pel_Clad
100
AcDbVertex
100
AcDb2dVertex
 10
0.4499999999999993
 20
-0.094000000000003
 30
0.0
 42
0.4142135623730951
  0
VERTEX
  5
1130B
330
FEDC
100
AcDbEntity
  8
Pel_Clad
100
AcDbVertex
100
AcDb2dVertex
 10
0.4059999999999988
 20
-0.0500000000000007
 30
0.0
  0
VERTEX
  5
1130C
330
FEDC
100
AcDbEntity
  8
Pel_Clad
100
AcDbVertex
100
AcDb2dVertex
 10
-0.0739999999999981
 20
-0.0500000000000025
 30
0.0
 42
0.4142135623730948
  0
VERTEX
  5
1130D
330
FEDC
100
AcDbEntity
  8
Pel_Clad
100
AcDbVertex
100
AcDb2dVertex
 10
-0.0899999999999999
 20
-0.0660000000000007
 30
0.0
  0
VERTEX
  5
1130E
330
FEDC
100
AcDbEntity
  8
Pel_Clad
100
AcDbVertex
100
AcDb2dVertex
 10
-0.0899999999999999
 20
-0.1660000000000021
 30
0.0
 42
-0.4142135623730945
  0
VERTEX
  5
1130F
330
FEDC
100
AcDbEntity
  8
Pel_Clad
100
AcDbVertex
100
AcDb2dVertex
 10
-0.1060000000000052
 20
-0.1820000000000004
 30
0.0
  0
VERTEX
  5
11310
330
FEDC
100
AcDbEntity
  8
Pel_Clad
100
AcDbVertex
100
AcDb2dVertex
 10
-0.2860000000000013
 20
-0.1820000000000004
 30
0.0
 42
-0.6164502982041142
  0
VERTEX
  5
11311
330
FEDC
100
AcDbEntity
  8
Pel_Clad
100
AcDbVertex
100
AcDb2dVertex
 10
-0.2988439015672704
 20
-0.1564588159786009
 30
0.0
  0
VERTEX
  5
11312
330
FEDC
100
AcDbEntity
  8
Pel_Clad
100
AcDbVertex
100
AcDb2dVertex
 10
-0.2468439015672708
 20
-0.0864588159786006
 30
0.0
 42
-0.7225031889037826
  0
VERTEX
  5
11313
330
FEDC
100
AcDbEntity
  8
Pel_Clad
100
AcDbVertex
100
AcDb2dVertex
 10
-0.2180000000000035
 20
-0.0960000000000019
 30
0.0
  0
VERTEX
  5
11314
330
FEDC
100
AcDbEntity
  8
Pel_Clad
100
AcDbVertex
100
AcDb2dVertex
 10
-0.2180000000000035
 20
-0.1160000000000014
 30
0.0
 42
0.4142135623730951
  0
VERTEX
  5
11315
330
FEDC
100
AcDbEntity
  8
Pel_Clad
100
AcDbVertex
100
AcDb2dVertex
 10
-0.2019999999999982
 20
-0.1319999999999997
 30
0.0
  0
VERTEX
  5
11316
330
FEDC
100
AcDbEntity
  8
Pel_Clad
100
AcDbVertex
100
AcDb2dVertex
 10
-0.1559999999999988
 20
-0.1319999999999997
 30
0.0
 42
0.4142135623730948
  0
VERTEX
  5
11317
330
FEDC
100
AcDbEntity
  8
Pel_Clad
100
AcDbVertex
100
AcDb2dVertex
 10
-0.139999999999997
 20
-0.1160000000000014
 30
0.0
  0
VERTEX
  5
11318
330
FEDC
100
AcDbEntity
  8
Pel_Clad
100
AcDbVertex
100
AcDb2dVertex
 10
-0.1400000000000006
 20
-0.016
 30
0.0
 42
-0.4142135623730945
  0
VERTEX
  5
11319
330
FEDC
100
AcDbEntity
  8
Pel_Clad
100
AcDbVertex
100
AcDb2dVertex
 10
-0.1240000000000023
 20
-0.0000000000000018
 30
0.0
  0
VERTEX
  5
1131A
330
FEDC
100
AcDbEntity
  8
Pel_Clad
100
AcDbVertex
100
AcDb2dVertex
 10
0.4059999999999988
 20
0.0
 30
0.0
 42
-0.4142135623730948
  0
VERTEX
  5
1131B
330
FEDC
100
AcDbEntity
  8
Pel_Clad
100
AcDbVertex
100
AcDb2dVertex
 10
0.5
 20
-0.094000000000003
 30
0.0
  0
VERTEX
  5
1131C
330
FEDC
100
AcDbEntity
  8
Pel_Clad
100
AcDbVertex
100
AcDb2dVertex
 10
0.5
 20
-1.164000000000001
 30
0.0
 42
-0.4142135623730951
  0
SEQEND
  5
1131D
330
FEDC
100
AcDbEntity
  8
Pel_Clad
  0
ENDBLK
  5
FEFB
330
FEB1
100
AcDbEntity
  8
0
 62
     2
100
AcDbBlockEnd
  0
BLOCK
  5
FF37
330
FEFD
100
AcDbEntity
  8
0
 62
     2
100
AcDbBlockBegin
  2
7SBP+Clip
 70
     0
 10
0.0
 20
0.0
 30
0.0
  3
7SBP+Clip
  1

  0
POLYLINE
  5
FEFE
330
FEFD
100
AcDbEntity
  8
Pel_Clad
100
AcDb2dPolyline
 66
     1
 10
0.0
 20
0.0
 30
0.0
 70
     1
  0
VERTEX
  5
1135B
330
FEFE
100
AcDbEntity
  8
Pel_Clad
100
AcDbVertex
100
AcDb2dVertex
 10
0.0
 20
-1.812999999999998
 30
0.0
  0
VERTEX
  5
1135C
330
FEFE
100
AcDbEntity
  8
Pel_Clad
100
AcDbVertex
100
AcDb2dVertex
 10
0.0
 20
-1.859999999999999
 30
0.0
  0
VERTEX
  5
1135D
330
FEFE
100
AcDbEntity
  8
Pel_Clad
100
AcDbVertex
100
AcDb2dVertex
 10
0.0
 20
-1.696337084009385
 30
0.0
 42
0.2500993345132083
  0
VERTEX
  5
1135E
330
FEFE
100
AcDbEntity
  8
Pel_Clad
100
AcDbVertex
100
AcDb2dVertex
 10
-0.0070914746470123
 20
-1.683046554447507
 30
0.0
  0
VERTEX
  5
1135F
330
FEFE
100
AcDbEntity
  8
Pel_Clad
100
AcDbVertex
100
AcDb2dVertex
 10
-0.1000914746470087
 20
-1.620709470438121
 30
0.0
 42
0.5998728619264515
  0
VERTEX
  5
11360
330
FEFE
100
AcDbEntity
  8
Pel_Clad
100
AcDbVertex
100
AcDb2dVertex
 10
-0.125
 20
-1.634
 30
0.0
  0
VERTEX
  5
11361
330
FEFE
100
AcDbEntity
  8
Pel_Clad
100
AcDbVertex
100
AcDb2dVertex
 10
-0.125
 20
-1.6701159423908
 30
0.0
 42
0.2500993345132083
  0
VERTEX
  5
11362
330
FEFE
100
AcDbEntity
  8
Pel_Clad
100
AcDbVertex
100
AcDb2dVertex
 10
-0.1179085253529877
 20
-1.683406471952679
 30
0.0
  0
VERTEX
  5
11363
330
FEFE
100
AcDbEntity
  8
Pel_Clad
100
AcDbVertex
100
AcDb2dVertex
 10
-0.0690914746470099
 20
-1.716128112715569
 30
0.0
 42
-0.250099334513208
  0
VERTEX
  5
11364
330
FEFE
100
AcDbEntity
  8
Pel_Clad
100
AcDbVertex
100
AcDb2dVertex
 10
-0.0620000000000012
 20
-1.729418642277448
 30
0.0
  0
VERTEX
  5
11365
330
FEFE
100
AcDbEntity
  8
Pel_Clad
100
AcDbVertex
100
AcDb2dVertex
 10
-0.0620000000000012
 20
-1.797
 30
0.0
 42
-0.4142135623730951
  0
VERTEX
  5
11366
330
FEFE
100
AcDbEntity
  8
Pel_Clad
100
AcDbVertex
100
AcDb2dVertex
 10
-0.0779999999999994
 20
-1.812999999999998
 30
0.0
  0
VERTEX
  5
11367
330
FEFE
100
AcDbEntity
  8
Pel_Clad
100
AcDbVertex
100
AcDb2dVertex
 10
-0.2371973889275729
 20
-1.812999999999998
 30
0.0
 42
-0.3904129630865325
  0
VERTEX
  5
11368
330
FEFE
100
AcDbEntity
  8
Pel_Clad
100
AcDbVertex
100
AcDb2dVertex
 10
-0.253143707686398
 20
-1.798309548793284
 30
0.0
 42
0.3411966218866867
  0
VERTEX
  5
11369
330
FEFE
100
AcDbEntity
  8
Pel_Clad
100
AcDbVertex
100
AcDb2dVertex
 10
-1.025138844053529
 20
-0.9520861545107948
 30
0.0
 42
-0.7585837883583815
  0
VERTEX
  5
1136A
330
FEFE
100
AcDbEntity
  8
Pel_Clad
100
AcDbVertex
100
AcDb2dVertex
 10
-1.096791165572938
 20
-0.232426670924152
 30
0.0
 42
0.2290128735163238
  0
VERTEX
  5
1136B
330
FEFE
100
AcDbEntity
  8
Pel_Clad
100
AcDbVertex
100
AcDb2dVertex
 10
-0.949010078148909
 20
-0.0732994350282503
 30
0.0
 42
-0.3293407721819185
  0
VERTEX
  5
1136C
330
FEFE
100
AcDbEntity
  8
Pel_Clad
100
AcDbVertex
100
AcDb2dVertex
 10
-0.933716135264671
 20
-0.0620000000000012
 30
0.0
  0
VERTEX
  5
1136D
330
FEFE
100
AcDbEntity
  8
Pel_Clad
100
AcDbVertex
100
AcDb2dVertex
 10
-0.1400000000000006
 20
-0.0620000000000012
 30
0.0
 42
-0.4142135623730951
  0
VERTEX
  5
1136E
330
FEFE
100
AcDbEntity
  8
Pel_Clad
100
AcDbVertex
100
AcDb2dVertex
 10
-0.125
 20
-0.0770000000000017
 30
0.0
  0
VERTEX
  5
1136F
330
FEFE
100
AcDbEntity
  8
Pel_Clad
100
AcDbVertex
100
AcDb2dVertex
 10
-0.125
 20
-0.1159999999999997
 30
0.0
 42
0.6003414983077727
  0
VERTEX
  5
11370
330
FEFE
100
AcDbEntity
  8
Pel_Clad
100
AcDbVertex
100
AcDb2dVertex
 10
-0.1000731659468883
 20
-0.129278239107208
 30
0.0
  0
VERTEX
  5
11371
330
FEFE
100
AcDbEntity
  8
Pel_Clad
100
AcDbVertex
100
AcDb2dVertex
 10
0.0
 20
-0.0620000000000012
 30
0.0
 42
0.4142135623730951
  0
VERTEX
  5
11372
330
FEFE
100
AcDbEntity
  8
Pel_Clad
100
AcDbVertex
100
AcDb2dVertex
 10
-0.0620000000000012
 20
0.0
 30
0.0
  0
VERTEX
  5
11373
330
FEFE
100
AcDbEntity
  8
Pel_Clad
100
AcDbVertex
100
AcDb2dVertex
 10
-0.9846299677133174
 20
0.0
 30
0.0
 42
0.3913447447708889
  0
VERTEX
  5
11374
330
FEFE
100
AcDbEntity
  8
Pel_Clad
100
AcDbVertex
100
AcDb2dVertex
 10
-1.000580437082295
 20
-0.0147420147420157
 30
0.0
 42
-0.2875548165041038
  0
VERTEX
  5
11375
330
FEFE
100
AcDbEntity
  8
Pel_Clad
100
AcDbVertex
100
AcDb2dVertex
 10
-1.119332038256217
 20
-0.1746693418768679
 30
0.0
 42
0.7585837883583815
  0
VERTEX
  5
11376
330
FEFE
100
AcDbEntity
  8
Pel_Clad
100
AcDbVertex
100
AcDb2dVertex
 10
-1.035848973902709
 20
-1.013154093059707
 30
0.0
 42
-0.359153249901079
  0
VERTEX
  5
11377
330
FEFE
100
AcDbEntity
  8
Pel_Clad
100
AcDbVertex
100
AcDb2dVertex
 10
-0.3121410904537534
 20
-1.859287317620651
 30
0.0
 42
0.4089634213594557
  0
VERTEX
  5
11378
330
FEFE
100
AcDbEntity
  8
Pel_Clad
100
AcDbVertex
100
AcDb2dVertex
 10
-0.2961436703934801
 20
-1.875
 30
0.0
  0
VERTEX
  5
11379
330
FEFE
100
AcDbEntity
  8
Pel_Clad
100
AcDbVertex
100
AcDb2dVertex
 10
-0.0150000000000006
 20
-1.875
 30
0.0
 42
0.414213562373096
  0
VERTEX
  5
1137A
330
FEFE
100
AcDbEntity
  8
Pel_Clad
100
AcDbVertex
100
AcDb2dVertex
 10
0.0
 20
-1.859999999999999
 30
0.0
  0
SEQEND
  5
1137B
330
FEFE
100
AcDbEntity
  8
Pel_Clad
  0
POLYLINE
  5
FF20
330
FEFD
100
AcDbEntity
  8
Pel_Clad
100
AcDb2dPolyline
 66
     1
 10
0.0
 20
0.0
 30
0.0
 70
     1
  0
VERTEX
  5
1137D
330
FF20
100
AcDbEntity
  8
Pel_Clad
100
AcDbVertex
100
AcDb2dVertex
 10
0.2614120514209013
 20
-1.546369935673178
 30
0.0
 42
0.4142135623730951
  0
VERTEX
  5
1137E
330
FF20
100
AcDbEntity
  8
Pel_Clad
100
AcDbVertex
100
AcDb2dVertex
 10
0.2454120514212015
 20
-1.562369935673277
 30
0.0
 42
0.2064040259345294
  0
VERTEX
  5
1137F
330
FF20
100
AcDbEntity
  8
Pel_Clad
100
AcDbVertex
100
AcDb2dVertex
 10
0.2504286421608022
 20
-1.574004570219477
 30
0.0
  0
VERTEX
  5
11380
330
FF20
100
AcDbEntity
  8
Pel_Clad
100
AcDbVertex
100
AcDb2dVertex
 10
0.344033342597001
 20
-1.662369935675707
 30
0.0
  0
VERTEX
  5
11381
330
FF20
100
AcDbEntity
  8
Pel_Clad
100
AcDbVertex
100
AcDb2dVertex
 10
0.344033342597001
 20
-1.626252245360477
 30
0.0
  0
VERTEX
  5
11382
330
FF20
100
AcDbEntity
  8
Pel_Clad
100
AcDbVertex
100
AcDb2dVertex
 10
0.3440333425961022
 20
-1.624369935674076
 30
0.0
 42
-0.4142135623730951
  0
VERTEX
  5
11383
330
FF20
100
AcDbEntity
  8
Pel_Clad
100
AcDbVertex
100
AcDb2dVertex
 10
0.3600333425966014
 20
-1.608369935673577
 30
0.0
  0
VERTEX
  5
11384
330
FF20
100
AcDbEntity
  8
Pel_Clad
100
AcDbVertex
100
AcDb2dVertex
 10
0.4220000000005016
 20
-1.608369935673577
 30
0.0
 42
0.4142135623730951
  0
VERTEX
  5
11385
330
FF20
100
AcDbEntity
  8
Pel_Clad
100
AcDbVertex
100
AcDb2dVertex
 10
0.5
 20
-1.530369935673176
 30
0.0
  0
VERTEX
  5
11386
330
FF20
100
AcDbEntity
  8
Pel_Clad
100
AcDbVertex
100
AcDb2dVertex
 10
0.5
 20
-0.2168153424378776
 30
0.0
 42
0.4142135623730951
  0
VERTEX
  5
11387
330
FF20
100
AcDbEntity
  8
Pel_Clad
100
AcDbVertex
100
AcDb2dVertex
 10
0.4220000000005016
 20
-0.1388153424383773
 30
0.0
  0
VERTEX
  5
11388
330
FF20
100
AcDbEntity
  8
Pel_Clad
100
AcDbVertex
100
AcDb2dVertex
 10
0.3600333425966014
 20
-0.1388153424368781
 30
0.0
 42
-0.4142135623730951
  0
VERTEX
  5
11389
330
FF20
100
AcDbEntity
  8
Pel_Clad
100
AcDbVertex
100
AcDb2dVertex
 10
0.344033342597001
 20
-0.1228153424368763
 30
0.0
  0
VERTEX
  5
1138A
330
FF20
100
AcDbEntity
  8
Pel_Clad
100
AcDbVertex
100
AcDb2dVertex
 10
0.344033342597001
 20
-0.0845760459918772
 30
0.0
  0
VERTEX
  5
1138B
330
FF20
100
AcDbEntity
  8
Pel_Clad
100
AcDbVertex
100
AcDb2dVertex
 10
0.2504129461449018
 20
-0.1731955454038765
 30
0.0
 42
0.206052188364104
  0
VERTEX
  5
1138C
330
FF20
100
AcDbEntity
  8
Pel_Clad
100
AcDbVertex
100
AcDb2dVertex
 10
0.2454120514206792
 20
-0.1848153424388776
 30
0.0
 42
0.4142135624060439
  0
VERTEX
  5
1138D
330
FF20
100
AcDbEntity
  8
Pel_Clad
100
AcDbVertex
100
AcDb2dVertex
 10
0.2614120514227025
 20
-0.2008153424385775
 30
0.0
  0
VERTEX
  5
1138E
330
FF20
100
AcDbEntity
  8
Pel_Clad
100
AcDbVertex
100
AcDb2dVertex
 10
0.4220000000005016
 20
-0.2008153424388777
 30
0.0
 42
-0.4142135623730951
  0
VERTEX
  5
1138F
330
FF20
100
AcDbEntity
  8
Pel_Clad
100
AcDbVertex
100
AcDb2dVertex
 10
0.4380000000001019
 20
-0.2168153424378776
 30
0.0
  0
VERTEX
  5
11390
330
FF20
100
AcDbEntity
  8
Pel_Clad
100
AcDbVertex
100
AcDb2dVertex
 10
0.4380000000001019
 20
-1.530369935673176
 30
0.0
 42
-0.4142135623730951
  0
VERTEX
  5
11391
330
FF20
100
AcDbEntity
  8
Pel_Clad
100
AcDbVertex
100
AcDb2dVertex
 10
0.4220000000005016
 20
-1.546369935673176
 30
0.0
  0
SEQEND
  5
11392
330
FF20
100
AcDbEntity
  8
Pel_Clad
  0
ENDBLK
  5
FF38
330
FEFD
100
AcDbEntity
  8
0
 62
     2
100
AcDbBlockEnd
  0
BLOCK
  5
FF7A
330
FF3B
100
AcDbEntity
  8
0
 62
     2
100
AcDbBlockBegin
  2
7SBX+Clip
 70
     0
 10
0.0
 20
0.0
 30
0.0
  3
7SBX+Clip
  1

  0
POLYLINE
  5
FF3C
330
FF3B
100
AcDbEntity
  8
Pel_Clad
100
AcDb2dPolyline
 66
     1
 10
0.0
 20
0.0
 30
0.0
 70
     1
  0
VERTEX
  5
113D5
330
FF3C
100
AcDbEntity
  8
Pel_Clad
100
AcDbVertex
100
AcDb2dVertex
 10
-0.1261160927533638
 20
-1.666999999986728
 30
0.0
  0
VERTEX
  5
113D6
330
FF3C
100
AcDbEntity
  8
Pel_Clad
100
AcDbVertex
100
AcDb2dVertex
 10
-0.125
 20
-1.666999999986728
 30
0.0
 42
0.4142135623730951
  0
VERTEX
  5
113D7
330
FF3C
100
AcDbEntity
  8
Pel_Clad
100
AcDbVertex
100
AcDb2dVertex
 10
-0.110000000015134
 20
-1.652000000001862
 30
0.0
  0
VERTEX
  5
113D8
330
FF3C
100
AcDbEntity
  8
Pel_Clad
100
AcDbVertex
100
AcDb2dVertex
 10
-0.110000000015134
 20
-1.63200000001234
 30
0.0
 42
-0.624398701105834
  0
VERTEX
  5
113D9
330
FF3C
100
AcDbEntity
  8
Pel_Clad
100
AcDbVertex
100
AcDb2dVertex
 10
-0.0857810935412999
 20
-1.620167343353386
 30
0.0
  0
VERTEX
  5
113DA
330
FF3C
100
AcDbEntity
  8
Pel_Clad
100
AcDbVertex
100
AcDb2dVertex
 10
0.0
 20
-1.687000000005355
 30
0.0
  0
VERTEX
  5
113DB
330
FF3C
100
AcDbEntity
  8
Pel_Clad
100
AcDbVertex
100
AcDb2dVertex
 10
0.0
 20
-1.692106781178154
 30
0.0
 42
-0.4142135623730951
  0
VERTEX
  5
113DC
330
FF3C
100
AcDbEntity
  8
Pel_Clad
100
AcDbVertex
100
AcDb2dVertex
 10
-0.0150000000139699
 20
-1.707106781192123
 30
0.0
  0
VERTEX
  5
113DD
330
FF3C
100
AcDbEntity
  8
Pel_Clad
100
AcDbVertex
100
AcDb2dVertex
 10
-1.485000000015133
 20
-1.707106781192123
 30
0.0
 42
-0.4142135623731991
  0
VERTEX
  5
113DE
330
FF3C
100
AcDbEntity
  8
Pel_Clad
100
AcDbVertex
100
AcDb2dVertex
 10
-1.5
 20
-1.692106781178154
 30
0.0
  0
VERTEX
  5
113DF
330
FF3C
100
AcDbEntity
  8
Pel_Clad
100
AcDbVertex
100
AcDb2dVertex
 10
-1.5
 20
-1.457106781192123
 30
0.0
  0
VERTEX
  5
113E0
330
FF3C
100
AcDbEntity
  8
Pel_Clad
100
AcDbVertex
100
AcDb2dVertex
 10
-1.735000000015133
 20
-1.457106781192123
 30
0.0
 42
-0.4142135623731991
  0
VERTEX
  5
113E1
330
FF3C
100
AcDbEntity
  8
Pel_Clad
100
AcDbVertex
100
AcDb2dVertex
 10
-1.75
 20
-1.442106781178154
 30
0.0
  0
VERTEX
  5
113E2
330
FF3C
100
AcDbEntity
  8
Pel_Clad
100
AcDbVertex
100
AcDb2dVertex
 10
-1.75
 20
-1.207106781192123
 30
0.0
 42
0.3178372451957813
  0
VERTEX
  5
113E3
330
FF3C
100
AcDbEntity
  8
Pel_Clad
100
AcDbVertex
100
AcDb2dVertex
 10
-1.916666666686069
 20
-0.9714045207947492
 30
0.0
  0
VERTEX
  5
113E4
330
FF3C
100
AcDbEntity
  8
Pel_Clad
100
AcDbVertex
100
AcDb2dVertex
 10
-1.916666670003905
 20
-0.9714045196014922
 30
0.0
 42
-0.8430389940804587
  0
VERTEX
  5
113E5
330
FF3C
100
AcDbEntity
  8
Pel_Clad
100
AcDbVertex
100
AcDb2dVertex
 10
-1.75
 20
0.0
 30
0.0
  0
VERTEX
  5
113E6
330
FF3C
100
AcDbEntity
  8
Pel_Clad
100
AcDbVertex
100
AcDb2dVertex
 10
-0.0150000000139699
 20
0.0
 30
0.0
 42
-0.4142135623730951
  0
VERTEX
  5
113E7
330
FF3C
100
AcDbEntity
  8
Pel_Clad
100
AcDbVertex
100
AcDb2dVertex
 10
0.0
 20
-0.014999999984866
 30
0.0
  0
VERTEX
  5
113E8
330
FF3C
100
AcDbEntity
  8
Pel_Clad
100
AcDbVertex
100
AcDb2dVertex
 10
0.0
 20
-0.0539521332539152
 30
0.0
 42
-0.2513185152973265
  0
VERTEX
  5
113E9
330
FF3C
100
AcDbEntity
  8
Pel_Clad
100
AcDbVertex
100
AcDb2dVertex
 10
-0.0067055151157547
 20
-0.0664501939318143
 30
0.0
  0
VERTEX
  5
113EA
330
FF3C
100
AcDbEntity
  8
Pel_Clad
100
AcDbVertex
100
AcDb2dVertex
 10
-0.1017055151169188
 20
-0.1294980606762692
 30
0.0
 42
-0.5983140787489459
  0
VERTEX
  5
113EB
330
FF3C
100
AcDbEntity
  8
Pel_Clad
100
AcDbVertex
100
AcDb2dVertex
 10
-0.125
 20
-0.1169999999983702
 30
0.0
  0
VERTEX
  5
113EC
330
FF3C
100
AcDbEntity
  8
Pel_Clad
100
AcDbVertex
100
AcDb2dVertex
 10
-0.125
 20
-0.0769999999902211
 30
0.0
 42
0.4142135623730951
  0
VERTEX
  5
113ED
330
FF3C
100
AcDbEntity
  8
Pel_Clad
100
AcDbVertex
100
AcDb2dVertex
 10
-0.1400000000139698
 20
-0.0620000000053551
 30
0.0
  0
VERTEX
  5
113EE
330
FF3C
100
AcDbEntity
  8
Pel_Clad
100
AcDbVertex
100
AcDb2dVertex
 10
-1.75
 20
-0.0620000000053551
 30
0.0
 42
0.8430389940804516
  0
VERTEX
  5
113EF
330
FF3C
100
AcDbEntity
  8
Pel_Clad
100
AcDbVertex
100
AcDb2dVertex
 10
-1.896000002918299
 20
-0.9129503591684624
 30
0.0
  0
VERTEX
  5
113F0
330
FF3C
100
AcDbEntity
  8
Pel_Clad
100
AcDbVertex
100
AcDb2dVertex
 10
-1.896000000007916
 20
-0.9129503602162003
 30
0.0
 42
-0.3178372451957837
  0
VERTEX
  5
113F1
330
FF3C
100
AcDbEntity
  8
Pel_Clad
100
AcDbVertex
100
AcDb2dVertex
 10
-1.688000000023748
 20
-1.207106781192123
 30
0.0
  0
VERTEX
  5
113F2
330
FF3C
100
AcDbEntity
  8
Pel_Clad
100
AcDbVertex
100
AcDb2dVertex
 10
-1.688000000023748
 20
-1.380106781172798
 30
0.0
 42
0.4142135623730951
  0
VERTEX
  5
113F3
330
FF3C
100
AcDbEntity
  8
Pel_Clad
100
AcDbVertex
100
AcDb2dVertex
 10
-1.673000000009778
 20
-1.395106781186768
 30
0.0
  0
VERTEX
  5
113F4
330
FF3C
100
AcDbEntity
  8
Pel_Clad
100
AcDbVertex
100
AcDb2dVertex
 10
-1.453000000008614
 20
-1.395106781186768
 30
0.0
 42
-0.4142135623730605
  0
VERTEX
  5
113F5
330
FF3C
100
AcDbEntity
  8
Pel_Clad
100
AcDbVertex
100
AcDb2dVertex
 10
-1.438000000023748
 20
-1.410106781171634
 30
0.0
  0
VERTEX
  5
113F6
330
FF3C
100
AcDbEntity
  8
Pel_Clad
100
AcDbVertex
100
AcDb2dVertex
 10
-1.438000000023748
 20
-1.630106781172798
 30
0.0
 42
0.4142135623730951
  0
VERTEX
  5
113F7
330
FF3C
100
AcDbEntity
  8
Pel_Clad
100
AcDbVertex
100
AcDb2dVertex
 10
-1.423000000009778
 20
-1.645106781186768
 30
0.0
  0
VERTEX
  5
113F8
330
FF3C
100
AcDbEntity
  8
Pel_Clad
100
AcDbVertex
100
AcDb2dVertex
 10
-0.1549999999988358
 20
-1.645106781186768
 30
0.0
 42
-0.3361597093518702
  0
VERTEX
  5
113F9
330
FF3C
100
AcDbEntity
  8
Pel_Clad
100
AcDbVertex
100
AcDb2dVertex
 10
-0.1405580463760998
 20
-1.656053390586748
 30
0.0
 42
0.3361597093519142
  0
SEQEND
  5
113FA
330
FF3C
100
AcDbEntity
  8
Pel_Clad
  0
POLYLINE
  5
FF63
330
FF3B
100
AcDbEntity
  8
Pel_Clad
100
AcDb2dPolyline
 66
     1
 10
0.0
 20
0.0
 30
0.0
 70
     1
  0
VERTEX
  5
113FC
330
FF63
100
AcDbEntity
  8
Pel_Clad
100
AcDbVertex
100
AcDb2dVertex
 10
0.2614120514209013
 20
-1.546369935673178
 30
0.0
 42
0.4142135623730951
  0
VERTEX
  5
113FD
330
FF63
100
AcDbEntity
  8
Pel_Clad
100
AcDbVertex
100
AcDb2dVertex
 10
0.2454120514212015
 20
-1.562369935673277
 30
0.0
 42
0.2064040259345294
  0
VERTEX
  5
113FE
330
FF63
100
AcDbEntity
  8
Pel_Clad
100
AcDbVertex
100
AcDb2dVertex
 10
0.2504286421608022
 20
-1.574004570219477
 30
0.0
  0
VERTEX
  5
113FF
330
FF63
100
AcDbEntity
  8
Pel_Clad
100
AcDbVertex
100
AcDb2dVertex
 10
0.344033342597001
 20
-1.662369935675707
 30
0.0
  0
VERTEX
  5
11400
330
FF63
100
AcDbEntity
  8
Pel_Clad
100
AcDbVertex
100
AcDb2dVertex
 10
0.344033342597001
 20
-1.626252245360477
 30
0.0
  0
VERTEX
  5
11401
330
FF63
100
AcDbEntity
  8
Pel_Clad
100
AcDbVertex
100
AcDb2dVertex
 10
0.3440333425961022
 20
-1.624369935674076
 30
0.0
 42
-0.4142135623730951
  0
VERTEX
  5
11402
330
FF63
100
AcDbEntity
  8
Pel_Clad
100
AcDbVertex
100
AcDb2dVertex
 10
0.3600333425966014
 20
-1.608369935673577
 30
0.0
  0
VERTEX
  5
11403
330
FF63
100
AcDbEntity
  8
Pel_Clad
100
AcDbVertex
100
AcDb2dVertex
 10
0.4220000000005016
 20
-1.608369935673577
 30
0.0
 42
0.4142135623730951
  0
VERTEX
  5
11404
330
FF63
100
AcDbEntity
  8
Pel_Clad
100
AcDbVertex
100
AcDb2dVertex
 10
0.5
 20
-1.530369935673176
 30
0.0
  0
VERTEX
  5
11405
330
FF63
100
AcDbEntity
  8
Pel_Clad
100
AcDbVertex
100
AcDb2dVertex
 10
0.5
 20
-0.2168153424378776
 30
0.0
 42
0.4142135623730951
  0
VERTEX
  5
11406
330
FF63
100
AcDbEntity
  8
Pel_Clad
100
AcDbVertex
100
AcDb2dVertex
 10
0.4220000000005016
 20
-0.1388153424383773
 30
0.0
  0
VERTEX
  5
11407
330
FF63
100
AcDbEntity
  8
Pel_Clad
100
AcDbVertex
100
AcDb2dVertex
 10
0.3600333425966014
 20
-0.1388153424368781
 30
0.0
 42
-0.4142135623730951
  0
VERTEX
  5
11408
330
FF63
100
AcDbEntity
  8
Pel_Clad
100
AcDbVertex
100
AcDb2dVertex
 10
0.344033342597001
 20
-0.1228153424368763
 30
0.0
  0
VERTEX
  5
11409
330
FF63
100
AcDbEntity
  8
Pel_Clad
100
AcDbVertex
100
AcDb2dVertex
 10
0.344033342597001
 20
-0.0845760459918772
 30
0.0
  0
VERTEX
  5
1140A
330
FF63
100
AcDbEntity
  8
Pel_Clad
100
AcDbVertex
100
AcDb2dVertex
 10
0.2504129461449018
 20
-0.1731955454038765
 30
0.0
 42
0.206052188364104
  0
VERTEX
  5
1140B
330
FF63
100
AcDbEntity
  8
Pel_Clad
100
AcDbVertex
100
AcDb2dVertex
 10
0.2454120514206792
 20
-0.1848153424388776
 30
0.0
 42
0.4142135624060439
  0
VERTEX
  5
1140C
330
FF63
100
AcDbEntity
  8
Pel_Clad
100
AcDbVertex
100
AcDb2dVertex
 10
0.2614120514227025
 20
-0.2008153424385775
 30
0.0
  0
VERTEX
  5
1140D
330
FF63
100
AcDbEntity
  8
Pel_Clad
100
AcDbVertex
100
AcDb2dVertex
 10
0.4220000000005016
 20
-0.2008153424388777
 30
0.0
 42
-0.4142135623730951
  0
VERTEX
  5
1140E
330
FF63
100
AcDbEntity
  8
Pel_Clad
100
AcDbVertex
100
AcDb2dVertex
 10
0.4380000000001019
 20
-0.2168153424378776
 30
0.0
  0
VERTEX
  5
1140F
330
FF63
100
AcDbEntity
  8
Pel_Clad
100
AcDbVertex
100
AcDb2dVertex
 10
0.4380000000001019
 20
-1.530369935673176
 30
0.0
 42
-0.4142135623730951
  0
VERTEX
  5
11410
330
FF63
100
AcDbEntity
  8
Pel_Clad
100
AcDbVertex
100
AcDb2dVertex
 10
0.4220000000005016
 20
-1.546369935673176
 30
0.0
  0
SEQEND
  5
11411
330
FF63
100
AcDbEntity
  8
Pel_Clad
  0
ENDBLK
  5
FF7B
330
FF3B
100
AcDbEntity
  8
0
 62
     2
100
AcDbBlockEnd
  0
BLOCK
  5
10129
330
1011E
100
AcDbEntity
  8
0
 62
     2
100
AcDbBlockBegin
  2
*D37
 70
     1
 10
0.0
 20
0.0
 30
0.0
  3
*D37
  1

  0
LINE
  5
1185A
330
1011E
100
AcDbEntity
  8
0
100
AcDbLine
 10
5.374999999999999
 20
9.87799976329993
 30
0.0
 11
5.374999999999999
 21
11.375
 31
0.0
  0
LINE
  5
1185B
330
1011E
100
AcDbEntity
  8
0
100
AcDbLine
 10
6.998079308964429
 20
10.73836998122627
 30
0.0
 11
6.998079308964429
 21
11.375
 31
0.0
  0
LINE
  5
1185C
330
1011E
100
AcDbEntity
  8
0
100
AcDbLine
 10
4.937499999999999
 20
11.25
 30
0.0
 11
4.499999999999999
 21
11.25
 31
0.0
  0
LINE
  5
1185D
330
1011E
100
AcDbEntity
  8
0
100
AcDbLine
 10
7.435579308964429
 20
11.25
 30
0.0
 11
7.873079308964429
 21
11.25
 31
0.0
  0
MTEXT
  5
1185E
330
1011E
100
AcDbEntity
  8
0
 62
   255
100
AcDbMText
 10
6.186539654482214
 20
11.25
 30
0.0
 40
0.375
 41
0.0
 71
     5
 72
     1
  1
\A1;1 5/8"\P [41]
  7
Arial
 73
     1
 44
1.0
1001
ACAD
1000
MTEXTBEGIN
1070
    73
1070
     1
1070
    44
1040
1.0
1070
    74
1070
     0
1000
MTEXTEND
  0
SOLID
  5
1185F
330
1011E
100
AcDbEntity
  8
0
100
AcDbTrace
 10
4.937499999999999
 20
11.32291666666666
 30
0.0
 11
4.937499999999999
 21
11.17708333333333
 31
0.0
 12
5.374999999999999
 22
11.25
 32
0.0
 13
5.374999999999999
 23
11.25
 33
0.0
  0
SOLID
  5
11860
330
1011E
100
AcDbEntity
  8
0
100
AcDbTrace
 10
7.435579308964429
 20
11.32291666666666
 30
0.0
 11
7.435579308964429
 21
11.17708333333333
 31
0.0
 12
6.998079308964429
 22
11.25
 32
0.0
 13
6.998079308964429
 23
11.25
 33
0.0
  0
POINT
  5
11861
330
1011E
100
AcDbEntity
  8
Defpoints
 62
     0
100
AcDbPoint
 10
5.374999999999999
 20
9.37799976329993
 30
0.0
  0
POINT
  5
11862
330
1011E
100
AcDbEntity
  8
Defpoints
 62
     0
100
AcDbPoint
 10
6.998079308964429
 20
10.23836998122627
 30
0.0
  0
POINT
  5
11863
330
1011E
100
AcDbEntity
  8
Defpoints
 62
     0
100
AcDbPoint
 10
6.998079308964429
 20
11.25
 30
0.0
  0
ENDBLK
  5
1012A
330
1011E
100
AcDbEntity
  8
0
 62
     2
100
AcDbBlockEnd
  0
BLOCK
  5
1014E
330
10142
100
AcDbEntity
  8
0
 62
     2
100
AcDbBlockBegin
  2
*D38
 70
     1
 10
0.0
 20
0.0
 30
0.0
  3
*D38
  1

  0
LINE
  5
11846
330
10142
100
AcDbEntity
  8
0
100
AcDbLine
 10
10.375
 20
10.75
 30
0.0
 11
10.375
 21
11.375
 31
0.0
  0
LINE
  5
11847
330
10142
100
AcDbEntity
  8
0
100
AcDbLine
 10
11.0
 20
10.71265531106861
 30
0.0
 11
11.0
 21
11.375
 31
0.0
  0
LINE
  5
11848
330
10142
100
AcDbEntity
  8
0
100
AcDbLine
 10
9.9375
 20
11.25
 30
0.0
 11
9.5
 21
11.25
 31
0.0
  0
LINE
  5
11849
330
10142
100
AcDbEntity
  8
0
100
AcDbLine
 10
11.4375
 20
11.25
 30
0.0
 11
11.875
 21
11.25
 31
0.0
  0
MTEXT
  5
1184A
330
10142
100
AcDbEntity
  8
0
 62
   255
100
AcDbMText
 10
12.0
 20
11.25
 30
0.0
 40
0.375
 41
0.0
 71
     5
 72
     1
  1
\A1;5/8"\P [16]
  7
Arial
 73
     1
 44
1.0
1001
ACAD
1000
MTEXTBEGIN
1070
    73
1070
     1
1070
    44
1040
1.0
1070
    74
1070
     0
1000
MTEXTEND
  0
SOLID
  5
1184B
330
10142
100
AcDbEntity
  8
0
100
AcDbTrace
 10
9.9375
 20
11.32291666666666
 30
0.0
 11
9.9375
 21
11.17708333333333
 31
0.0
 12
10.375
 22
11.25
 32
0.0
 13
10.375
 23
11.25
 33
0.0
  0
SOLID
  5
1184C
330
10142
100
AcDbEntity
  8
0
100
AcDbTrace
 10
11.4375
 20
11.32291666666666
 30
0.0
 11
11.4375
 21
11.17708333333333
 31
0.0
 12
11.0
 22
11.25
 32
0.0
 13
11.0
 23
11.25
 33
0.0
  0
POINT
  5
1184D
330
10142
100
AcDbEntity
  8
Defpoints
 62
     0
100
AcDbPoint
 10
10.375
 20
10.25
 30
0.0
  0
POINT
  5
1184E
330
10142
100
AcDbEntity
  8
Defpoints
 62
     0
100
AcDbPoint
 10
11.0
 20
10.21265531106861
 30
0.0
  0
POINT
  5
1184F
330
10142
100
AcDbEntity
  8
Defpoints
 62
     0
100
AcDbPoint
 10
11.0
 20
11.25
 30
0.0
  0
ENDBLK
  5
1014F
330
10142
100
AcDbEntity
  8
0
 62
     2
100
AcDbBlockEnd
  0
BLOCK
  5
1017F
330
10173
100
AcDbEntity
  8
0
 62
     2
100
AcDbBlockBegin
  2
*D39
 70
     1
 10
0.0
 20
0.0
 30
0.0
  3
*D39
  1

  0
LINE
  5
11832
330
10173
100
AcDbEntity
  8
0
100
AcDbLine
 10
15.375
 20
10.75
 30
0.0
 11
15.375
 21
11.37499999999999
 31
0.0
  0
LINE
  5
11833
330
10173
100
AcDbEntity
  8
0
100
AcDbLine
 10
16.27943014926048
 20
10.75
 30
0.0
 11
16.27943014926048
 21
11.37499999999999
 31
0.0
  0
LINE
  5
11834
330
10173
100
AcDbEntity
  8
0
100
AcDbLine
 10
14.9375
 20
11.24999999999999
 30
0.0
 11
14.5
 21
11.24999999999999
 31
0.0
  0
LINE
  5
11835
330
10173
100
AcDbEntity
  8
0
100
AcDbLine
 10
16.71693014926048
 20
11.24999999999999
 30
0.0
 11
17.15443014926048
 21
11.24999999999999
 31
0.0
  0
MTEXT
  5
11836
330
10173
100
AcDbEntity
  8
0
 62
   255
100
AcDbMText
 10
15.82721507463024
 20
11.24999999999999
 30
0.0
 40
0.375
 41
0.0
 71
     5
 72
     1
  1
\A1;7/8"\P [23]
  7
Arial
 73
     1
 44
1.0
1001
ACAD
1000
MTEXTBEGIN
1070
    73
1070
     1
1070
    44
1040
1.0
1070
    74
1070
     0
1000
MTEXTEND
  0
SOLID
  5
11837
330
10173
100
AcDbEntity
  8
0
100
AcDbTrace
 10
14.9375
 20
11.32291666666666
 30
0.0
 11
14.9375
 21
11.17708333333332
 31
0.0
 12
15.375
 22
11.24999999999999
 32
0.0
 13
15.375
 23
11.24999999999999
 33
0.0
  0
SOLID
  5
11838
330
10173
100
AcDbEntity
  8
0
100
AcDbTrace
 10
16.71693014926048
 20
11.32291666666666
 30
0.0
 11
16.71693014926048
 21
11.17708333333332
 31
0.0
 12
16.27943014926048
 22
11.24999999999999
 32
0.0
 13
16.27943014926048
 23
11.24999999999999
 33
0.0
  0
POINT
  5
11839
330
10173
100
AcDbEntity
  8
Defpoints
 62
     0
100
AcDbPoint
 10
15.375
 20
10.25
 30
0.0
  0
POINT
  5
1183A
330
10173
100
AcDbEntity
  8
Defpoints
 62
     0
100
AcDbPoint
 10
16.27943014926048
 20
10.25
 30
0.0
  0
POINT
  5
1183B
330
10173
100
AcDbEntity
  8
Defpoints
 62
     0
100
AcDbPoint
 10
16.27943014926048
 20
11.24999999999999
 30
0.0
  0
ENDBLK
  5
10180
330
10173
100
AcDbEntity
  8
0
 62
     2
100
AcDbBlockEnd
  0
BLOCK
  5
10207
330
101FC
100
AcDbEntity
  8
0
 62
     2
100
AcDbBlockBegin
  2
*D40
 70
     1
 10
0.0
 20
0.0
 30
0.0
  3
*D40
  1

  0
LINE
  5
1181F
330
101FC
100
AcDbEntity
  8
0
100
AcDbLine
 10
20.3952
 20
10.16776886041044
 30
0.0
 11
20.3952
 21
11.375
 31
0.0
  0
LINE
  5
11820
330
101FC
100
AcDbEntity
  8
0
100
AcDbLine
 10
21.81782199386964
 20
10.6957496459872
 30
0.0
 11
21.81782199386964
 21
11.375
 31
0.0
  0
LINE
  5
11821
330
101FC
100
AcDbEntity
  8
0
100
AcDbLine
 10
20.8327
 20
11.25
 30
0.0
 11
21.38032199386964
 21
11.25
 31
0.0
  0
MTEXT
  5
11822
330
101FC
100
AcDbEntity
  8
0
 62
   255
100
AcDbMText
 10
21.09408673042703
 20
11.25
 30
0.0
 40
0.375
 41
0.0
 71
     5
 72
     1
  1
\A1;1 7/16"\P [36]
  7
Arial
 73
     1
 44
1.0
1001
ACAD
1000
MTEXTBEGIN
1070
    73
1070
     1
1070
    44
1040
1.0
1070
    74
1070
     0
1000
MTEXTEND
  0
SOLID
  5
11823
330
101FC
100
AcDbEntity
  8
0
100
AcDbTrace
 10
20.8327
 20
11.32291666666666
 30
0.0
 11
20.8327
 21
11.17708333333333
 31
0.0
 12
20.3952
 22
11.25
 32
0.0
 13
20.3952
 23
11.25
 33
0.0
  0
SOLID
  5
11824
330
101FC
100
AcDbEntity
  8
0
100
AcDbTrace
 10
21.38032199386964
 20
11.32291666666666
 30
0.0
 11
21.38032199386964
 21
11.17708333333333
 31
0.0
 12
21.81782199386964
 22
11.25
 32
0.0
 13
21.81782199386964
 23
11.25
 33
0.0
  0
POINT
  5
11825
330
101FC
100
AcDbEntity
  8
Defpoints
 62
     0
100
AcDbPoint
 10
20.3952
 20
9.667768860410438
 30
0.0
  0
POINT
  5
11826
330
101FC
100
AcDbEntity
  8
Defpoints
 62
     0
100
AcDbPoint
 10
21.81782199386964
 20
10.1957496459872
 30
0.0
  0
POINT
  5
11827
330
101FC
100
AcDbEntity
  8
Defpoints
 62
     0
100
AcDbPoint
 10
21.81782199386964
 20
11.25
 30
0.0
  0
ENDBLK
  5
10208
330
101FC
100
AcDbEntity
  8
0
 62
     2
100
AcDbBlockEnd
  0
BLOCK
  5
10529
330
1051E
100
AcDbEntity
  8
0
 62
     2
100
AcDbBlockBegin
  2
*D41
 70
     1
 10
0.0
 20
0.0
 30
0.0
  3
*D41
  1

  0
LINE
  5
1180C
330
1051E
100
AcDbEntity
  8
0
100
AcDbLine
 10
25.375
 20
10.75
 30
0.0
 11
25.375
 21
11.375
 31
0.0
  0
LINE
  5
1180D
330
1051E
100
AcDbEntity
  8
0
100
AcDbLine
 10
27.62499999999958
 20
10.71552393338061
 30
0.0
 11
27.62499999999958
 21
11.375
 31
0.0
  0
LINE
  5
1180E
330
1051E
100
AcDbEntity
  8
0
100
AcDbLine
 10
25.81250000000001
 20
11.25
 30
0.0
 11
27.18749999999958
 21
11.25
 31
0.0
  0
SOLID
  5
1180F
330
1051E
100
AcDbEntity
  8
0
100
AcDbTrace
 10
25.81250000000001
 20
11.32291666666666
 30
0.0
 11
25.81250000000001
 21
11.17708333333333
 31
0.0
 12
25.375
 22
11.25
 32
0.0
 13
25.375
 23
11.25
 33
0.0
  0
SOLID
  5
11810
330
1051E
100
AcDbEntity
  8
0
100
AcDbTrace
 10
27.18749999999958
 20
11.32291666666666
 30
0.0
 11
27.18749999999958
 21
11.17708333333333
 31
0.0
 12
27.62499999999958
 22
11.25
 32
0.0
 13
27.62499999999958
 23
11.25
 33
0.0
  0
MTEXT
  5
11811
330
1051E
100
AcDbEntity
  8
0
 62
   255
100
AcDbMText
 10
26.49999999999979
 20
12.17734481582537
 30
0.0
 40
0.375
 41
0.0
 71
     5
 72
     1
  1
\A1;2 1/4"
  7
Arial
 73
     1
 44
1.0
1001
ACAD
1000
MTEXTBEGIN
1070
    73
1070
     1
1070
    44
1040
1.0
1070
    74
1070
     0
1000
MTEXTEND
  0
MTEXT
  5
11812
330
1051E
100
AcDbEntity
  8
0
 62
   255
100
AcDbMText
 10
26.49999999999979
 20
11.54389495225102
 30
0.0
 40
0.375
 41
0.0
 71
     5
 72
     1
  1
\A1;[57]
  7
Arial
 73
     1
 44
1.0
1001
ACAD
1000
MTEXTBEGIN
1070
    73
1070
     1
1070
    44
1040
1.0
1070
    74
1070
     0
1000
MTEXTEND
  0
POINT
  5
11813
330
1051E
100
AcDbEntity
  8
Defpoints
 62
     0
100
AcDbPoint
 10
25.375
 20
10.25
 30
0.0
  0
POINT
  5
11814
330
1051E
100
AcDbEntity
  8
Defpoints
 62
     0
100
AcDbPoint
 10
27.62499999999958
 20
10.21552393338061
 30
0.0
  0
POINT
  5
11815
330
1051E
100
AcDbEntity
  8
Defpoints
 62
     0
100
AcDbPoint
 10
27.62499999999958
 20
11.25
 30
0.0
  0
ENDBLK
  5
1052A
330
1051E
100
AcDbEntity
  8
0
 62
     2
100
AcDbBlockEnd
  0
BLOCK
  5
10543
330
10538
100
AcDbEntity
  8
0
 62
     2
100
AcDbBlockBegin
  2
*D42
 70
     1
 10
0.0
 20
0.0
 30
0.0
  3
*D42
  1

  0
LINE
  5
117F8
330
10538
100
AcDbEntity
  8
0
100
AcDbLine
 10
5.436996310841236
 20
10.24999999999138
 30
0.0
 11
4.25
 21
10.24999999999138
 31
0.0
  0
LINE
  5
117F9
330
10538
100
AcDbEntity
  8
0
100
AcDbLine
 10
5.748996347110236
 20
8.190000057224914
 30
0.0
 11
4.25
 21
8.190000057224914
 31
0.0
  0
LINE
  5
117FA
330
10538
100
AcDbEntity
  8
0
100
AcDbLine
 10
4.375
 20
10.68749999999138
 30
0.0
 11
4.375
 21
11.12499999999138
 31
0.0
  0
LINE
  5
117FB
330
10538
100
AcDbEntity
  8
0
100
AcDbLine
 10
4.375
 20
7.752500057224914
 30
0.0
 11
4.375
 21
7.315000057224914
 31
0.0
  0
MTEXT
  5
117FC
330
10538
100
AcDbEntity
  8
0
 62
   255
100
AcDbMText
 10
4.375
 20
9.220000028608149
 30
0.0
 40
0.375
 41
0.0
 71
     5
 72
     1
  1
\A1;2 1/16"\P [52]
  7
Arial
 11
0.0000000000000001
 21
1.0
 31
0.0
 73
     1
 44
1.0
1001
ACAD
1000
MTEXTBEGIN
1070
    73
1070
     1
1070
    44
1040
1.0
1070
    74
1070
     0
1000
MTEXTEND
  0
SOLID
  5
117FD
330
10538
100
AcDbEntity
  8
0
100
AcDbTrace
 10
4.302083333333333
 20
10.68749999999138
 30
0.0
 11
4.447916666666667
 21
10.68749999999138
 31
0.0
 12
4.375
 22
10.24999999999138
 32
0.0
 13
4.375
 23
10.24999999999138
 33
0.0
  0
SOLID
  5
117FE
330
10538
100
AcDbEntity
  8
0
100
AcDbTrace
 10
4.302083333333333
 20
7.752500057224914
 30
0.0
 11
4.447916666666666
 21
7.752500057224914
 31
0.0
 12
4.375
 22
8.190000057224914
 32
0.0
 13
4.375
 23
8.190000057224914
 33
0.0
  0
POINT
  5
117FF
330
10538
100
AcDbEntity
  8
Defpoints
 62
     0
100
AcDbPoint
 10
5.936996310841236
 20
10.24999999999138
 30
0.0
  0
POINT
  5
11800
330
10538
100
AcDbEntity
  8
Defpoints
 62
     0
100
AcDbPoint
 10
6.248996347110236
 20
8.190000057224914
 30
0.0
  0
POINT
  5
11801
330
10538
100
AcDbEntity
  8
Defpoints
 62
     0
100
AcDbPoint
 10
4.375
 20
8.190000057224914
 30
0.0
  0
ENDBLK
  5
10544
330
10538
100
AcDbEntity
  8
0
 62
     2
100
AcDbBlockEnd
  0
BLOCK
  5
10567
330
1055C
100
AcDbEntity
  8
0
 62
     2
100
AcDbBlockBegin
  2
*D43
 70
     1
 10
0.0
 20
0.0
 30
0.0
  3
*D43
  1

  0
LINE
  5
117E4
330
1055C
100
AcDbEntity
  8
0
100
AcDbLine
 10
10.3168933982822
 20
8.379393398282202
 30
0.0
 11
9.25
 21
8.379393398282202
 31
0.0
  0
LINE
  5
117E5
330
1055C
100
AcDbEntity
  8
0
100
AcDbLine
 10
9.875
 20
10.25
 30
0.0
 11
9.25
 21
10.25
 31
0.0
  0
LINE
  5
117E6
330
1055C
100
AcDbEntity
  8
0
100
AcDbLine
 10
9.375
 20
7.941893398282202
 30
0.0
 11
9.375
 21
7.504393398282202
 31
0.0
  0
LINE
  5
117E7
330
1055C
100
AcDbEntity
  8
0
100
AcDbLine
 10
9.375
 20
10.6875
 30
0.0
 11
9.375
 21
11.125
 31
0.0
  0
MTEXT
  5
117E8
330
1055C
100
AcDbEntity
  8
0
 62
   255
100
AcDbMText
 10
9.375
 20
9.314696699141101
 30
0.0
 40
0.375
 41
0.0
 71
     5
 72
     1
  1
\A1;1 7/8"\P [48]
  7
Arial
 11
0.0000000000000001
 21
1.0
 31
0.0
 73
     1
 44
1.0
1001
ACAD
1000
MTEXTBEGIN
1070
    73
1070
     1
1070
    44
1040
1.0
1070
    74
1070
     0
1000
MTEXTEND
  0
SOLID
  5
117E9
330
1055C
100
AcDbEntity
  8
0
100
AcDbTrace
 10
9.302083333333333
 20
7.941893398282202
 30
0.0
 11
9.447916666666666
 21
7.941893398282202
 31
0.0
 12
9.375
 22
8.379393398282202
 32
0.0
 13
9.375
 23
8.379393398282202
 33
0.0
  0
SOLID
  5
117EA
330
1055C
100
AcDbEntity
  8
0
100
AcDbTrace
 10
9.302083333333333
 20
10.6875
 30
0.0
 11
9.447916666666666
 21
10.6875
 31
0.0
 12
9.375
 22
10.25
 32
0.0
 13
9.375
 23
10.25
 33
0.0
  0
POINT
  5
117EB
330
1055C
100
AcDbEntity
  8
Defpoints
 62
     0
100
AcDbPoint
 10
10.8168933982822
 20
8.379393398282202
 30
0.0
  0
POINT
  5
117EC
330
1055C
100
AcDbEntity
  8
Defpoints
 62
     0
100
AcDbPoint
 10
10.375
 20
10.25
 30
0.0
  0
POINT
  5
117ED
330
1055C
100
AcDbEntity
  8
Defpoints
 62
     0
100
AcDbPoint
 10
9.375
 20
10.25
 30
0.0
  0
ENDBLK
  5
10568
330
1055C
100
AcDbEntity
  8
0
 62
     2
100
AcDbBlockEnd
  0
BLOCK
  5
1059F
330
10594
100
AcDbEntity
  8
0
 62
     2
100
AcDbBlockBegin
  2
*D44
 70
     1
 10
0.0
 20
0.0
 30
0.0
  3
*D44
  1

  0
LINE
  5
117D1
330
10594
100
AcDbEntity
  8
0
100
AcDbLine
 10
14.875
 20
10.25
 30
0.0
 11
14.25
 21
10.25
 31
0.0
  0
LINE
  5
117D2
330
10594
100
AcDbEntity
  8
0
100
AcDbLine
 10
15.578
 20
8.938
 30
0.0
 11
14.25
 21
8.938
 31
0.0
  0
LINE
  5
117D3
330
10594
100
AcDbEntity
  8
0
100
AcDbLine
 10
14.375
 20
9.8125
 30
0.0
 11
14.375
 21
9.3755
 31
0.0
  0
MTEXT
  5
117D4
330
10594
100
AcDbEntity
  8
0
 62
   255
100
AcDbMText
 10
14.375
 20
9.594000000000002
 30
0.0
 40
0.375
 41
0.0
 71
     5
 72
     1
  1
\A1;1 5/16"\P [33]
  7
Arial
 11
0.0000000000000001
 21
1.0
 31
0.0
 73
     1
 44
1.0
1001
ACAD
1000
MTEXTBEGIN
1070
    73
1070
     1
1070
    44
1040
1.0
1070
    74
1070
     0
1000
MTEXTEND
  0
SOLID
  5
117D5
330
10594
100
AcDbEntity
  8
0
100
AcDbTrace
 10
14.30208333333333
 20
9.8125
 30
0.0
 11
14.44791666666666
 21
9.8125
 31
0.0
 12
14.375
 22
10.25
 32
0.0
 13
14.375
 23
10.25
 33
0.0
  0
SOLID
  5
117D6
330
10594
100
AcDbEntity
  8
0
100
AcDbTrace
 10
14.30208333333333
 20
9.3755
 30
0.0
 11
14.44791666666666
 21
9.3755
 31
0.0
 12
14.375
 22
8.938
 32
0.0
 13
14.375
 23
8.938
 33
0.0
  0
POINT
  5
117D7
330
10594
100
AcDbEntity
  8
Defpoints
 62
     0
100
AcDbPoint
 10
15.375
 20
10.25
 30
0.0
  0
POINT
  5
117D8
330
10594
100
AcDbEntity
  8
Defpoints
 62
     0
100
AcDbPoint
 10
16.078
 20
8.938
 30
0.0
  0
POINT
  5
117D9
330
10594
100
AcDbEntity
  8
Defpoints
 62
     0
100
AcDbPoint
 10
14.375
 20
8.938
 30
0.0
  0
ENDBLK
  5
105A0
330
10594
100
AcDbEntity
  8
0
 62
     2
100
AcDbBlockEnd
  0
BLOCK
  5
10615
330
1060A
100
AcDbEntity
  8
0
 62
     2
100
AcDbBlockBegin
  2
*D45
 70
     1
 10
0.0
 20
0.0
 30
0.0
  3
*D45
  1

  0
LINE
  5
117BE
330
1060A
100
AcDbEntity
  8
0
100
AcDbLine
 10
20.28814349314075
 20
10.25
 30
0.0
 11
19.25
 21
10.25
 31
0.0
  0
LINE
  5
117BF
330
1060A
100
AcDbEntity
  8
0
100
AcDbLine
 10
20.97662979046058
 20
8.375
 30
0.0
 11
19.25
 21
8.375000000000001
 31
0.0
  0
LINE
  5
117C0
330
1060A
100
AcDbEntity
  8
0
100
AcDbLine
 10
19.375
 20
10.6875
 30
0.0
 11
19.375
 21
11.125
 31
0.0
  0
LINE
  5
117C1
330
1060A
100
AcDbEntity
  8
0
100
AcDbLine
 10
19.375
 20
7.9375
 30
0.0
 11
19.375
 21
7.5
 31
0.0
  0
MTEXT
  5
117C2
330
1060A
100
AcDbEntity
  8
0
 62
   255
100
AcDbMText
 10
19.375
 20
9.312500000000005
 30
0.0
 40
0.375
 41
0.0
 71
     5
 72
     1
  1
\A1;1 7/8"\P [48]
  7
Arial
 11
0.0000000000000001
 21
1.0
 31
0.0
 73
     1
 44
1.0
1001
ACAD
1000
MTEXTBEGIN
1070
    73
1070
     1
1070
    44
1040
1.0
1070
    74
1070
     0
1000
MTEXTEND
  0
SOLID
  5
117C3
330
1060A
100
AcDbEntity
  8
0
100
AcDbTrace
 10
19.30208333333333
 20
10.6875
 30
0.0
 11
19.44791666666667
 21
10.6875
 31
0.0
 12
19.375
 22
10.25
 32
0.0
 13
19.375
 23
10.25
 33
0.0
  0
SOLID
  5
117C4
330
1060A
100
AcDbEntity
  8
0
100
AcDbTrace
 10
19.30208333333333
 20
7.9375
 30
0.0
 11
19.44791666666666
 21
7.9375
 31
0.0
 12
19.375
 22
8.375000000000001
 32
0.0
 13
19.375
 23
8.375000000000001
 33
0.0
  0
POINT
  5
117C5
330
1060A
100
AcDbEntity
  8
Defpoints
 62
     0
100
AcDbPoint
 10
20.78814349314074
 20
10.25
 30
0.0
  0
POINT
  5
117C6
330
1060A
100
AcDbEntity
  8
Defpoints
 62
     0
100
AcDbPoint
 10
21.47662979046058
 20
8.375
 30
0.0
  0
POINT
  5
117C7
330
1060A
100
AcDbEntity
  8
Defpoints
 62
     0
100
AcDbPoint
 10
19.375
 20
8.375000000000001
 30
0.0
  0
ENDBLK
  5
10616
330
1060A
100
AcDbEntity
  8
0
 62
     2
100
AcDbBlockEnd
  0
BLOCK
  5
10639
330
1062E
100
AcDbEntity
  8
0
 62
     2
100
AcDbBlockBegin
  2
*D46
 70
     1
 10
0.0
 20
0.0
 30
0.0
  3
*D46
  1

  0
LINE
  5
117AB
330
1062E
100
AcDbEntity
  8
0
100
AcDbLine
 10
25.30955927936993
 20
10.24569901360008
 30
0.0
 11
24.25
 21
10.24569901360008
 31
0.0
  0
LINE
  5
117AC
330
1062E
100
AcDbEntity
  8
0
100
AcDbLine
 10
25.63999999999899
 20
8.542893218807876
 30
0.0
 11
24.25
 21
8.542893218807876
 31
0.0
  0
LINE
  5
117AD
330
1062E
100
AcDbEntity
  8
0
100
AcDbLine
 10
24.375
 20
9.808199013600084
 30
0.0
 11
24.375
 21
8.980393218807876
 31
0.0
  0
MTEXT
  5
117AE
330
1062E
100
AcDbEntity
  8
0
 62
   255
100
AcDbMText
 10
24.375
 20
9.394296116203983
 30
0.0
 40
0.375
 41
0.0
 71
     5
 72
     1
  1
\A1;1 11/16"\P [43]
  7
Arial
 11
0.0000000000000001
 21
1.0
 31
0.0
 73
     1
 44
1.0
1001
ACAD
1000
MTEXTBEGIN
1070
    73
1070
     1
1070
    44
1040
1.0
1070
    74
1070
     0
1000
MTEXTEND
  0
SOLID
  5
117AF
330
1062E
100
AcDbEntity
  8
0
100
AcDbTrace
 10
24.30208333333333
 20
9.808199013600084
 30
0.0
 11
24.44791666666667
 21
9.808199013600084
 31
0.0
 12
24.375
 22
10.24569901360008
 32
0.0
 13
24.375
 23
10.24569901360008
 33
0.0
  0
SOLID
  5
117B0
330
1062E
100
AcDbEntity
  8
0
100
AcDbTrace
 10
24.30208333333333
 20
8.980393218807876
 30
0.0
 11
24.44791666666667
 21
8.980393218807876
 31
0.0
 12
24.375
 22
8.542893218807876
 32
0.0
 13
24.375
 23
8.542893218807876
 33
0.0
  0
POINT
  5
117B1
330
1062E
100
AcDbEntity
  8
Defpoints
 62
     0
100
AcDbPoint
 10
25.80955927936993
 20
10.24569901360008
 30
0.0
  0
POINT
  5
117B2
330
1062E
100
AcDbEntity
  8
Defpoints
 62
     0
100
AcDbPoint
 10
26.13999999999899
 20
8.542893218807876
 30
0.0
  0
POINT
  5
117B3
330
1062E
100
AcDbEntity
  8
Defpoints
 62
     0
100
AcDbPoint
 10
24.375
 20
8.542893218807876
 30
0.0
  0
ENDBLK
  5
1063A
330
1062E
100
AcDbEntity
  8
0
 62
     2
100
AcDbBlockEnd
  0
ENDSEC
  0
SECTION
  2
ENTITIES
  0
INSERT
  5
E957
330
1F
100
AcDbEntity
  8
0
100
AcDbBlockReference
  2
ACC1918
 10
38.28681985073867
 20
10.07440750508652
 30
0.0
  0
INSERT
  5
E958
330
1F
100
AcDbEntity
  8
0
100
AcDbBlockReference
  2
ACC47D7
 10
32.32268218339103
 20
8.73989321880788
 30
0.0
 41
1.0000000016
 42
1.000000001599999
 43
1.0000000016
  0
INSERT
  5
EAF8
330
1F
100
AcDbEntity
  8
0
100
AcDbBlockReference
  2
5072ISO
 10
20.42372135417702
 20
30.2081684864583
 30
0.0
 41
1.0000000016
 42
1.000000001599999
 43
1.0000000016
  0
INSERT
  5
EAF9
330
1F
100
AcDbEntity
  8
0
100
AcDbBlockReference
  2
5087
 10
22.375
 20
36.02200187140041
 30
0.0
 41
1.0000000016
 42
1.000000001599999
 43
1.0000000016
  0
INSERT
  5
EAFA
330
1F
100
AcDbEntity
  8
0
100
AcDbBlockReference
  2
7363ISO
 10
20.42372135417702
 20
42.271658937197
 30
0.0
 41
1.000000000501759
 42
1.000000000501759
 43
1.000000000501759
  0
INSERT
  5
EC84
102
{ACAD_REACTORS
330
F66C
102
}
330
1F
100
AcDbEntity
  8
0
100
AcDbBlockReference
  2
7355
 10
8.5685
 20
41.896658937197
 30
0.0
  0
INSERT
  5
EFEB
330
1F
100
AcDbEntity
  8
0
100
AcDbBlockReference
  2
0DA9
 10
27.9321601404714
 20
36.6670383484595
 30
0.0
  0
INSERT
  5
EFF0
102
{ACAD_REACTORS
330
F6B3
102
}
330
1F
100
AcDbEntity
  8
0
100
AcDbBlockReference
  2
72F6
 10
14.097
 20
41.896658937197
 30
0.0
  0
INSERT
  5
EFFC
330
1F
100
AcDbEntity
  8
0
100
AcDbBlockReference
  2
72AM
 10
28.937
 20
42.256658937197
 30
0.0
  0
INSERT
  5
F3E2
102
{ACAD_REACTORS
330
F721
102
}
330
1F
100
AcDbEntity
  8
0
100
AcDbBlockReference
  2
7357
 10
8.502500295864701
 20
35.64700172262803
 30
0.0
  0
INSERT
  5
F4B9
330
1F
100
AcDbEntity
  8
0
100
AcDbBlockReference
  2
73H9
 10
14.017
 20
35.64700183773827
 30
0.0
  0
INSERT
  5
F4DC
102
{ACAD_REACTORS
330
F77C
102
}
330
1F
100
AcDbEntity
  8
0
100
AcDbBlockReference
  2
7360
 10
8.629999911776049
 20
33.06300172216061
 30
0.0
  0
INSERT
  5
F536
102
{ACAD_REACTORS
330
F7A3
102
}
330
1F
100
AcDbEntity
  8
0
100
AcDbBlockReference
  2
73H8
 10
14.085
 20
33.0630017221606
 30
0.0
  0
MTEXT
  5
F639
330
1F
100
AcDbEntity
  8
0
100
AcDbMText
 10
23.24894246560899
 20
41.02165893719698
 30
0.0
 40
0.32
 41
2.910726466575709
 71
     2
 72
     5
  1
SUBFRAME CLIP #7363
 73
     1
 44
1.0
1001
ACAD
1000
MTEXTBEGIN
1070
    73
1070
     1
1070
    44
1040
1.0
1070
    74
1070
     0
1000
MTEXTEND
  0
MTEXT
  5
F63A
330
1F
100
AcDbEntity
  8
0
100
AcDbMText
 10
23.24894246560899
 20
35.40362152548419
 30
0.0
 40
0.32
 41
6.988461873919433
 71
     2
 72
     5
  1
CLIP #5087\P(STD. SUBFRAME)
 73
     1
 44
1.0
1001
ACAD
1000
MTEXTBEGIN
1070
    73
1070
     1
1070
    44
1040
1.0
1070
    74
1070
     0
1000
MTEXTEND
  0
MTEXT
  5
F63B
330
1F
100
AcDbEntity
  8
0
100
AcDbMText
 10
28.875
 20
41.02165893719698
 30
0.0
 40
0.32
 41
2.910726466575709
 71
     2
 72
     5
  1
SUBFRAME EXPANDER #72AM
 73
     1
 44
1.0
1001
ACAD
1000
MTEXTBEGIN
1070
    73
1070
     1
1070
    44
1040
1.0
1070
    74
1070
     0
1000
MTEXTEND
  0
MTEXT
  5
F63C
330
1F
100
AcDbEntity
  8
0
100
AcDbMText
 10
15.92964057066359
 20
34.77225045343113
 30
0.0
 40
0.32
 41
6.988461873919433
 71
     2
 72
     5
  1
T-SUBFRAME JAMB #73H9
 73
     1
 44
1.0
1001
ACAD
1000
MTEXTBEGIN
1070
    73
1070
     1
1070
    44
1040
1.0
1070
    74
1070
     0
1000
MTEXTEND
  0
MTEXT
  5
F63D
330
1F
100
AcDbEntity
  8
0
100
AcDbMText
 10
7.636394363605688
 20
34.77225045343113
 30
0.0
 40
0.32
 41
6.988461873919433
 71
     2
 72
     5
  1
SUBFRAME JAMB #7357
 73
     1
 44
1.0
1001
ACAD
1000
MTEXTBEGIN
1070
    73
1070
     1
1070
    44
1040
1.0
1070
    74
1070
     0
1000
MTEXTEND
  0
MTEXT
  5
F63E
330
1F
100
AcDbEntity
  8
0
100
AcDbMText
 10
7.478129220053034
 20
29.1160070480342
 30
0.0
 40
0.32
 41
6.988461873919433
 71
     2
 72
     5
  1
SUBFRAME SILL #7360
 73
     1
 44
1.0
1001
ACAD
1000
MTEXTBEGIN
1070
    73
1070
     1
1070
    44
1040
1.0
1070
    74
1070
     0
1000
MTEXTEND
  0
MTEXT
  5
F643
330
1F
100
AcDbEntity
  8
0
100
AcDbMText
 10
7.157949208309943
 20
46.92285943993989
 30
0.0
 40
0.32
 41
5.210351296043661
 71
     5
 72
     5
  1
STANDARD\PSUBFRAME SYSTEM
 73
     1
 44
1.0
1001
ACAD
1000
MTEXTBEGIN
1070
    73
1070
     1
1070
    44
1040
1.0
1070
    74
1070
     0
1000
MTEXTEND
  0
MTEXT
  5
F644
330
1F
100
AcDbEntity
  8
0
100
AcDbMText
 10
16.12805425070469
 20
46.95102063253923
 30
0.0
 40
0.32
 41
5.704809004092766
 71
     2
 72
     5
  1
T-SUBFRAME SYSTEM
 73
     1
 44
1.0
1001
ACAD
1000
MTEXTBEGIN
1070
    73
1070
     1
1070
    44
1040
1.0
1070
    74
1070
     0
1000
MTEXTEND
  0
MTEXT
  5
F645
330
1F
100
AcDbEntity
  8
0
100
AcDbMText
 10
6.07695
 20
16.75
 30
0.0
 40
0.32
 41
4.396145975443388
 71
     2
 72
     5
  1
TRADITIONAL  BRICKMOULD TRIM HEAD AND JAMB #72D6
 73
     1
 44
1.0
1001
ACAD
1000
MTEXTBEGIN
1070
    73
1070
     1
1070
    44
1040
1.0
1070
    74
1070
     0
1000
MTEXTEND
  0
MTEXT
  5
F646
330
1F
100
AcDbEntity
  8
0
100
AcDbMText
 10
11.07695
 20
16.75
 30
0.0
 40
0.32
 41
4.396145975443388
 71
     2
 72
     5
  1
TRADITIONAL FLAT TRIM HEAD #72D4
 73
     1
 44
1.0
1001
ACAD
1000
MTEXTBEGIN
1070
    73
1070
     1
1070
    44
1040
1.0
1070
    74
1070
     0
1000
MTEXTEND
  0
MTEXT
  5
F647
330
1F
100
AcDbEntity
  8
0
100
AcDbMText
 10
16.07695
 20
16.75
 30
0.0
 40
0.32
 41
4.396145975443388
 71
     2
 72
     5
  1
TRADITIONAL FLAT TRIM JAMB #72D5(LH),  #72EO(RH)
 73
     1
 44
1.0
1001
ACAD
1000
MTEXTBEGIN
1070
    73
1070
     1
1070
    44
1040
1.0
1070
    74
1070
     0
1000
MTEXTEND
  0
MTEXT
  5
F648
330
1F
100
AcDbEntity
  8
0
100
AcDbMText
 10
21.26775
 20
16.75
 30
0.0
 40
0.32
 41
4.397169167803539
 71
     2
 72
     5
  1
TRADITIONAL BRICKMOULD AND FLAT TRIM SILL NOSE #72D8
 73
     1
 44
1.0
1001
ACAD
1000
MTEXTBEGIN
1070
    73
1070
     1
1070
    44
1040
1.0
1070
    74
1070
     0
1000
MTEXTEND
  0
MTEXT
  5
F649
330
1F
100
AcDbEntity
  8
0
100
AcDbMText
 10
26.375
 20
16.75
 30
0.0
 40
0.32
 41
4.396145975443388
 71
     2
 72
     5
  1
BRICKMOULD #7SB7 \PCLIP #OSB8
 73
     1
 44
1.0
1001
ACAD
1000
MTEXTBEGIN
1070
    73
1070
     1
1070
    44
1040
1.0
1070
    74
1070
     0
1000
MTEXTEND
  0
MTEXT
  5
F64A
330
1F
100
AcDbEntity
  8
0
100
AcDbMText
 10
26.87499999998502
 20
7.440000057224914
 30
0.0
 40
0.32
 41
3.49292291950887
 71
     2
 72
     5
  1
BRICKMOULD #7SBX \PCLIP #OSBN
 73
     1
 44
1.0
1001
ACAD
1000
MTEXTBEGIN
1070
    73
1070
     1
1070
    44
1040
1.0
1070
    74
1070
     0
1000
MTEXTEND
  0
MTEXT
  5
F64C
330
1F
100
AcDbEntity
  8
0
100
AcDbMText
 10
21.23591539322172
 20
7.440000057224927
 30
0.0
 40
0.32
 41
3.49292291950887
 71
     2
 72
     5
  1
BRICKMOULD #7SBP \PCLIP #OSBN
 73
     1
 44
1.0
1001
ACAD
1000
MTEXTBEGIN
1070
    73
1070
     1
1070
    44
1040
1.0
1070
    74
1070
     0
1000
MTEXTEND
  0
MTEXT
  5
F64E
330
1F
100
AcDbEntity
  8
0
100
AcDbMText
 10
16.179
 20
7.440000057224914
 30
0.0
 40
0.32
 41
3.49292291950887
 71
     2
 72
     5
  1
BRICKMOULD #7SB1 \PCLIP #OSBQ
 73
     1
 44
1.0
1001
ACAD
1000
MTEXTBEGIN
1070
    73
1070
     1
1070
    44
1040
1.0
1070
    74
1070
     0
1000
MTEXTEND
  0
MTEXT
  5
F64F
330
1F
100
AcDbEntity
  8
0
100
AcDbMText
 10
11.19419096232747
 20
7.440000057224914
 30
0.0
 40
0.32
 41
3.49292291950887
 71
     2
 72
     5
  1
BRICKMOULD #72AP \PCLIP #72AQ
 73
     1
 44
1.0
1001
ACAD
1000
MTEXTBEGIN
1070
    73
1070
     1
1070
    44
1040
1.0
1070
    74
1070
     0
1000
MTEXTEND
  0
MTEXT
  5
F650
330
1F
100
AcDbEntity
  8
0
100
AcDbMText
 10
6.615841996951079
 20
7.440000057224912
 30
0.0
 40
0.32
 41
3.492922919508863
 71
     2
 72
     5
  1
BRICKMOULD #72AN \PCLIP #72AQ
 73
     1
 44
1.0
1001
ACAD
1000
MTEXTBEGIN
1070
    73
1070
     1
1070
    44
1040
1.0
1070
    74
1070
     0
1000
MTEXTEND
  0
MTEXT
  5
F651
330
1F
100
AcDbEntity
  8
0
100
AcDbMText
 10
32.75736664286491
 20
7.440000057224914
 30
0.0
 40
0.32
 41
3.551500682128235
 71
     2
 72
     5
  1
CLAD CASING #47D7
 73
     1
 44
1.0
1001
ACAD
1000
MTEXTBEGIN
1070
    73
1070
     1
1070
    44
1040
1.0
1070
    74
1070
     0
1000
MTEXTEND
  0
MTEXT
  5
F652
330
1F
100
AcDbEntity
  8
0
100
AcDbMText
 10
38.71893757853245
 20
7.440000057224914
 30
0.0
 40
0.32
 41
3.785555934515684
 71
     2
 72
     5
  1
CLAD CASING ENDCAP #1918
 73
     1
 44
1.0
1001
ACAD
1000
MTEXTBEGIN
1070
    73
1070
     1
1070
    44
1040
1.0
1070
    74
1070
     0
1000
MTEXTEND
  0
DIMENSION
  5
F653
102
{ACAD_XDICTIONARY
360
F661
102
}
102
{ACAD_REACTORS
330
F66C
102
}
330
1F
100
AcDbEntity
  8
0
100
AcDbDimension
  2
*D13
 10
4.375
 20
45.77166393854655
 30
0.0
 11
4.375
 21
44.020469964634
 31
0.0
 70
   160
 71
     5
 42
3.502387947825113
  3
Scale 6
100
AcDbAlignedDimension
 13
5.459077888623266
 23
42.26927599072143
 33
0.0
 14
5.4075
 24
45.77166393854655
 34
0.0
 50
90.0
100
AcDbRotatedDimension
  0
MTEXT
  5
F698
330
1F
100
AcDbEntity
  8
0
100
AcDbMText
 10
7.664977115899603
 20
41.02165893719698
 30
0.0
 40
0.32
 41
6.114085948158254
 71
     2
 72
     5
  1
SUBFRAME HEAD #7355
 73
     1
 44
1.0
1001
ACAD
1000
MTEXTBEGIN
1070
    73
1070
     1
1070
    44
1040
1.0
1070
    74
1070
     0
1000
MTEXTEND
  0
MTEXT
  5
F699
330
1F
100
AcDbEntity
  8
0
100
AcDbMText
 10
15.92718312404262
 20
41.02165893719698
 30
0.0
 40
0.32
 41
6.637193042291949
 71
     2
 72
     5
  1
T-SUBFRAME HEAD #72F6
 73
     1
 44
1.0
1001
ACAD
1000
MTEXTBEGIN
1070
    73
1070
     1
1070
    44
1040
1.0
1070
    74
1070
     0
1000
MTEXTEND
  0
DIMENSION
  5
F69A
102
{ACAD_XDICTIONARY
360
F6A8
102
}
102
{ACAD_REACTORS
330
F6B3
102
}
330
1F
100
AcDbEntity
  8
0
100
AcDbDimension
  2
*D14
 10
12.875
 20
45.77165293771129
 30
0.0
 11
12.875
 21
44.02165593745414
 31
0.0
 70
   160
 71
     5
 42
3.499994000514284
  3
Scale 6
100
AcDbAlignedDimension
 13
13.98599999919355
 23
42.271658937197
 33
0.0
 14
13.91
 24
45.77165293771129
 34
0.0
 50
90.0
100
AcDbRotatedDimension
  0
DIMENSION
  5
F708
102
{ACAD_XDICTIONARY
360
F716
102
}
102
{ACAD_REACTORS
330
F721
102
}
330
1F
100
AcDbEntity
  8
0
100
AcDbDimension
  2
*D15
 10
4.375
 20
39.521658937197
 30
0.0
 11
4.375
 21
37.77183046378376
 31
0.0
 70
   160
 71
     5
 42
3.499656946826497
  3
Scale 6
100
AcDbAlignedDimension
 13
5.4370000364747
 23
36.02200199037051
 33
0.0
 14
5.40275306871687
 24
39.521658937197
 34
0.0
 50
90.0
100
AcDbRotatedDimension
  0
DIMENSION
  5
F72C
330
1F
100
AcDbEntity
  8
0
100
AcDbDimension
  2
*D16
 10
12.875
 20
39.521658937197
 30
0.0
 11
12.875
 21
37.77183038746763
 31
0.0
 70
   160
 71
     5
 42
3.499657099458737
  3
Scale 6
100
AcDbAlignedDimension
 13
13.99
 23
36.02200183773827
 33
0.0
 14
13.914929635514
 24
39.521658937197
 34
0.0
 50
90.0
100
AcDbRotatedDimension
  0
MTEXT
  5
F760
330
1F
100
AcDbEntity
  8
0
100
AcDbMText
 10
29.490145585023
 20
35.4039012037722
 30
0.0
 40
0.32
 41
4.722218582764259
 71
     2
 72
     5
  1
RECEPTOR\PGASKET #ODA9
 73
     1
 44
1.0
1001
ACAD
1000
MTEXTBEGIN
1070
    73
1070
     1
1070
    44
1040
1.0
1070
    74
1070
     0
1000
MTEXTEND
  0
DIMENSION
  5
F763
102
{ACAD_XDICTIONARY
360
F771
102
}
102
{ACAD_REACTORS
330
F77C
102
}
330
1F
100
AcDbEntity
  8
0
100
AcDbDimension
  2
*D17
 10
4.375
 20
29.4910070480342
 30
0.0
 11
4.375
 21
31.27200438509741
 31
0.0
 70
   160
 71
     5
 42
3.561994674126413
  3
Scale 6
100
AcDbAlignedDimension
 13
8.68999985177605
 23
33.05300172216061
 33
0.0
 14
5.407500016985533
 24
29.4910070480342
 34
0.0
 50
90.0
100
AcDbRotatedDimension
  0
MTEXT
  5
F789
330
1F
100
AcDbEntity
  8
0
100
AcDbMText
 10
15.77205227183397
 20
29.1160070480342
 30
0.0
 40
0.32
 41
6.317701227830838
 71
     2
 72
     5
  1
T-SUBFRAME SILL #73H8
 73
     1
 44
1.0
1001
ACAD
1000
MTEXTBEGIN
1070
    73
1070
     1
1070
    44
1040
1.0
1070
    74
1070
     0
1000
MTEXTEND
  0
DIMENSION
  5
F78A
102
{ACAD_XDICTIONARY
360
F798
102
}
102
{ACAD_REACTORS
330
F7A3
102
}
330
1F
100
AcDbEntity
  8
0
100
AcDbDimension
  2
*D18
 10
12.87499999999999
 20
33.0530017241606
 30
0.0
 11
12.87499999999999
 21
31.54800172296829
 31
0.0
 70
   160
 71
     5
 42
3.010000002384604
  3
Scale 6
100
AcDbAlignedDimension
 13
13.9075
 23
30.04300172177599
 33
0.0
 14
13.93700000025833
 24
33.0530017241606
 34
0.0
 50
90.0
100
AcDbRotatedDimension
  0
MTEXT
  5
F7AE
330
1F
100
AcDbEntity
  8
0
100
AcDbMText
 10
23.24894246560899
 20
29.1160070480342
 30
0.0
 40
0.32
 41
2.766967939972715
 71
     2
 72
     5
  1
CLIP #5027
 73
     1
 44
1.0
1001
ACAD
1000
MTEXTBEGIN
1070
    73
1070
     1
1070
    44
1040
1.0
1070
    74
1070
     0
1000
MTEXTEND
  0
INSERT
  5
F7E9
102
{ACAD_REACTORS
330
FD4B
102
}
330
1F
100
AcDbEntity
  8
0
100
AcDbBlockReference
  2
72D6 Traditional
 10
5.789299999999999
 20
18.681
 30
0.0
  0
INSERT
  5
F7FD
330
1F
100
AcDbEntity
  8
0
100
AcDbBlockReference
  2
72D4 Flat Head
 10
10.5553
 20
17.68
 30
0.0
  0
INSERT
  5
F8BC
102
{ACAD_REACTORS
330
FE88
102
}
330
1F
100
AcDbEntity
  8
0
100
AcDbBlockReference
  2
72D5Flat Jamb
 10
15.5553
 20
17.68
 30
0.0
  0
INSERT
  5
F9C2
102
{ACAD_REACTORS
330
FCC8
102
}
330
1F
100
AcDbEntity
  8
0
100
AcDbBlockReference
  2
7SB7+Clip
 10
27.71197106742474
 20
19.0
 30
0.0
  0
INSERT
  5
FB32
102
{ACAD_REACTORS
330
FC11
102
}
330
1F
100
AcDbEntity
  8
0
100
AcDbBlockReference
  2
72D8 Sill Nose
 10
20.775
 20
18.063
 30
0.0
  0
DIMENSION
  5
FBA7
330
1F
100
AcDbEntity
  8
0
100
AcDbDimension
  2
*D24
 10
26.87321773946671
 20
20.0
 30
0.0
 11
26.12410886973336
 21
20.0
 31
0.0
 70
   160
 71
     5
 42
1.498217739466703
  3
Scale 6
100
AcDbAlignedDimension
 13
25.37500000000001
 23
19.0
 33
0.0
 14
26.87321773946671
 24
19.0
 34
0.0
100
AcDbRotatedDimension
  0
DIMENSION
  5
FBF6
102
{ACAD_XDICTIONARY
360
FC05
102
}
102
{ACAD_REACTORS
330
FC11
102
}
330
1F
100
AcDbEntity
  8
0
100
AcDbDimension
  2
*D25
 10
19.375
 20
18.06299999999999
 30
0.0
 11
17.72329866062984
 21
17.7815
 31
0.0
 70
   160
 71
     5
 42
0.5629999999999953
 53
90.0
  3
Scale 6
100
AcDbAlignedDimension
 13
20.375
 23
17.5
 33
0.0
 14
20.375
 24
18.06299999999999
 34
0.0
 50
90.0
100
AcDbRotatedDimension
  0
DIMENSION
  5
FCAF
102
{ACAD_XDICTIONARY
360
FCBD
102
}
102
{ACAD_REACTORS
330
FCC8
102
}
330
1F
100
AcDbEntity
  8
0
100
AcDbDimension
  2
*D26
 10
24.375
 20
19.0
 30
0.0
 11
24.375
 21
18.25000000000001
 31
0.0
 70
   160
 71
     5
 42
1.499999999999996
  3
Scale 6
100
AcDbAlignedDimension
 13
25.375
 23
17.5
 33
0.0
 14
26.0625
 24
19.0
 34
0.0
 50
90.0
100
AcDbRotatedDimension
  0
DIMENSION
  5
FCDE
330
1F
100
AcDbEntity
  8
0
100
AcDbDimension
  2
*D27
 10
14.375
 20
21.0
 30
0.0
 11
14.375
 21
19.2435
 31
0.0
 70
   160
 71
     5
 42
3.5
  3
Scale 6
100
AcDbAlignedDimension
 13
15.375
 23
17.5
 33
0.0
 14
15.388
 24
21.0
 34
0.0
 50
90.0
100
AcDbRotatedDimension
  0
DIMENSION
  5
FD0E
330
1F
100
AcDbEntity
  8
0
100
AcDbDimension
  2
*D28
 10
9.375
 20
17.5
 30
0.0
 11
9.375
 21
19.2435
 31
0.0
 70
   160
 71
     5
 42
3.5
  3
Scale 6
100
AcDbAlignedDimension
 13
10.375
 23
21.0
 33
0.0
 14
10.375
 24
17.5
 34
0.0
 50
90.0
100
AcDbRotatedDimension
  0
DIMENSION
  5
FD32
102
{ACAD_XDICTIONARY
360
FD40
102
}
102
{ACAD_REACTORS
330
FD4B
102
}
330
1F
100
AcDbEntity
  8
0
100
AcDbDimension
  2
*D29
 10
4.375
 20
18.4935
 30
0.0
 11
4.375
 21
19.2435
 31
0.0
 70
   160
 71
     5
 42
1.5
  3
Scale 6
100
AcDbAlignedDimension
 13
5.387999999999999
 23
19.99349999999999
 33
0.0
 14
5.608999999999999
 24
18.4935
 34
0.0
 50
90.0
100
AcDbRotatedDimension
  0
DIMENSION
  5
FE3C
330
1F
100
AcDbEntity
  8
0
100
AcDbDimension
  2
*D30
 10
11.772
 20
22.45
 30
0.0
 11
11.0735
 21
22.45
 31
0.0
 70
   160
 71
     5
 42
1.397
  3
Scale 6
100
AcDbAlignedDimension
 13
10.375
 23
21.0
 33
0.0
 14
11.772
 24
21.7
 34
0.0
100
AcDbRotatedDimension
  0
DIMENSION
  5
FE6F
102
{ACAD_XDICTIONARY
360
FE7D
102
}
102
{ACAD_REACTORS
330
FE88
102
}
330
1F
100
AcDbEntity
  8
0
100
AcDbDimension
  2
*D31
 10
16.772
 20
22.45
 30
0.0
 11
16.0735
 21
22.45
 31
0.0
 70
   160
 71
     5
 42
1.397000000000002
  3
Scale 6
100
AcDbAlignedDimension
 13
15.375
 23
20.987
 33
0.0
 14
16.772
 24
21.7
 34
0.0
100
AcDbRotatedDimension
  0
INSERT
  5
FEA1
102
{ACAD_REACTORS
330
10136
330
10550
102
}
330
1F
100
AcDbEntity
  8
0
100
AcDbBlockReference
  2
72AN+Clip
 10
6.998996347095236
 20
10.25000000001159
 30
0.0
  0
INSERT
  5
FEA7
102
{ACAD_REACTORS
330
1015C
330
10574
102
}
330
1F
100
AcDbEntity
  8
0
100
AcDbBlockReference
  2
72AP+Clip
 10
10.88389496883456
 20
11.25
 30
0.0
  0
INSERT
  5
FEFC
330
1F
100
AcDbEntity
  8
0
100
AcDbBlockReference
  2
7SB1+Clip
 10
16.29443014926048
 20
10.25
 30
0.0
  0
INSERT
  5
FF39
102
{ACAD_REACTORS
330
10622
102
}
330
1F
100
AcDbEntity
  8
0
100
AcDbBlockReference
  2
7SBP+Clip
 10
21.77277346085406
 20
10.25
 30
0.0
  0
INSERT
  5
FF7C
102
{ACAD_REACTORS
330
10646
102
}
330
1F
100
AcDbEntity
  8
0
100
AcDbBlockReference
  2
7SBX+Clip
 10
27.62499999999958
 20
10.25
 30
0.0
  0
DIMENSION
  5
1011D
102
{ACAD_XDICTIONARY
360
1012B
102
}
102
{ACAD_REACTORS
330
10136
102
}
330
1F
100
AcDbEntity
  8
0
100
AcDbDimension
  2
*D37
 10
6.998079308964429
 20
11.25
 30
0.0
 11
6.186539654482214
 21
11.25
 31
0.0
 70
   160
 71
     5
 42
1.62307930896443
  3
Scale 6
100
AcDbAlignedDimension
 13
5.374999999999999
 23
9.37799976329993
 33
0.0
 14
6.998079308964429
 24
10.23836998122627
 34
0.0
100
AcDbRotatedDimension
  0
DIMENSION
  5
10141
102
{ACAD_XDICTIONARY
360
10150
102
}
102
{ACAD_REACTORS
330
1015C
102
}
330
1F
100
AcDbEntity
  8
0
100
AcDbDimension
  2
*D38
 10
11.0
 20
11.25
 30
0.0
 11
12.0
 21
11.25
 31
0.0
 70
   160
 71
     5
 42
0.625
  3
Scale 6
100
AcDbAlignedDimension
 13
10.375
 23
10.25
 33
0.0
 14
11.0
 24
10.21265531106861
 34
0.0
100
AcDbRotatedDimension
  0
DIMENSION
  5
10172
330
1F
100
AcDbEntity
  8
0
100
AcDbDimension
  2
*D39
 10
16.27943014926048
 20
11.24999999999999
 30
0.0
 11
15.82721507463024
 21
11.24999999999999
 31
0.0
 70
   160
 71
     5
 42
0.9044301492604791
  3
Scale 6
100
AcDbAlignedDimension
 13
15.375
 23
10.25
 33
0.0
 14
16.27943014926048
 24
10.25
 34
0.0
100
AcDbRotatedDimension
  0
DIMENSION
  5
101FB
330
1F
100
AcDbEntity
  8
0
100
AcDbDimension
  2
*D40
 10
21.81782199386964
 20
11.25
 30
0.0
 11
21.09408673042703
 21
11.25
 31
0.0
 70
   160
 71
     5
 42
1.422621993869643
  3
Scale 6
100
AcDbAlignedDimension
 13
20.3952
 23
9.667768860410438
 33
0.0
 14
21.81782199386964
 24
10.1957496459872
 34
0.0
100
AcDbRotatedDimension
1001
ACAD
1000
DSTYLE
1002
{
1070
   273
1070
     2
1070
   277
1070
     5
1002
}
  0
DIMENSION
  5
1051D
330
1F
100
AcDbEntity
  8
0
100
AcDbDimension
  2
*D41
 10
27.62499999999958
 20
11.25
 30
0.0
 11
26.49999999999979
 21
11.88344986357435
 31
0.0
 70
    32
 71
     5
 42
2.249999999999573
  3
Scale 6
100
AcDbAlignedDimension
 13
25.375
 23
10.25
 33
0.0
 14
27.62499999999958
 24
10.21552393338061
 34
0.0
100
AcDbRotatedDimension
  0
DIMENSION
  5
10537
102
{ACAD_XDICTIONARY
360
10545
102
}
102
{ACAD_REACTORS
330
10550
102
}
330
1F
100
AcDbEntity
  8
0
100
AcDbDimension
  2
*D42
 10
4.375
 20
8.190000057224914
 30
0.0
 11
4.375
 21
9.220000028608149
 31
0.0
 70
   160
 71
     5
 42
2.059999942766467
  3
Scale 6
100
AcDbAlignedDimension
 13
5.936996310841236
 23
10.24999999999138
 33
0.0
 14
6.248996347110236
 24
8.190000057224914
 34
0.0
 50
90.0
100
AcDbRotatedDimension
  0
DIMENSION
  5
1055B
102
{ACAD_XDICTIONARY
360
10569
102
}
102
{ACAD_REACTORS
330
10574
102
}
330
1F
100
AcDbEntity
  8
0
100
AcDbDimension
  2
*D43
 10
9.375
 20
10.25
 30
0.0
 11
9.375
 21
9.314696699141101
 31
0.0
 70
   160
 71
     5
 42
1.870606601717797
  3
Scale 6
100
AcDbAlignedDimension
 13
10.8168933982822
 23
8.379393398282202
 33
0.0
 14
10.375
 24
10.25
 34
0.0
 50
90.0
100
AcDbRotatedDimension
1001
ACAD
1000
DSTYLE
1002
{
1070
   147
1040
0.1
1002
}
  0
DIMENSION
  5
10593
330
1F
100
AcDbEntity
  8
0
100
AcDbDimension
  2
*D44
 10
14.375
 20
8.938
 30
0.0
 11
14.375
 21
9.594000000000002
 31
0.0
 70
   160
 71
     5
 42
1.311999999999999
  3
Scale 6
100
AcDbAlignedDimension
 13
15.375
 23
10.25
 33
0.0
 14
16.078
 24
8.938
 34
0.0
 50
90.0
100
AcDbRotatedDimension
  0
DIMENSION
  5
10609
102
{ACAD_XDICTIONARY
360
10617
102
}
102
{ACAD_REACTORS
330
10622
102
}
330
1F
100
AcDbEntity
  8
0
100
AcDbDimension
  2
*D45
 10
19.375
 20
8.375000000000001
 30
0.0
 11
19.375
 21
9.312500000000005
 31
0.0
 70
   160
 71
     5
 42
1.875000000000001
  3
Scale 6
100
AcDbAlignedDimension
 13
20.78814349314074
 23
10.25
 33
0.0
 14
21.47662979046058
 24
8.375
 34
0.0
 50
90.0
100
AcDbRotatedDimension
  0
DIMENSION
  5
1062D
102
{ACAD_XDICTIONARY
360
1063B
102
}
102
{ACAD_REACTORS
330
10646
102
}
330
1F
100
AcDbEntity
  8
0
100
AcDbDimension
  2
*D46
 10
24.375
 20
8.542893218807876
 30
0.0
 11
24.375
 21
9.394296116203983
 31
0.0
 70
   160
 71
     5
 42
1.702805794792208
  3
Scale 6
100
AcDbAlignedDimension
 13
25.80955927936993
 23
10.24569901360008
 33
0.0
 14
26.13999999999899
 24
8.542893218807876
 34
0.0
 50
90.0
100
AcDbRotatedDimension
1001
ACAD
1000
DSTYLE
1002
{
1070
   271
1070
     4
1002
}
  0
LINE
  5
1067A
330
1F
100
AcDbEntity
  8
0
100
AcDbLine
 10
4.375
 20
29.4910070480342
 30
0.0
 11
4.375
 21
33.05300172216061
 31
0.0
  0
LINE
  5
1067B
330
1F
100
AcDbEntity
  8
0
100
AcDbLine
 10
12.87499999999999
 20
30.04300172177599
 30
0.0
 11
12.87499999999999
 21
33.0530017241606
 31
0.0
  0
LINE
  5
1067C
330
1F
100
AcDbEntity
  8
0
100
AcDbLine
 10
12.875
 20
36.02200183773827
 30
0.0
 11
12.875
 21
39.521658937197
 31
0.0
  0
LINE
  5
1067D
330
1F
100
AcDbEntity
  8
0
100
AcDbLine
 10
12.875
 20
42.271658937197
 30
0.0
 11
12.875
 21
45.77165293771129
 31
0.0
  0
LINE
  5
1067E
330
1F
100
AcDbEntity
  8
0
100
AcDbLine
 10
4.375
 20
45.77166393854655
 30
0.0
 11
4.375
 21
42.26927599072143
 31
0.0
  0
LINE
  5
1067F
330
1F
100
AcDbEntity
  8
0
100
AcDbLine
 10
4.375
 20
39.521658937197
 30
0.0
 11
4.374999999999999
 21
36.02200199037051
 31
0.0
  0
LINE
  5
10680
330
1F
100
AcDbEntity
  8
0
100
AcDbLine
 10
4.375
 20
18.4935
 30
0.0
 11
4.375
 21
19.99349999999999
 31
0.0
  0
LINE
  5
10681
330
1F
100
AcDbEntity
  8
0
100
AcDbLine
 10
9.375000000000001
 20
21.0
 30
0.0
 11
9.375000000000001
 21
17.5
 31
0.0
  0
LINE
  5
10682
330
1F
100
AcDbEntity
  8
0
100
AcDbLine
 10
14.375
 20
21.0
 30
0.0
 11
14.375
 21
17.5
 31
0.0
  0
LINE
  5
10683
330
1F
100
AcDbEntity
  8
0
100
AcDbLine
 10
19.375
 20
18.06299999999999
 30
0.0
 11
19.375
 21
17.5
 31
0.0
  0
LINE
  5
10684
330
1F
100
AcDbEntity
  8
0
100
AcDbLine
 10
24.375
 20
19.0
 30
0.0
 11
24.375
 21
17.5
 31
0.0
  0
LINE
  5
10685
330
1F
100
AcDbEntity
  8
0
100
AcDbLine
 10
25.37500000000001
 20
20.0
 30
0.0
 11
26.87321773946671
 21
20.0
 31
0.0
  0
LINE
  5
10686
330
1F
100
AcDbEntity
  8
0
100
AcDbLine
 10
19.375
 20
8.375000000000001
 30
0.0
 11
19.375
 21
10.25
 31
0.0
  0
LINE
  5
10687
330
1F
100
AcDbEntity
  8
0
100
AcDbLine
 10
15.375
 20
11.24999999999999
 30
0.0
 11
16.27943014926048
 21
11.24999999999999
 31
0.0
  0
LINE
  5
10688
330
1F
100
AcDbEntity
  8
0
100
AcDbLine
 10
10.375
 20
11.25
 30
0.0
 11
11.0
 21
11.25
 31
0.0
  0
LINE
  5
10689
330
1F
100
AcDbEntity
  8
0
100
AcDbLine
 10
9.375
 20
10.25
 30
0.0
 11
9.375
 21
8.379393398282202
 31
0.0
  0
LINE
  5
1068A
330
1F
100
AcDbEntity
  8
0
100
AcDbLine
 10
5.374999999999999
 20
11.25
 30
0.0
 11
6.998079308964429
 21
11.25
 31
0.0
  0
LINE
  5
1068B
330
1F
100
AcDbEntity
  8
0
100
AcDbLine
 10
4.375
 20
10.24999999999138
 30
0.0
 11
4.375
 21
8.190000057224914
 31
0.0
  0
VIEWPORT
  5
CBD9
102
{ACAD_XDICTIONARY
360
1198D
102
}
330
CBD2
100
AcDbEntity
 67
     1
  8
0
100
AcDbViewport
 10
3.968749891115924
 20
5.218749628292292
 30
0.0
 40
17.62601621246861
 41
11.63799974576694
 68
     1
 69
     1
 12
3.968749891115924
 22
5.218749628292292
 13
0.0
 23
0.0
 14
0.5
 24
0.5
 15
0.5
 25
0.5
 16
0.0
 26
0.0
 36
1.0
 17
0.0
 27
0.0
 37
0.0
 42
50.0
 43
0.0
 44
0.0
 45
11.63799974576694
 50
0.0
 51
0.0
 72
  5000
 90
    32800
  1

281
     0
 71
     1
 74
     0
110
0.0
120
0.0
130
0.0
111
1.0
121
0.0
131
0.0
112
0.0
122
1.0
132
0.0
 79
     0
146
0.0
  0
VIEWPORT
  5
D915
102
{ACAD_XDICTIONARY
360
1198F
102
}
330
CBD2
100
AcDbEntity
 67
     1
  8
0
100
AcDbViewport
 10
3.968749882715535
 20
5.218749625349884
 30
0.0
 40
7.928490862866247
 41
10.43240584937289
 68
     2
 69
     2
 12
3.6875
 22
4.3125
 13
0.0
 23
0.0
 14
0.125
 24
0.125
 15
0.5
 25
0.5
 16
0.0
 26
0.0
 36
1.0
 17
0.0
 27
0.0
 37
0.0
 42
50.0
 43
0.0
 44
0.0
 45
9.704115760475342
 50
0.0
 51
0.0
 72
  5000
 90
    32768
  1

281
     0
 71
     1
 74
     0
110
0.0
120
0.0
130
0.0
111
1.0
121
0.0
131
0.0
112
0.0
122
1.0
132
0.0
 79
     0
146
0.0
  0
ENDSEC
  0
SECTION
  2
OBJECTS
  0
DICTIONARY
  5
C
330
0
100
AcDbDictionary
281
     1
  3
ACAD_COLOR
350
A6AD
  3
ACAD_GROUP
350
D
  3
ACAD_LAYOUT
350
1A
  3
ACAD_MATERIAL
350
A6AC
  3
ACAD_MLINESTYLE
350
17
  3
ACAD_PLOTSETTINGS
350
19
  3
ACAD_PLOTSTYLENAME
350
E
  3
AcadDim
350
15D
  3
ACDBHEADERROUNDTRIPXREC
350
1197A
  3
AcDbVariableDictionary
350
79D9
  3
ADE_QUERY_LIBRARY
350
1012
  3
AMAcad
350
1B9
  3
ASE_INDEX_DICTIONARY
350
EC28
  3
AVAT_FILE_STORE
350
FD6
1001
ADE
1000
ADE02C004
1000
[Query]
1000
CaseSensitiveMatch=0
1000
SaveCurrQueryInSession=1
1000
MkSelSetWithQryObj=0
1000
ShowBlockAsInsPt=0
1000
CreateAssociativeHatchObjects=0
1000
ReferenceBoundaryForAreaLocation=1
1000
ShowImageAsBoundary=1
1000
DefaultJoinOperator=2
1000
ColorForAdd=red
1000
ColorForRemove=red
1000
BlockLocnForQuery=1
1000
TextLocnForQuery=1
1000
[Save Back]
1000
RedefineBlockDefinitions=1
1000
RedefineLayerDefinitions=1
1000
RedefineTextStyleDefinitions=1
1000
RemoveUnusedGroups=1
1000
EraseSavedBackObjects=1
1000
RemoveLockAfterSave=1
1000
CreateHistoryFileOfChanges=0
1000
CreateBackupFileOfSourceDwg=1
1000
DontAddObjectsToSaveSet=0
1000
MarkObjectsForEditingWithoutPrompting=0
1000
[Coordinate Transformation]
1000
RestoreLastActiveDwgsOnStartup=1
1000
ActivateDwgsOnAttach=1
1000
AdjustSizesAndScalesForChangesInUnits=1
1000
AdjustRotationsForMapDistortions=1
1000
AdjustSizesAndScalesForMapDistortions=1
1000
AdjustElevations=1
1000
AdjustZeroRotationObjects=1
1000
ReconnectDbOnWSOpen=1
1000
NoOfSQLConditionsInHistory=10
  0
DICTIONARY
  5
10CE2
330
2
100
AcDbDictionary
280
     1
281
     1
  3
ACAD_LAYERSTATES
360
10CE3
  0
DICTIONARY
  5
D9A1
330
1F
100
AcDbDictionary
280
     1
281
     1
  0
DICTIONARY
  5
F3B5
330
E1D7
100
AcDbDictionary
280
     1
281
     1
  3
ACAD_SORTENTS
360
F3B6
  0
DICTIONARY
  5
F1F3
330
E2B9
100
AcDbDictionary
280
     1
281
     1
  3
ACAD_SORTENTS
360
F1F4
  0
DICTIONARY
  5
11445
330
E3B4
100
AcDbDictionary
280
     1
281
     1
  3
ACAD_SORTENTS
360
11446
  0
DICTIONARY
  5
10990
330
E3CF
100
AcDbDictionary
280
     1
281
     1
  3
ACAD_SORTENTS
360
110A9
  0
DICTIONARY
  5
ED02
330
EC59
100
AcDbDictionary
280
     1
281
     1
  3
ACAD_SORTENTS
360
1105E
  0
DICTIONARY
  5
10776
330
EF8C
100
AcDbDictionary
280
     1
281
     1
  3
ACAD_SORTENTS
360
11526
  0
DICTIONARY
  5
EFF6
330
EFEC
100
AcDbDictionary
280
     1
281
     1
  3
ACAD_SORTENTS
360
11466
  0
DICTIONARY
  5
F001
330
EFF8
100
AcDbDictionary
280
     1
281
     1
  3
ACAD_SORTENTS
360
1146B
  0
DICTIONARY
  5
F435
330
F3B7
100
AcDbDictionary
280
     1
281
     1
  3
ACAD_SORTENTS
360
1157B
  0
DICTIONARY
  5
F4BE
330
F4B5
100
AcDbDictionary
280
     1
281
     1
  3
ACAD_SORTENTS
360
11580
  0
DICTIONARY
  5
F530
330
F4C0
100
AcDbDictionary
280
     1
281
     1
  3
ACAD_SORTENTS
360
115BB
  0
DICTIONARY
  5
F53B
330
F532
100
AcDbDictionary
280
     1
281
     1
  3
ACAD_SORTENTS
360
115C0
  0
DICTIONARY
  5
F86C
330
F7B0
100
AcDbDictionary
280
     1
281
     1
  3
ACAD_SORTENTS
360
11134
  0
DICTIONARY
  5
F890
330
F7EA
100
AcDbDictionary
280
     1
281
     1
  3
ACAD_SORTENTS
360
11157
  0
DICTIONARY
  5
F90B
330
F893
100
AcDbDictionary
280
     1
281
     1
  3
ACAD_SORTENTS
360
111A6
  0
DICTIONARY
  5
FA6D
330
F96B
100
AcDbDictionary
280
     1
281
     1
  3
ACAD_SORTENTS
360
1127D
  0
DICTIONARY
  5
111D1
330
FB1B
100
AcDbDictionary
280
     1
281
     1
  3
ACAD_SORTENTS
360
111D2
  0
DICTIONARY
  5
FF83
330
FE9C
100
AcDbDictionary
280
     1
281
     1
  3
ACAD_SORTENTS
360
11284
  0
DICTIONARY
  5
FEAE
330
FEA2
100
AcDbDictionary
280
     1
281
     1
  3
ACAD_SORTENTS
360
1128B
  0
DICTIONARY
  5
10025
330
FEB1
100
AcDbDictionary
280
     1
281
     1
  3
ACAD_SORTENTS
360
1131E
  0
DICTIONARY
  5
1009B
330
FEFD
100
AcDbDictionary
280
     1
281
     1
  3
ACAD_SORTENTS
360
11393
  0
DICTIONARY
  5
1011B
330
FF3B
100
AcDbDictionary
280
     1
281
     1
  3
ACAD_SORTENTS
360
11412
  0
DICTIONARY
  5
F661
330
F653
100
AcDbDictionary
280
     1
281
     1
  3
ACAD_DIMASSOC
360
F66C
  0
DICTIONARY
  5
F6A8
330
F69A
100
AcDbDictionary
280
     1
281
     1
  3
ACAD_DIMASSOC
360
F6B3
  0
DICTIONARY
  5
F716
330
F708
100
AcDbDictionary
280
     1
281
     1
  3
ACAD_DIMASSOC
360
F721
  0
DICTIONARY
  5
F771
330
F763
100
AcDbDictionary
280
     1
281
     1
  3
ACAD_DIMASSOC
360
F77C
  0
DICTIONARY
  5
F798
330
F78A
100
AcDbDictionary
280
     1
281
     1
  3
ACAD_DIMASSOC
360
F7A3
  0
DICTIONARY
  5
FC05
330
FBF6
100
AcDbDictionary
280
     1
281
     1
  3
ACAD_DIMASSOC
360
FC11
  0
DICTIONARY
  5
FCBD
330
FCAF
100
AcDbDictionary
280
     1
281
     1
  3
ACAD_DIMASSOC
360
FCC8
  0
DICTIONARY
  5
FD40
330
FD32
100
AcDbDictionary
280
     1
281
     1
  3
ACAD_DIMASSOC
360
FD4B
  0
DICTIONARY
  5
FE7D
330
FE6F
100
AcDbDictionary
280
     1
281
     1
  3
ACAD_DIMASSOC
360
FE88
  0
DICTIONARY
  5
1012B
330
1011D
100
AcDbDictionary
280
     1
281
     1
  3
ACAD_DIMASSOC
360
10136
  0
DICTIONARY
  5
10150
330
10141
100
AcDbDictionary
280
     1
281
     1
  3
ACAD_DIMASSOC
360
1015C
  0
DICTIONARY
  5
10545
330
10537
100
AcDbDictionary
280
     1
281
     1
  3
ACAD_DIMASSOC
360
10550
  0
DICTIONARY
  5
10569
330
1055B
100
AcDbDictionary
280
     1
281
     1
  3
ACAD_DIMASSOC
360
10574
  0
DICTIONARY
  5
10617
330
10609
100
AcDbDictionary
280
     1
281
     1
  3
ACAD_DIMASSOC
360
10622
  0
DICTIONARY
  5
1063B
330
1062D
100
AcDbDictionary
280
     1
281
     1
  3
ACAD_DIMASSOC
360
10646
  0
DICTIONARY
  5
1198D
330
CBD9
100
AcDbDictionary
280
     1
281
     1
  3
ACAD_XREC_ROUNDTRIP
360
1198E
  0
DICTIONARY
  5
1198F
330
D915
100
AcDbDictionary
280
     1
281
     1
  3
ACAD_XREC_ROUNDTRIP
360
11990
  0
DICTIONARY
  5
A6AD
102
{ACAD_REACTORS
330
C
102
}
330
C
100
AcDbDictionary
281
     1
  0
DICTIONARY
  5
D
102
{ACAD_REACTORS
330
C
102
}
330
C
100
AcDbDictionary
281
     1
  0
DICTIONARY
  5
1A
102
{ACAD_REACTORS
330
C
102
}
330
C
100
AcDbDictionary
281
     1
  3
Layout1
350
CBD3
  3
Model
350
22
  0
DICTIONARY
  5
A6AC
102
{ACAD_REACTORS
330
C
102
}
330
C
100
AcDbDictionary
281
     1
  0
DICTIONARY
  5
17
102
{ACAD_REACTORS
330
C
102
}
330
C
100
AcDbDictionary
281
     1
  3
Standard
350
18
  0
DICTIONARY
  5
19
102
{ACAD_REACTORS
330
C
102
}
330
C
100
AcDbDictionary
281
     1
  3
22x17 Xerox8830
350
CBD1
  3
22x34 Xerox8830
350
CBD0
  3
8.5x11(row 1)
350
B30E
  3
8.5x11(row 2)
350
BF67
  3
8.5x11(row 3)
350
BF68
  3
8.5x11(row 4)
350
BF69
  0
ACDBDICTIONARYWDFLT
  5
E
102
{ACAD_REACTORS
330
C
102
}
330
C
100
AcDbDictionary
281
     1
  3
Normal
350
F
100
AcDbDictionaryWithDefault
340
F
  0
XRECORD
  5
15D
102
{ACAD_REACTORS
330
C
102
}
330
C
100
AcDbXrecord
280
     1
 90
   990106
  3

 60
     0
 61
     0
 62
     1
 63
     3
 64
     0
 65
     0
 66
     0
 67
     3
 68
     0
 69
     0
 70
     0
 71
     0
 72
     0
 40
0.0
170
     2
340
0
  0
DICTIONARY
  5
1197A
102
{ACAD_REACTORS
330
C
102
}
330
C
100
AcDbDictionary
281
     1
  3
COLORDICT
350
1197C
  3
MATERIALDICT
350
1197B
  0
DICTIONARY
  5
79D9
102
{ACAD_REACTORS
330
C
102
}
330
C
100
AcDbDictionary
281
     1
  3
DIMASSOC
350
79DA
  3
PROJECTNAME
350
11978
  0
DICTIONARY
  5
1012
102
{ACAD_REACTORS
330
C
102
}
330
C
100
AcDbDictionary
281
     1
  3
_CurrQry
350
1047
  0
DICTIONARY
  5
1B9
102
{ACAD_REACTORS
330
C
102
}
330
C
100
AcDbDictionary
281
     1
  3
AM_LOADER
350
1BA
  0
DICTIONARY
  5
EC28
102
{ACAD_REACTORS
330
C
102
}
330
C
100
AcDbDictionary
281
     1
  3
ASEBlockHierarchyIndexRecord
350
EC29
1001
DCO15
1040
1532694323.296
  0
DICTIONARY
  5
FD6
102
{ACAD_REACTORS
330
C
102
}
330
C
100
AcDbDictionary
281
     1
  0
DICTIONARY
  5
10CE3
102
{ACAD_REACTORS
330
10CE2
102
}
330
10CE2
100
AcDbDictionary
281
     1
  0
SORTENTSTABLE
  5
F3B6
102
{ACAD_REACTORS
330
F3B5
102
}
330
F3B5
100
AcDbSortentsTable
330
E1D7
  0
SORTENTSTABLE
  5
F1F4
102
{ACAD_REACTORS
330
F1F3
102
}
330
F1F3
100
AcDbSortentsTable
330
E2B9
  0
SORTENTSTABLE
  5
11446
102
{ACAD_REACTORS
330
11445
102
}
330
11445
100
AcDbSortentsTable
330
E3B4
  0
SORTENTSTABLE
  5
110A9
102
{ACAD_REACTORS
330
10990
102
}
330
10990
100
AcDbSortentsTable
330
E3CF
  0
SORTENTSTABLE
  5
1105E
102
{ACAD_REACTORS
330
ED02
102
}
330
ED02
100
AcDbSortentsTable
330
EC59
  0
SORTENTSTABLE
  5
11526
102
{ACAD_REACTORS
330
10776
102
}
330
10776
100
AcDbSortentsTable
330
EF8C
  0
SORTENTSTABLE
  5
11466
102
{ACAD_REACTORS
330
EFF6
102
}
330
EFF6
100
AcDbSortentsTable
330
EFEC
  0
SORTENTSTABLE
  5
1146B
102
{ACAD_REACTORS
330
F001
102
}
330
F001
100
AcDbSortentsTable
330
EFF8
  0
SORTENTSTABLE
  5
1157B
102
{ACAD_REACTORS
330
F435
102
}
330
F435
100
AcDbSortentsTable
330
F3B7
  0
SORTENTSTABLE
  5
11580
102
{ACAD_REACTORS
330
F4BE
102
}
330
F4BE
100
AcDbSortentsTable
330
F4B5
  0
SORTENTSTABLE
  5
115BB
102
{ACAD_REACTORS
330
F530
102
}
330
F530
100
AcDbSortentsTable
330
F4C0
  0
SORTENTSTABLE
  5
115C0
102
{ACAD_REACTORS
330
F53B
102
}
330
F53B
100
AcDbSortentsTable
330
F532
  0
SORTENTSTABLE
  5
11134
102
{ACAD_REACTORS
330
F86C
102
}
330
F86C
100
AcDbSortentsTable
330
F7B0
  0
SORTENTSTABLE
  5
11157
102
{ACAD_REACTORS
330
F890
102
}
330
F890
100
AcDbSortentsTable
330
F7EA
  0
SORTENTSTABLE
  5
111A6
102
{ACAD_REACTORS
330
F90B
102
}
330
F90B
100
AcDbSortentsTable
330
F893
  0
SORTENTSTABLE
  5
1127D
102
{ACAD_REACTORS
330
FA6D
102
}
330
FA6D
100
AcDbSortentsTable
330
F96B
  0
SORTENTSTABLE
  5
111D2
102
{ACAD_REACTORS
330
111D1
102
}
330
111D1
100
AcDbSortentsTable
330
FB1B
  0
SORTENTSTABLE
  5
11284
102
{ACAD_REACTORS
330
FF83
102
}
330
FF83
100
AcDbSortentsTable
330
FE9C
  0
SORTENTSTABLE
  5
1128B
102
{ACAD_REACTORS
330
FEAE
102
}
330
FEAE
100
AcDbSortentsTable
330
FEA2
  0
SORTENTSTABLE
  5
1131E
102
{ACAD_REACTORS
330
10025
102
}
330
10025
100
AcDbSortentsTable
330
FEB1
  0
SORTENTSTABLE
  5
11393
102
{ACAD_REACTORS
330
1009B
102
}
330
1009B
100
AcDbSortentsTable
330
FEFD
  0
SORTENTSTABLE
  5
11412
102
{ACAD_REACTORS
330
1011B
102
}
330
1011B
100
AcDbSortentsTable
330
FF3B
  0
DIMASSOC
  5
F66C
102
{ACAD_REACTORS
330
F661
102
}
330
F661
100
AcDbDimAssoc
330
F653
 90
        1
 70
     0
 71
     0
  1
AcDbOsnapPointRef
 72
     8
331
EC84
331
ECD9
331
0
 73
     2
 91
        0
 40
1.96547197748601
 10
0.0
 20
0.0
 30
0.0
 75
     1
  1
AcDbOsnapPointRef
 72
     0
 40
0.0
 10
8.883899046964842
 20
34.04703115528076
 30
0.0
 75
     0
  0
DIMASSOC
  5
F6B3
102
{ACAD_REACTORS
330
F6A8
102
}
330
F6A8
100
AcDbDimAssoc
330
F69A
 90
        3
 70
     0
 71
     0
  1
AcDbOsnapPointRef
 72
     1
331
EFF0
331
EFED
 73
     2
 91
       11
 40
1.0
 10
0.0
 20
0.0
 30
2.000000000000000E+50
 75
     0
  1
AcDbOsnapPointRef
 72
     5
331
EFF0
331
EFED
 73
     2
 91
       40
 40
1.570796326794896
 10
0.0
 20
0.0
 30
0.0
 75
     0
  0
DIMASSOC
  5
F721
102
{ACAD_REACTORS
330
F716
102
}
330
F716
100
AcDbDimAssoc
330
F708
 90
        1
 70
     0
 71
     0
  1
AcDbOsnapPointRef
 72
    13
331
F3E2
331
F48A
331
0
 73
     2
 91
        0
 40
0.0
 10
0.0
 20
0.0
 30
2.000000000000000E+50
 75
     0
  0
DIMASSOC
  5
F77C
102
{ACAD_REACTORS
330
F771
102
}
330
F771
100
AcDbDimAssoc
330
F763
 90
        3
 70
     0
 71
     0
  1
AcDbOsnapPointRef
 72
     1
331
F4DC
331
F514
331
0
 73
     2
 91
        0
 40
1.0
 10
0.0
 20
0.0
 30
2.000000000000000E+50
 75
     0
  1
AcDbOsnapPointRef
 72
     5
331
F4DC
331
F514
331
0
 73
     2
 91
        0
 40
4.712388980384689
 10
0.0
 20
0.0
 30
0.0
 75
     0
  0
DIMASSOC
  5
F7A3
102
{ACAD_REACTORS
330
F798
102
}
330
F798
100
AcDbDimAssoc
330
F78A
 90
        3
 70
     0
 71
     0
  1
AcDbOsnapPointRef
 72
     2
331
F536
331
F533
 73
     2
 91
       33
 40
4.712388980384853
 10
0.0
 20
0.0
 30
0.0
 75
     0
  1
AcDbOsnapPointRef
 72
     1
331
F536
331
F533
 73
     2
 91
       35
 40
1.570796322628222
 10
0.0
 20
0.0
 30
2.000000000000000E+50
 75
     0
  0
DIMASSOC
  5
FC11
102
{ACAD_REACTORS
330
FC05
102
}
330
FC05
100
AcDbDimAssoc
330
FBF6
 90
        3
 70
     0
 71
     0
  1
AcDbOsnapPointRef
 72
     1
331
FB32
331
FB1C
331
0
 73
     2
 91
        0
 40
1.0
 10
0.0
 20
0.0
 30
2.000000000000000E+50
 75
     0
  1
AcDbOsnapPointRef
 72
     8
331
FB32
331
FB1C
331
0
 73
     2
 91
        0
 40
0.0
 10
0.0
 20
0.0
 30
0.0
 75
     1
  1
AcDbOsnapPointRef
 72
     1
331
FB32
331
FB1C
331
0
 73
     2
 91
        0
 40
1.0
 10
0.0
 20
0.0
 30
2.000000000000000E+50
 75
     0
  0
DIMASSOC
  5
FCC8
102
{ACAD_REACTORS
330
FCBD
102
}
330
FCBD
100
AcDbDimAssoc
330
FCAF
 90
        2
 70
     0
 71
     0
  1
AcDbOsnapPointRef
 72
     2
331
F9C2
331
F96C
331
0
 73
     2
 91
        0
 40
0.4999999999999948
 10
0.0
 20
0.0
 30
0.0
 75
     0
  0
DIMASSOC
  5
FD4B
102
{ACAD_REACTORS
330
FD40
102
}
330
FD40
100
AcDbDimAssoc
330
FD32
 90
        3
 70
     0
 71
     0
  1
AcDbOsnapPointRef
 72
     6
331
F7E9
331
F7B1
331
0
 73
     2
 91
        0
 40
0.0000000000000006
 10
0.0
 20
0.0
 30
0.0
332
F7E9
332
F7B1
332
0
 74
     2
 92
        0
 75
     0
  1
AcDbOsnapPointRef
 72
     1
331
F7E9
331
F7B1
331
0
 73
     2
 91
        0
 40
1.0
 10
0.0
 20
0.0
 30
2.000000000000000E+50
 75
     0
  0
DIMASSOC
  5
FE88
102
{ACAD_REACTORS
330
FE7D
102
}
330
FE7D
100
AcDbDimAssoc
330
FE6F
 90
        3
 70
     0
 71
     0
  1
AcDbOsnapPointRef
 72
     1
331
F8BC
331
F894
331
0
 73
     2
 91
        0
 40
0.9999999999999998
 10
0.0
 20
0.0
 30
2.000000000000000E+50
 75
     0
  1
AcDbOsnapPointRef
 72
     1
331
F8BC
331
F894
331
0
 73
     2
 91
        0
 40
1.0
 10
0.0
 20
0.0
 30
2.000000000000000E+50
 75
     0
  0
DIMASSOC
  5
10136
102
{ACAD_REACTORS
330
1012B
102
}
330
1012B
100
AcDbDimAssoc
330
1011D
 90
        3
 70
     0
 71
     0
  1
AcDbOsnapPointRef
 72
     5
331
FEA1
331
FE9E
 73
     2
 91
       18
 40
3.141592653589793
 10
0.0
 20
0.0
 30
0.0
 75
     0
  1
AcDbOsnapPointRef
 72
     2
331
FEA1
331
FE9E
 73
     2
 91
       14
 40
6.559824140335609
 10
0.0
 20
0.0
 30
0.0
 75
     0
  0
DIMASSOC
  5
1015C
102
{ACAD_REACTORS
330
10150
102
}
330
10150
100
AcDbDimAssoc
330
10141
 90
        2
 70
     0
 71
     0
  1
AcDbOsnapPointRef
 72
     2
331
FEA7
331
FEA4
 73
     2
 91
       29
 40
0.5
 10
0.0
 20
0.0
 30
0.0
 75
     0
  0
DIMASSOC
  5
10550
102
{ACAD_REACTORS
330
10545
102
}
330
10545
100
AcDbDimAssoc
330
10537
 90
        3
 70
     0
 71
     0
  1
AcDbOsnapPointRef
 72
     1
331
FEA1
331
FE9E
 73
     2
 91
       15
 40
1.0
 10
0.0
 20
0.0
 30
2.000000000000000E+50
 75
     0
  1
AcDbOsnapPointRef
 72
     1
331
FEA1
331
FE9E
 73
     2
 91
       19
 40
1.0
 10
0.0
 20
0.0
 30
2.000000000000000E+50
 75
     0
  0
DIMASSOC
  5
10574
102
{ACAD_REACTORS
330
10569
102
}
330
10569
100
AcDbDimAssoc
330
1055B
 90
        1
 70
     0
 71
     0
  1
AcDbOsnapPointRef
 72
     2
331
FEA7
331
FEA4
 73
     2
 91
       42
 40
3.926990816987241
 10
0.0
 20
0.0
 30
0.0
 75
     0
  0
DIMASSOC
  5
10622
102
{ACAD_REACTORS
330
10617
102
}
330
10617
100
AcDbDimAssoc
330
10609
 90
        3
 70
     0
 71
     0
  1
AcDbOsnapPointRef
 72
     6
331
FF39
331
FEFE
331
0
 73
     2
 91
        0
 40
1.0
 10
0.0
 20
0.0
 30
0.0
332
FF39
332
FEFE
332
0
 74
     2
 92
        0
 75
     0
  1
AcDbOsnapPointRef
 72
    13
331
FF39
331
FEFE
331
0
 73
     2
 91
        0
 40
0.0
 10
0.0
 20
0.0
 30
2.000000000000000E+50
 75
     0
  0
DIMASSOC
  5
10646
102
{ACAD_REACTORS
330
1063B
102
}
330
1063B
100
AcDbDimAssoc
330
1062D
 90
        3
 70
     0
 71
     0
  1
AcDbOsnapPointRef
 72
     9
331
FF7C
331
FF3C
331
0
 73
     2
 91
        0
 40
1.702054343614221
 10
0.0
 20
0.0
 30
0.0
 75
     1
  1
AcDbOsnapPointRef
 72
     0
 40
0.0
 10
18.74078274215552
 20
9.312500000000005
 30
0.0
 75
     0
  1
AcDbOsnapPointRef
 72
     5
331
FF7C
331
FF3C
331
0
 73
     2
 91
        0
 40
4.712388980384689
 10
0.0
 20
0.0
 30
0.0
 75
     0
  0
XRECORD
  5
1198E
102
{ACAD_REACTORS
330
1198D
102
}
330
1198D
100
AcDbXrecord
280
     1
102
SHADEPLOT
 70
     0
  0
XRECORD
  5
11990
102
{ACAD_REACTORS
330
1198F
102
}
330
1198F
100
AcDbXrecord
280
     1
102
SHADEPLOT
 70
     0
  0
LAYOUT
  5
CBD3
102
{ACAD_XDICTIONARY
360
1198B
102
}
102
{ACAD_REACTORS
330
1A
102
}
330
1A
100
AcDbPlotSettings
  1

  2
pdfFactory Pro
  4
Letter
  6

 40
7.143749713897705
 41
7.143756389617919
 42
7.14373779296875
 43
7.14373779296875
 44
215.8999938964844
 45
279.3999938964844
 46
0.0
 47
0.0
 48
0.0
 49
0.0
140
0.0
141
0.0
142
1.0
143
1.0
 70
   688
 72
     0
 73
     0
 74
     5
  7
PellaCAD 2000.ctb
 75
    16
147
1.0
148
0.0
149
0.0
100
AcDbLayout
  1
Layout1
 70
     1
 71
     1
 10
-0.2812499887361301
 20
-0.2812502515597606
 11
8.218749770967978
 21
10.71874950814434
 12
0.0
 22
0.0
 32
0.0
 14
0.0045044512824113
 24
0.0025467006634372
 34
0.0
 15
7.932995314148659
 25
10.43495255003633
 35
0.0
146
0.0
 13
0.0
 23
0.0
 33
0.0
 16
1.0
 26
0.0
 36
0.0
 17
0.0
 27
1.0
 37
0.0
 76
     0
330
CBD2
331
CBD9
  0
LAYOUT
  5
22
102
{ACAD_XDICTIONARY
360
1197D
102
}
102
{ACAD_REACTORS
330
1A
102
}
330
1A
100
AcDbPlotSettings
  1

  2
pdfFactory Pro
  4
D size sheet
  6

 40
3.174999952316284
 41
3.174999952316284
 42
3.17498779296875
 43
3.17498779296875
 44
558.7999877929687
 45
863.6000366210938
 46
0.0
 47
0.0
 48
0.0
 49
0.0
140
0.0
141
0.0
142
1.0
143
1.0
 70
 11956
 72
     0
 73
     0
 74
     1
  7
PellaCAD 2000.ctb
 75
    16
147
1.0
148
120.2389910741592
149
15.246356212616
100
AcDbLayout
  1
Model
 70
     1
 71
     0
 10
0.0
 20
0.0
 11
12.0
 21
9.0
 12
0.0
 22
0.0
 32
0.0
 14
0.0
 24
0.0
 34
0.0
 15
0.0
 25
0.0
 35
0.0
146
0.0
 13
0.0
 23
0.0
 33
0.0
 16
1.0
 26
0.0
 36
0.0
 17
0.0
 27
1.0
 37
0.0
 76
     0
330
1F
  0
MLINESTYLE
  5
18
102
{ACAD_REACTORS
330
17
102
}
330
17
100
AcDbMlineStyle
  2
STANDARD
 70
     0
  3

 62
   256
 51
90.0
 52
90.0
 71
     2
 49
0.5
 62
   256
  6
BYLAYER
 49
-0.5
 62
   256
  6
BYLAYER
  0
PLOTSETTINGS
  5
CBD1
102
{ACAD_XDICTIONARY
360
11989
102
}
102
{ACAD_REACTORS
330
19
102
}
330
19
100
AcDbPlotSettings
  1
22x17 Xerox8830
  2
Xes 8830 for 2004.pc3
  4
ANSI_C_(22.00_x_17.00_Inches)
  6

 40
6.793749809265136
 41
6.793749809265136
 42
6.79376220703125
 43
6.79376220703125
 44
558.7999877929687
 45
431.7999877929687
 46
0.0
 47
35.81399999999999
 48
0.0
 49
0.0
140
0.0
141
0.0
142
1.0
143
1.49524349949159
 70
   692
 72
     0
 73
     0
 74
     1
  7
PellaCAD 2000.ctb
 75
     0
147
0.6687873917124656
148
-21.59157886640523
149
-6.230335335960706
  0
PLOTSETTINGS
  5
CBD0
102
{ACAD_XDICTIONARY
360
11987
102
}
102
{ACAD_REACTORS
330
19
102
}
330
19
100
AcDbPlotSettings
  1
22x34 Xerox8830
  2
Xes 8830 for 2004.pc3
  4
ANSI_D_(22.00_x_34.00_Inches)
  6

 40
6.793749809265136
 41
6.793749809265136
 42
6.79376220703125
 43
6.79376220703125
 44
558.7999877929687
 45
863.5999755859375
 46
13.462
 47
17.272
 48
0.0
 49
0.0
140
0.0
141
0.0
142
1.0
143
1.0
 70
   692
 72
     0
 73
     1
 74
     1
  7
PellaCAD 2000.ctb
 75
    16
147
1.0
148
-21.59157886640523
149
-6.230335335960706
  0
PLOTSETTINGS
  5
B30E
102
{ACAD_XDICTIONARY
360
1197F
102
}
102
{ACAD_REACTORS
330
19
102
}
330
19
100
AcDbPlotSettings
  1
8.5x11(row 1)
  2
\\pelsprnt02\PECSP13
  4
Letter
  6

 40
7.143749713897705
 41
5.027085304260253
 42
7.14373779296875
 43
5.027069091796875
 44
215.8999938964844
 45
279.3999938964844
 46
2.285999999999999
 47
3.556
 48
0.0
 49
0.0
140
0.0
141
0.0
142
1.0
143
1.0
 70
   692
 72
     0
 73
     0
 74
     1
  7
PellaCAD 2000.ctb
 75
    16
147
1.0
148
-4.158432903504825
149
-3.617288020760524
  0
PLOTSETTINGS
  5
BF67
102
{ACAD_XDICTIONARY
360
11981
102
}
102
{ACAD_REACTORS
330
19
102
}
330
19
100
AcDbPlotSettings
  1
8.5x11(row 2)
  2
\\pelsprnt01\PEASP5
  4
User144
  6

 40
6.349999904632568
 41
4.233341693878173
 42
6.349990844726562
 43
4.23333740234375
 44
215.8999938964844
 45
279.3999938964844
 46
3.047999999999999
 47
4.318
 48
0.0
 49
0.0
140
0.0
141
0.0
142
1.0
143
1.0
 70
   692
 72
     0
 73
     0
 74
     1
  7
PellaCAD 2000.ctb
 75
    16
147
1.0
148
-4.158432903504825
149
-3.617288020760524
  0
PLOTSETTINGS
  5
BF68
102
{ACAD_XDICTIONARY
360
11983
102
}
102
{ACAD_REACTORS
330
19
102
}
330
19
100
AcDbPlotSettings
  1
8.5x11(row 3)
  2
\\pelsprnt01\peslp0
  4
Letter
  6

 40
5.365749835968017
 41
5.408084392547607
 42
5.4080810546875
 43
5.365753173828125
 44
215.8999938964844
 45
279.3999938964844
 46
4.064
 47
3.302
 48
0.0
 49
0.0
140
0.0
141
0.0
142
1.0
143
1.0
 70
   692
 72
     0
 73
     0
 74
     1
  7
PellaCAD 2000.ctb
 75
    16
147
1.0
148
-4.158432903504825
149
-3.617288020760524
  0
PLOTSETTINGS
  5
BF69
102
{ACAD_XDICTIONARY
360
11985
102
}
102
{ACAD_REACTORS
330
19
102
}
330
19
100
AcDbPlotSettings
  1
8.5x11(row 4)
  2
\\pelsprnt02\PEASP6
  4
Letter
  6

 40
7.143749713897705
 41
5.027085304260253
 42
7.14373779296875
 43
5.027069091796875
 44
215.8999938964844
 45
279.3999938964844
 46
2.285999999999999
 47
3.556
 48
0.0
 49
0.0
140
0.0
141
0.0
142
1.0
143
1.0
 70
   692
 72
     0
 73
     0
 74
     1
  7
PellaCAD 2000.ctb
 75
    16
147
1.0
148
-4.158432903504825
149
-3.617288020760524
  0
ACDBPLACEHOLDER
  5
F
102
{ACAD_REACTORS
330
E
102
}
330
E
  0
XRECORD
  5
1197C
102
{ACAD_REACTORS
330
1197A
102
}
330
1197A
100
AcDbXrecord
280
     1
340
A6AD
  0
XRECORD
  5
1197B
102
{ACAD_REACTORS
330
1197A
102
}
330
1197A
100
AcDbXrecord
280
     1
340
A6AC
  0
DICTIONARYVAR
  5
79DA
102
{ACAD_REACTORS
330
79D9
102
}
330
79D9
100
DictionaryVariables
280
     0
  1
2
  0
DICTIONARYVAR
  5
11978
102
{ACAD_REACTORS
330
79D9
102
}
330
79D9
100
DictionaryVariables
280
     0
  1

  0
XRECORD
  5
1047
102
{ACAD_REACTORS
330
1012
102
}
330
1012
100
AcDbXrecord
280
     1
1000
ADE02C001
1070
     1
1070
     0
1002
{
1002
}
1002
{
1002
}
1002
{
1002
}
1000

  0
ACAD_PROXY_OBJECT
  5
1BA
102
{ACAD_REACTORS
330
1B9
102
}
330
1B9
100
AcDbProxyObject
 90
      499
 91
      504
 95
   655383
 70
     0
 93
       51
310
40502896026454
 94
        0
1001
ACAD
1000
AcRTDxfName
1000
AMLOADER
  0
XRECORD
  5
EC29
102
{ACAD_REACTORS
330
EC28
102
}
330
EC28
100
AcDbXrecord
280
     1
330
0
330
0
330
FEA1
330
FEA7
330
FEFC
330
FF39
330
FF7C
330
F7E9
330
F7FD
330
F4B9
330
F4DC
330
F536
330
F3E2
330
EC84
330
EFEB
330
EFF0
330
EFFC
330
EAF8
330
EAF9
330
EAFA
330
E957
330
E958
330
FB32
330
F8BC
330
F9C2
330
0
  0
DICTIONARY
  5
1198B
330
CBD3
100
AcDbDictionary
280
     1
281
     1
  3
ACAD_XREC_ROUNDTRIP
360
1198C
  0
DICTIONARY
  5
1197D
330
22
100
AcDbDictionary
280
     1
281
     1
  3
ACAD_XREC_ROUNDTRIP
360
1197E
  0
DICTIONARY
  5
11989
330
CBD1
100
AcDbDictionary
280
     1
281
     1
  3
ACAD_XREC_ROUNDTRIP
360
1198A
  0
DICTIONARY
  5
11987
330
CBD0
100
AcDbDictionary
280
     1
281
     1
  3
ACAD_XREC_ROUNDTRIP
360
11988
  0
DICTIONARY
  5
1197F
330
B30E
100
AcDbDictionary
280
     1
281
     1
  3
ACAD_XREC_ROUNDTRIP
360
11980
  0
DICTIONARY
  5
11981
330
BF67
100
AcDbDictionary
280
     1
281
     1
  3
ACAD_XREC_ROUNDTRIP
360
11982
  0
DICTIONARY
  5
11983
330
BF68
100
AcDbDictionary
280
     1
281
     1
  3
ACAD_XREC_ROUNDTRIP
360
11984
  0
DICTIONARY
  5
11985
330
BF69
100
AcDbDictionary
280
     1
281
     1
  3
ACAD_XREC_ROUNDTRIP
360
11986
  0
XRECORD
  5
1198C
102
{ACAD_REACTORS
330
1198B
102
}
330
1198B
100
AcDbXrecord
280
     1
102
SHADEPLOT
 70
     1
102
SHADEPLOTRESLEVEL
 70
     2
102
SHADEPLOTCUSTOMDPI
 70
   150
  0
XRECORD
  5
1197E
102
{ACAD_REACTORS
330
1197D
102
}
330
1197D
100
AcDbXrecord
280
     1
102
SHADEPLOT
 70
     0
102
SHADEPLOTRESLEVEL
 70
     2
102
SHADEPLOTCUSTOMDPI
 70
   300
  0
XRECORD
  5
1198A
102
{ACAD_REACTORS
330
11989
102
}
330
11989
100
AcDbXrecord
280
     1
102
SHADEPLOT
 70
     1
102
SHADEPLOTRESLEVEL
 70
     2
102
SHADEPLOTCUSTOMDPI
 70
   200
  0
XRECORD
  5
11988
102
{ACAD_REACTORS
330
11987
102
}
330
11987
100
AcDbXrecord
280
     1
102
SHADEPLOT
 70
     1
102
SHADEPLOTRESLEVEL
 70
     2
102
SHADEPLOTCUSTOMDPI
 70
   200
  0
XRECORD
  5
11980
102
{ACAD_REACTORS
330
1197F
102
}
330
1197F
100
AcDbXrecord
280
     1
102
SHADEPLOT
 70
     1
102
SHADEPLOTRESLEVEL
 70
     2
102
SHADEPLOTCUSTOMDPI
 70
   300
  0
XRECORD
  5
11982
102
{ACAD_REACTORS
330
11981
102
}
330
11981
100
AcDbXrecord
280
     1
102
SHADEPLOT
 70
     1
102
SHADEPLOTRESLEVEL
 70
     2
102
SHADEPLOTCUSTOMDPI
 70
   300
  0
XRECORD
  5
11984
102
{ACAD_REACTORS
330
11983
102
}
330
11983
100
AcDbXrecord
280
     1
102
SHADEPLOT
 70
     1
102
SHADEPLOTRESLEVEL
 70
     2
102
SHADEPLOTCUSTOMDPI
 70
   300
  0
XRECORD
  5
11986
102
{ACAD_REACTORS
330
11985
102
}
330
11985
100
AcDbXrecord
280
     1
102
SHADEPLOT
 70
     1
102
SHADEPLOTRESLEVEL
 70
     2
102
SHADEPLOTCUSTOMDPI
 70
   300
  0
ENDSEC
  0
EOF
