  0
SECTION
  2
HEADER
  9
$ACADVER
  1
AC1015
  9
$ACADMAINTVER
 70
    20
  9
$DWGCODEPAGE
  3
ANSI_1252
  9
$INSBASE
 10
0.0
 20
0.0
 30
0.0
  9
$EXTMIN
 10
0.3912870717730428
 20
-0.083423438867257
 30
-0.0015258207003583
  9
$EXTMAX
 10
22.58012471800215
 20
24.07158229144696
 30
0.0000000349246037
  9
$LIMMIN
 10
-0.2812499887361301
 20
-0.2812502515597606
  9
$LIMMAX
 10
8.218749770967978
 20
10.71874950814434
  9
$ORTHOMODE
 70
     1
  9
$REGENMODE
 70
     1
  9
$FILLMODE
 70
     1
  9
$QTEXTMODE
 70
     0
  9
$MIRRTEXT
 70
     0
  9
$LTSCALE
 40
0.5
  9
$ATTMODE
 70
     1
  9
$TEXTSIZE
 40
6.75
  9
$TRACEWID
 40
0.05
  9
$TEXTSTYLE
  7
Standard
  9
$CLAYER
  8
0
  9
$CELTYPE
  6
ByLayer
  9
$CECOLOR
 62
   256
  9
$CELTSCALE
 40
1.0
  9
$DISPSILH
 70
     0
  9
$DIMSCALE
 40
1.0
  9
$DIMASZ
 40
0.125
  9
$DIMEXO
 40
0.0625
  9
$DIMDLI
 40
0.0625
  9
$DIMRND
 40
0.0
  9
$DIMDLE
 40
0.0
  9
$DIMEXE
 40
0.0625
  9
$DIMTP
 40
0.0
  9
$DIMTM
 40
0.0
  9
$DIMTXT
 40
0.09375
  9
$DIMCEN
 40
0.09
  9
$DIMTSZ
 40
0.0
  9
$DIMTOL
 70
     0
  9
$DIMLIM
 70
     0
  9
$DIMTIH
 70
     0
  9
$DIMTOH
 70
     0
  9
$DIMSE1
 70
     0
  9
$DIMSE2
 70
     0
  9
$DIMTAD
 70
     1
  9
$DIMZIN
 70
     2
  9
$DIMBLK
  1

  9
$DIMASO
 70
     1
  9
$DIMSHO
 70
     1
  9
$DIMPOST
  1

  9
$DIMAPOST
  1

  9
$DIMALT
 70
     0
  9
$DIMALTD
 70
     2
  9
$DIMALTF
 40
25.4
  9
$DIMLFAC
 40
1.0
  9
$DIMTOFL
 70
     0
  9
$DIMTVP
 40
0.0
  9
$DIMTIX
 70
     0
  9
$DIMSOXD
 70
     0
  9
$DIMSAH
 70
     0
  9
$DIMBLK1
  1

  9
$DIMBLK2
  1

  9
$DIMSTYLE
  2
Standard
  9
$DIMCLRD
 70
   256
  9
$DIMCLRE
 70
   256
  9
$DIMCLRT
 70
     7
  9
$DIMTFAC
 40
0.75
  9
$DIMGAP
 40
0.0625
  9
$DIMJUST
 70
     0
  9
$DIMSD1
 70
     0
  9
$DIMSD2
 70
     0
  9
$DIMTOLJ
 70
     1
  9
$DIMTZIN
 70
     0
  9
$DIMALTZ
 70
     0
  9
$DIMALTTZ
 70
     0
  9
$DIMUPT
 70
     0
  9
$DIMDEC
 70
     4
  9
$DIMTDEC
 70
     4
  9
$DIMALTU
 70
     2
  9
$DIMALTTD
 70
     2
  9
$DIMTXSTY
  7
Standard
  9
$DIMAUNIT
 70
     0
  9
$DIMADEC
 70
     3
  9
$DIMALTRND
 40
0.0
  9
$DIMAZIN
 70
     0
  9
$DIMDSEP
 70
    46
  9
$DIMATFIT
 70
     3
  9
$DIMFRAC
 70
     1
  9
$DIMLDRBLK
  1

  9
$DIMLUNIT
 70
     5
  9
$DIMLWD
 70
    -2
  9
$DIMLWE
 70
    -2
  9
$DIMTMOVE
 70
     2
  9
$LUNITS
 70
     2
  9
$LUPREC
 70
     7
  9
$SKETCHINC
 40
0.1
  9
$FILLETRAD
 40
0.0
  9
$AUNITS
 70
     0
  9
$AUPREC
 70
     3
  9
$MENU
  1
.
  9
$ELEVATION
 40
0.0
  9
$PELEVATION
 40
0.0
  9
$THICKNESS
 40
0.0
  9
$LIMCHECK
 70
     0
  9
$CHAMFERA
 40
0.5
  9
$CHAMFERB
 40
0.5
  9
$CHAMFERC
 40
1.0
  9
$CHAMFERD
 40
0.0
  9
$SKPOLY
 70
     0
  9
$TDCREATE
 40
2456073.397494283
  9
$TDUCREATE
 40
2456073.605827616
  9
$TDUPDATE
 40
2456077.606970811
  9
$TDUUPDATE
 40
2456077.815304143
  9
$TDINDWG
 40
0.0144249421
  9
$TDUSRTIMER
 40
0.0144249421
  9
$USRTIMER
 70
     1
  9
$ANGBASE
 50
0.0
  9
$ANGDIR
 70
     0
  9
$PDMODE
 70
    34
  9
$PDSIZE
 40
0.015
  9
$PLINEWID
 40
0.0
  9
$SPLFRAME
 70
     0
  9
$SPLINETYPE
 70
     6
  9
$SPLINESEGS
 70
     8
  9
$HANDSEED
  5
10F1
  9
$SURFTAB1
 70
     6
  9
$SURFTAB2
 70
     6
  9
$SURFTYPE
 70
     6
  9
$SURFU
 70
     6
  9
$SURFV
 70
     6
  9
$UCSBASE
  2

  9
$UCSNAME
  2

  9
$UCSORG
 10
0.0
 20
0.0
 30
0.0
  9
$UCSXDIR
 10
1.0
 20
0.0
 30
0.0
  9
$UCSYDIR
 10
0.0
 20
1.0
 30
0.0
  9
$UCSORTHOREF
  2

  9
$UCSORTHOVIEW
 70
     0
  9
$UCSORGTOP
 10
0.0
 20
0.0
 30
0.0
  9
$UCSORGBOTTOM
 10
0.0
 20
0.0
 30
0.0
  9
$UCSORGLEFT
 10
0.0
 20
0.0
 30
0.0
  9
$UCSORGRIGHT
 10
0.0
 20
0.0
 30
0.0
  9
$UCSORGFRONT
 10
0.0
 20
0.0
 30
0.0
  9
$UCSORGBACK
 10
0.0
 20
0.0
 30
0.0
  9
$PUCSBASE
  2

  9
$PUCSNAME
  2

  9
$PUCSORG
 10
0.0
 20
0.0
 30
0.0
  9
$PUCSXDIR
 10
1.0
 20
0.0
 30
0.0
  9
$PUCSYDIR
 10
0.0
 20
1.0
 30
0.0
  9
$PUCSORTHOREF
  2

  9
$PUCSORTHOVIEW
 70
     0
  9
$PUCSORGTOP
 10
0.0
 20
0.0
 30
0.0
  9
$PUCSORGBOTTOM
 10
0.0
 20
0.0
 30
0.0
  9
$PUCSORGLEFT
 10
0.0
 20
0.0
 30
0.0
  9
$PUCSORGRIGHT
 10
0.0
 20
0.0
 30
0.0
  9
$PUCSORGFRONT
 10
0.0
 20
0.0
 30
0.0
  9
$PUCSORGBACK
 10
0.0
 20
0.0
 30
0.0
  9
$USERI1
 70
     0
  9
$USERI2
 70
     0
  9
$USERI3
 70
     0
  9
$USERI4
 70
     0
  9
$USERI5
 70
     0
  9
$USERR1
 40
0.0
  9
$USERR2
 40
0.0
  9
$USERR3
 40
0.0
  9
$USERR4
 40
0.0
  9
$USERR5
 40
0.0
  9
$WORLDVIEW
 70
     1
  9
$SHADEDGE
 70
     3
  9
$SHADEDIF
 70
    70
  9
$TILEMODE
 70
     1
  9
$MAXACTVP
 70
    64
  9
$PINSBASE
 10
0.0
 20
0.0
 30
0.0
  9
$PLIMCHECK
 70
     0
  9
$PEXTMIN
 10
1.000000000000000E+20
 20
1.000000000000000E+20
 30
1.000000000000000E+20
  9
$PEXTMAX
 10
-1.000000000000000E+20
 20
-1.000000000000000E+20
 30
-1.000000000000000E+20
  9
$PLIMMIN
 10
0.0
 20
0.0
  9
$PLIMMAX
 10
12.0
 20
9.0
  9
$UNITMODE
 70
     0
  9
$VISRETAIN
 70
     1
  9
$PLINEGEN
 70
     0
  9
$PSLTSCALE
 70
     1
  9
$TREEDEPTH
 70
  3020
  9
$CMLSTYLE
  2
Standard
  9
$CMLJUST
 70
     0
  9
$CMLSCALE
 40
1.0
  9
$PROXYGRAPHICS
 70
     1
  9
$MEASUREMENT
 70
     0
  9
$CELWEIGHT
370
    -1
  9
$ENDCAPS
280
     0
  9
$JOINSTYLE
280
     0
  9
$LWDISPLAY
290
     0
  9
$INSUNITS
 70
     1
  9
$HYPERLINKBASE
  1

  9
$STYLESHEET
  1

  9
$XEDIT
290
     1
  9
$CEPSNTYPE
380
     0
  9
$PSTYLEMODE
290
     1
  9
$FINGERPRINTGUID
  2
{50AC1798-6CF8-4C10-AF3D-FCA738E4081B}
  9
$VERSIONGUID
  2
{6777A9F3-DAEF-40C8-B400-0F775AE75591}
  9
$EXTNAMES
290
     1
  9
$PSVPSCALE
 40
0.0
  9
$OLESTARTUP
290
     0
  0
ENDSEC
  0
SECTION
  2
CLASSES
  0
CLASS
  1
ACDBDICTIONARYWDFLT
  2
AcDbDictionaryWithDefault
  3
ObjectDBX Classes
 90
        0
280
     0
281
     0
  0
CLASS
  1
MATERIAL
  2
AcDbMaterial
  3
ObjectDBX Classes
 90
     1153
280
     0
281
     0
  0
CLASS
  1
VISUALSTYLE
  2
AcDbVisualStyle
  3
ObjectDBX Classes
 90
     4095
280
     0
281
     0
  0
CLASS
  1
SCALE
  2
AcDbScale
  3
ObjectDBX Classes
 90
     1153
280
     0
281
     0
  0
CLASS
  1
TABLESTYLE
  2
AcDbTableStyle
  3
ObjectDBX Classes
 90
     4095
280
     0
281
     0
  0
CLASS
  1
MLEADERSTYLE
  2
AcDbMLeaderStyle
  3
ACDB_MLEADERSTYLE_CLASS
 90
     4095
280
     0
281
     0
  0
CLASS
  1
SORTENTSTABLE
  2
AcDbSortentsTable
  3
ObjectDBX Classes
 90
        0
280
     0
281
     0
  0
CLASS
  1
BREAKDATA
  2
AcDbBreakData
  3
ObjectDBX Classes
 90
     1024
280
     0
281
     0
  0
CLASS
  1
ACDBASSOCACTION
  2
AcDbAssocAction
  3
ObjectDBX Classes
 90
    33793
280
     0
281
     0
  0
CLASS
  1
ACDBASSOCARRAYACTIONBODY
  2
AcDbAssocArrayActionBody
  3
ObjectDBX Classes
 90
    33793
280
     0
281
     0
  0
CLASS
  1
ACDBASSOCVERTEXACTIONPARAM
  2
AcDbAssocVertexActionParam
  3
ObjectDBX Classes
 90
    33793
280
     0
281
     0
  0
CLASS
  1
ACDBASSOCDEPENDENCY
  2
AcDbAssocDependency
  3
ObjectDBX Classes
 90
    33793
280
     0
281
     0
  0
CLASS
  1
ACDBASSOCARRAYRECTANGULARPARAMETERS
  2
AcDbAssocArrayRectangularParameters
  3
ObjectDBX Classes
 90
    33793
280
     0
281
     0
  0
CLASS
  1
ACDBASSOCNETWORK
  2
AcDbAssocNetwork
  3
ObjectDBX Classes
 90
    33793
280
     0
281
     0
  0
CLASS
  1
FIELD
  2
AcDbField
  3
ObjectDBX Classes
 90
    33920
280
     0
281
     0
  0
CLASS
  1
FIELDLIST
  2
AcDbFieldList
  3
ObjectDBX Classes
 90
     1152
280
     0
281
     0
  0
CLASS
  1
DICTIONARYVAR
  2
AcDbDictionaryVar
  3
ObjectDBX Classes
 90
        0
280
     0
281
     0
  0
CLASS
  1
CELLSTYLEMAP
  2
AcDbCellStyleMap
  3
ObjectDBX Classes
 90
     1152
280
     0
281
     0
  0
CLASS
  1
ACDBPLACEHOLDER
  2
AcDbPlaceHolder
  3
ObjectDBX Classes
 90
        0
280
     0
281
     0
  0
CLASS
  1
LAYOUT
  2
AcDbLayout
  3
ObjectDBX Classes
 90
        0
280
     0
281
     0
  0
ENDSEC
  0
SECTION
  2
TABLES
  0
TABLE
  2
VPORT
  5
8
102
{ACAD_XDICTIONARY
360
E5D
102
}
330
0
100
AcDbSymbolTable
 70
     1
  0
VPORT
  5
57
330
8
100
AcDbSymbolTableRecord
100
AcDbViewportTableRecord
  2
*Active
 70
     0
 10
0.0
 20
0.0
 11
1.0
 21
1.0
 12
11.48570589488759
 22
11.99407942628985
 13
0.0
 23
0.0
 14
0.0625
 24
0.0625
 15
0.25
 25
0.25
 16
0.0
 26
0.0
 36
1.0
 17
0.0
 27
0.0
 37
0.0
 40
24.31288158476071
 41
2.088331515812432
 42
50.0
 43
0.0
 44
0.0
 50
0.0
 51
0.0
 71
     0
 72
  5000
 73
     1
 74
     1
 75
     1
 76
     0
 77
     0
 78
     0
281
     0
 65
     1
110
0.0
120
0.0
130
0.0
111
1.0
121
0.0
131
0.0
112
0.0
122
1.0
132
0.0
 79
     0
146
0.0
1001
ACAD_NAV_VCDISPLAY
1070
     3
  0
ENDTAB
  0
TABLE
  2
LTYPE
  5
5
330
0
100
AcDbSymbolTable
 70
     2
  0
LTYPE
  5
5B
330
5
100
AcDbSymbolTableRecord
100
AcDbLinetypeTableRecord
  2
ByBlock
 70
     0
  3

 72
    65
 73
     0
 40
0.0
  0
LTYPE
  5
5C
330
5
100
AcDbSymbolTableRecord
100
AcDbLinetypeTableRecord
  2
ByLayer
 70
     0
  3

 72
    65
 73
     0
 40
0.0
  0
LTYPE
  5
5D
330
5
100
AcDbSymbolTableRecord
100
AcDbLinetypeTableRecord
  2
Continuous
 70
     0
  3
Solid line
 72
    65
 73
     0
 40
0.0
  0
ENDTAB
  0
TABLE
  2
LAYER
  5
2
102
{ACAD_XDICTIONARY
360
EC7
102
}
330
0
100
AcDbSymbolTable
 70
     6
  0
LAYER
  5
54
102
{ACAD_XDICTIONARY
360
E0A
102
}
330
2
100
AcDbSymbolTableRecord
100
AcDbLayerTableRecord
  2
0
 70
     0
 62
     7
  6
Continuous
370
    -3
390
F
1001
AcAecLayerStandard
1000

1000

  0
LAYER
  5
75
330
2
100
AcDbSymbolTableRecord
100
AcDbLayerTableRecord
  2
Defpoints
 70
     0
 62
     7
  6
Continuous
290
     0
370
    -3
390
F
1001
AcAecLayerStandard
1000

1000

  0
LAYER
  5
CA
102
{ACAD_XDICTIONARY
360
CB
102
}
330
2
100
AcDbSymbolTableRecord
100
AcDbLayerTableRecord
  2
TXT
 70
     0
 62
   255
  6
Continuous
370
    -3
390
F
  0
LAYER
  5
CD
102
{ACAD_XDICTIONARY
360
CE
102
}
330
2
100
AcDbSymbolTableRecord
100
AcDbLayerTableRecord
  2
Clad
 70
     0
 62
    63
  6
Continuous
370
    -3
390
F
  0
LAYER
  5
D4
102
{ACAD_XDICTIONARY
360
D5
102
}
330
2
100
AcDbSymbolTableRecord
100
AcDbLayerTableRecord
  2
Points
 70
     0
 62
     7
  6
Continuous
290
     0
370
    -3
390
F
  0
LAYER
  5
EE
102
{ACAD_XDICTIONARY
360
EF
102
}
330
2
100
AcDbSymbolTableRecord
100
AcDbLayerTableRecord
  2
Dim
 70
     0
 62
     1
  6
Continuous
370
    -3
390
F
  0
ENDTAB
  0
TABLE
  2
STYLE
  5
3
330
0
100
AcDbSymbolTable
 70
     1
  0
STYLE
  5
55
330
3
100
AcDbSymbolTableRecord
100
AcDbTextStyleTableRecord
  2
Standard
 70
     0
 40
0.0
 41
1.0
 50
0.0
 71
     0
 42
6.75
  3
arial.ttf
  4

1001
ACAD
1000
Arabic Transparent
1071
       34
  0
ENDTAB
  0
TABLE
  2
VIEW
  5
6
330
0
100
AcDbSymbolTable
 70
     0
  0
ENDTAB
  0
TABLE
  2
UCS
  5
7
330
0
100
AcDbSymbolTable
 70
     0
  0
ENDTAB
  0
TABLE
  2
APPID
  5
9
330
0
100
AcDbSymbolTable
 70
    10
  0
APPID
  5
56
330
9
100
AcDbSymbolTableRecord
100
AcDbRegAppTableRecord
  2
ACAD
 70
     0
  0
APPID
  5
5E
330
9
100
AcDbSymbolTableRecord
100
AcDbRegAppTableRecord
  2
AcadAnnotative
 70
     0
  0
APPID
  5
74
330
9
100
AcDbSymbolTableRecord
100
AcDbRegAppTableRecord
  2
ACAD_PSEXT
 70
     0
  0
APPID
  5
7C
330
9
100
AcDbSymbolTableRecord
100
AcDbRegAppTableRecord
  2
ACAD_DSTYLE_DIMJAG
 70
     0
  0
APPID
  5
7D
330
9
100
AcDbSymbolTableRecord
100
AcDbRegAppTableRecord
  2
ACAD_DSTYLE_DIMTALN
 70
     0
  0
APPID
  5
8DD
330
9
100
AcDbSymbolTableRecord
100
AcDbRegAppTableRecord
  2
AcAecLayerStandard
 70
     0
  0
APPID
  5
E15
330
9
100
AcDbSymbolTableRecord
100
AcDbRegAppTableRecord
  2
ACAD_NAV_VCDISPLAY
 70
     0
  0
APPID
  5
E93
330
9
100
AcDbSymbolTableRecord
100
AcDbRegAppTableRecord
  2
ACAD_MLEADERVER
 70
     0
  0
APPID
  5
EC6
330
9
100
AcDbSymbolTableRecord
100
AcDbRegAppTableRecord
  2
ADE
 70
     0
  0
APPID
  5
ED8
330
9
100
AcDbSymbolTableRecord
100
AcDbRegAppTableRecord
  2
ACAD_EXEMPT_FROM_CAD_STANDARDS
 70
     0
  0
ENDTAB
  0
TABLE
  2
DIMSTYLE
  5
A
330
0
100
AcDbSymbolTable
 70
     7
100
AcDbDimStyleTable
 71
     1
340
83
  0
DIMSTYLE
105
58
330
A
100
AcDbSymbolTableRecord
100
AcDbDimStyleTableRecord
  2
Standard
 70
     0
 41
0.125
 43
0.0625
 44
0.0625
 73
     0
 74
     0
 77
     1
 78
     2
140
0.09375
146
0.75
147
0.0625
176
   256
177
   256
178
     7
179
     3
276
     1
277
     5
279
     2
340
55
  0
DIMSTYLE
105
83
102
{ACAD_REACTORS
330
ED
330
FD
330
10B
330
11C
330
12A
330
138
330
149
330
157
330
165
330
176
330
184
330
192
330
1A3
330
1B1
330
1BE
330
1CC
330
1DA
330
1E7
330
1F4
330
201
330
20E
330
21B
330
228
330
236
330
244
330
254
330
262
330
270
330
280
330
28E
330
29C
330
2AC
330
2BA
102
}
330
A
100
AcDbSymbolTableRecord
100
AcDbDimStyleTableRecord
  2
12 inch Scale
 70
     0
  3
"\X
 41
0.25
 42
0.125
 43
0.2
 44
0.0625
 73
     0
 74
     0
 77
     1
 78
    10
140
0.28
146
0.75
147
0.03125
170
     1
171
     0
176
   256
177
   256
178
   255
179
     3
274
     0
276
     2
277
     5
279
     2
340
55
371
    -1
372
    -1
1001
ACAD_DSTYLE_DIMJAG
1070
   388
1040
1.5
1001
ACAD_DSTYLE_DIMTALN
1070
   392
1070
     0
  0
ENDTAB
  0
TABLE
  2
BLOCK_RECORD
  5
1
330
0
100
AcDbSymbolTable
 70
    51
  0
BLOCK_RECORD
  5
6C
102
{ACAD_XDICTIONARY
360
317
102
}
330
1
100
AcDbSymbolTableRecord
100
AcDbBlockTableRecord
  2
*Model_Space
340
6F
  0
BLOCK_RECORD
  5
68
102
{ACAD_XDICTIONARY
360
8CA
102
}
330
1
100
AcDbSymbolTableRecord
100
AcDbBlockTableRecord
  2
*Paper_Space
340
6B
  0
BLOCK_RECORD
  5
70
330
1
100
AcDbSymbolTableRecord
100
AcDbBlockTableRecord
  2
*Paper_Space0
340
73
  0
BLOCK_RECORD
  5
2CA
102
{ACAD_XDICTIONARY
360
2CB
102
}
330
1
100
AcDbSymbolTableRecord
100
AcDbBlockTableRecord
  2
ECET Drip Cap 50GU
340
0
310
2800000020000000200000000100080000000000000400000000000000000000000000000000000000000000000080000080000000808000800000008000800080800000C0C0C000C0DCC000F0CAA6000020400000206000002080000020A0000020C0000020E00000400000004020000040400000406000004080000040A0
310
000040C0000040E00000600000006020000060400000606000006080000060A0000060C0000060E00000800000008020000080400000806000008080000080A0000080C0000080E00000A0000000A0200000A0400000A0600000A0800000A0A00000A0C00000A0E00000C0000000C0200000C0400000C0600000C0800000C0
310
A00000C0C00000C0E00000E0000000E0200000E0400000E0600000E0800000E0A00000E0C00000E0E00040000000400020004000400040006000400080004000A0004000C0004000E00040200000402020004020400040206000402080004020A0004020C0004020E000404000004040200040404000404060004040800040
310
40A0004040C0004040E00040600000406020004060400040606000406080004060A0004060C0004060E00040800000408020004080400040806000408080004080A0004080C0004080E00040A0000040A0200040A0400040A0600040A0800040A0A00040A0C00040A0E00040C0000040C0200040C0400040C0600040C08000
310
40C0A00040C0C00040C0E00040E0000040E0200040E0400040E0600040E0800040E0A00040E0C00040E0E00080000000800020008000400080006000800080008000A0008000C0008000E00080200000802020008020400080206000802080008020A0008020C0008020E00080400000804020008040400080406000804080
310
008040A0008040C0008040E00080600000806020008060400080606000806080008060A0008060C0008060E00080800000808020008080400080806000808080008080A0008080C0008080E00080A0000080A0200080A0400080A0600080A0800080A0A00080A0C00080A0E00080C0000080C0200080C0400080C0600080C0
310
800080C0A00080C0C00080C0E00080E0000080E0200080E0400080E0600080E0800080E0A00080E0C00080E0E000C0000000C0002000C0004000C0006000C0008000C000A000C000C000C000E000C0200000C0202000C0204000C0206000C0208000C020A000C020C000C020E000C0400000C0402000C0404000C0406000C0
310
408000C040A000C040C000C040E000C0600000C0602000C0604000C0606000C0608000C060A000C060C000C060E000C0800000C0802000C0804000C0806000C0808000C080A000C080C000C080E000C0A00000C0A02000C0A04000C0A06000C0A08000C0A0A000C0A0C000C0A0E000C0C00000C0C02000C0C04000C0C06000
310
C0C08000C0C0A000F0FBFF00A4A0A000808080000000FF0000FF000000FFFF00FF000000FF00FF00FFFF0000FFFFFF000000000000000000000000000000000000000000000000000000000000000000000000000000000000FFFF00000000000000000000000000000000000000000000000000000000000000FF00000000
310
00000000000000000000000000000000000000000000000000000000000000000000000000000000000000000000000000000000000000000000000000000000000000000000000000000000000000000000000000000000000000000000000000000000000000000000000000000000000000000000000000000000000000
310
00000000000000000000000000000000000000000000000000000000000000000000000000000000000000000000000000000000000000000000000000000000000000000000000000000000000000000000000000000000000000000000000000000000000000000000000000000000000000000000000000000000000000
310
00000000000000000000000000000000000000000000000000000000000000000000000000000000000000000000000000000000000000000000000000000000000000000000000000000000000000000000000000000000000000000000000000000000000000000000000000000000000000000000000000000000000000
310
00000000000000000000000000000000000000000000000000000000000000000000000000000000000000000000000000000000000000B600000000000000000000000000000000000000000000000000000000000000B6B6000000000000000000000000000000000000000000000000000000000000B6B6000000000000
310
000000000000000000000000000000000000000000000000B6B6B6B6B6B6B6B6B6B6B6B6B6B6B6B6B6B6B6B6B6B6B6B6B6B600000000000000000000000000000000000000000000000000000000000000B600000000000000000000000000000000000000000000000000000000000000B600000000000000000000000000
310
000000000000000000000000000000000000B600000000000000000000000000000000000000000000000000000000000000B600000000000000000000000000000000000000000000000000000000000000B600000000000000000000000000000000000000000000000000000000000000B6000000000000000000000000
310
00000000000000000000000000000000000000B600000000000000000000000000000000000000000000000000000000000000B600000000000000000000000000000000000000000000000000000000000000B600000000000000000000000000000000000000000000000000000000000000B60000000000000000000000
310
0000000000000000000000000000000000000000B60000000000000000000000000000000000000000000000000000000000000000000000
102
{BLKREFS
331
2C9
102
}
1001
ACAD
1000
DesignCenter Data
1002
{
1070
     1
1070
     1
1002
}
  0
BLOCK_RECORD
  5
2D2
102
{ACAD_XDICTIONARY
360
2D3
102
}
330
1
100
AcDbSymbolTableRecord
100
AcDbBlockTableRecord
  2
ECET Drip Cap Monroe 50NN
340
0
310
2800000020000000200000000100080000000000000400000000000000000000000000000000000000000000000080000080000000808000800000008000800080800000C0C0C000C0DCC000F0CAA6000020400000206000002080000020A0000020C0000020E00000400000004020000040400000406000004080000040A0
310
000040C0000040E00000600000006020000060400000606000006080000060A0000060C0000060E00000800000008020000080400000806000008080000080A0000080C0000080E00000A0000000A0200000A0400000A0600000A0800000A0A00000A0C00000A0E00000C0000000C0200000C0400000C0600000C0800000C0
310
A00000C0C00000C0E00000E0000000E0200000E0400000E0600000E0800000E0A00000E0C00000E0E00040000000400020004000400040006000400080004000A0004000C0004000E00040200000402020004020400040206000402080004020A0004020C0004020E000404000004040200040404000404060004040800040
310
40A0004040C0004040E00040600000406020004060400040606000406080004060A0004060C0004060E00040800000408020004080400040806000408080004080A0004080C0004080E00040A0000040A0200040A0400040A0600040A0800040A0A00040A0C00040A0E00040C0000040C0200040C0400040C0600040C08000
310
40C0A00040C0C00040C0E00040E0000040E0200040E0400040E0600040E0800040E0A00040E0C00040E0E00080000000800020008000400080006000800080008000A0008000C0008000E00080200000802020008020400080206000802080008020A0008020C0008020E00080400000804020008040400080406000804080
310
008040A0008040C0008040E00080600000806020008060400080606000806080008060A0008060C0008060E00080800000808020008080400080806000808080008080A0008080C0008080E00080A0000080A0200080A0400080A0600080A0800080A0A00080A0C00080A0E00080C0000080C0200080C0400080C0600080C0
310
800080C0A00080C0C00080C0E00080E0000080E0200080E0400080E0600080E0800080E0A00080E0C00080E0E000C0000000C0002000C0004000C0006000C0008000C000A000C000C000C000E000C0200000C0202000C0204000C0206000C0208000C020A000C020C000C020E000C0400000C0402000C0404000C0406000C0
310
408000C040A000C040C000C040E000C0600000C0602000C0604000C0606000C0608000C060A000C060C000C060E000C0800000C0802000C0804000C0806000C0808000C080A000C080C000C080E000C0A00000C0A02000C0A04000C0A06000C0A08000C0A0A000C0A0C000C0A0E000C0C00000C0C02000C0C04000C0C06000
310
C0C08000C0C0A000F0FBFF00A4A0A000808080000000FF0000FF000000FFFF00FF000000FF00FF00FFFF0000FFFFFF0000000000000000000000000000000000000000000000000000000000000000000000000000000000000000000000000000000000000000000000000000000000000000000000000000000000000000
310
000000000000000000000000000000000000000000000000000000000000FFFF0000000000000000000000000000000000000000000000000000000000000000000000000000000000000000000000000000000000000000000000000000000000000000000000000000000000000000000000000000000000000000000000
310
00000000000000000000000000000000000000000000000000000000000000000000000000000000000000000000000000000000000000000000000000000000000000000000000000000000000000000000000000000000000000000000000000000000000000000000000000000000000000000000000000000000000000
310
000000000000000000000000000000000000000000000000000000000000000000000000000000000000000000000000000000000000000000000000000000000000000000000000000000000000000000000000000000000000000000000000000000000000000000000000000000000000000000B6000000000000000000
310
000000000000000000000000000000000000000000B600B6000000000000000000000000000000000000000000000000000000000000B6B6000000000000000000000000000000000000000000000000000000000000B600B6000000000000000000000000000000000000000000000000000000000000B6B6B6B6B6B6B6B6
310
B6B6B6B6B6B6B6B6B6B6B6B6B6B6B6B6B6B6B6000000000000B6B6B6B6B6B6B6B6B6B6B6B6B6B6B6B6B6B6B6B6B6B6B6B6B6B6B6000000000000000000000000000000000000000000000000000000000000B6B6000000000000000000000000000000000000000000000000000000000000B6B60000000000000000000000
310
00000000000000000000000000000000000000B6B6000000000000000000000000000000000000000000000000000000000000B6B6000000000000000000000000000000000000000000000000000000000000B6B6000000000000000000000000000000000000000000000000000000000000B6B600000000000000000000
310
0000000000000000000000000000000000000000B6B6000000000000000000000000000000000000000000000000000000000000B6B6000000000000000000000000000000000000000000000000000000000000B6B60000000000000000000000000000000000000000000000000000000000000000000000000000000000
310
0000000000000000000000000000000000000000000000000000000000000000000000000000000000000000000000000000000000000000
102
{BLKREFS
331
2D1
102
}
1001
ACAD
1000
DesignCenter Data
1002
{
1070
     1
1070
     1
1002
}
  0
BLOCK_RECORD
  5
2DA
330
1
100
AcDbSymbolTableRecord
100
AcDbBlockTableRecord
  2
ECET Drip Cap Jefferson 50NL
340
0
310
2800000020000000200000000100080000000000000400000000000000000000000000000000000000000000000080000080000000808000800000008000800080800000C0C0C000C0DCC000F0CAA6000020400000206000002080000020A0000020C0000020E00000400000004020000040400000406000004080000040A0
310
000040C0000040E00000600000006020000060400000606000006080000060A0000060C0000060E00000800000008020000080400000806000008080000080A0000080C0000080E00000A0000000A0200000A0400000A0600000A0800000A0A00000A0C00000A0E00000C0000000C0200000C0400000C0600000C0800000C0
310
A00000C0C00000C0E00000E0000000E0200000E0400000E0600000E0800000E0A00000E0C00000E0E00040000000400020004000400040006000400080004000A0004000C0004000E00040200000402020004020400040206000402080004020A0004020C0004020E000404000004040200040404000404060004040800040
310
40A0004040C0004040E00040600000406020004060400040606000406080004060A0004060C0004060E00040800000408020004080400040806000408080004080A0004080C0004080E00040A0000040A0200040A0400040A0600040A0800040A0A00040A0C00040A0E00040C0000040C0200040C0400040C0600040C08000
310
40C0A00040C0C00040C0E00040E0000040E0200040E0400040E0600040E0800040E0A00040E0C00040E0E00080000000800020008000400080006000800080008000A0008000C0008000E00080200000802020008020400080206000802080008020A0008020C0008020E00080400000804020008040400080406000804080
310
008040A0008040C0008040E00080600000806020008060400080606000806080008060A0008060C0008060E00080800000808020008080400080806000808080008080A0008080C0008080E00080A0000080A0200080A0400080A0600080A0800080A0A00080A0C00080A0E00080C0000080C0200080C0400080C0600080C0
310
800080C0A00080C0C00080C0E00080E0000080E0200080E0400080E0600080E0800080E0A00080E0C00080E0E000C0000000C0002000C0004000C0006000C0008000C000A000C000C000C000E000C0200000C0202000C0204000C0206000C0208000C020A000C020C000C020E000C0400000C0402000C0404000C0406000C0
310
408000C040A000C040C000C040E000C0600000C0602000C0604000C0606000C0608000C060A000C060C000C060E000C0800000C0802000C0804000C0806000C0808000C080A000C080C000C080E000C0A00000C0A02000C0A04000C0A06000C0A08000C0A0A000C0A0C000C0A0E000C0C00000C0C02000C0C04000C0C06000
310
C0C08000C0C0A000F0FBFF00A4A0A000808080000000FF0000FF000000FFFF00FF000000FF00FF00FFFF0000FFFFFF000000000000000000000000000000000000000000000000000000000000000000000000000000000000000000000000FF00000000000000000000000000000000000000000000000000000000000000
310
FF000000000000000000000000000000000000000000000000000000000000000000000000000000000000000000000000000000000000000000000000000000000000000000000000000000000000000000000000000000000000000000000000000000000000000000000000000000000000000000000000000000000000
310
00000000000000000000000000000000000000000000000000000000000000000000000000000000000000000000000000000000000000000000000000000000000000000000000000000000000000000000000000000000000000000000000000000000000000000000000000000000000000000000000000000000000000
310
00000000000000000000000000000000000000000000000000000000000000000000000000000000000000000000000000000000000000000000000000000000000000000000000000000000000000000000000000000000000000000000000000000000000000000000000000000000000000000000000000000000000000
310
00000000000000000000000000000000000000000000000000000000000000000000000000000000000000000000000000000000000000000000000000000000000000000000000000000000000000000000000000000000000000000000000000000000000000000000000000000000000000000000000000000000000000
310
00000000000000000000000000000000000000000000000000000000000000000000000000000000000000000000000000000000000000000000000000000000000000000000000000000000000000000000000000000000000000000000000000000000000000000000000000000000000000000000000000000000B60000
310
0000000000000000000000000000000000000000000000000000000000B6B6000000000000000000000000000000000000000000000000000000000000B6B6B6B6B6B6B6B6B6B6B6B6B6B6B6B6B6B6000000000000000000000000000000B6B6B6B6B6B6B6B6B6B6B6B6B6B6B6B6B600000000000000000000000000000000
310
000000000000000000000000000000B600000000000000000000000000000000000000000000000000000000000000B600000000000000000000000000000000000000000000000000000000000000B600000000000000000000000000000000000000000000000000000000000000B6000000000000000000000000000000
310
00000000000000000000000000000000B6000000000000000000000000000000000000000000000000000000000000000000000000000000
102
{BLKREFS
331
2D9
102
}
1001
ACAD
1000
DesignCenter Data
1002
{
1070
     1
1070
     1
1002
}
  0
BLOCK_RECORD
  5
2E1
330
1
100
AcDbSymbolTableRecord
100
AcDbBlockTableRecord
  2
ECET Drip Cap 3 1-2in Flat 50NM
340
0
310
2800000020000000200000000100080000000000000400000000000000000000000000000000000000000000000080000080000000808000800000008000800080800000C0C0C000C0DCC000F0CAA6000020400000206000002080000020A0000020C0000020E00000400000004020000040400000406000004080000040A0
310
000040C0000040E00000600000006020000060400000606000006080000060A0000060C0000060E00000800000008020000080400000806000008080000080A0000080C0000080E00000A0000000A0200000A0400000A0600000A0800000A0A00000A0C00000A0E00000C0000000C0200000C0400000C0600000C0800000C0
310
A00000C0C00000C0E00000E0000000E0200000E0400000E0600000E0800000E0A00000E0C00000E0E00040000000400020004000400040006000400080004000A0004000C0004000E00040200000402020004020400040206000402080004020A0004020C0004020E000404000004040200040404000404060004040800040
310
40A0004040C0004040E00040600000406020004060400040606000406080004060A0004060C0004060E00040800000408020004080400040806000408080004080A0004080C0004080E00040A0000040A0200040A0400040A0600040A0800040A0A00040A0C00040A0E00040C0000040C0200040C0400040C0600040C08000
310
40C0A00040C0C00040C0E00040E0000040E0200040E0400040E0600040E0800040E0A00040E0C00040E0E00080000000800020008000400080006000800080008000A0008000C0008000E00080200000802020008020400080206000802080008020A0008020C0008020E00080400000804020008040400080406000804080
310
008040A0008040C0008040E00080600000806020008060400080606000806080008060A0008060C0008060E00080800000808020008080400080806000808080008080A0008080C0008080E00080A0000080A0200080A0400080A0600080A0800080A0A00080A0C00080A0E00080C0000080C0200080C0400080C0600080C0
310
800080C0A00080C0C00080C0E00080E0000080E0200080E0400080E0600080E0800080E0A00080E0C00080E0E000C0000000C0002000C0004000C0006000C0008000C000A000C000C000C000E000C0200000C0202000C0204000C0206000C0208000C020A000C020C000C020E000C0400000C0402000C0404000C0406000C0
310
408000C040A000C040C000C040E000C0600000C0602000C0604000C0606000C0608000C060A000C060C000C060E000C0800000C0802000C0804000C0806000C0808000C080A000C080C000C080E000C0A00000C0A02000C0A04000C0A06000C0A08000C0A0A000C0A0C000C0A0E000C0C00000C0C02000C0C04000C0C06000
310
C0C08000C0C0A000F0FBFF00A4A0A000808080000000FF0000FF000000FFFF00FF000000FF00FF00FFFF0000FFFFFF000000000000000000000000000000000000000000000000000000000000000000000000000000000000000000FF00000000000000000000000000000000000000000000000000000000000000FF0000
310
00000000000000000000000000000000000000000000000000000000000000000000000000000000000000000000000000000000000000000000000000000000000000000000000000000000000000000000000000000000000000000000000000000000000000000000000000000000000000000000000000000000000000
310
00000000000000000000000000000000000000000000000000000000000000000000000000000000000000000000000000000000000000000000000000000000000000000000000000000000000000000000000000000000000000000000000000000000000000000000000000000000000000000000000000000000000000
310
00000000000000000000000000000000000000000000000000000000000000000000000000000000000000000000000000000000000000000000000000000000000000000000000000000000000000000000000000000000000000000000000000000000000000000000000000000000000000000000000000000000000000
310
00000000000000000000000000000000000000000000000000000000000000000000000000000000000000000000000000000000000000000000000000000000000000000000000000000000000000000000000000000000000000000000000000000000000000000000000000000000000000000000000000000000000000
310
00000000000000000000000000000000000000000000000000000000000000000000000000000000000000000000000000000000000000000000000000000000000000000000000000000000000000000000000000000000000000000000000000000000000000000000000000000000000000000000000000000000000000
310
B600000000000000000000000000000000000000000000000000000000000000B6B6000000000000000000000000000000000000000000000000000000000000B6B6B6B6B6B6B6B6B6B6B6B6000000000000000000000000000000000000000000B6B6B6B6B6B6B6B6B6B6B600000000000000000000000000000000000000
310
000000000000000000000000B600000000000000000000000000000000000000000000000000000000000000B600000000000000000000000000000000000000000000000000000000000000B600000000000000000000000000000000000000000000000000000000000000B6000000000000000000000000000000000000
310
00000000000000000000000000B6000000000000000000000000000000000000000000000000000000000000000000000000000000000000
102
{BLKREFS
331
2E0
102
}
1001
ACAD
1000
DesignCenter Data
1002
{
1070
     1
1070
     1
1002
}
  0
BLOCK_RECORD
  5
2E8
102
{ACAD_XDICTIONARY
360
2E9
102
}
330
1
100
AcDbSymbolTableRecord
100
AcDbBlockTableRecord
  2
ECET Brickmould 3 1-2in 50G9
340
0
310
2800000020000000200000000100080000000000000400000000000000000000000000000000000000000000000080000080000000808000800000008000800080800000C0C0C000C0DCC000F0CAA6000020400000206000002080000020A0000020C0000020E00000400000004020000040400000406000004080000040A0
310
000040C0000040E00000600000006020000060400000606000006080000060A0000060C0000060E00000800000008020000080400000806000008080000080A0000080C0000080E00000A0000000A0200000A0400000A0600000A0800000A0A00000A0C00000A0E00000C0000000C0200000C0400000C0600000C0800000C0
310
A00000C0C00000C0E00000E0000000E0200000E0400000E0600000E0800000E0A00000E0C00000E0E00040000000400020004000400040006000400080004000A0004000C0004000E00040200000402020004020400040206000402080004020A0004020C0004020E000404000004040200040404000404060004040800040
310
40A0004040C0004040E00040600000406020004060400040606000406080004060A0004060C0004060E00040800000408020004080400040806000408080004080A0004080C0004080E00040A0000040A0200040A0400040A0600040A0800040A0A00040A0C00040A0E00040C0000040C0200040C0400040C0600040C08000
310
40C0A00040C0C00040C0E00040E0000040E0200040E0400040E0600040E0800040E0A00040E0C00040E0E00080000000800020008000400080006000800080008000A0008000C0008000E00080200000802020008020400080206000802080008020A0008020C0008020E00080400000804020008040400080406000804080
310
008040A0008040C0008040E00080600000806020008060400080606000806080008060A0008060C0008060E00080800000808020008080400080806000808080008080A0008080C0008080E00080A0000080A0200080A0400080A0600080A0800080A0A00080A0C00080A0E00080C0000080C0200080C0400080C0600080C0
310
800080C0A00080C0C00080C0E00080E0000080E0200080E0400080E0600080E0800080E0A00080E0C00080E0E000C0000000C0002000C0004000C0006000C0008000C000A000C000C000C000E000C0200000C0202000C0204000C0206000C0208000C020A000C020C000C020E000C0400000C0402000C0404000C0406000C0
310
408000C040A000C040C000C040E000C0600000C0602000C0604000C0606000C0608000C060A000C060C000C060E000C0800000C0802000C0804000C0806000C0808000C080A000C080C000C080E000C0A00000C0A02000C0A04000C0A06000C0A08000C0A0A000C0A0C000C0A0E000C0C00000C0C02000C0C04000C0C06000
310
C0C08000C0C0A000F0FBFF00A4A0A000808080000000FF0000FF000000FFFF00FF000000FF00FF00FFFF0000FFFFFF0000000000000000000000000000000000000000000000000000000000000000000000000000000000000000B6B6000000000000000000000000000000000000000000000000000000000000B6B60000
310
00000000000000000000000000000000000000000000000000000000B600000000000000000000000000000000000000000000000000000000000000B6B6B60000000000000000000000000000000000000000000000000000000000B6B6B60000000000000000000000000000000000000000000000000000000000B6B6B6
310
0000000000000000000000000000000000000000000000000000000000B6B6B60000000000000000000000000000000000000000000000000000000000B600000000000000000000000000000000000000000000000000000000000000B600000000000000000000000000000000000000000000000000000000000000B600
310
000000000000000000000000000000000000000000000000000000000000B600000000000000000000000000000000000000000000000000000000000000B600000000000000000000000000000000000000000000000000000000000000B600000000000000000000000000000000000000000000000000000000000000B6
310
00000000000000000000000000000000000000000000000000000000000000B600000000000000000000000000000000000000000000000000000000000000B600000000000000000000000000000000000000000000000000000000000000B600000000000000000000000000000000000000000000000000000000000000
310
B600000000000000000000000000000000000000000000000000000000000000B600000000000000000000000000000000000000000000000000000000000000B600000000000000000000000000000000000000000000000000000000000000B6000000000000000000000000000000000000000000000000000000000000
310
00B6000000000000000000000000000000000000000000000000000000000000B6B6000000000000000000000000000000000000000000000000000000000000B6B6000000000000000000000000000000000000000000000000000000000000B6B60000000000000000000000000000000000000000000000000000000000
310
B6B6000000000000000000000000000000000000000000000000000000000000B6B6000000000000000000B6B6B6000000000000000000000000000000000000B6B60000000000000000B6B6B6B6000000000000000000000000000000000000B6B6B6B6B6B6B6B6B6B6B6B6B6B60000000000000000000000000000000000
310
00B6B6B6B6B6B6B6B6B6B6B6B6B6B60000000000000000000000000000000000000000000000000000000000000000000000000000000000
102
{BLKREFS
331
2E7
102
}
1001
ACAD
1000
DesignCenter Data
1002
{
1070
     1
1070
     1
1002
}
  0
BLOCK_RECORD
  5
2F0
102
{ACAD_XDICTIONARY
360
2F1
102
}
330
1
100
AcDbSymbolTableRecord
100
AcDbBlockTableRecord
  2
ECET Brickmould Jefferson 50GC
340
0
310
2800000020000000200000000100080000000000000400000000000000000000000000000000000000000000000080000080000000808000800000008000800080800000C0C0C000C0DCC000F0CAA6000020400000206000002080000020A0000020C0000020E00000400000004020000040400000406000004080000040A0
310
000040C0000040E00000600000006020000060400000606000006080000060A0000060C0000060E00000800000008020000080400000806000008080000080A0000080C0000080E00000A0000000A0200000A0400000A0600000A0800000A0A00000A0C00000A0E00000C0000000C0200000C0400000C0600000C0800000C0
310
A00000C0C00000C0E00000E0000000E0200000E0400000E0600000E0800000E0A00000E0C00000E0E00040000000400020004000400040006000400080004000A0004000C0004000E00040200000402020004020400040206000402080004020A0004020C0004020E000404000004040200040404000404060004040800040
310
40A0004040C0004040E00040600000406020004060400040606000406080004060A0004060C0004060E00040800000408020004080400040806000408080004080A0004080C0004080E00040A0000040A0200040A0400040A0600040A0800040A0A00040A0C00040A0E00040C0000040C0200040C0400040C0600040C08000
310
40C0A00040C0C00040C0E00040E0000040E0200040E0400040E0600040E0800040E0A00040E0C00040E0E00080000000800020008000400080006000800080008000A0008000C0008000E00080200000802020008020400080206000802080008020A0008020C0008020E00080400000804020008040400080406000804080
310
008040A0008040C0008040E00080600000806020008060400080606000806080008060A0008060C0008060E00080800000808020008080400080806000808080008080A0008080C0008080E00080A0000080A0200080A0400080A0600080A0800080A0A00080A0C00080A0E00080C0000080C0200080C0400080C0600080C0
310
800080C0A00080C0C00080C0E00080E0000080E0200080E0400080E0600080E0800080E0A00080E0C00080E0E000C0000000C0002000C0004000C0006000C0008000C000A000C000C000C000E000C0200000C0202000C0204000C0206000C0208000C020A000C020C000C020E000C0400000C0402000C0404000C0406000C0
310
408000C040A000C040C000C040E000C0600000C0602000C0604000C0606000C0608000C060A000C060C000C060E000C0800000C0802000C0804000C0806000C0808000C080A000C080C000C080E000C0A00000C0A02000C0A04000C0A06000C0A08000C0A0A000C0A0C000C0A0E000C0C00000C0C02000C0C04000C0C06000
310
C0C08000C0C0A000F0FBFF00A4A0A000808080000000FF0000FF000000FFFF00FF000000FF00FF00FFFF0000FFFFFF0000000000000000000000000000000000000000000000000000000000000000000000000000000000000000000000B6B6000000000000000000000000000000000000000000000000000000B6B6B6B6
310
B6000000000000000000000000000000000000000000000000000000B6B6B6B6000000000000000000000000000000000000000000000000000000B6B60000B6B6B60000000000000000000000000000000000000000000000000000B6B600B6B6B60000000000000000000000000000000000000000000000000000B6B6B6
310
B6B6B60000000000000000000000000000000000000000000000000000B6B6B6B6B6B60000000000000000000000000000000000000000000000000000B600000000000000000000000000000000000000000000000000000000000000B600000000000000000000000000000000000000000000000000000000000000B600
310
000000000000000000000000000000000000000000000000000000000000B600000000000000000000000000000000000000000000000000000000000000B600000000000000000000000000000000000000000000000000000000000000B600000000000000000000000000000000000000000000000000000000000000B6
310
00000000000000000000000000000000000000000000000000000000000000B600000000000000000000000000000000000000000000000000000000000000B600000000000000000000000000000000000000000000000000000000000000B6000000000000000000000000000000000000000000000000000000000000B6
310
B60000000000000000000000000000000000000000000000000000000000B6B6B600000000000000000000000000000000000000000000000000000000B6B6B600000000000000000000000000000000000000000000000000000000B6B6000000000000000000000000000000000000000000000000000000000000B6B600
310
0000000000000000000000000000000000000000000000000000000000B6B6000000000000000000000000000000000000000000000000000000000000B6B6000000000000000000000000000000000000000000000000000000000000B6B60000000000000000000000000000000000000000000000000000000000B6B600
310
0000000000000000000000000000000000000000000000000000000000B6B6000000000000000000000000000000B6B6B6000000000000000000000000B6B60000000000000000000000000000B6B6B6B6000000000000000000000000B6B6B6B6B6B6B6B6B6B6B6B6B6B6B6B6B6B6B6B6000000000000000000000000B6B6
310
B6B6B6B6B6B6B6B6B6B6B6B6B6B6B6B6B6B60000000000000000000000000000000000000000000000000000000000000000000000000000
102
{BLKREFS
331
2EF
102
}
1001
ACAD
1000
DesignCenter Data
1002
{
1070
     1
1070
     1
1002
}
  0
BLOCK_RECORD
  5
2F8
102
{ACAD_XDICTIONARY
360
2F9
102
}
330
1
100
AcDbSymbolTableRecord
100
AcDbBlockTableRecord
  2
ECET Brickmould 3 1-2in Flat  50GJ
340
0
310
2800000020000000200000000100080000000000000400000000000000000000000000000000000000000000000080000080000000808000800000008000800080800000C0C0C000C0DCC000F0CAA6000020400000206000002080000020A0000020C0000020E00000400000004020000040400000406000004080000040A0
310
000040C0000040E00000600000006020000060400000606000006080000060A0000060C0000060E00000800000008020000080400000806000008080000080A0000080C0000080E00000A0000000A0200000A0400000A0600000A0800000A0A00000A0C00000A0E00000C0000000C0200000C0400000C0600000C0800000C0
310
A00000C0C00000C0E00000E0000000E0200000E0400000E0600000E0800000E0A00000E0C00000E0E00040000000400020004000400040006000400080004000A0004000C0004000E00040200000402020004020400040206000402080004020A0004020C0004020E000404000004040200040404000404060004040800040
310
40A0004040C0004040E00040600000406020004060400040606000406080004060A0004060C0004060E00040800000408020004080400040806000408080004080A0004080C0004080E00040A0000040A0200040A0400040A0600040A0800040A0A00040A0C00040A0E00040C0000040C0200040C0400040C0600040C08000
310
40C0A00040C0C00040C0E00040E0000040E0200040E0400040E0600040E0800040E0A00040E0C00040E0E00080000000800020008000400080006000800080008000A0008000C0008000E00080200000802020008020400080206000802080008020A0008020C0008020E00080400000804020008040400080406000804080
310
008040A0008040C0008040E00080600000806020008060400080606000806080008060A0008060C0008060E00080800000808020008080400080806000808080008080A0008080C0008080E00080A0000080A0200080A0400080A0600080A0800080A0A00080A0C00080A0E00080C0000080C0200080C0400080C0600080C0
310
800080C0A00080C0C00080C0E00080E0000080E0200080E0400080E0600080E0800080E0A00080E0C00080E0E000C0000000C0002000C0004000C0006000C0008000C000A000C000C000C000E000C0200000C0202000C0204000C0206000C0208000C020A000C020C000C020E000C0400000C0402000C0404000C0406000C0
310
408000C040A000C040C000C040E000C0600000C0602000C0604000C0606000C0608000C060A000C060C000C060E000C0800000C0802000C0804000C0806000C0808000C080A000C080C000C080E000C0A00000C0A02000C0A04000C0A06000C0A08000C0A0A000C0A0C000C0A0E000C0C00000C0C02000C0C04000C0C06000
310
C0C08000C0C0A000F0FBFF00A4A0A000808080000000FF0000FF000000FFFF00FF000000FF00FF00FFFF0000FFFFFF00000000000000000000000000000000000000000000000000000000000000000000000000000000000000B6B6000000000000000000000000000000000000000000000000000000000000B6B6000000
310
000000000000000000000000000000000000000000000000000000B6B6000000000000000000000000000000000000000000000000000000000000B6B6B6B600000000000000000000000000000000000000000000000000000000B6B6B6B600000000000000000000000000000000000000000000000000000000B6B6B6B6
310
00000000000000000000000000000000000000000000000000000000B6B6B6B600000000000000000000000000000000000000000000000000000000B6B6000000000000000000000000000000000000000000000000000000000000B6B6000000000000000000000000000000000000000000000000000000000000B6B600
310
0000000000000000000000000000000000000000000000000000000000B6B6000000000000000000000000000000000000000000000000000000000000B6B6000000000000000000000000000000000000000000000000000000000000B6B6000000000000000000000000000000000000000000000000000000000000B6B6
310
000000000000000000000000000000000000000000000000000000000000B6B6000000000000000000000000000000000000000000000000000000000000B6B6000000000000000000000000000000000000000000000000000000000000B6B6000000000000000000000000000000000000000000000000000000000000B6
310
B6000000000000000000000000000000000000000000000000000000000000B6B6000000000000000000000000000000000000000000000000000000000000B6B6000000000000000000000000000000000000000000000000000000000000B6B6000000000000000000000000000000000000000000000000000000000000
310
B6B6000000000000000000000000000000000000000000000000000000000000B6B6000000000000000000000000000000000000000000000000000000000000B6B6000000000000000000000000000000000000000000000000000000000000B6B60000000000000000000000000000000000000000000000000000000000
310
00B6B6000000000000000000000000000000000000000000000000000000000000B6B60000000000000000B6B60000000000000000000000000000000000000000B6B6000000000000B6B6B6B60000000000000000000000000000000000000000B6B6B6B6B6B6B6B6B6B6B6B6000000000000000000000000000000000000
310
0000B6B6B6B6B6B6B6B6B6B6B6B6000000000000000000000000000000000000000000000000000000000000000000000000000000000000
102
{BLKREFS
331
2F7
102
}
1001
ACAD
1000
DesignCenter Data
1002
{
1070
     1
1070
     1
1002
}
  0
BLOCK_RECORD
  5
300
102
{ACAD_XDICTIONARY
360
301
102
}
330
1
100
AcDbSymbolTableRecord
100
AcDbBlockTableRecord
  2
ECET Brickmould Standard 70F5 Head 70F6 Jamb
340
0
310
2800000020000000200000000100080000000000000400000000000000000000000000000000000000000000000080000080000000808000800000008000800080800000C0C0C000C0DCC000F0CAA6000020400000206000002080000020A0000020C0000020E00000400000004020000040400000406000004080000040A0
310
000040C0000040E00000600000006020000060400000606000006080000060A0000060C0000060E00000800000008020000080400000806000008080000080A0000080C0000080E00000A0000000A0200000A0400000A0600000A0800000A0A00000A0C00000A0E00000C0000000C0200000C0400000C0600000C0800000C0
310
A00000C0C00000C0E00000E0000000E0200000E0400000E0600000E0800000E0A00000E0C00000E0E00040000000400020004000400040006000400080004000A0004000C0004000E00040200000402020004020400040206000402080004020A0004020C0004020E000404000004040200040404000404060004040800040
310
40A0004040C0004040E00040600000406020004060400040606000406080004060A0004060C0004060E00040800000408020004080400040806000408080004080A0004080C0004080E00040A0000040A0200040A0400040A0600040A0800040A0A00040A0C00040A0E00040C0000040C0200040C0400040C0600040C08000
310
40C0A00040C0C00040C0E00040E0000040E0200040E0400040E0600040E0800040E0A00040E0C00040E0E00080000000800020008000400080006000800080008000A0008000C0008000E00080200000802020008020400080206000802080008020A0008020C0008020E00080400000804020008040400080406000804080
310
008040A0008040C0008040E00080600000806020008060400080606000806080008060A0008060C0008060E00080800000808020008080400080806000808080008080A0008080C0008080E00080A0000080A0200080A0400080A0600080A0800080A0A00080A0C00080A0E00080C0000080C0200080C0400080C0600080C0
310
800080C0A00080C0C00080C0E00080E0000080E0200080E0400080E0600080E0800080E0A00080E0C00080E0E000C0000000C0002000C0004000C0006000C0008000C000A000C000C000C000E000C0200000C0202000C0204000C0206000C0208000C020A000C020C000C020E000C0400000C0402000C0404000C0406000C0
310
408000C040A000C040C000C040E000C0600000C0602000C0604000C0606000C0608000C060A000C060C000C060E000C0800000C0802000C0804000C0806000C0808000C080A000C080C000C080E000C0A00000C0A02000C0A04000C0A06000C0A08000C0A0A000C0A0C000C0A0E000C0C00000C0C02000C0C04000C0C06000
310
C0C08000C0C0A000F0FBFF00A4A0A000808080000000FF0000FF000000FFFF00FF000000FF00FF00FFFF0000FFFFFF00000000000000000000000000000000000000000000000000000000000000000000000000000000000000000000000000000000000000000000000000000000000000000000B6B6B600000000000000
310
00000000000000000000000000000000000000000000B6B6B60000000000000000000000000000000000000000000000000000000000B6B6000000000000000000000000000000000000000000000000000000000000B6B6000000000000000000000000000000000000000000000000000000000000B6B600000000000000
310
0000000000000000000000000000000000000000000000B6B6FF0000000000000000000000000000000000000000000000000000000000B6B6FFFF00000000000000000000000000000000000000000000000000000000B6B6B6B6B6B60000000000000000000000000000000000000000000000000000B6B6B6B6B6B60000
310
000000000000000000000000000000000000000000000000B6B6000000000000000000000000000000000000000000000000000000000000B6B600B6B6B60000000000000000000000000000000000000000000000000000B6B6B6B6B6B600000000000000000000000000000000000000000000000000B6B6B6B6B6B6B600
310
000000000000000000000000000000000000000000000000B6B6B600000000000000000000000000000000000000000000000000000000B600B60000000000000000000000000000000000000000000000000000000000B6B6000000000000000000000000000000000000000000000000000000000000B6B6000000000000
310
000000000000000000000000000000000000000000000000B6B60000000000000000000000000000000000000000000000000000000000B600B600000000000000000000000000000000000000000000000000000000B6B6B60000000000000000000000000000000000000000000000000000000000B6B6B6000000000000
310
0000000000000000000000000000000000000000000000B6B6000000000000000000000000000000000000000000000000000000000000B6B60000000000000000000000000000000000000000000000B6B6B6B6B60000B6B6000000000000000000000000000000000000000000B6B6B6B6B6B6B60000B6B6000000000000
310
0000000000000000000000000000B6B6B600000000000000B6B600000000000000000000B6B60000000000000000B6B60000B6B6B6000000B6B6B6B6B6B6B6B6B6B6B6B6B6B6B6B6B6B6B6B6B6B6B6B6B6B6B6B6B6B60000B6B6B6B6B6B6B6B6B6B6B6B6B6B6B6B6B6B6B6B6B6B6B6B6B6B6B6B6B6B6000000000000000000
310
0000000000000000000000000000000000000000000000000000000000000000000000000000000000000000000000000000000000000000
102
{BLKREFS
331
2FF
102
}
1001
ACAD
1000
DesignCenter Data
1002
{
1070
     1
1070
     1
1002
}
  0
BLOCK_RECORD
  5
308
330
1
100
AcDbSymbolTableRecord
100
AcDbBlockTableRecord
  2
ECET Brickmould Monroe 50GF
340
0
310
2800000020000000200000000100080000000000000400000000000000000000000000000000000000000000000080000080000000808000800000008000800080800000C0C0C000C0DCC000F0CAA6000020400000206000002080000020A0000020C0000020E00000400000004020000040400000406000004080000040A0
310
000040C0000040E00000600000006020000060400000606000006080000060A0000060C0000060E00000800000008020000080400000806000008080000080A0000080C0000080E00000A0000000A0200000A0400000A0600000A0800000A0A00000A0C00000A0E00000C0000000C0200000C0400000C0600000C0800000C0
310
A00000C0C00000C0E00000E0000000E0200000E0400000E0600000E0800000E0A00000E0C00000E0E00040000000400020004000400040006000400080004000A0004000C0004000E00040200000402020004020400040206000402080004020A0004020C0004020E000404000004040200040404000404060004040800040
310
40A0004040C0004040E00040600000406020004060400040606000406080004060A0004060C0004060E00040800000408020004080400040806000408080004080A0004080C0004080E00040A0000040A0200040A0400040A0600040A0800040A0A00040A0C00040A0E00040C0000040C0200040C0400040C0600040C08000
310
40C0A00040C0C00040C0E00040E0000040E0200040E0400040E0600040E0800040E0A00040E0C00040E0E00080000000800020008000400080006000800080008000A0008000C0008000E00080200000802020008020400080206000802080008020A0008020C0008020E00080400000804020008040400080406000804080
310
008040A0008040C0008040E00080600000806020008060400080606000806080008060A0008060C0008060E00080800000808020008080400080806000808080008080A0008080C0008080E00080A0000080A0200080A0400080A0600080A0800080A0A00080A0C00080A0E00080C0000080C0200080C0400080C0600080C0
310
800080C0A00080C0C00080C0E00080E0000080E0200080E0400080E0600080E0800080E0A00080E0C00080E0E000C0000000C0002000C0004000C0006000C0008000C000A000C000C000C000E000C0200000C0202000C0204000C0206000C0208000C020A000C020C000C020E000C0400000C0402000C0404000C0406000C0
310
408000C040A000C040C000C040E000C0600000C0602000C0604000C0606000C0608000C060A000C060C000C060E000C0800000C0802000C0804000C0806000C0808000C080A000C080C000C080E000C0A00000C0A02000C0A04000C0A06000C0A08000C0A0A000C0A0C000C0A0E000C0C00000C0C02000C0C04000C0C06000
310
C0C08000C0C0A000F0FBFF00A4A0A000808080000000FF0000FF000000FFFF00FF000000FF00FF00FFFF0000FFFFFF0000000000000000000000000000000000000000000000000000000000000000000000000000000000000000000000000000000000000000000000000000000000000000000000000000000000000000
310
0000000000000000000000000000000000000000000000000000000000000000000000000000000000000000000000000000000000000000000000000000000000000000000000000000000000000000000000000000000000000000000000000000000000000000000000000000000000000000000000000000000000B6B6
310
000000000000000000000000000000000000000000000000000000000000B6B6000000000000000000000000000000000000000000000000000000000000B6B6000000000000000000000000000000000000000000000000000000000000B6B6000000000000000000000000000000000000000000000000000000000000B6
310
B6FF00000000000000000000000000000000000000000000000000000000B6B6B6B6B6B600000000000000000000000000000000000000000000000000B6B6B6B6B6B600000000000000000000000000000000000000000000000000B600B6B6B6B6B6B60000000000000000000000000000000000000000000000B600B600
310
B6B6B6B6B60000000000000000000000000000000000000000B6B6B6B6B600000000000000000000000000000000000000000000000000B6B6B6B6000000000000000000000000000000000000000000000000000000B6B6000000000000000000000000000000000000000000000000000000000000B60000000000000000
310
00000000000000000000000000000000000000000000B6B6000000000000000000000000000000000000000000000000000000000000B6B600000000000000000000000000000000000000000000000000000000000000B600000000000000000000000000000000000000000000000000000000000000B6B6B60000000000
310
0000000000000000000000000000000000B6B6B6B600000000B6B6B600000000000000000000000000000000000000B6B600B6B600000000000000B6B6B6B6B6B6B6B6B6B6B6B6B6B6B6B6B6B6B6B6B6B6B6B6B6B6000000000000B6B6B6B6B6B6B6B6B6B6B6B6B6B6B6B6B6B6B6B6B6B6B6B6B6B600000000000000000000
310
00000000000000000000000000000000000000000000000000000000000000000000000000000000000000000000000000000000000000000000000000000000000000000000000000000000000000000000000000000000000000000000000000000000000000000000000000000000000000000000000000000000000000
310
0000000000000000000000000000000000000000000000000000000000000000000000000000000000000000000000000000000000000000
102
{BLKREFS
331
307
102
}
1001
ACAD
1000
DesignCenter Data
1002
{
1070
     1
1070
     1
1002
}
  0
BLOCK_RECORD
  5
31E
330
1
100
AcDbSymbolTableRecord
100
AcDbBlockTableRecord
  2
*D10
340
0
  0
BLOCK_RECORD
  5
32B
330
1
100
AcDbSymbolTableRecord
100
AcDbBlockTableRecord
  2
*D11
340
0
  0
BLOCK_RECORD
  5
337
330
1
100
AcDbSymbolTableRecord
100
AcDbBlockTableRecord
  2
*D12
340
0
  0
BLOCK_RECORD
  5
345
330
1
100
AcDbSymbolTableRecord
100
AcDbBlockTableRecord
  2
*D13
340
0
  0
BLOCK_RECORD
  5
352
330
1
100
AcDbSymbolTableRecord
100
AcDbBlockTableRecord
  2
*D14
340
0
  0
BLOCK_RECORD
  5
35E
330
1
100
AcDbSymbolTableRecord
100
AcDbBlockTableRecord
  2
*D15
340
0
  0
BLOCK_RECORD
  5
36C
330
1
100
AcDbSymbolTableRecord
100
AcDbBlockTableRecord
  2
*D16
340
0
  0
BLOCK_RECORD
  5
379
330
1
100
AcDbSymbolTableRecord
100
AcDbBlockTableRecord
  2
*D17
340
0
  0
BLOCK_RECORD
  5
385
330
1
100
AcDbSymbolTableRecord
100
AcDbBlockTableRecord
  2
*D18
340
0
  0
BLOCK_RECORD
  5
393
330
1
100
AcDbSymbolTableRecord
100
AcDbBlockTableRecord
  2
*D19
340
0
  0
BLOCK_RECORD
  5
3A0
330
1
100
AcDbSymbolTableRecord
100
AcDbBlockTableRecord
  2
*D20
340
0
  0
BLOCK_RECORD
  5
3AC
330
1
100
AcDbSymbolTableRecord
100
AcDbBlockTableRecord
  2
*D21
340
0
  0
BLOCK_RECORD
  5
3BA
330
1
100
AcDbSymbolTableRecord
100
AcDbBlockTableRecord
  2
*D22
340
0
  0
BLOCK_RECORD
  5
3C7
330
1
100
AcDbSymbolTableRecord
100
AcDbBlockTableRecord
  2
*D23
340
0
  0
BLOCK_RECORD
  5
3D3
330
1
100
AcDbSymbolTableRecord
100
AcDbBlockTableRecord
  2
*D24
340
0
  0
BLOCK_RECORD
  5
3E0
330
1
100
AcDbSymbolTableRecord
100
AcDbBlockTableRecord
  2
*D25
340
0
  0
BLOCK_RECORD
  5
3ED
330
1
100
AcDbSymbolTableRecord
100
AcDbBlockTableRecord
  2
*D26
340
0
  0
BLOCK_RECORD
  5
3F9
330
1
100
AcDbSymbolTableRecord
100
AcDbBlockTableRecord
  2
*D27
340
0
  0
BLOCK_RECORD
  5
405
330
1
100
AcDbSymbolTableRecord
100
AcDbBlockTableRecord
  2
*D28
340
0
  0
BLOCK_RECORD
  5
411
330
1
100
AcDbSymbolTableRecord
100
AcDbBlockTableRecord
  2
*D29
340
0
  0
BLOCK_RECORD
  5
41D
330
1
100
AcDbSymbolTableRecord
100
AcDbBlockTableRecord
  2
*D30
340
0
  0
BLOCK_RECORD
  5
429
330
1
100
AcDbSymbolTableRecord
100
AcDbBlockTableRecord
  2
*D31
340
0
  0
BLOCK_RECORD
  5
435
330
1
100
AcDbSymbolTableRecord
100
AcDbBlockTableRecord
  2
*D32
340
0
  0
BLOCK_RECORD
  5
441
330
1
100
AcDbSymbolTableRecord
100
AcDbBlockTableRecord
  2
*D33
340
0
  0
BLOCK_RECORD
  5
44D
330
1
100
AcDbSymbolTableRecord
100
AcDbBlockTableRecord
  2
*D34
340
0
  0
BLOCK_RECORD
  5
45A
330
1
100
AcDbSymbolTableRecord
100
AcDbBlockTableRecord
  2
*D35
340
0
  0
BLOCK_RECORD
  5
467
330
1
100
AcDbSymbolTableRecord
100
AcDbBlockTableRecord
  2
*D36
340
0
  0
BLOCK_RECORD
  5
474
330
1
100
AcDbSymbolTableRecord
100
AcDbBlockTableRecord
  2
*D37
340
0
  0
BLOCK_RECORD
  5
482
330
1
100
AcDbSymbolTableRecord
100
AcDbBlockTableRecord
  2
*D38
340
0
  0
BLOCK_RECORD
  5
48F
330
1
100
AcDbSymbolTableRecord
100
AcDbBlockTableRecord
  2
*D39
340
0
  0
BLOCK_RECORD
  5
49C
330
1
100
AcDbSymbolTableRecord
100
AcDbBlockTableRecord
  2
*D40
340
0
  0
BLOCK_RECORD
  5
4AA
330
1
100
AcDbSymbolTableRecord
100
AcDbBlockTableRecord
  2
*D41
340
0
  0
BLOCK_RECORD
  5
4B7
330
1
100
AcDbSymbolTableRecord
100
AcDbBlockTableRecord
  2
*D42
340
0
  0
BLOCK_RECORD
  5
EA2
330
1
100
AcDbSymbolTableRecord
100
AcDbBlockTableRecord
  2
EDET Sill Nose Half in  50H2
340
0
310
2800000020000000200000000100080000000000000400000000000000000000000000000000000000000000000080000080000000808000800000008000800080800000C0C0C000C0DCC000F0CAA6000020400000206000002080000020A0000020C0000020E00000400000004020000040400000406000004080000040A0
310
000040C0000040E00000600000006020000060400000606000006080000060A0000060C0000060E00000800000008020000080400000806000008080000080A0000080C0000080E00000A0000000A0200000A0400000A0600000A0800000A0A00000A0C00000A0E00000C0000000C0200000C0400000C0600000C0800000C0
310
A00000C0C00000C0E00000E0000000E0200000E0400000E0600000E0800000E0A00000E0C00000E0E00040000000400020004000400040006000400080004000A0004000C0004000E00040200000402020004020400040206000402080004020A0004020C0004020E000404000004040200040404000404060004040800040
310
40A0004040C0004040E00040600000406020004060400040606000406080004060A0004060C0004060E00040800000408020004080400040806000408080004080A0004080C0004080E00040A0000040A0200040A0400040A0600040A0800040A0A00040A0C00040A0E00040C0000040C0200040C0400040C0600040C08000
310
40C0A00040C0C00040C0E00040E0000040E0200040E0400040E0600040E0800040E0A00040E0C00040E0E00080000000800020008000400080006000800080008000A0008000C0008000E00080200000802020008020400080206000802080008020A0008020C0008020E00080400000804020008040400080406000804080
310
008040A0008040C0008040E00080600000806020008060400080606000806080008060A0008060C0008060E00080800000808020008080400080806000808080008080A0008080C0008080E00080A0000080A0200080A0400080A0600080A0800080A0A00080A0C00080A0E00080C0000080C0200080C0400080C0600080C0
310
800080C0A00080C0C00080C0E00080E0000080E0200080E0400080E0600080E0800080E0A00080E0C00080E0E000C0000000C0002000C0004000C0006000C0008000C000A000C000C000C000E000C0200000C0202000C0204000C0206000C0208000C020A000C020C000C020E000C0400000C0402000C0404000C0406000C0
310
408000C040A000C040C000C040E000C0600000C0602000C0604000C0606000C0608000C060A000C060C000C060E000C0800000C0802000C0804000C0806000C0808000C080A000C080C000C080E000C0A00000C0A02000C0A04000C0A06000C0A08000C0A0A000C0A0C000C0A0E000C0C00000C0C02000C0C04000C0C06000
310
C0C08000C0C0A000F0FBFF00A4A0A000808080000000FF0000FF000000FFFF00FF000000FF00FF00FFFF0000FFFFFF0000000000000000000000000000000000000000000000000000000000000000000000000000000000000000000000000000000000000000000000000000000000000000000000000000000000000000
310
000000000000000000000000000000000000B6B6B6B60000B6B6B6B6B6B6B6B6B6B6B6000000000000000000000000000000B6B6B6B6B600B6B6B6B6B6B6B6B6B6B6B6000000000000000000000000000000B6B600B6B6B6B6B6000000000000000000000000000000000000000000000000B6B6000000B600000000000000
310
00000000000000000000000000000000000000B6B6000000000000000000000000000000000000000000000000000000000000B6B6000000000000000000000000000000000000000000000000000000000000B6B6000000000000000000000000000000000000000000000000000000000000B6B600000000000000000000
310
0000000000000000000000000000000000000000B6B6B6B60000000000000000000000000000000000000000000000000000000000B6B6B6B6B6B6B6000000000000000000000000000000B6B6B6B6000000000000000000B6B6B6B6B6B6B6B6B6000000000000000000B6B6B6B6B60000000000000000000000B6B60000B6
310
B6B6B6B6B6B6000000000000B6B6B6B60000000000000000000000B6B6000000000000B6B6B6B6B6B6B60000B6B6B6B60000000000000000000000B6B600000000000000000000B6B6B6B6B6B6B6B6000000000000000000000000B6B6B6B6B60000000000000000000000B6B6B6B6B60000000000000000000000B6FFB6B6
310
B6000000000000000000000000000000B6B6B6B60000000000000000B6FF000000000000000000000000000000000000000000000000000000000000B6B6B6B6B6000000000000000000000000000000000000000000000000000000B6B6B6B6B6000000000000000000000000000000000000000000000000000000B6B6B6
310
B6B6000000000000000000000000000000000000000000000000000000B6B6000000000000000000000000000000000000000000000000000000000000B6B6000000000000000000000000000000000000000000000000000000000000B6B6000000000000000000000000000000000000000000000000000000000000B6B6
310
000000000000000000000000000000000000000000000000000000000000B6B6B60000000000000000000000000000000000000000000000000000000000B6B6B60000000000000000000000000000000000000000000000000000000000000000000000000000000000000000000000000000000000000000000000000000
310
0000000000000000000000000000000000000000000000000000000000000000000000000000000000000000000000000000000000000000
102
{BLKREFS
331
ECA
331
ED4
102
}
1001
ACAD
1000
DesignCenter Data
1002
{
1070
     1
1070
     1
1002
}
  0
BLOCK_RECORD
  5
EA7
102
{ACAD_XDICTIONARY
360
EA8
102
}
330
1
100
AcDbSymbolTableRecord
100
AcDbBlockTableRecord
  2
ECET Sill Nose 1in 50H4  w-Nose Extension 50H8
340
0
310
2800000020000000200000000100080000000000000400000000000000000000000000000000000000000000000080000080000000808000800000008000800080800000C0C0C000C0DCC000F0CAA6000020400000206000002080000020A0000020C0000020E00000400000004020000040400000406000004080000040A0
310
000040C0000040E00000600000006020000060400000606000006080000060A0000060C0000060E00000800000008020000080400000806000008080000080A0000080C0000080E00000A0000000A0200000A0400000A0600000A0800000A0A00000A0C00000A0E00000C0000000C0200000C0400000C0600000C0800000C0
310
A00000C0C00000C0E00000E0000000E0200000E0400000E0600000E0800000E0A00000E0C00000E0E00040000000400020004000400040006000400080004000A0004000C0004000E00040200000402020004020400040206000402080004020A0004020C0004020E000404000004040200040404000404060004040800040
310
40A0004040C0004040E00040600000406020004060400040606000406080004060A0004060C0004060E00040800000408020004080400040806000408080004080A0004080C0004080E00040A0000040A0200040A0400040A0600040A0800040A0A00040A0C00040A0E00040C0000040C0200040C0400040C0600040C08000
310
40C0A00040C0C00040C0E00040E0000040E0200040E0400040E0600040E0800040E0A00040E0C00040E0E00080000000800020008000400080006000800080008000A0008000C0008000E00080200000802020008020400080206000802080008020A0008020C0008020E00080400000804020008040400080406000804080
310
008040A0008040C0008040E00080600000806020008060400080606000806080008060A0008060C0008060E00080800000808020008080400080806000808080008080A0008080C0008080E00080A0000080A0200080A0400080A0600080A0800080A0A00080A0C00080A0E00080C0000080C0200080C0400080C0600080C0
310
800080C0A00080C0C00080C0E00080E0000080E0200080E0400080E0600080E0800080E0A00080E0C00080E0E000C0000000C0002000C0004000C0006000C0008000C000A000C000C000C000E000C0200000C0202000C0204000C0206000C0208000C020A000C020C000C020E000C0400000C0402000C0404000C0406000C0
310
408000C040A000C040C000C040E000C0600000C0602000C0604000C0606000C0608000C060A000C060C000C060E000C0800000C0802000C0804000C0806000C0808000C080A000C080C000C080E000C0A00000C0A02000C0A04000C0A06000C0A08000C0A0A000C0A0C000C0A0E000C0C00000C0C02000C0C04000C0C06000
310
C0C08000C0C0A000F0FBFF00A4A0A000808080000000FF0000FF000000FFFF00FF000000FF00FF00FFFF0000FFFFFF0000000000000000000000000000000000000000000000000000000000000000000000000000000000000000000000000000000000000000000000000000000000000000000000000000000000000000
310
000000000000000000000000000000000000B6B6000000000000000000000000000000000000000000000000000000000000B6B6000000000000000000000000000000000000000000000000000000000000B6B6B60000000000000000000000000000000000000000000000000000000000B6B6B6B6000000000000000000
310
00000000000000000000000000000000000000B6B6B6B600000000000000000000000000000000000000000000000000000000B6B6B6B600000000000000000000000000000000000000000000000000000000B6B6B60000000000000000000000000000000000000000000000000000000000B6B600000000000000000000
310
0000000000000000000000000000000000000000B6B6000000000000000000000000000000000000000000000000000000000000B6B6000000000000000000000000000000000000000000000000000000000000B6B6000000000000000000000000000000000000000000000000000000000000B6B6B6B600000000000000
310
00000000000000000000000000000000000000000000B6B6B6B6B6B6B600000000000000000000000000000000000000000000000000000000B6B6B6B6B6B6B6B6B6000000000000000000000000000000000000000000000000000000B6B6B6B600B6B6B6B60000000000000000B6B6B60000000000000000000000000000
310
0000B6B6B6B6B6B6B6B6B600000000B6B6B6000000000000000000000000000000000000B60000B6B6B6B6B6B6B600B6B6B6000000000000000000000000000000000000B6000000000000B6B6B6B6B6B600000000000000000000000000000000000000FFB6B6B60000000000000000B6B6B6B60000000000000000000000
310
0000000000FF00000000000000000000000000000000000000000000000000000000000000B6B6B6B600000000000000000000000000000000000000000000000000000000B6B6B60000000000000000000000000000000000000000000000000000000000B600000000000000000000000000000000000000000000000000
310
000000000000B600000000000000000000000000000000000000000000000000000000000000B6B6000000000000000000000000000000000000000000000000000000000000B6B600000000000000000000000000000000000000000000000000000000000000000000000000000000000000000000000000000000000000
310
0000000000000000000000000000000000000000000000000000000000000000000000000000000000000000000000000000000000000000
102
{BLKREFS
331
ECB
331
ED5
102
}
1001
ACAD
1000
DesignCenter Data
1002
{
1070
     1
1070
     1
1002
}
  0
BLOCK_RECORD
  5
EAF
102
{ACAD_XDICTIONARY
360
EB0
102
}
330
1
100
AcDbSymbolTableRecord
100
AcDbBlockTableRecord
  2
EDET Sill Nose Extension 50H8
340
0
310
2800000020000000200000000100080000000000000400000000000000000000000000000000000000000000000080000080000000808000800000008000800080800000C0C0C000C0DCC000F0CAA6000020400000206000002080000020A0000020C0000020E00000400000004020000040400000406000004080000040A0
310
000040C0000040E00000600000006020000060400000606000006080000060A0000060C0000060E00000800000008020000080400000806000008080000080A0000080C0000080E00000A0000000A0200000A0400000A0600000A0800000A0A00000A0C00000A0E00000C0000000C0200000C0400000C0600000C0800000C0
310
A00000C0C00000C0E00000E0000000E0200000E0400000E0600000E0800000E0A00000E0C00000E0E00040000000400020004000400040006000400080004000A0004000C0004000E00040200000402020004020400040206000402080004020A0004020C0004020E000404000004040200040404000404060004040800040
310
40A0004040C0004040E00040600000406020004060400040606000406080004060A0004060C0004060E00040800000408020004080400040806000408080004080A0004080C0004080E00040A0000040A0200040A0400040A0600040A0800040A0A00040A0C00040A0E00040C0000040C0200040C0400040C0600040C08000
310
40C0A00040C0C00040C0E00040E0000040E0200040E0400040E0600040E0800040E0A00040E0C00040E0E00080000000800020008000400080006000800080008000A0008000C0008000E00080200000802020008020400080206000802080008020A0008020C0008020E00080400000804020008040400080406000804080
310
008040A0008040C0008040E00080600000806020008060400080606000806080008060A0008060C0008060E00080800000808020008080400080806000808080008080A0008080C0008080E00080A0000080A0200080A0400080A0600080A0800080A0A00080A0C00080A0E00080C0000080C0200080C0400080C0600080C0
310
800080C0A00080C0C00080C0E00080E0000080E0200080E0400080E0600080E0800080E0A00080E0C00080E0E000C0000000C0002000C0004000C0006000C0008000C000A000C000C000C000E000C0200000C0202000C0204000C0206000C0208000C020A000C020C000C020E000C0400000C0402000C0404000C0406000C0
310
408000C040A000C040C000C040E000C0600000C0602000C0604000C0606000C0608000C060A000C060C000C060E000C0800000C0802000C0804000C0806000C0808000C080A000C080C000C080E000C0A00000C0A02000C0A04000C0A06000C0A08000C0A0A000C0A0C000C0A0E000C0C00000C0C02000C0C04000C0C06000
310
C0C08000C0C0A000F0FBFF00A4A0A000808080000000FF0000FF000000FFFF00FF000000FF00FF00FFFF0000FFFFFF0000000000000000000000000000000000000000000000000000000000000000000000000000000000000000000000000000000000000000000000000000000000000000000000000000000000000000
310
00000000000000000000000000000000000000000000000000000000000000000000000000000000000000000000000000000000000000000000000000000000000000000000000000000000000000000000000000000000000000000000000000000000000000000000000000000000000000000000000000000000000000
310
00000000000000000000000000000000000000000000000000000000000000000000000000000000000000000000000000000000000000000000000000000000000000000000000000000000000000000000000000000000000000000000000000000000000000000000000000000000000000000000000000000000000000
310
000000000000000000000000000000000000000000000000000000000000000000000000000000000000000000000000000000000000000000000000000000000000000000000000000000000000000000000000B6B6B6B600B6B6B6B6B6B6B6B6B6B6B6B6B6B6B6B6B6B6B6B6B6B6B6B6B60000B6B6B6B6B6B6B6B6B6B6B6
310
B6B6B6B6B6B6B6B6B6B6B6B6B6B6B6B6B6B6B6000000B600B6B6B6000000000000000000000000000000000000000000000000000000B600000000000000000000000000000000000000000000000000000000000000B6B6000000000000000000000000000000000000000000000000000000000000B6B600000000000000
310
00000000000000000000000000000000000000000000000000000000000000000000000000000000000000000000000000000000000000000000000000000000000000000000000000000000000000000000000000000000000000000000000000000000000000000000000000000000000000000000000000000000000000
310
00000000000000000000000000000000000000000000000000000000000000000000000000000000000000000000000000000000000000000000000000000000000000000000000000000000000000000000000000000000000000000000000000000000000000000000000000000000000000000000000000000000000000
310
00000000000000000000000000000000000000000000000000000000000000000000000000000000000000000000000000000000000000000000000000000000000000000000000000000000000000000000000000000000000000000000000000000000000000000000000000000000000000000000000000000000000000
310
0000000000000000000000000000000000000000000000000000000000000000000000000000000000000000000000000000000000000000
102
{BLKREFS
331
EAD
331
EBB
102
}
1001
ACAD
1000
DesignCenter Data
1002
{
1070
     1
1070
     1
1002
}
  0
BLOCK_RECORD
  5
EB5
102
{ACAD_XDICTIONARY
360
EB6
102
}
330
1
100
AcDbSymbolTableRecord
100
AcDbBlockTableRecord
  2
ECET Sill Nose 2in 50H6  w-Nose Extension
340
0
310
2800000020000000200000000100080000000000000400000000000000000000000000000000000000000000000080000080000000808000800000008000800080800000C0C0C000C0DCC000F0CAA6000020400000206000002080000020A0000020C0000020E00000400000004020000040400000406000004080000040A0
310
000040C0000040E00000600000006020000060400000606000006080000060A0000060C0000060E00000800000008020000080400000806000008080000080A0000080C0000080E00000A0000000A0200000A0400000A0600000A0800000A0A00000A0C00000A0E00000C0000000C0200000C0400000C0600000C0800000C0
310
A00000C0C00000C0E00000E0000000E0200000E0400000E0600000E0800000E0A00000E0C00000E0E00040000000400020004000400040006000400080004000A0004000C0004000E00040200000402020004020400040206000402080004020A0004020C0004020E000404000004040200040404000404060004040800040
310
40A0004040C0004040E00040600000406020004060400040606000406080004060A0004060C0004060E00040800000408020004080400040806000408080004080A0004080C0004080E00040A0000040A0200040A0400040A0600040A0800040A0A00040A0C00040A0E00040C0000040C0200040C0400040C0600040C08000
310
40C0A00040C0C00040C0E00040E0000040E0200040E0400040E0600040E0800040E0A00040E0C00040E0E00080000000800020008000400080006000800080008000A0008000C0008000E00080200000802020008020400080206000802080008020A0008020C0008020E00080400000804020008040400080406000804080
310
008040A0008040C0008040E00080600000806020008060400080606000806080008060A0008060C0008060E00080800000808020008080400080806000808080008080A0008080C0008080E00080A0000080A0200080A0400080A0600080A0800080A0A00080A0C00080A0E00080C0000080C0200080C0400080C0600080C0
310
800080C0A00080C0C00080C0E00080E0000080E0200080E0400080E0600080E0800080E0A00080E0C00080E0E000C0000000C0002000C0004000C0006000C0008000C000A000C000C000C000E000C0200000C0202000C0204000C0206000C0208000C020A000C020C000C020E000C0400000C0402000C0404000C0406000C0
310
408000C040A000C040C000C040E000C0600000C0602000C0604000C0606000C0608000C060A000C060C000C060E000C0800000C0802000C0804000C0806000C0808000C080A000C080C000C080E000C0A00000C0A02000C0A04000C0A06000C0A08000C0A0A000C0A0C000C0A0E000C0C00000C0C02000C0C04000C0C06000
310
C0C08000C0C0A000F0FBFF00A4A0A000808080000000FF0000FF000000FFFF00FF000000FF00FF00FFFF0000FFFFFF00000000000000000000000000000000000000000000000000000000000000000000000000B6B6000000000000000000000000000000000000000000000000000000000000B6B6000000000000000000
310
000000000000000000000000000000000000000000B6B6B60000000000000000000000000000000000000000000000000000000000B6B6B6B600000000000000000000000000000000000000000000000000000000B6B6B6B600000000000000000000000000000000000000000000000000000000B6B6B600000000000000
310
00000000000000000000000000000000000000000000B6B6000000000000000000000000000000000000000000000000000000000000B6B6000000000000000000000000000000000000000000000000000000000000B6B6000000000000000000000000000000000000000000000000000000000000B6B600000000000000
310
0000000000000000000000000000000000000000000000B6B6000000000000000000000000000000000000000000000000000000000000B6B6000000000000000000000000000000000000000000000000000000000000B6B6000000000000000000000000000000000000000000000000000000000000B6B6000000000000
310
000000000000000000000000000000000000000000000000B6B6000000000000000000000000000000000000000000000000000000000000B6B6000000000000000000000000000000000000000000000000000000000000B6B6000000000000000000000000000000000000000000000000000000000000B6B60000000000
310
00000000000000000000000000000000000000000000000000B6B6B6B600000000000000000000000000000000000000000000000000000000000000B6B6B6B6B6000000000000000000000000000000000000000000000000000000000000B6B6B6B6B6B60000000000000000B6B600000000000000000000000000000000
310
00000000B6B6B6B6B6B6000000B6B6B6000000000000000000000000000000000000000000B600B6B6B6B6B6B600B6B6000000000000000000000000000000000000000000B6B6B6000000B6B6B6B6B6B6B600000000000000000000000000000000000000FFB6B600000000000000B6B6B600000000000000000000000000
310
000000000000B6B6B60000000000000000000000000000000000000000000000000000000000B600000000000000000000000000000000000000000000000000000000000000B600000000000000000000000000000000000000000000000000000000000000B6B60000000000000000000000000000000000000000000000
310
00000000000000B6B60000000000000000000000000000000000000000000000000000000000000000000000000000000000000000000000
102
{BLKREFS
331
ECC
331
ED6
102
}
1001
ACAD
1000
DesignCenter Data
1002
{
1070
     1
1070
     1
1002
}
  0
BLOCK_RECORD
  5
EBD
330
1
100
AcDbSymbolTableRecord
100
AcDbBlockTableRecord
  2
EDET Sill Nose 3 1-2in Flat 50MD
340
0
310
2800000020000000200000000100080000000000000400000000000000000000000000000000000000000000000080000080000000808000800000008000800080800000C0C0C000C0DCC000F0CAA6000020400000206000002080000020A0000020C0000020E00000400000004020000040400000406000004080000040A0
310
000040C0000040E00000600000006020000060400000606000006080000060A0000060C0000060E00000800000008020000080400000806000008080000080A0000080C0000080E00000A0000000A0200000A0400000A0600000A0800000A0A00000A0C00000A0E00000C0000000C0200000C0400000C0600000C0800000C0
310
A00000C0C00000C0E00000E0000000E0200000E0400000E0600000E0800000E0A00000E0C00000E0E00040000000400020004000400040006000400080004000A0004000C0004000E00040200000402020004020400040206000402080004020A0004020C0004020E000404000004040200040404000404060004040800040
310
40A0004040C0004040E00040600000406020004060400040606000406080004060A0004060C0004060E00040800000408020004080400040806000408080004080A0004080C0004080E00040A0000040A0200040A0400040A0600040A0800040A0A00040A0C00040A0E00040C0000040C0200040C0400040C0600040C08000
310
40C0A00040C0C00040C0E00040E0000040E0200040E0400040E0600040E0800040E0A00040E0C00040E0E00080000000800020008000400080006000800080008000A0008000C0008000E00080200000802020008020400080206000802080008020A0008020C0008020E00080400000804020008040400080406000804080
310
008040A0008040C0008040E00080600000806020008060400080606000806080008060A0008060C0008060E00080800000808020008080400080806000808080008080A0008080C0008080E00080A0000080A0200080A0400080A0600080A0800080A0A00080A0C00080A0E00080C0000080C0200080C0400080C0600080C0
310
800080C0A00080C0C00080C0E00080E0000080E0200080E0400080E0600080E0800080E0A00080E0C00080E0E000C0000000C0002000C0004000C0006000C0008000C000A000C000C000C000E000C0200000C0202000C0204000C0206000C0208000C020A000C020C000C020E000C0400000C0402000C0404000C0406000C0
310
408000C040A000C040C000C040E000C0600000C0602000C0604000C0606000C0608000C060A000C060C000C060E000C0800000C0802000C0804000C0806000C0808000C080A000C080C000C080E000C0A00000C0A02000C0A04000C0A06000C0A08000C0A0A000C0A0C000C0A0E000C0C00000C0C02000C0C04000C0C06000
310
C0C08000C0C0A000F0FBFF00A4A0A000808080000000FF0000FF000000FFFF00FF000000FF00FF00FFFF0000FFFFFF00000000000000000000000000000000000000000000000000000000000000000000000000000000000000B6B6B6B6B6B6B6B6B6B6B6B60000000000000000000000000000000000000000B6B6B6B6B6
310
B6B6B6B6B6B6B60000000000000000000000000000000000000000B6B6000000000000B6B6B6B60000000000000000000000000000000000000000B6B600000000000000B6B6B60000000000000000000000000000000000000000B6B6000000000000000000000000000000000000000000000000000000000000B6B60000
310
00000000000000000000000000000000000000000000000000000000B6B6000000000000000000000000000000000000000000000000000000000000B6B6000000000000000000000000000000000000000000000000000000000000B6B6000000000000000000000000000000000000000000000000000000000000B6B600
310
0000000000000000000000000000000000000000000000000000000000B6B6000000000000000000000000000000000000000000000000000000000000B6B6000000000000000000000000000000000000000000000000000000000000B6B6000000000000000000000000000000000000000000000000000000000000B6B6
310
000000000000000000000000000000000000000000000000000000000000B6B6000000000000000000000000000000000000000000000000000000000000B6B6000000000000000000000000000000000000000000000000000000000000B6B6000000000000000000000000000000000000000000000000000000000000B6
310
B6000000000000000000000000000000000000000000000000000000000000B6B6000000000000000000000000000000000000000000000000000000000000B6B6000000000000000000000000000000000000000000000000000000000000B6B6000000000000000000000000000000000000000000000000000000000000
310
B6B6B6B600000000B6B6B6000000000000000000000000000000000000000000B6B6B6B6B6B6B6B6B6B6B6000000000000000000000000000000000000000000B6B6B6B6B6B6B6B6B6B600000000000000000000000000000000000000000000FFFFB6B60000000000B6B6B600000000000000000000000000000000000000
310
00B6B6B6B600000000000000000000000000000000000000000000000000000000B6B6B6B600000000000000000000000000000000000000000000000000000000B6B6000000000000000000000000000000000000000000000000000000000000B6B600000000000000000000000000000000000000000000000000000000
310
0000B6B600000000000000000000000000000000000000000000000000000000000000000000000000000000000000000000000000000000
102
{BLKREFS
331
ECD
331
ED7
102
}
1001
ACAD
1000
DesignCenter Data
1002
{
1070
     1
1070
     1
1002
}
  0
ENDTAB
  0
ENDSEC
  0
SECTION
  2
BLOCKS
  0
BLOCK
  5
6D
330
6C
100
AcDbEntity
  8
0
100
AcDbBlockBegin
  2
*Model_Space
 70
     0
 10
0.0
 20
0.0
 30
0.0
  3
*Model_Space
  1

  0
ENDBLK
  5
6E
330
6C
100
AcDbEntity
  8
0
100
AcDbBlockEnd
  0
BLOCK
  5
69
330
68
100
AcDbEntity
 67
     1
  8
0
100
AcDbBlockBegin
  2
*Paper_Space
 70
     0
 10
0.0
 20
0.0
 30
0.0
  3
*Paper_Space
  1

  0
ENDBLK
  5
6A
330
68
100
AcDbEntity
 67
     1
  8
0
100
AcDbBlockEnd
  0
BLOCK
  5
71
330
70
100
AcDbEntity
 67
     1
  8
0
100
AcDbBlockBegin
  2
*Paper_Space0
 70
     0
 10
0.0
 20
0.0
 30
0.0
  3
*Paper_Space0
  1

  0
ENDBLK
  5
72
330
70
100
AcDbEntity
 67
     1
  8
0
100
AcDbBlockEnd
  0
BLOCK
  5
2CD
330
2CA
100
AcDbEntity
  8
0
100
AcDbBlockBegin
  2
ECET Drip Cap 50GU
 70
     0
 10
0.0
 20
0.0
 30
0.0
  3
ECET Drip Cap 50GU
  1

  0
LWPOLYLINE
  5
2CE
330
2CA
100
AcDbEntity
  8
Clad
100
AcDbPolyline
 90
       12
 70
     1
 43
0.0
 10
-1.669827011064739
 20
0.0400034622287748
 10
-0.0400000000000773
 20
0.0400034622287748
 42
0.4142135623730982
 10
-0.0250000000000341
 20
0.0550034622287612
 10
-0.0250000000000341
 20
0.7300034622288294
 42
-1.0
 10
0.0149999999999864
 20
0.7300034622288294
 10
0.0149999999999864
 20
0.0300034622288124
 42
-0.4142135623730951
 10
-0.0150000000000432
 20
0.0000034622288112
 10
-1.648849520285352
 20
0.0000034622288112
 42
0.3639702342662019
 10
-1.663621636580501
 20
-0.0123918151061915
 10
-1.695546770743021
 20
-0.1934482480707018
 42
-1.0
 10
-1.734939080863455
 20
-0.1865023209640313
 10
-1.699371243655093
 20
0.0152129075587979
 42
-0.3639702342662046
  0
POINT
  5
2CF
330
2CA
100
AcDbEntity
  8
Points
100
AcDbPoint
 10
0.0
 20
0.0
 30
0.0
  0
ENDBLK
  5
2D0
330
2CA
100
AcDbEntity
  8
0
100
AcDbBlockEnd
  0
BLOCK
  5
2D5
330
2D2
100
AcDbEntity
  8
0
100
AcDbBlockBegin
  2
ECET Drip Cap Monroe 50NN
 70
     0
 10
0.0
 20
0.0
 30
0.0
  3
ECET Drip Cap Monroe 50NN
  1

  0
POINT
  5
2D6
330
2D2
100
AcDbEntity
  8
Points
100
AcDbPoint
 10
0.0
 20
0.0
 30
0.0
  0
LWPOLYLINE
  5
2D7
330
2D2
100
AcDbEntity
  8
Clad
100
AcDbPolyline
 90
       12
 70
     1
 43
0.0
 10
1.188000000000016
 20
1.921957903768472
 10
1.237999999999999
 20
1.921957903768472
 10
1.237999999999999
 20
1.281957903768471
 42
-0.4142135623730948
 10
1.128000000000014
 20
1.171957903768486
 10
-0.7064914703891532
 20
1.171957903768486
 42
0.2679491924311232
 10
-0.7584529946161922
 20
1.141957903768485
 10
-0.9146987298107944
 20
0.8713323519455258
 10
-0.9579999999999984
 20
0.8963323519455315
 10
-0.8017542648054245
 20
1.166957903768476
 42
-0.2679491924311232
 10
-0.7064914703891532
 20
1.221957903768483
 10
1.128000000000014
 20
1.221957903768469
 42
0.4142135623730952
 10
1.188000000000016
 20
1.281957903768471
  0
ENDBLK
  5
2D8
330
2D2
100
AcDbEntity
  8
0
100
AcDbBlockEnd
  0
BLOCK
  5
2DB
330
2DA
100
AcDbEntity
  8
0
100
AcDbBlockBegin
  2
ECET Drip Cap Jefferson 50NL
 70
     0
 10
0.0
 20
0.0
 30
0.0
  3
ECET Drip Cap Jefferson 50NL
  1

  0
POINT
  5
2DC
330
2DA
100
AcDbEntity
  8
Points
100
AcDbPoint
 10
0.0
 20
0.0
 30
0.0
  0
POINT
  5
2DD
330
2DA
100
AcDbEntity
  8
Points
100
AcDbPoint
 10
0.0
 20
0.0
 30
0.0
  0
LWPOLYLINE
  5
2DE
330
2DA
100
AcDbEntity
  8
Clad
100
AcDbPolyline
 90
       12
 70
     1
 43
0.0
 10
-1.010678171888912
 20
3.250957903768608
 10
1.131693356726486
 20
3.250957903768608
 42
0.414213562373095
 10
1.191693356726489
 20
3.310957903768596
 10
1.191693356726489
 20
3.950957903768596
 10
1.241693356726472
 20
3.950957903768596
 10
1.241693356726472
 20
3.310957903768596
 42
-0.414213562373095
 10
1.131693356726486
 20
3.200957903768596
 10
-1.010678171888912
 20
3.200957903768596
 42
0.3639702342662027
 10
-1.069766637069648
 20
3.151376794428614
 10
-1.124066255622921
 20
2.843428354915317
 10
-1.173306643273519
 20
2.852110763798663
 10
-1.119007024720247
 20
3.160059203311959
 42
-0.3639702342662026
  0
ENDBLK
  5
2DF
330
2DA
100
AcDbEntity
  8
0
100
AcDbBlockEnd
  0
BLOCK
  5
2E2
330
2E1
100
AcDbEntity
  8
0
100
AcDbBlockBegin
  2
ECET Drip Cap 3 1-2in Flat 50NM
 70
     0
 10
0.0
 20
0.0
 30
0.0
  3
ECET Drip Cap 3 1-2in Flat 50NM
  1

  0
POINT
  5
2E3
330
2E1
100
AcDbEntity
  8
Points
100
AcDbPoint
 10
0.0
 20
0.0
 30
0.0
  0
POINT
  5
2E4
330
2E1
100
AcDbEntity
  8
Points
100
AcDbPoint
 10
0.0
 20
0.0
 30
0.0
  0
LWPOLYLINE
  5
2E5
330
2E1
100
AcDbEntity
  8
Clad
100
AcDbPolyline
 90
       12
 70
     1
 43
0.0
 10
-0.1361479659088616
 20
3.25095790376865
 10
1.131310386795377
 20
3.25095790376865
 42
0.414213562373095
 10
1.191310386795379
 20
3.310957903768652
 10
1.191310386795379
 20
3.950957903768653
 10
1.241310386795362
 20
3.950957903768653
 10
1.241310386795362
 20
3.310957903768652
 42
-0.414213562373095
 10
1.131310386795377
 20
3.200957903768653
 10
-0.1361479659088616
 20
3.200957903768667
 42
0.3639702342662022
 10
-0.1952364310895973
 20
3.151376794428671
 10
-0.2494492255540308
 20
2.843920758791867
 10
-0.2986896132046297
 20
2.852603167675212
 10
-0.2444768187401962
 20
3.160059203312016
 42
-0.3639702342662023
  0
ENDBLK
  5
2E6
330
2E1
100
AcDbEntity
  8
0
100
AcDbBlockEnd
  0
BLOCK
  5
2EB
330
2E8
100
AcDbEntity
  8
0
100
AcDbBlockBegin
  2
ECET Brickmould 3 1-2in 50G9
 70
     0
 10
0.0
 20
0.0
 30
0.0
  3
ECET Brickmould 3 1-2in 50G9
  1

  0
POINT
  5
2EC
330
2E8
100
AcDbEntity
  8
Points
100
AcDbPoint
 10
0.0
 20
0.0
 30
0.0
  0
LWPOLYLINE
  5
2ED
330
2E8
100
AcDbEntity
  8
Clad
100
AcDbPolyline
 90
      123
 70
     1
 43
0.0
 10
-0.1066896132046509
 20
2.380926308917466
 42
0.4142135623730951
 10
-0.1146896132046322
 20
2.388926308917461
 10
-0.1610002988038559
 20
2.388926308917461
 42
-0.3439860040355279
 10
-0.1755502903866386
 20
2.400279701598236
 10
-0.2651720365247456
 20
2.757871166154387
 42
0.343986004035525
 10
-0.2729320320355555
 20
2.763926308917461
 10
-0.3096896132046254
 20
2.763926308917461
 42
-0.4142135623730951
 10
-0.3246896132046402
 20
2.778926308917462
 10
-0.3246896132046402
 20
3.185926308917466
 42
-0.4142135623730951
 10
-0.3096896132046254
 20
3.200926308917466
 10
1.226310386795375
 20
3.200926308917466
 42
-0.4142135623730951
 10
1.241310386795362
 20
3.185926308917466
 10
1.241310386795362
 20
3.147586562955304
 42
-0.2679491924311325
 10
1.233810386795369
 20
3.134596181898537
 10
1.206097573874274
 20
3.118596181898539
 42
-1.19027628935611
 10
1.197410840407883
 20
3.126733529512151
 42
0.5867405185793939
 10
1.190597573874242
 20
3.138926308917461
 10
1.185310386795379
 20
3.138926308917461
 10
1.150097573874262
 20
3.118596181898539
 42
-1.190276289356213
 10
1.1414108404079
 20
3.126733529512151
 42
0.5867405185793702
 10
1.134597573874259
 20
3.138926308917461
 10
1.129310386795424
 20
3.138926308917461
 10
1.094097573874307
 20
3.118596181898539
 42
-1.19027628935611
 10
1.085410840407973
 20
3.126733529512151
 42
0.5867405185793939
 10
1.078597573874333
 20
3.138926308917461
 10
0.9493103867953607
 20
3.138926308917461
 42
0.4142135623730951
 10
0.9413103867953509
 20
3.130926308917466
 10
0.9413103867953509
 20
3.071040827760874
 42
0.267949192431135
 10
0.94531038679537
 20
3.064112624530601
 10
1.074597573874314
 20
2.989468632267794
 42
0.5773502691896316
 10
1.086597573874314
 20
2.996396835498067
 10
1.086597573874314
 20
2.997626308917219
 42
-0.57735026918964
 10
1.094097573874307
 20
3.001956435936143
 10
1.131166793255971
 20
2.980554512147492
 10
1.134597573874259
 20
2.980554512147492
 42
0.4142135623730951
 10
1.142597573874269
 20
2.988554512147494
 10
1.142597573874269
 20
2.997626308917219
 42
-0.5773502691896188
 10
1.150097573874262
 20
3.001956435936143
 10
1.187166793255926
 20
2.980554512147492
 10
1.190597573874555
 20
2.980554512147492
 42
0.4142135623730788
 10
1.198597573874565
 20
2.988554512147494
 10
1.198597573874565
 20
2.997626308917219
 42
-0.5773502691896037
 10
1.206097573874558
 20
3.001956435936143
 10
1.233810386795425
 20
2.985956435936266
 42
-0.267949192431124
 10
1.241310386795419
 20
2.972966054879499
 10
1.241310386795419
 20
2.933554512147637
 42
-0.4142135623730909
 10
1.226310386795432
 20
2.918554512147636
 10
1.081462908669266
 20
2.918554512147636
 42
-0.1316524975873963
 10
1.066462908669279
 20
2.922573750034104
 10
0.8943103867953539
 20
3.021966054879676
 42
-0.2679491924311223
 10
0.8793103867953675
 20
3.04794681699321
 10
0.8793103867953675
 20
3.130926308917466
 42
0.4142135623730951
 10
0.8713103867953577
 20
3.138926308917461
 10
0.634310386795363
 20
3.138926308917461
 10
0.6243103867955142
 20
3.148926308917459
 10
0.6143103867953528
 20
3.138926308917461
 10
0.377310386795358
 20
3.138926308917461
 42
0.4142135623730931
 10
0.3693103867953482
 20
3.130926308917466
 10
0.3693103867953482
 20
3.093926308917467
 42
-0.4142135623730951
 10
0.3543103867953619
 20
3.078926308917466
 10
0.3223103867953796
 20
3.078926308917466
 42
-0.4142135623731038
 10
0.3073103867953648
 20
3.093926308917467
 10
0.3073103867953648
 20
3.130926308917466
 42
0.4142135623731031
 10
0.299310386795355
 20
3.138926308917461
 10
-0.2546896132046186
 20
3.138926308917461
 42
0.4142135623730951
 10
-0.2626896132046284
 20
3.130926308917466
 10
-0.2626896132046284
 20
2.833926308917462
 42
0.4142135623730951
 10
-0.2546896132046186
 20
2.825926308917466
 10
-0.2300154025729739
 20
2.825926308917466
 42
-0.3439860040355273
 10
-0.2154654109901912
 20
2.814572916236691
 10
-0.1258436648520842
 20
2.45698145168054
 42
0.3439860040355294
 10
-0.1180836693412743
 20
2.450926308917466
 10
-0.0596896132046254
 20
2.450926308917466
 42
-0.4142135623730954
 10
-0.0446896132046391
 20
2.435926308917466
 10
-0.0446896132046391
 20
0.3469579037686543
 42
0.4142135623730951
 10
-0.0366896132046293
 20
0.3389579037686587
 10
0.1853103867953791
 20
0.3389579037686587
 42
-0.4142135623730973
 10
0.2003103867953655
 20
0.3239579037686582
 10
0.2003103867953655
 20
0.2845147661855876
 42
-0.2679491924311285
 10
0.1928103867953723
 20
0.2715243851288207
 10
0.1650975738742773
 20
0.2555243851288225
 42
-1.256077890687856
 10
0.1561581088953972
 20
0.2643481673472863
 42
0.6062688386665145
 10
0.1495975738742459
 20
0.2769263089174672
 10
0.1461667932559294
 20
0.2769263089174672
 10
0.1090975738742657
 20
0.2555243851288225
 42
-1.256077890687815
 10
0.1001581088953856
 20
0.2643481673472863
 42
0.6062688386665256
 10
0.0935975738742627
 20
0.2769263089174672
 10
0.0901667932559178
 20
0.2769263089174672
 10
0.0530975738742541
 20
0.2555243851288225
 42
-1.256077890687815
 10
0.044158108895374
 20
0.2643481673472863
 42
0.606268838666526
 10
0.0375975738742795
 20
0.2769263089174672
 10
-0.0366896132046293
 20
0.2769263089174672
 42
0.4142135623730951
 10
-0.0446896132046391
 20
0.2689263089174645
 10
-0.0446896132046391
 20
0.1257827153780227
 42
0.4142135623730951
 10
-0.0366896132046293
 20
0.11778271537802
 10
0.0375975738742795
 20
0.11778271537802
 42
0.4142135623730951
 10
0.0455975738742609
 20
0.1257827153780227
 10
0.0455975738742609
 20
0.1348545121477471
 42
-0.5773502691896111
 10
0.0530975738742541
 20
0.1391846391666647
 10
0.0901667932559178
 20
0.11778271537802
 10
0.0935975738742627
 20
0.11778271537802
 42
0.4142135623731144
 10
0.1015975738742441
 20
0.1257827153780227
 10
0.1015975738742441
 20
0.1348545121477471
 42
-0.577350269189647
 10
0.1090975738742657
 20
0.1391846391666647
 10
0.1461667932559294
 20
0.11778271537802
 10
0.1495975738742459
 20
0.11778271537802
 42
0.4142135623730758
 10
0.1575975738742557
 20
0.1257827153780227
 10
0.1575975738742557
 20
0.1348545121477471
 42
-0.5773502691896111
 10
0.1650975738742773
 20
0.1391846391666647
 10
0.1928103867953723
 20
0.1231846391666664
 42
-0.267949192431135
 10
0.2003103867953655
 20
0.1101942581098996
 10
0.2003103867953655
 20
0.070782715378023
 42
-0.4142135623731038
 10
0.1853103867953791
 20
0.0557827153780224
 10
-0.0366896132046293
 20
0.0557827153780224
 42
0.4142135623730953
 10
-0.0446896132046391
 20
0.0477827153780197
 10
-0.0446896132046391
 20
-0.2290736910825331
 42
0.4142135623730951
 10
-0.0366896132046293
 20
-0.2370736910825357
 10
-0.0136896132046331
 20
-0.2370736910825357
 42
-0.4142135623730909
 10
0.0013103867953532
 20
-0.2520736910825363
 10
0.0013103867953532
 20
-0.2840736910825328
 42
-0.4142135623731038
 10
-0.0136896132046331
 20
-0.2990736910825333
 10
-0.0916896132046361
 20
-0.2990736910825333
 42
-0.4142135623730909
 10
-0.1066896132046509
 20
-0.2840736910825328
  0
ENDBLK
  5
2EE
330
2E8
100
AcDbEntity
  8
0
100
AcDbBlockEnd
  0
BLOCK
  5
2F3
330
2F0
100
AcDbEntity
  8
0
100
AcDbBlockBegin
  2
ECET Brickmould Jefferson 50GC
 70
     0
 10
0.0
 20
0.0
 30
0.0
  3
ECET Brickmould Jefferson 50GC
  1

  0
POINT
  5
2F4
330
2F0
100
AcDbEntity
  8
Points
100
AcDbPoint
 10
0.0
 20
0.0
 30
0.0
  0
LWPOLYLINE
  5
2F5
330
2F0
100
AcDbEntity
  8
Clad
100
AcDbPolyline
 90
      149
 70
     1
 43
0.0
 10
-0.9963066432715947
 20
3.185957903768596
 42
-0.4142135623730951
 10
-0.98130664327158
 20
3.200957903768596
 10
1.226693356726457
 20
3.200957903768596
 42
-0.4142135623730951
 10
1.241693356726472
 20
3.185957903768596
 10
1.241693356726472
 20
3.147618157806306
 42
-0.267949192435486
 10
1.234193356726251
 20
3.134627776749418
 10
1.206480543806179
 20
3.118627776750621
 42
-0.5773502691842164
 10
1.1989805438063
 20
3.12295790376956
 10
1.1989805438063
 20
3.13095790376866
 42
0.4142135623730951
 10
1.190980543806347
 20
3.138957903768599
 10
1.1878369502665
 20
3.138957903768599
 42
0.1316524975832401
 10
1.183836950266623
 20
3.137886106998948
 10
1.150480543806338
 20
3.118627776750621
 42
-0.5773502691842158
 10
1.14298054380643
 20
3.12295790376956
 10
1.14298054380643
 20
3.13095790376866
 42
0.4142135623730951
 10
1.134980543806506
 20
3.138957903768599
 10
1.131836950265466
 20
3.138957903768599
 42
0.1316524975832401
 10
1.127836950265617
 20
3.137886106998948
 10
1.094480543805303
 20
3.118627776750621
 42
-0.5773502691842504
 10
1.086980543805424
 20
3.12295790376956
 10
1.086980543805424
 20
3.13095790376866
 42
0.4142135623731113
 10
1.078980543805471
 20
3.138957903768599
 10
0.949693356726442
 20
3.138957903768599
 42
0.414213562373095
 10
0.9416933567264607
 20
3.130957903768596
 10
0.9416933567264607
 20
3.071444219381596
 42
0.2679491924312579
 10
0.9456933567264798
 20
3.064516016151323
 10
1.074980543805509
 20
2.989872023888551
 42
0.5773502691894313
 10
1.086980543805424
 20
2.996800227118775
 10
1.086980543805424
 20
2.9979579037687
 42
-0.5773502691357885
 10
1.094480543804678
 20
3.002288030788008
 10
1.129693356740659
 20
2.981957903768076
 42
0.1316524975464708
 10
1.133693356739541
 20
2.980886106999001
 10
1.134980543806506
 20
2.980886106999008
 42
0.4142135623726887
 10
1.14298054380643
 20
2.98888610699894
 10
1.14298054380643
 20
2.9979579037687
 42
-0.5773502691357625
 10
1.150480543805713
 20
3.002288030788008
 10
1.185693356741694
 20
2.981957903768076
 42
0.1316524975464642
 10
1.189693356740548
 20
2.980886106999001
 10
1.190980543806375
 20
2.980886106999008
 42
0.4142135623729001
 10
1.1989805438063
 20
2.98888610699894
 10
1.1989805438063
 20
2.9979579037687
 42
-0.5773502691357528
 10
1.206480543805554
 20
3.002288030788008
 10
1.234193356724375
 20
2.9862880307953
 42
-0.2679491924744085
 10
1.241693356726472
 20
2.973297649737325
 10
1.241693356726472
 20
2.933886106999104
 42
-0.4142135623730951
 10
1.226693356726457
 20
2.918886106999103
 10
1.081970234252736
 20
2.918886106999103
 42
-0.131652497587258
 10
1.06697023425275
 20
2.922905344885556
 10
0.8946933567264352
 20
3.022369446500398
 42
-0.2679491924312646
 10
0.8796933567264488
 20
3.048350208613932
 10
0.8796933567264488
 20
3.130957903768582
 42
0.4142135623730942
 10
0.8716933567264391
 20
3.138957903768584
 10
0.6346933567265581
 20
3.138957903768577
 10
0.6246933567264535
 20
3.148957903768661
 10
0.6146933567265194
 20
3.138957903768734
 10
0.3776933567264393
 20
3.138957903768584
 42
0.4142135623729083
 10
0.3696933567264296
 20
3.130957903768582
 10
0.3696933567264296
 20
3.093957903768583
 42
-0.4142135623730951
 10
0.3546933567264148
 20
3.078957903768582
 10
0.3226933567264325
 20
3.078957903768582
 42
-0.4142135623731038
 10
0.3076933567264461
 20
3.093957903768583
 10
0.3076933567264461
 20
3.130957903768596
 42
0.4142135623730951
 10
0.2996933567264364
 20
3.138957903768599
 10
-0.9263066432716016
 20
3.138957903768599
 42
0.4142135623730951
 10
-0.9343066432716113
 20
3.130957903768596
 10
-0.9343066432716113
 20
2.731048363950158
 42
-0.3145547677434687
 10
-0.8439015280199271
 20
2.370094143955924
 42
0.4219154770109628
 10
-0.6925578699920436
 20
2.043902452621267
 42
-0.2437442708779221
 10
-0.5128627772803896
 20
1.852843605510464
 42
-0.3983414257852099
 10
-0.4400566856807871
 20
1.775957903768663
 10
-0.4400566856807871
 20
0.3469579037686614
 42
0.4142135623730788
 10
-0.4320566856807773
 20
0.3389579037686587
 10
0.1843103867953744
 20
0.3389579037686587
 42
-0.4142135623730951
 10
0.1993103867953607
 20
0.3239579037686582
 10
0.1993103867953607
 20
0.2845463610368028
 42
-0.2679491924311097
 10
0.1918103867953675
 20
0.271555979980036
 10
0.1640975738742441
 20
0.2555559799800307
 42
-0.5773502691895822
 10
0.1565975738742509
 20
0.2598861069989553
 10
0.1565975738742509
 20
0.2689579037686585
 42
0.4142135623730788
 10
0.1485975738742411
 20
0.2769579037686611
 10
0.1473103867953398
 20
0.2769579037686611
 42
0.1316524975874749
 10
0.1433103867953207
 20
0.2758861069989393
 10
0.1080975738742325
 20
0.2555559799800307
 42
-0.5773502691895748
 10
0.1005975738742393
 20
0.2598861069989553
 10
0.1005975738742393
 20
0.2689579037686585
 42
0.4142135623730788
 10
0.092597573874258
 20
0.2769579037686611
 10
0.0913103867953282
 20
0.2769579037686611
 42
0.1316524975874749
 10
0.0873103867953376
 20
0.2758861069989393
 10
0.0520975738742493
 20
0.2555559799800307
 42
-0.5773502691896084
 10
0.0445975738742561
 20
0.2598861069989553
 10
0.0445975738742561
 20
0.2689579037686585
 42
0.4142135623731602
 10
0.0365975738742463
 20
0.2769579037686611
 10
-0.0366896132046293
 20
0.2769579037686611
 42
0.414213562373095
 10
-0.0446896132046391
 20
0.2689579037686585
 10
-0.0446896132046391
 20
0.1258143102292166
 42
0.4142135623730788
 10
-0.0366896132046293
 20
0.1178143102292211
 10
0.0365975738742463
 20
0.1178143102292211
 42
0.414213562373095
 10
0.0445975738742561
 20
0.1258143102292166
 10
0.0445975738742561
 20
0.1348861069989411
 42
-0.5773502691896221
 10
0.0520975738742493
 20
0.1392162340178586
 10
0.0873103867953376
 20
0.1188861069989429
 42
0.1316524975872846
 10
0.0913103867953567
 20
0.1178143102292211
 10
0.092597573874258
 20
0.1178143102292211
 42
0.414213562373087
 10
0.1005975738742393
 20
0.1258143102292166
 10
0.1005975738742393
 20
0.1348861069989411
 42
-0.5773502691896221
 10
0.1080975738742325
 20
0.1392162340178586
 10
0.1433103867953491
 20
0.1188861069989429
 42
0.1316524975873617
 10
0.1473103867953398
 20
0.117814310229214
 10
0.1485975738742411
 20
0.117814310229214
 42
0.414213562373095
 10
0.1565975738742509
 20
0.1258143102292166
 10
0.1565975738742509
 20
0.1348861069989411
 42
-0.5773502691895965
 10
0.1640975738742441
 20
0.1392162340178586
 10
0.1918103867953675
 20
0.1232162340178604
 42
-0.2679491924311411
 10
0.1993103867953607
 20
0.1102258529610935
 10
0.1993103867953607
 20
0.0708143102292169
 42
-0.4142135623730865
 10
0.1843103867953744
 20
0.0558143102292164
 10
-0.0366896132046293
 20
0.0558143102292164
 42
0.414213562373095
 10
-0.0446896132046391
 20
0.0478143102292208
 10
-0.0446896132046391
 20
-0.2290420962313391
 42
0.4142135623730788
 10
-0.0366896132046293
 20
-0.2370420962313418
 10
-0.0136896132046616
 20
-0.2370420962313418
 42
-0.4142135623730843
 10
0.0013103867953532
 20
-0.2520420962313423
 10
0.0013103867953532
 20
-0.2840420962313388
 42
-0.4142135623730995
 10
-0.0136896132046616
 20
-0.2990420962313394
 10
-0.0916896132046361
 20
-0.2990420962313394
 42
-0.4142135623730909
 10
-0.1066896132046509
 20
-0.2840420962313388
 10
-0.1066896132046224
 20
-0.2062171657433396
 42
0.6053394933654442
 10
-0.119249897318241
 20
-0.1996442053141791
 42
-0.9955577307985599
 10
-0.3982700018299852
 20
0.1987224871058473
 10
-0.3982700018299852
 20
0.2689579037686585
 10
-0.3362700018299733
 20
0.2689579037686585
 10
-0.3362700018300018
 20
0.1684635454355217
 42
-0.2812132401832774
 10
-0.340616540049723
 20
0.1613465083399177
 42
1.295979771131491
 10
-0.1066896132046509
 20
-0.0996946909070005
 10
-0.1066896132046509
 20
0.2769579037686611
 10
-0.3282700018299636
 20
0.2769579037686611
 42
0.414213562373095
 10
-0.3362700018300018
 20
0.2689579037686585
 10
-0.3982700018299852
 20
0.2689579037686585
 42
0.4142135623730788
 10
-0.406270001829995
 20
0.2769579037686611
 10
-0.4832700018299932
 20
0.2769579037686611
 42
-0.4142135623730951
 10
-0.4982700018299795
 20
0.2919579037686617
 10
-0.4982700018299795
 20
1.776957903768661
 42
0.4142135623730951
 10
-0.5132700018299659
 20
1.791957903768661
 10
-0.5511835497229356
 20
1.791957903768661
 42
-0.3753130057654726
 10
-0.5660478436448387
 20
1.804944755437304
 42
0.2816914242046512
 10
-0.7131097771876114
 20
1.985407845086683
 42
-0.4219154770110151
 10
-0.9018371276368384
 20
2.392172782886717
 42
0.3279974910630799
 10
-0.9848687142776668
 20
2.692441539466848
 42
-0.229839553681101
 10
-0.9963066432715947
 20
2.716009516044508
  0
ENDBLK
  5
2F6
330
2F0
100
AcDbEntity
  8
0
100
AcDbBlockEnd
  0
BLOCK
  5
2FB
330
2F8
100
AcDbEntity
  8
0
100
AcDbBlockBegin
  2
ECET Brickmould 3 1-2in Flat  50GJ
 70
     0
 10
0.0
 20
0.0
 30
0.0
  3
ECET Brickmould 3 1-2in Flat  50GJ
  1

  0
POINT
  5
2FC
330
2F8
100
AcDbEntity
  8
Points
100
AcDbPoint
 10
0.0
 20
0.0
 30
0.0
  0
LWPOLYLINE
  5
2FD
330
2F8
100
AcDbEntity
  8
Clad
100
AcDbPolyline
 90
      107
 70
     1
 43
0.0
 10
-0.1066896132046509
 20
3.18595790376866
 42
-0.4142135623730951
 10
-0.0916896132046361
 20
3.20095790376866
 10
1.226310386795375
 20
3.20095790376866
 42
-0.4142135623730951
 10
1.241310386795362
 20
3.18595790376866
 10
1.241310386795362
 20
3.147618157806498
 42
-0.2679491924311204
 10
1.233810386795369
 20
3.134627776749731
 10
1.206097573874274
 20
3.118627776749733
 42
-1.19027628935608
 10
1.197410840407883
 20
3.126765124363345
 42
0.5867405185793796
 10
1.190597573874242
 20
3.138957903768655
 10
1.18531038679535
 20
3.138957903768655
 10
1.150097573874262
 20
3.118627776749747
 42
-1.190276289355401
 10
1.1414108404079
 20
3.126765124363345
 42
0.5867405185791817
 10
1.134597573874259
 20
3.138957903768655
 10
1.129310386795424
 20
3.138957903768655
 10
1.094097573874307
 20
3.118627776749733
 42
-1.19027628935608
 10
1.085410840407945
 20
3.126765124363345
 42
0.5867405185793796
 10
1.078597573874333
 20
3.138957903768655
 10
0.9493103867953607
 20
3.138957903768655
 42
0.4142135623730951
 10
0.9413103867953509
 20
3.13095790376866
 10
0.9413103867953509
 20
3.071476705922172
 42
0.2679491924310795
 10
0.94531038679537
 20
3.064548502691899
 10
1.074597573874314
 20
2.989904510429063
 42
0.5773502691896794
 10
1.086597573874314
 20
2.996832713659337
 10
1.086597573874314
 20
2.997957903763563
 42
-0.577350269189677
 10
1.094097573874307
 20
3.002288030782487
 10
1.131166793247132
 20
2.98088610699893
 10
1.134597573874259
 20
2.98088610699893
 42
0.414213562373152
 10
1.14259757387424
 20
2.988886106998933
 10
1.14259757387424
 20
2.997957903763563
 42
-0.5773502691896957
 10
1.150097573874262
 20
3.002288030782487
 10
1.187166793247058
 20
2.98088610699893
 10
1.190597573874242
 20
2.98088610699893
 42
0.4142135623731316
 10
1.198597573874252
 20
2.988886106998933
 10
1.198597573874252
 20
2.997957903763563
 42
-0.577350269189677
 10
1.206097573874274
 20
3.002288030782487
 10
1.233810386790935
 20
2.986288030795222
 42
-0.2679491924310797
 10
1.241310386795362
 20
2.97329764973081
 10
1.241310386795362
 20
2.933886106998933
 42
-0.4142135623730951
 10
1.226310386795375
 20
2.918886106998932
 10
1.081643532660621
 20
2.918886106998932
 42
-0.1316524975873976
 10
1.066643532660606
 20
2.9229053448854
 10
0.8943103867952686
 20
3.022401933041059
 42
-0.2679491924311223
 10
0.8793103867952538
 20
3.048382695154593
 10
0.8793103867952538
 20
3.130957903768667
 42
0.4142135623730951
 10
0.871310386795244
 20
3.138957903768663
 10
0.6343103867952778
 20
3.138957903768663
 10
0.6243103867952584
 20
3.148957903768668
 10
0.6143103867951823
 20
3.138957903768591
 10
0.3773103867952159
 20
3.138957903768663
 42
0.4142135623731804
 10
0.3693103867952061
 20
3.130957903768667
 10
0.3693103867952061
 20
3.093957903768661
 42
-0.4142135623730623
 10
0.3543103867951913
 20
3.07895790376866
 10
0.3223103867952091
 20
3.078957903768653
 42
-0.4142135623731277
 10
0.3073103867952227
 20
3.093957903768654
 10
0.3073103867952227
 20
3.13095790376866
 42
0.4142135623731031
 10
0.2993103867952129
 20
3.138957903768655
 10
-0.0366896132046577
 20
3.138957903768655
 42
0.4142135623730951
 10
-0.0446896132046391
 20
3.13095790376866
 10
-0.0446896132046391
 20
0.3469579037686614
 42
0.4142135623730956
 10
-0.0366896132046577
 20
0.3389579037686587
 10
0.1853103867953507
 20
0.3389579037686587
 42
-0.4142135623730973
 10
0.2003103867953655
 20
0.3239579037686582
 10
0.2003103867953655
 20
0.2845463610367815
 42
-0.2679491924311232
 10
0.1928103867953723
 20
0.2715559799800147
 10
0.165097573873993
 20
0.2555559799798601
 42
-1.256077890697574
 10
0.1561581088950561
 20
0.2643797621984305
 42
0.6062688386692449
 10
0.1495975738739901
 20
0.2769579037686611
 10
0.1461667932561568
 20
0.2769579037686611
 10
0.1090975738742372
 20
0.2555559799798601
 42
-1.256077890697574
 10
0.1001581088953571
 20
0.2643797621984305
 42
0.6062688386692449
 10
0.0935975738742627
 20
0.2769579037686611
 10
0.0901667932561736
 20
0.2769579037686611
 10
0.0530975738742541
 20
0.2555559799798601
 42
-1.256077890697574
 10
0.0441581088953456
 20
0.2643797621984305
 42
0.6062688386692468
 10
0.0375975738742511
 20
0.2769579037686611
 10
-0.0366896132046577
 20
0.2769579037686611
 42
0.4142135623730951
 10
-0.0446896132046391
 20
0.2689579037686585
 10
-0.0446896132046391
 20
0.1258143102292166
 42
0.4142135623730811
 10
-0.0366896132046577
 20
0.1178143102292211
 10
0.0375975738742511
 20
0.117814310229214
 42
0.4142135623731093
 10
0.0455975738742609
 20
0.1258143102292166
 10
0.0455975738742609
 20
0.1348861069990903
 42
-0.5773502691896092
 10
0.0530975738742541
 20
0.139216234018015
 10
0.0901667932561736
 20
0.1178143102292282
 10
0.0935975738742343
 20
0.117814310229214
 42
0.4142135623739304
 10
0.1015975738742441
 20
0.1258143102292166
 10
0.1015975738742441
 20
0.1348861069990903
 42
-0.5773502691896092
 10
0.1090975738742372
 20
0.139216234018015
 10
0.1461667932561568
 20
0.1178143102292211
 10
0.1495975738739901
 20
0.117814310229214
 42
0.4142135623731244
 10
0.1575975738739999
 20
0.1258143102292166
 10
0.1575975738739999
 20
0.1348861069990974
 42
-0.5773502691895872
 10
0.165097573873993
 20
0.139216234018015
 10
0.1928103867953723
 20
0.1232162340178604
 42
-0.2679491924311308
 10
0.2003103867953655
 20
0.1102258529610935
 10
0.2003103867953655
 20
0.0708143102292169
 42
-0.4142135623730995
 10
0.1853103867953791
 20
0.0558143102292164
 10
-0.0366896132046577
 20
0.0558143102292164
 42
0.4142135623730951
 10
-0.0446896132046391
 20
0.0478143102292208
 10
-0.0446896132046391
 20
-0.2290420962313391
 42
0.4142135623730726
 10
-0.0366896132046577
 20
-0.2370420962313418
 10
-0.0136896132046331
 20
-0.2370420962313418
 42
-0.4142135623730685
 10
0.0013103867953532
 20
-0.2520420962313423
 10
0.0013103867953532
 20
-0.2840420962313459
 42
-0.4142135623730951
 10
-0.0136896132046331
 20
-0.2990420962313394
 10
-0.0916896132046361
 20
-0.2990420962313394
 42
-0.4142135623730909
 10
-0.1066896132046509
 20
-0.2840420962313388
  0
ENDBLK
  5
2FE
330
2F8
100
AcDbEntity
  8
0
100
AcDbBlockEnd
  0
BLOCK
  5
303
330
300
100
AcDbEntity
  8
0
100
AcDbBlockBegin
  2
ECET Brickmould Standard 70F5 Head 70F6 Jamb
 70
     0
 10
0.0
 20
0.0
 30
0.0
  3
ECET Brickmould Standard 70F5 Head 70F6 Jamb
  1

  0
POINT
  5
304
330
300
100
AcDbEntity
  8
Points
100
AcDbPoint
 10
0.0
 20
0.0
 30
0.0
  0
LWPOLYLINE
  5
305
330
300
100
AcDbEntity
  8
Clad
100
AcDbPolyline
 90
      134
 70
     1
 43
0.0
 10
-0.3246896132046402
 20
1.161875000000016
 42
-0.4142135623730951
 10
-0.3096896132046254
 20
1.176875000000016
 10
1.226310386795375
 20
1.176875000000016
 42
-0.4142135623730995
 10
1.241310386795362
 20
1.161875000000016
 10
1.241310386795362
 20
1.135535254037861
 42
-0.2679491924311222
 10
1.233810386795369
 20
1.122544872981094
 10
1.206097573874274
 20
1.106544872981096
 42
-0.5773502691896147
 10
1.198597573874252
 20
1.110875000000014
 10
1.198597573874252
 20
1.118875000000016
 42
0.4142135623731276
 10
1.190597573874242
 20
1.126875000000019
 10
1.187453980334794
 20
1.126875000000019
 42
0.1316524975873937
 10
1.183453980334803
 20
1.12580320323029
 10
1.150097573874262
 20
1.106544872981096
 42
-0.5773502691896283
 10
1.14259757387424
 20
1.110875000000014
 10
1.14259757387424
 20
1.118875000000016
 42
0.4142135623730951
 10
1.134597573874259
 20
1.126875000000019
 10
1.131453980334811
 20
1.126875000000019
 42
0.1316524975874012
 10
1.127453980334792
 20
1.12580320323029
 10
1.09409757387425
 20
1.106544872981096
 42
-0.577350269189622
 10
1.086597573874257
 20
1.110875000000014
 10
1.086597573874257
 20
1.118875000000016
 42
0.4142135623730626
 10
1.078597573874276
 20
1.126875000000019
 10
0.9373103867953602
 20
1.126875000000019
 42
0.4142135623730951
 10
0.9293103867953504
 20
1.118875000000016
 10
0.9293103867953504
 20
1.072063021535186
 42
0.2679491924311226
 10
0.9443103867953652
 20
1.046082259421652
 10
1.074597573874257
 20
0.9708609168896913
 42
0.5773502691896279
 10
1.086597573874257
 20
0.9777891201199651
 10
1.086597573874257
 20
0.9858750000000142
 42
-0.5773502691896112
 10
1.09409757387425
 20
0.9902051270189389
 10
1.129310386795367
 20
0.969875000000016
 42
0.1316524975873864
 10
1.133310386795358
 20
0.9688032032302942
 10
1.134597573874259
 20
0.9688032032302942
 42
0.4142135623730951
 10
1.14259757387424
 20
0.9768032032302897
 10
1.14259757387424
 20
0.9858750000000142
 42
-0.5773502691896201
 10
1.150097573874262
 20
0.9902051270189389
 10
1.185310386795379
 20
0.969875000000016
 42
0.5724727112196258
 10
1.198597573874252
 20
0.9768032032302969
 10
1.198597573874252
 20
0.9858750000000142
 42
-0.5773502691896938
 10
1.206097573874274
 20
0.9902051270189389
 10
1.233810386795369
 20
0.9742051270189406
 42
-0.2679491924311257
 10
1.241310386795362
 20
0.9612147459621738
 10
1.241310386795362
 20
0.9338032032302905
 42
-0.4142135623730951
 10
1.226310386795375
 20
0.9188032032302899
 10
1.072802654631146
 20
0.9188032032302899
 42
-0.1316524975873955
 10
1.057802654631132
 20
0.9228224411167573
 10
0.8943103867953539
 20
1.017214745962171
 42
-0.2679491924311226
 10
0.8793103867953675
 20
1.043195508075704
 10
0.8793103867953675
 20
1.118875000000016
 42
0.4142135623730948
 10
0.8713103867953577
 20
1.126875000000019
 10
0.634310386795363
 20
1.126875000000019
 42
1.0
 10
0.6143103867953528
 20
1.126875000000019
 10
0.377310386795358
 20
1.126875000000019
 42
0.4142135623730951
 10
0.3693103867953482
 20
1.118875000000016
 10
0.3693103867953482
 20
1.081875000000017
 42
-0.4142135623730951
 10
0.3543103867953619
 20
1.066875000000017
 10
0.3343103867953516
 20
1.066875000000017
 42
-0.4142135623730951
 10
0.3193103867953653
 20
1.081875000000017
 10
0.3193103867953653
 20
1.118875000000016
 42
0.414213562373088
 10
0.3113103867953555
 20
1.126875000000019
 10
-0.2666896132046475
 20
1.126875000000019
 42
0.4142135623730951
 10
-0.2746896132046572
 20
1.118875000000016
 10
-0.2746896132046572
 20
0.797875000000019
 42
0.4142135623730951
 10
-0.2666896132046475
 20
0.7898750000000164
 10
-0.2393790308193502
 20
0.7898750000000164
 42
-0.3439860040355289
 10
-0.2248290392365675
 20
0.7785216073192487
 10
-0.1352072930984605
 20
0.4209301427630905
 42
0.3439860040355281
 10
-0.1274472975876506
 20
0.4148750000000164
 10
-0.0716896132046259
 20
0.4148750000000164
 42
-0.4142135623730951
 10
-0.0566896132046395
 20
0.3998750000000157
 10
-0.0566896132046395
 20
0.3408750000000182
 42
0.4142135623730869
 10
-0.0486896132046582
 20
0.3328750000000156
 10
0.1633103867953594
 20
0.3328750000000156
 42
-0.4142135623730951
 10
0.1783103867953741
 20
0.317875000000015
 10
0.1783103867953741
 20
0.290629264805446
 42
-0.2679491924311263
 10
0.1708103867953525
 20
0.2776388837486792
 10
0.1428103867953609
 20
0.2614730762113737
 42
-0.5773502691896195
 10
0.1353103867953678
 20
0.2658032032302913
 10
0.1353103867953678
 20
0.2748750000000157
 42
0.4142135623730666
 10
0.127310386795358
 20
0.2828750000000184
 10
0.1260231997164567
 20
0.2828750000000184
 42
0.1316524975873943
 10
0.122023199716466
 20
0.2818032032302895
 10
0.0868103867953778
 20
0.2614730762113737
 42
-0.5773502691896226
 10
0.0793103867953562
 20
0.2658032032302913
 10
0.0793103867953562
 20
0.2748750000000157
 42
0.4142135623730951
 10
0.0713103867953464
 20
0.2828750000000184
 10
0.0700231997164451
 20
0.2828750000000184
 42
0.1316524975873947
 10
0.0660231997164544
 20
0.2818032032302895
 10
0.0308103867953662
 20
0.2614730762113737
 42
-0.5773502691896209
 10
0.0233103867953446
 20
0.2658032032302913
 10
0.0233103867953446
 20
0.2748750000000157
 42
0.4142135623730942
 10
0.0153103867953632
 20
0.2828750000000184
 10
-0.0486896132046582
 20
0.2828750000000184
 42
0.414213562373096
 10
-0.0566896132046395
 20
0.2748750000000157
 10
-0.0566896132046395
 20
0.1317314064605668
 42
0.414213562373096
 10
-0.0486896132046582
 20
0.1237314064605641
 10
0.0153103867953632
 20
0.1237314064605641
 42
0.4142135623730942
 10
0.0233103867953446
 20
0.1317314064605668
 10
0.0233103867953446
 20
0.1408032032302913
 42
-0.577350269189621
 10
0.0308103867953662
 20
0.1451333302492159
 10
0.0660231997164544
 20
0.124803203230293
 42
0.131652497587404
 10
0.0700231997164451
 20
0.1237314064605712
 10
0.0713103867953464
 20
0.1237314064605641
 42
0.4142135623731454
 10
0.0793103867953562
 20
0.1317314064605668
 10
0.0793103867953562
 20
0.1408032032302913
 42
-0.5773502691895914
 10
0.0868103867953778
 20
0.1451333302492159
 10
0.122023199716466
 20
0.124803203230293
 42
0.131652497587404
 10
0.1260231997164567
 20
0.1237314064605712
 10
0.127310386795358
 20
0.1237314064605641
 42
0.4142135623731459
 10
0.1353103867953678
 20
0.1317314064605668
 10
0.1353103867953678
 20
0.1408032032302913
 42
-0.5773502691896448
 10
0.1428103867953609
 20
0.1451333302492159
 10
0.1708103867953525
 20
0.1289675227119034
 42
-0.267949192431124
 10
0.1783103867953741
 20
0.1159771416551365
 10
0.1783103867953741
 20
0.0887314064605676
 42
-0.4142135623730929
 10
0.1633103867953594
 20
0.073731406460567
 10
-0.0486896132046582
 20
0.073731406460567
 42
0.4142135623730951
 10
-0.0566896132046395
 20
0.0657314064605643
 10
-0.0566896132046395
 20
-0.2351249999999823
 42
0.4142135623730951
 10
-0.0486896132046582
 20
-0.2431249999999849
 10
-0.0136896132046331
 20
-0.2431249999999849
 42
-0.4142135623730973
 10
0.0013103867953532
 20
-0.2581249999999855
 10
0.0013103867953532
 20
-0.2781249999999815
 42
-0.4142135623730929
 10
-0.0136896132046331
 20
-0.2931249999999821
 10
-0.0916896132046361
 20
-0.2931249999999821
 42
-0.4142135623730978
 10
-0.1066896132046509
 20
-0.2781249999999815
 10
-0.1066896132046509
 20
0.3568750000000165
 42
0.4142135623730966
 10
-0.1146896132046322
 20
0.3648750000000192
 10
-0.1610002988038559
 20
0.3648750000000192
 42
-0.3439860040355299
 10
-0.1755502903866386
 20
0.3762283926807868
 10
-0.2651720365247456
 20
0.7338198572369379
 42
0.3439860040355278
 10
-0.2729320320355555
 20
0.7398750000000192
 10
-0.3096896132046254
 20
0.7398750000000192
 42
-0.4142135623730951
 10
-0.3246896132046402
 20
0.7548750000000198
  0
ENDBLK
  5
306
330
300
100
AcDbEntity
  8
0
100
AcDbBlockEnd
  0
BLOCK
  5
309
330
308
100
AcDbEntity
  8
0
100
AcDbBlockBegin
  2
ECET Brickmould Monroe 50GF
 70
     0
 10
0.0
 20
0.0
 30
0.0
  3
ECET Brickmould Monroe 50GF
  1

  0
POINT
  5
30A
330
308
100
AcDbEntity
  8
Points
100
AcDbPoint
 10
0.0
 20
0.0
 30
0.0
  0
LWPOLYLINE
  5
30B
330
308
100
AcDbEntity
  8
Clad
100
AcDbPolyline
 90
      127
 70
     1
 43
0.0
 10
-0.6123106060211967
 20
1.15874929363423
 42
-0.3795699304917112
 10
-0.5974179594347789
 20
1.171957903768422
 10
1.223000000000013
 20
1.171957903768422
 42
-0.4142135623730995
 10
1.237999999999999
 20
1.156957903768422
 10
1.237999999999999
 20
1.130618157806367
 42
-0.2679491924540616
 10
1.230499999998897
 20
1.11762777674896
 10
1.202787187078229
 20
1.101627776752366
 42
-0.5773502691610877
 10
1.195287187078577
 20
1.105957903771503
 10
1.195287187078577
 20
1.113957903768579
 42
0.4142135623730951
 10
1.187287187078766
 20
1.121957903768418
 10
1.184143593540341
 20
1.121957903768418
 42
0.1316524975656218
 10
1.180143593541004
 20
1.120886106999058
 10
1.146787187078217
 20
1.101627776752366
 42
-0.5773502691610878
 10
1.139287187078593
 20
1.105957903771503
 10
1.139287187078593
 20
1.113957903768579
 42
0.4142135623730951
 10
1.131287187078754
 20
1.121957903768418
 10
1.128143593540357
 20
1.121957903768418
 42
0.1316524975656183
 10
1.12414359354102
 20
1.120886106999058
 10
1.090787187078205
 20
1.101627776752366
 42
-0.5773502691610878
 10
1.083287187078582
 20
1.105957903771503
 10
1.083287187078582
 20
1.113957903768579
 42
0.4142135623730951
 10
1.075287187078743
 20
1.121957903768418
 10
0.9340000000000259
 20
1.121957903768418
 42
0.4142135623730951
 10
0.9260000000000445
 20
1.113957903768415
 10
0.9260000000000445
 20
1.06714592530357
 42
0.2679491924311218
 10
0.9410000000000309
 20
1.041165163190036
 10
1.071287187078837
 20
0.9659438206581398
 42
0.5773502691896108
 10
1.083287187078582
 20
0.9728720238882786
 10
1.083287187078582
 20
0.9809579037684841
 42
-0.5773502691901617
 10
1.090787187078603
 20
0.9852880307874016
 10
1.125999999999379
 20
0.9649579037685853
 42
0.1316524975877436
 10
1.129999999999313
 20
0.9638861069988777
 10
1.131287187078754
 20
0.9638861069988777
 42
0.4142135623730951
 10
1.139287187078593
 20
0.971886106998717
 10
1.139287187078593
 20
0.9809579037684841
 42
-0.5773502691901929
 10
1.146787187078587
 20
0.9852880307874016
 10
1.181999999999391
 20
0.9649579037685853
 42
0.1316524975877517
 10
1.185999999999296
 20
0.9638861069988777
 10
1.187287187078766
 20
0.9638861069988777
 42
0.4142135623730951
 10
1.195287187078577
 20
0.971886106998717
 10
1.195287187078577
 20
0.9809579037684841
 42
-0.5773502691902026
 10
1.202787187078598
 20
0.9852880307874016
 10
1.230500000000034
 20
0.9692880307871547
 42
-0.2679491924306677
 10
1.237999999999999
 20
0.956297649730402
 10
1.237999999999999
 20
0.928886106998874
 42
-0.4142135623730951
 10
1.223000000000013
 20
0.9138861069988735
 10
1.069492267835499
 20
0.9138861069988806
 42
-0.1316524975873955
 10
1.054492267835513
 20
0.9179053448853409
 10
0.8910000000000479
 20
1.012297649730577
 42
-0.2679491924311234
 10
0.8760000000000331
 20
1.038278411844103
 10
0.8760000000000331
 20
1.113957903768415
 42
0.4142135623730951
 10
0.8680000000000518
 20
1.121957903768418
 10
0.631000000000114
 20
1.121957903768418
 10
0.6210000000000378
 20
1.131957903768487
 10
0.6109999999999616
 20
1.121957903768418
 10
0.3740000000000236
 20
1.121957903768418
 42
0.414213562373095
 10
0.3660000000000423
 20
1.113957903768415
 10
0.3660000000000423
 20
1.076957903768402
 42
-0.4142135623731093
 10
0.3510000000000559
 20
1.061957903768401
 10
0.3310000000000457
 20
1.061957903768401
 42
-0.4142135623730886
 10
0.3160000000000309
 20
1.076957903768402
 10
0.3160000000000309
 20
1.113957903768415
 42
0.4142135623730951
 10
0.3080000000000496
 20
1.121957903768418
 10
-0.5600128908207012
 20
1.121957903768418
 42
0.3188450646458886
 10
-0.5741732333412984
 20
1.111906105431536
 42
-0.228797647440747
 10
-0.691455851228966
 20
0.9947713346841524
 42
0.772248268492652
 10
-0.6497761342461104
 20
0.470252060586013
 42
-0.2342293231992856
 10
-0.1373452352623019
 20
0.0915163905105345
 42
0.7871581173043988
 10
-0.1089999999999804
 20
0.0983650908101339
 10
-0.1089999999999804
 20
0.3129579037685772
 42
-0.4142135623730973
 10
-0.0939999999999941
 20
0.3279579037685778
 10
0.1620000000000061
 20
0.3279579037685778
 42
-0.4142135623730951
 10
0.1770000000000209
 20
0.3129579037685772
 10
0.1770000000000209
 20
0.2855463610368432
 42
-0.267949192431124
 10
0.1694999999999993
 20
0.2725559799800763
 10
0.1417871871894363
 20
0.2565559800438919
 42
-0.5773502691896317
 10
0.1342871871894431
 20
0.2608861070628166
 10
0.1342871871894431
 20
0.269957903768578
 42
0.414213562373152
 10
0.1262871871894333
 20
0.2779579037685806
 10
0.1249999998892122
 20
0.2779579037685806
 42
0.1316524975873932
 10
0.1209999998891931
 20
0.2768861069988517
 10
0.0857871870788927
 20
0.2565559800438919
 42
-0.577350269189623
 10
0.0782871870788995
 20
0.2608861070628166
 10
0.0782871870788995
 20
0.269957903768578
 42
0.414213562373152
 10
0.0702871870788897
 20
0.2779579037685806
 10
0.068999999889229
 20
0.2779579037685806
 42
0.1316524975873932
 10
0.0649999998892099
 20
0.2768861069988517
 10
0.0297871870789095
 20
0.2565559800438919
 42
-0.5773502691896236
 10
0.0222871870789163
 20
0.2608861070628166
 10
0.0222871870789163
 20
0.269957903768578
 42
0.4142135623731521
 10
0.0142871870789065
 20
0.2779579037685735
 10
-0.0509999999999877
 20
0.2779579037685806
 42
0.4142135623730971
 10
-0.0589999999999975
 20
0.269957903768578
 10
-0.0589999999999975
 20
0.126814310229129
 42
0.4142135623730971
 10
-0.0509999999999877
 20
0.1188143102291264
 10
0.0142871870789065
 20
0.1188143102291264
 42
0.4142135623730931
 10
0.0222871870789163
 20
0.126814310229129
 10
0.0222871870789163
 20
0.1358861069349118
 42
-0.577350269188765
 10
0.0297871870789095
 20
0.1402162339538435
 10
0.0649999998894941
 20
0.1198861069988411
 42
0.1316524975867399
 10
0.0689999998894564
 20
0.1188143102291264
 10
0.0702871870788897
 20
0.1188143102291264
 42
0.414213562373095
 10
0.0782871870788995
 20
0.126814310229129
 10
0.0782871870788995
 20
0.1358861069349118
 42
-0.577350269188761
 10
0.0857871870788927
 20
0.1402162339538435
 10
0.1209999998894773
 20
0.1198861069988411
 42
0.1316524975867398
 10
0.1249999998894395
 20
0.1188143102291264
 10
0.1262871871894333
 20
0.1188143102291264
 42
0.414213562373095
 10
0.1342871871894431
 20
0.126814310229129
 10
0.1342871871894431
 20
0.1358861069349118
 42
-0.577350269188759
 10
0.1417871871894363
 20
0.1402162339538435
 10
0.1694999999999709
 20
0.1242162340177657
 42
-0.2679491924318175
 10
0.1770000000000209
 20
0.1112258529609846
 10
0.1770000000000209
 20
0.0838143102291298
 42
-0.4142135623730974
 10
0.1620000000000061
 20
0.0688143102291292
 10
-0.0509999999999877
 20
0.0688143102291292
 42
0.414213562373095
 10
-0.0589999999999975
 20
0.0608143102291265
 10
-0.0589999999999975
 20
-0.24004209623142
 42
0.4142135623730951
 10
-0.0509999999999877
 20
-0.2480420962314227
 10
-0.0169999999999959
 20
-0.2480420962314227
 42
-0.4142135623730931
 10
-0.0020000000000096
 20
-0.2630420962314233
 10
-0.0020000000000096
 20
-0.2830420962314193
 42
-0.4142135623730974
 10
-0.0169999999999959
 20
-0.2980420962314198
 10
-0.0948218601493238
 20
-0.2980420962314198
 42
-0.4345490802021771
 10
-0.1097862418951081
 20
-0.2820090042869339
 42
0.3830966825702799
 10
-0.6585466739738877
 20
0.4210272941276259
 42
-0.7742581130235467
 10
-0.7063593237448913
 20
1.042521751397522
 42
0.2878793193164316
  0
ENDBLK
  5
30C
330
308
100
AcDbEntity
  8
0
100
AcDbBlockEnd
  0
BLOCK
  5
31F
330
31E
100
AcDbEntity
  8
0
100
AcDbBlockBegin
  2
*D10
 70
     1
 10
0.0
 20
0.0
 30
0.0
  3
*D10
  1

  0
LINE
  5
F2A
330
31E
100
AcDbEntity
  8
Dim
100
AcDbLine
 10
2.067758665569421
 20
21.82812499999998
 30
0.0
 11
2.067758665569421
 21
23.06249999999999
 31
0.0
  0
LINE
  5
F2B
330
31E
100
AcDbEntity
  8
Dim
100
AcDbLine
 10
3.741249999999986
 20
22.55812499999998
 30
0.0
 11
3.741249999999986
 21
23.06249999999999
 31
0.0
  0
LINE
  5
F2C
330
31E
100
AcDbEntity
  8
Dim
100
AcDbLine
 10
2.317758665569421
 20
22.99999999999999
 30
0.0
 11
3.491249999999986
 21
22.99999999999999
 31
0.0
  0
SOLID
  5
F2D
330
31E
100
AcDbEntity
  8
Dim
100
AcDbTrace
 10
2.317758665569421
 20
23.04166666666666
 30
0.0
 11
2.317758665569421
 21
22.95833333333332
 31
0.0
 12
2.067758665569421
 22
22.99999999999999
 32
0.0
 13
2.067758665569421
 23
22.99999999999999
 33
0.0
  0
SOLID
  5
F2E
330
31E
100
AcDbEntity
  8
Dim
100
AcDbTrace
 10
3.491249999999986
 20
23.04166666666666
 30
0.0
 11
3.491249999999986
 21
22.95833333333332
 31
0.0
 12
3.741249999999986
 22
22.99999999999999
 32
0.0
 13
3.741249999999986
 23
22.99999999999999
 33
0.0
  0
MTEXT
  5
F2F
330
31E
100
AcDbEntity
  8
Dim
 62
   255
100
AcDbMText
 10
2.904504332784703
 20
23.17602489768076
 30
0.0
 40
0.28
 41
0.0
 71
     5
 72
     1
  1
\A1;1 11/16"
 73
     1
 44
1.0
1001
ACAD
1000
MTEXTBEGIN
1070
    73
1070
     1
1070
    44
1040
1.0
1070
    74
1070
     0
1000
MTEXTEND
  0
MTEXT
  5
F30
330
31E
100
AcDbEntity
  8
Dim
 62
   255
100
AcDbMText
 10
2.904504332784703
 20
22.78930934515688
 30
0.0
 40
0.28
 41
0.0
 71
     5
 72
     1
  1
\A1;[43]
 73
     1
 44
1.0
1001
ACAD
1000
MTEXTBEGIN
1070
    73
1070
     1
1070
    44
1040
1.0
1070
    74
1070
     0
1000
MTEXTEND
  0
POINT
  5
F31
330
31E
100
AcDbEntity
  8
Defpoints
 62
     0
100
AcDbPoint
 10
2.067758665569421
 20
21.70312499999999
 30
0.0
  0
POINT
  5
F32
330
31E
100
AcDbEntity
  8
Defpoints
 62
     0
100
AcDbPoint
 10
3.741249999999986
 20
22.43312499999998
 30
0.0
  0
POINT
  5
F33
330
31E
100
AcDbEntity
  8
Defpoints
 62
     0
100
AcDbPoint
 10
3.741249999999986
 20
22.99999999999999
 30
0.0
  0
ENDBLK
  5
320
330
31E
100
AcDbEntity
  8
0
100
AcDbBlockEnd
  0
BLOCK
  5
32C
330
32B
100
AcDbEntity
  8
0
100
AcDbBlockBegin
  2
*D11
 70
     1
 10
0.0
 20
0.0
 30
0.0
  3
*D11
  1

  0
LINE
  5
F34
330
32B
100
AcDbEntity
  8
Dim
100
AcDbLine
 10
1.874999999999992
 20
21.49999999999999
 30
0.0
 11
1.187499999999992
 21
21.49999999999999
 31
0.0
  0
LINE
  5
F35
330
32B
100
AcDbEntity
  8
Dim
100
AcDbLine
 10
1.874999999999992
 20
21.74999999999999
 30
0.0
 11
1.187499999999992
 21
21.74999999999999
 31
0.0
  0
LINE
  5
F36
330
32B
100
AcDbEntity
  8
Dim
100
AcDbLine
 10
1.249999999999992
 20
21.25
 30
0.0
 11
1.249999999999992
 21
20.99999999999999
 31
0.0
  0
LINE
  5
F37
330
32B
100
AcDbEntity
  8
Dim
100
AcDbLine
 10
1.249999999999992
 20
21.99999999999999
 30
0.0
 11
1.249999999999992
 21
22.24999999999999
 31
0.0
  0
MTEXT
  5
F38
330
32B
100
AcDbEntity
  8
Dim
 62
   255
100
AcDbMText
 10
1.249999999999992
 20
20.81249999999999
 30
0.0
 40
0.28
 41
0.0
 71
     5
 72
     1
  1
\A1;1/4"\P [6]
 11
0.0000000000000001
 21
1.0
 31
0.0
 73
     1
 44
1.0
1001
ACAD
1000
MTEXTBEGIN
1070
    73
1070
     1
1070
    44
1040
1.0
1070
    74
1070
     0
1000
MTEXTEND
  0
SOLID
  5
F39
330
32B
100
AcDbEntity
  8
Dim
100
AcDbTrace
 10
1.208333333333325
 20
21.25
 30
0.0
 11
1.291666666666659
 21
21.25
 31
0.0
 12
1.249999999999992
 22
21.49999999999999
 32
0.0
 13
1.249999999999992
 23
21.49999999999999
 33
0.0
  0
SOLID
  5
F3A
330
32B
100
AcDbEntity
  8
Dim
100
AcDbTrace
 10
1.208333333333326
 20
21.99999999999999
 30
0.0
 11
1.291666666666659
 21
21.99999999999999
 31
0.0
 12
1.249999999999992
 22
21.74999999999999
 32
0.0
 13
1.249999999999992
 23
21.74999999999999
 33
0.0
  0
POINT
  5
F3B
330
32B
100
AcDbEntity
  8
Defpoints
 62
     0
100
AcDbPoint
 10
1.999999999999992
 20
21.49999999999999
 30
0.0
  0
POINT
  5
F3C
330
32B
100
AcDbEntity
  8
Defpoints
 62
     0
100
AcDbPoint
 10
1.999999999999992
 20
21.74999999999999
 30
0.0
  0
POINT
  5
F3D
330
32B
100
AcDbEntity
  8
Defpoints
 62
     0
100
AcDbPoint
 10
1.249999999999992
 20
21.74999999999999
 30
0.0
  0
ENDBLK
  5
32D
330
32B
100
AcDbEntity
  8
0
100
AcDbBlockEnd
  0
BLOCK
  5
338
330
337
100
AcDbEntity
  8
0
100
AcDbBlockBegin
  2
*D12
 70
     1
 10
0.0
 20
0.0
 30
0.0
  3
*D12
  1

  0
LINE
  5
F3E
330
337
100
AcDbEntity
  8
Dim
100
AcDbLine
 10
1.874999999999992
 20
21.74999999999999
 30
0.0
 11
1.187499999999992
 21
21.74999999999999
 31
0.0
  0
LINE
  5
F3F
330
337
100
AcDbEntity
  8
Dim
100
AcDbLine
 10
3.596250000000004
 20
22.45312499999999
 30
0.0
 11
2.130258665569421
 21
22.45312499999999
 31
0.0
  0
LINE
  5
F40
330
337
100
AcDbEntity
  8
Dim
100
AcDbLine
 10
2.005258665569421
 20
22.45312499999999
 30
0.0
 11
1.187499999999992
 21
22.45312499999999
 31
0.0
  0
LINE
  5
F41
330
337
100
AcDbEntity
  8
Dim
100
AcDbLine
 10
1.249999999999992
 20
21.99999999999999
 30
0.0
 11
1.249999999999992
 21
22.20312499999999
 31
0.0
  0
MTEXT
  5
F42
330
337
100
AcDbEntity
  8
Dim
 62
   255
100
AcDbMText
 10
0.6091345497953508
 20
22.10156249999999
 30
0.0
 40
0.28
 41
0.0
 71
     5
 72
     1
  1
\A1;11/16"
 11
0.0000000000000001
 21
1.0
 31
0.0
 73
     1
 44
1.0
1001
ACAD
1000
MTEXTBEGIN
1070
    73
1070
     1
1070
    44
1040
1.0
1070
    74
1070
     0
1000
MTEXTEND
  0
MTEXT
  5
F43
330
337
100
AcDbEntity
  8
Dim
 62
   255
100
AcDbMText
 10
0.9958501023192253
 20
22.10156249999999
 30
0.0
 40
0.28
 41
0.0
 71
     5
 72
     1
  1
\A1;[18]
 11
0.0000000000000001
 21
1.0
 31
0.0
 73
     1
 44
1.0
1001
ACAD
1000
MTEXTBEGIN
1070
    73
1070
     1
1070
    44
1040
1.0
1070
    74
1070
     0
1000
MTEXTEND
  0
SOLID
  5
F44
330
337
100
AcDbEntity
  8
Dim
100
AcDbTrace
 10
1.208333333333326
 20
21.99999999999999
 30
0.0
 11
1.291666666666659
 21
21.99999999999999
 31
0.0
 12
1.249999999999992
 22
21.74999999999999
 32
0.0
 13
1.249999999999992
 23
21.74999999999999
 33
0.0
  0
SOLID
  5
F45
330
337
100
AcDbEntity
  8
Dim
100
AcDbTrace
 10
1.208333333333326
 20
22.20312499999999
 30
0.0
 11
1.291666666666659
 21
22.20312499999999
 31
0.0
 12
1.249999999999992
 22
22.45312499999999
 32
0.0
 13
1.249999999999992
 23
22.45312499999999
 33
0.0
  0
POINT
  5
F46
330
337
100
AcDbEntity
  8
Defpoints
 62
     0
100
AcDbPoint
 10
1.999999999999992
 20
21.74999999999999
 30
0.0
  0
POINT
  5
F47
330
337
100
AcDbEntity
  8
Defpoints
 62
     0
100
AcDbPoint
 10
3.721250000000004
 20
22.45312499999999
 30
0.0
  0
POINT
  5
F48
330
337
100
AcDbEntity
  8
Defpoints
 62
     0
100
AcDbPoint
 10
1.249999999999992
 20
22.45312499999999
 30
0.0
  0
ENDBLK
  5
339
330
337
100
AcDbEntity
  8
0
100
AcDbBlockEnd
  0
BLOCK
  5
346
330
345
100
AcDbEntity
  8
0
100
AcDbBlockBegin
  2
*D13
 70
     1
 10
0.0
 20
0.0
 30
0.0
  3
*D13
  1

  0
LINE
  5
F49
330
345
100
AcDbEntity
  8
Dim
100
AcDbLine
 10
7.766758529610854
 20
21.82016942799547
 30
0.0
 11
7.766758529610854
 21
23.0580537613487
 31
0.0
  0
LINE
  5
F4A
330
345
100
AcDbEntity
  8
Dim
100
AcDbLine
 10
9.741249999999993
 20
22.57820790376841
 30
0.0
 11
9.741249999999993
 21
23.0580537613487
 31
0.0
  0
LINE
  5
F4B
330
345
100
AcDbEntity
  8
Dim
100
AcDbLine
 10
8.016758529610854
 20
22.9955537613487
 30
0.0
 11
9.491249999999993
 21
22.9955537613487
 31
0.0
  0
SOLID
  5
F4C
330
345
100
AcDbEntity
  8
Dim
100
AcDbTrace
 10
8.016758529610854
 20
23.03722042801537
 30
0.0
 11
8.016758529610854
 21
22.95388709468203
 31
0.0
 12
7.766758529610854
 22
22.9955537613487
 32
0.0
 13
7.766758529610854
 23
22.9955537613487
 33
0.0
  0
SOLID
  5
F4D
330
345
100
AcDbEntity
  8
Dim
100
AcDbTrace
 10
9.491249999999993
 20
23.03722042801537
 30
0.0
 11
9.491249999999993
 21
22.95388709468203
 31
0.0
 12
9.741249999999993
 22
22.9955537613487
 32
0.0
 13
9.741249999999993
 23
22.9955537613487
 33
0.0
  0
MTEXT
  5
F4E
330
345
100
AcDbEntity
  8
Dim
 62
   255
100
AcDbMText
 10
8.754004264805423
 20
23.16737674907038
 30
0.0
 40
0.28
 41
0.0
 71
     5
 72
     1
  1
\A1;2"
 73
     1
 44
1.0
1001
ACAD
1000
MTEXTBEGIN
1070
    73
1070
     1
1070
    44
1040
1.0
1070
    74
1070
     0
1000
MTEXTEND
  0
MTEXT
  5
F4F
330
345
100
AcDbEntity
  8
Dim
 62
   255
100
AcDbMText
 10
8.754004264805423
 20
22.78486310650559
 30
0.0
 40
0.28
 41
0.0
 71
     5
 72
     1
  1
\A1;[50]
 73
     1
 44
1.0
1001
ACAD
1000
MTEXTBEGIN
1070
    73
1070
     1
1070
    44
1040
1.0
1070
    74
1070
     0
1000
MTEXTEND
  0
POINT
  5
F50
330
345
100
AcDbEntity
  8
Defpoints
 62
     0
100
AcDbPoint
 10
7.766758529610854
 20
21.69516942799547
 30
0.0
  0
POINT
  5
F51
330
345
100
AcDbEntity
  8
Defpoints
 62
     0
100
AcDbPoint
 10
9.741249999999993
 20
22.4532079037684
 30
0.0
  0
POINT
  5
F52
330
345
100
AcDbEntity
  8
Defpoints
 62
     0
100
AcDbPoint
 10
9.741249999999993
 20
22.9955537613487
 30
0.0
  0
ENDBLK
  5
347
330
345
100
AcDbEntity
  8
0
100
AcDbBlockEnd
  0
BLOCK
  5
353
330
352
100
AcDbEntity
  8
0
100
AcDbBlockBegin
  2
*D14
 70
     1
 10
0.0
 20
0.0
 30
0.0
  3
*D14
  1

  0
LINE
  5
F53
330
352
100
AcDbEntity
  8
Dim
100
AcDbLine
 10
7.420249999999995
 20
21.42758235194546
 30
0.0
 11
6.687499999999992
 21
21.42758235194546
 31
0.0
  0
LINE
  5
F54
330
352
100
AcDbEntity
  8
Dim
100
AcDbLine
 10
7.624999999999992
 20
21.75320790376841
 30
0.0
 11
6.687499999999992
 21
21.75320790376841
 31
0.0
  0
LINE
  5
F55
330
352
100
AcDbEntity
  8
Dim
100
AcDbLine
 10
6.749999999999992
 20
21.17758235194546
 30
0.0
 11
6.749999999999992
 21
20.92758235194546
 31
0.0
  0
LINE
  5
F56
330
352
100
AcDbEntity
  8
Dim
100
AcDbLine
 10
6.749999999999993
 20
22.00320790376841
 30
0.0
 11
6.749999999999993
 21
22.25320790376841
 31
0.0
  0
MTEXT
  5
F57
330
352
100
AcDbEntity
  8
Dim
 62
   255
100
AcDbMText
 10
6.749999999999992
 20
20.74999999999999
 30
0.0
 40
0.28
 41
0.0
 71
     5
 72
     1
  1
\A1;5/16"\P [8]
 11
0.0000000000000001
 21
1.0
 31
0.0
 73
     1
 44
1.0
1001
ACAD
1000
MTEXTBEGIN
1070
    73
1070
     1
1070
    44
1040
1.0
1070
    74
1070
     0
1000
MTEXTEND
  0
SOLID
  5
F58
330
352
100
AcDbEntity
  8
Dim
100
AcDbTrace
 10
6.708333333333325
 20
21.17758235194546
 30
0.0
 11
6.791666666666659
 21
21.17758235194546
 31
0.0
 12
6.749999999999992
 22
21.42758235194546
 32
0.0
 13
6.749999999999992
 23
21.42758235194546
 33
0.0
  0
SOLID
  5
F59
330
352
100
AcDbEntity
  8
Dim
100
AcDbTrace
 10
6.708333333333326
 20
22.00320790376841
 30
0.0
 11
6.79166666666666
 21
22.00320790376841
 31
0.0
 12
6.749999999999992
 22
21.75320790376841
 32
0.0
 13
6.749999999999992
 23
21.75320790376841
 33
0.0
  0
POINT
  5
F5A
330
352
100
AcDbEntity
  8
Defpoints
 62
     0
100
AcDbPoint
 10
7.545249999999995
 20
21.42758235194546
 30
0.0
  0
POINT
  5
F5B
330
352
100
AcDbEntity
  8
Defpoints
 62
     0
100
AcDbPoint
 10
7.749999999999992
 20
21.75320790376841
 30
0.0
  0
POINT
  5
F5C
330
352
100
AcDbEntity
  8
Defpoints
 62
     0
100
AcDbPoint
 10
6.749999999999992
 20
21.75320790376841
 30
0.0
  0
ENDBLK
  5
354
330
352
100
AcDbEntity
  8
0
100
AcDbBlockEnd
  0
BLOCK
  5
35F
330
35E
100
AcDbEntity
  8
0
100
AcDbBlockBegin
  2
*D15
 70
     1
 10
0.0
 20
0.0
 30
0.0
  3
*D15
  1

  0
LINE
  5
F5D
330
35E
100
AcDbEntity
  8
Dim
100
AcDbLine
 10
7.624999999999992
 20
21.75320790376841
 30
0.0
 11
6.687499999999992
 21
21.75320790376841
 31
0.0
  0
LINE
  5
F5E
330
35E
100
AcDbEntity
  8
Dim
100
AcDbLine
 10
9.566249999999996
 20
22.4532079037684
 30
0.0
 11
7.829258529610854
 21
22.45320790376841
 31
0.0
  0
LINE
  5
F5F
330
35E
100
AcDbEntity
  8
Dim
100
AcDbLine
 10
7.704258529610854
 20
22.45320790376841
 30
0.0
 11
6.687499999999992
 21
22.45320790376841
 31
0.0
  0
LINE
  5
F60
330
35E
100
AcDbEntity
  8
Dim
100
AcDbLine
 10
6.749999999999992
 20
22.00320790376841
 30
0.0
 11
6.749999999999992
 21
22.20320790376841
 31
0.0
  0
MTEXT
  5
F61
330
35E
100
AcDbEntity
  8
Dim
 62
   255
100
AcDbMText
 10
6.10913454979535
 20
22.10320790376841
 30
0.0
 40
0.28
 41
0.0
 71
     5
 72
     1
  1
\A1;11/16"
 11
0.0000000000000001
 21
1.0
 31
0.0
 73
     1
 44
1.0
1001
ACAD
1000
MTEXTBEGIN
1070
    73
1070
     1
1070
    44
1040
1.0
1070
    74
1070
     0
1000
MTEXTEND
  0
MTEXT
  5
F62
330
35E
100
AcDbEntity
  8
Dim
 62
   255
100
AcDbMText
 10
6.495850102319225
 20
22.10320790376841
 30
0.0
 40
0.28
 41
0.0
 71
     5
 72
     1
  1
\A1;[18]
 11
0.0000000000000001
 21
1.0
 31
0.0
 73
     1
 44
1.0
1001
ACAD
1000
MTEXTBEGIN
1070
    73
1070
     1
1070
    44
1040
1.0
1070
    74
1070
     0
1000
MTEXTEND
  0
SOLID
  5
F63
330
35E
100
AcDbEntity
  8
Dim
100
AcDbTrace
 10
6.708333333333325
 20
22.00320790376841
 30
0.0
 11
6.791666666666659
 21
22.00320790376841
 31
0.0
 12
6.749999999999992
 22
21.75320790376841
 32
0.0
 13
6.749999999999992
 23
21.75320790376841
 33
0.0
  0
SOLID
  5
F64
330
35E
100
AcDbEntity
  8
Dim
100
AcDbTrace
 10
6.708333333333325
 20
22.20320790376841
 30
0.0
 11
6.791666666666659
 21
22.20320790376841
 31
0.0
 12
6.749999999999992
 22
22.45320790376841
 32
0.0
 13
6.749999999999992
 23
22.45320790376841
 33
0.0
  0
POINT
  5
F65
330
35E
100
AcDbEntity
  8
Defpoints
 62
     0
100
AcDbPoint
 10
7.749999999999992
 20
21.75320790376841
 30
0.0
  0
POINT
  5
F66
330
35E
100
AcDbEntity
  8
Defpoints
 62
     0
100
AcDbPoint
 10
9.691249999999996
 20
22.4532079037684
 30
0.0
  0
POINT
  5
F67
330
35E
100
AcDbEntity
  8
Defpoints
 62
     0
100
AcDbPoint
 10
6.749999999999992
 20
22.45320790376841
 30
0.0
  0
ENDBLK
  5
360
330
35E
100
AcDbEntity
  8
0
100
AcDbBlockEnd
  0
BLOCK
  5
36D
330
36C
100
AcDbEntity
  8
0
100
AcDbBlockBegin
  2
*D16
 70
     1
 10
0.0
 20
0.0
 30
0.0
  3
*D16
  1

  0
LINE
  5
F68
330
36C
100
AcDbEntity
  8
Dim
100
AcDbLine
 10
13.20030755675535
 20
21.84869857041534
 30
0.0
 11
13.20030755675535
 21
23.08658290376857
 31
0.0
  0
LINE
  5
F69
330
36C
100
AcDbEntity
  8
Dim
100
AcDbLine
 10
15.49124634195193
 20
22.60220790376856
 30
0.0
 11
15.49124634195193
 21
23.08658290376857
 31
0.0
  0
LINE
  5
F6A
330
36C
100
AcDbEntity
  8
Dim
100
AcDbLine
 10
13.45030755675535
 20
23.02408290376857
 30
0.0
 11
15.24124634195193
 21
23.02408290376857
 31
0.0
  0
SOLID
  5
F6B
330
36C
100
AcDbEntity
  8
Dim
100
AcDbTrace
 10
13.45030755675535
 20
23.06574957043523
 30
0.0
 11
13.45030755675535
 21
22.9824162371019
 31
0.0
 12
13.20030755675535
 22
23.02408290376857
 32
0.0
 13
13.20030755675535
 23
23.02408290376857
 33
0.0
  0
SOLID
  5
F6C
330
36C
100
AcDbEntity
  8
Dim
100
AcDbTrace
 10
15.24124634195193
 20
23.06574957043523
 30
0.0
 11
15.24124634195193
 21
22.9824162371019
 31
0.0
 12
15.49124634195193
 22
23.02408290376857
 32
0.0
 13
15.49124634195193
 23
23.02408290376857
 33
0.0
  0
MTEXT
  5
F6D
330
36C
100
AcDbEntity
  8
Dim
 62
   255
100
AcDbMText
 10
14.34577694935364
 20
23.20010780144933
 30
0.0
 40
0.28
 41
0.0
 71
     5
 72
     1
  1
\A1;2 5/16"
 73
     1
 44
1.0
1001
ACAD
1000
MTEXTBEGIN
1070
    73
1070
     1
1070
    44
1040
1.0
1070
    74
1070
     0
1000
MTEXTEND
  0
MTEXT
  5
F6E
330
36C
100
AcDbEntity
  8
Dim
 62
   255
100
AcDbMText
 10
14.34577694935364
 20
22.81339224892546
 30
0.0
 40
0.28
 41
0.0
 71
     5
 72
     1
  1
\A1;[58]
 73
     1
 44
1.0
1001
ACAD
1000
MTEXTBEGIN
1070
    73
1070
     1
1070
    44
1040
1.0
1070
    74
1070
     0
1000
MTEXTEND
  0
POINT
  5
F6F
330
36C
100
AcDbEntity
  8
Defpoints
 62
     0
100
AcDbPoint
 10
13.20030755675535
 20
21.72369857041534
 30
0.0
  0
POINT
  5
F70
330
36C
100
AcDbEntity
  8
Defpoints
 62
     0
100
AcDbPoint
 10
15.49124634195193
 20
22.47720790376856
 30
0.0
  0
POINT
  5
F71
330
36C
100
AcDbEntity
  8
Defpoints
 62
     0
100
AcDbPoint
 10
15.49124634195193
 20
23.02408290376857
 30
0.0
  0
ENDBLK
  5
36E
330
36C
100
AcDbEntity
  8
0
100
AcDbBlockEnd
  0
BLOCK
  5
37A
330
379
100
AcDbEntity
  8
0
100
AcDbBlockBegin
  2
*D17
 70
     1
 10
0.0
 20
0.0
 30
0.0
  3
*D17
  1

  0
LINE
  5
F72
330
379
100
AcDbEntity
  8
Dim
100
AcDbLine
 10
12.95124634195192
 20
21.37836076379862
 30
0.0
 11
12.18749999999999
 21
21.37836076379862
 31
0.0
  0
LINE
  5
F73
330
379
100
AcDbEntity
  8
Dim
100
AcDbLine
 10
13.00754889118593
 20
21.77408290376856
 30
0.0
 11
12.18749999999999
 21
21.77408290376856
 31
0.0
  0
LINE
  5
F74
330
379
100
AcDbEntity
  8
Dim
100
AcDbLine
 10
12.24999999999999
 20
21.12836076379862
 30
0.0
 11
12.24999999999999
 21
20.87836076379862
 31
0.0
  0
LINE
  5
F75
330
379
100
AcDbEntity
  8
Dim
100
AcDbLine
 10
12.24999999999999
 20
22.02408290376856
 30
0.0
 11
12.24999999999999
 21
22.27408290376856
 31
0.0
  0
MTEXT
  5
F76
330
379
100
AcDbEntity
  8
Dim
 62
   255
100
AcDbMText
 10
12.24999999999999
 20
20.56249999999999
 30
0.0
 40
0.28
 41
0.0
 71
     5
 72
     1
  1
\A1;3/8"\P [10]
 11
0.0000000000000001
 21
1.0
 31
0.0
 73
     1
 44
1.0
1001
ACAD
1000
MTEXTBEGIN
1070
    73
1070
     1
1070
    44
1040
1.0
1070
    74
1070
     0
1000
MTEXTEND
  0
SOLID
  5
F77
330
379
100
AcDbEntity
  8
Dim
100
AcDbTrace
 10
12.20833333333332
 20
21.12836076379862
 30
0.0
 11
12.29166666666666
 21
21.12836076379862
 31
0.0
 12
12.24999999999999
 22
21.37836076379862
 32
0.0
 13
12.24999999999999
 23
21.37836076379862
 33
0.0
  0
SOLID
  5
F78
330
379
100
AcDbEntity
  8
Dim
100
AcDbTrace
 10
12.20833333333332
 20
22.02408290376856
 30
0.0
 11
12.29166666666666
 21
22.02408290376856
 31
0.0
 12
12.24999999999999
 22
21.77408290376856
 32
0.0
 13
12.24999999999999
 23
21.77408290376856
 33
0.0
  0
POINT
  5
F79
330
379
100
AcDbEntity
  8
Defpoints
 62
     0
100
AcDbPoint
 10
13.07624634195192
 20
21.37836076379862
 30
0.0
  0
POINT
  5
F7A
330
379
100
AcDbEntity
  8
Defpoints
 62
     0
100
AcDbPoint
 10
13.13254889118593
 20
21.77408290376856
 30
0.0
  0
POINT
  5
F7B
330
379
100
AcDbEntity
  8
Defpoints
 62
     0
100
AcDbPoint
 10
12.24999999999999
 20
21.77408290376856
 30
0.0
  0
ENDBLK
  5
37B
330
379
100
AcDbEntity
  8
0
100
AcDbBlockEnd
  0
BLOCK
  5
386
330
385
100
AcDbEntity
  8
0
100
AcDbBlockBegin
  2
*D18
 70
     1
 10
0.0
 20
0.0
 30
0.0
  3
*D18
  1

  0
LINE
  5
F7C
330
385
100
AcDbEntity
  8
Dim
100
AcDbLine
 10
13.00754889118592
 20
21.77408290376856
 30
0.0
 11
12.18749999999998
 21
21.77408290376856
 31
0.0
  0
LINE
  5
F7D
330
385
100
AcDbEntity
  8
Dim
100
AcDbLine
 10
15.31624634195192
 20
22.47720790376856
 30
0.0
 11
13.26280755675535
 21
22.47720790376856
 31
0.0
  0
LINE
  5
F7E
330
385
100
AcDbEntity
  8
Dim
100
AcDbLine
 10
13.13780755675535
 20
22.47720790376856
 30
0.0
 11
12.18749999999998
 21
22.47720790376856
 31
0.0
  0
LINE
  5
F7F
330
385
100
AcDbEntity
  8
Dim
100
AcDbLine
 10
12.24999999999998
 20
22.02408290376856
 30
0.0
 11
12.24999999999998
 21
22.22720790376856
 31
0.0
  0
MTEXT
  5
F80
330
385
100
AcDbEntity
  8
Dim
 62
   255
100
AcDbMText
 10
11.60913454979533
 20
22.12564540376857
 30
0.0
 40
0.28
 41
0.0
 71
     5
 72
     1
  1
\A1;11/16"
 11
0.0000000000000001
 21
1.0
 31
0.0
 73
     1
 44
1.0
1001
ACAD
1000
MTEXTBEGIN
1070
    73
1070
     1
1070
    44
1040
1.0
1070
    74
1070
     0
1000
MTEXTEND
  0
MTEXT
  5
F81
330
385
100
AcDbEntity
  8
Dim
 62
   255
100
AcDbMText
 10
11.99585010231921
 20
22.12564540376857
 30
0.0
 40
0.28
 41
0.0
 71
     5
 72
     1
  1
\A1;[18]
 11
0.0000000000000001
 21
1.0
 31
0.0
 73
     1
 44
1.0
1001
ACAD
1000
MTEXTBEGIN
1070
    73
1070
     1
1070
    44
1040
1.0
1070
    74
1070
     0
1000
MTEXTEND
  0
SOLID
  5
F82
330
385
100
AcDbEntity
  8
Dim
100
AcDbTrace
 10
12.20833333333331
 20
22.02408290376856
 30
0.0
 11
12.29166666666664
 21
22.02408290376856
 31
0.0
 12
12.24999999999998
 22
21.77408290376856
 32
0.0
 13
12.24999999999998
 23
21.77408290376856
 33
0.0
  0
SOLID
  5
F83
330
385
100
AcDbEntity
  8
Dim
100
AcDbTrace
 10
12.20833333333331
 20
22.22720790376856
 30
0.0
 11
12.29166666666664
 21
22.22720790376856
 31
0.0
 12
12.24999999999998
 22
22.47720790376856
 32
0.0
 13
12.24999999999998
 23
22.47720790376856
 33
0.0
  0
POINT
  5
F84
330
385
100
AcDbEntity
  8
Defpoints
 62
     0
100
AcDbPoint
 10
13.13254889118592
 20
21.77408290376856
 30
0.0
  0
POINT
  5
F85
330
385
100
AcDbEntity
  8
Defpoints
 62
     0
100
AcDbPoint
 10
15.44124634195192
 20
22.47720790376856
 30
0.0
  0
POINT
  5
F86
330
385
100
AcDbEntity
  8
Defpoints
 62
     0
100
AcDbPoint
 10
12.24999999999998
 20
22.47720790376856
 30
0.0
  0
ENDBLK
  5
387
330
385
100
AcDbEntity
  8
0
100
AcDbBlockEnd
  0
BLOCK
  5
394
330
393
100
AcDbEntity
  8
0
100
AcDbBlockBegin
  2
*D19
 70
     1
 10
0.0
 20
0.0
 30
0.0
  3
*D19
  1

  0
LINE
  5
F87
330
393
100
AcDbEntity
  8
Dim
100
AcDbLine
 10
19.37397439071456
 20
21.84868940543877
 30
0.0
 11
19.37397439071456
 21
23.08657373879199
 31
0.0
  0
LINE
  5
F88
330
393
100
AcDbEntity
  8
Dim
100
AcDbLine
 10
20.78999999999998
 20
22.58219873879201
 30
0.0
 11
20.78999999999998
 21
23.08657373879199
 31
0.0
  0
LINE
  5
F89
330
393
100
AcDbEntity
  8
Dim
100
AcDbLine
 10
19.62397439071456
 20
23.02407373879199
 30
0.0
 11
20.53999999999998
 21
23.02407373879199
 31
0.0
  0
SOLID
  5
F8A
330
393
100
AcDbEntity
  8
Dim
100
AcDbTrace
 10
19.62397439071456
 20
23.06574040545866
 30
0.0
 11
19.62397439071456
 21
22.98240707212532
 31
0.0
 12
19.37397439071456
 22
23.02407373879199
 32
0.0
 13
19.37397439071456
 23
23.02407373879199
 33
0.0
  0
SOLID
  5
F8B
330
393
100
AcDbEntity
  8
Dim
100
AcDbTrace
 10
20.53999999999998
 20
23.06574040545866
 30
0.0
 11
20.53999999999998
 21
22.98240707212532
 31
0.0
 12
20.78999999999998
 22
23.02407373879199
 32
0.0
 13
20.78999999999998
 23
23.02407373879199
 33
0.0
  0
MTEXT
  5
F8C
330
393
100
AcDbEntity
  8
Dim
 62
   255
100
AcDbMText
 10
20.08198719535727
 20
23.20009863647276
 30
0.0
 40
0.28
 41
0.0
 71
     5
 72
     1
  1
\A1;1 7/16"
 73
     1
 44
1.0
1001
ACAD
1000
MTEXTBEGIN
1070
    73
1070
     1
1070
    44
1040
1.0
1070
    74
1070
     0
1000
MTEXTEND
  0
MTEXT
  5
F8D
330
393
100
AcDbEntity
  8
Dim
 62
   255
100
AcDbMText
 10
20.08198719535727
 20
22.81338308394888
 30
0.0
 40
0.28
 41
0.0
 71
     5
 72
     1
  1
\A1;[36]
 73
     1
 44
1.0
1001
ACAD
1000
MTEXTBEGIN
1070
    73
1070
     1
1070
    44
1040
1.0
1070
    74
1070
     0
1000
MTEXTEND
  0
POINT
  5
F8E
330
393
100
AcDbEntity
  8
Defpoints
 62
     0
100
AcDbPoint
 10
19.37397439071456
 20
21.72368940543877
 30
0.0
  0
POINT
  5
F8F
330
393
100
AcDbEntity
  8
Defpoints
 62
     0
100
AcDbPoint
 10
20.78999999999998
 20
22.45719873879201
 30
0.0
  0
POINT
  5
F90
330
393
100
AcDbEntity
  8
Defpoints
 62
     0
100
AcDbPoint
 10
20.78999999999998
 20
23.02407373879199
 30
0.0
  0
ENDBLK
  5
395
330
393
100
AcDbEntity
  8
0
100
AcDbBlockEnd
  0
BLOCK
  5
3A1
330
3A0
100
AcDbEntity
  8
0
100
AcDbBlockBegin
  2
*D20
 70
     1
 10
0.0
 20
0.0
 30
0.0
  3
*D20
  1

  0
LINE
  5
F91
330
3A0
100
AcDbEntity
  8
Dim
100
AcDbLine
 10
19.12499999999998
 20
21.37884400269859
 30
0.0
 11
18.43749999999998
 21
21.37884400269859
 31
0.0
  0
LINE
  5
F92
330
3A0
100
AcDbEntity
  8
Dim
100
AcDbLine
 10
19.17375028954808
 20
21.77719873879203
 30
0.0
 11
18.43749999999998
 21
21.77719873879203
 31
0.0
  0
LINE
  5
F93
330
3A0
100
AcDbEntity
  8
Dim
100
AcDbLine
 10
18.49999999999998
 20
21.12884400269859
 30
0.0
 11
18.49999999999998
 21
20.87884400269858
 31
0.0
  0
LINE
  5
F94
330
3A0
100
AcDbEntity
  8
Dim
100
AcDbLine
 10
18.49999999999998
 20
22.02719873879203
 30
0.0
 11
18.49999999999998
 21
22.27719873879203
 31
0.0
  0
MTEXT
  5
F95
330
3A0
100
AcDbEntity
  8
Dim
 62
   255
100
AcDbMText
 10
18.49999999999998
 20
20.56249999999999
 30
0.0
 40
0.28
 41
0.0
 71
     5
 72
     1
  1
\A1;3/8"\P [10]
 11
0.0000000000000001
 21
1.0
 31
0.0
 73
     1
 44
1.0
1001
ACAD
1000
MTEXTBEGIN
1070
    73
1070
     1
1070
    44
1040
1.0
1070
    74
1070
     0
1000
MTEXTEND
  0
SOLID
  5
F96
330
3A0
100
AcDbEntity
  8
Dim
100
AcDbTrace
 10
18.45833333333332
 20
21.12884400269859
 30
0.0
 11
18.54166666666665
 21
21.12884400269859
 31
0.0
 12
18.49999999999998
 22
21.37884400269859
 32
0.0
 13
18.49999999999998
 23
21.37884400269859
 33
0.0
  0
SOLID
  5
F97
330
3A0
100
AcDbEntity
  8
Dim
100
AcDbTrace
 10
18.45833333333332
 20
22.02719873879203
 30
0.0
 11
18.54166666666665
 21
22.02719873879203
 31
0.0
 12
18.49999999999998
 22
21.77719873879203
 32
0.0
 13
18.49999999999998
 23
21.77719873879203
 33
0.0
  0
POINT
  5
F98
330
3A0
100
AcDbEntity
  8
Defpoints
 62
     0
100
AcDbPoint
 10
19.24999999999998
 20
21.37884400269859
 30
0.0
  0
POINT
  5
F99
330
3A0
100
AcDbEntity
  8
Defpoints
 62
     0
100
AcDbPoint
 10
19.29875028954808
 20
21.77719873879203
 30
0.0
  0
POINT
  5
F9A
330
3A0
100
AcDbEntity
  8
Defpoints
 62
     0
100
AcDbPoint
 10
18.49999999999998
 20
21.77719873879203
 30
0.0
  0
ENDBLK
  5
3A2
330
3A0
100
AcDbEntity
  8
0
100
AcDbBlockEnd
  0
BLOCK
  5
3AD
330
3AC
100
AcDbEntity
  8
0
100
AcDbBlockBegin
  2
*D21
 70
     1
 10
0.0
 20
0.0
 30
0.0
  3
*D21
  1

  0
LINE
  5
F9B
330
3AC
100
AcDbEntity
  8
Dim
100
AcDbLine
 10
19.17375028954808
 20
21.77719873879203
 30
0.0
 11
18.43749999999998
 21
21.77719873879203
 31
0.0
  0
LINE
  5
F9C
330
3AC
100
AcDbEntity
  8
Dim
100
AcDbLine
 10
20.61499999999998
 20
22.47719873879203
 30
0.0
 11
19.38772410116647
 21
22.47719873879203
 31
0.0
  0
LINE
  5
F9D
330
3AC
100
AcDbEntity
  8
Dim
100
AcDbLine
 10
19.26272410116647
 20
22.47719873879203
 30
0.0
 11
18.43749999999998
 21
22.47719873879203
 31
0.0
  0
LINE
  5
F9E
330
3AC
100
AcDbEntity
  8
Dim
100
AcDbLine
 10
18.49999999999998
 20
22.02719873879203
 30
0.0
 11
18.49999999999998
 21
22.22719873879203
 31
0.0
  0
MTEXT
  5
F9F
330
3AC
100
AcDbEntity
  8
Dim
 62
   255
100
AcDbMText
 10
17.85913454979534
 20
22.12719873879203
 30
0.0
 40
0.28
 41
0.0
 71
     5
 72
     1
  1
\A1;11/16"
 11
0.0000000000000001
 21
1.0
 31
0.0
 73
     1
 44
1.0
1001
ACAD
1000
MTEXTBEGIN
1070
    73
1070
     1
1070
    44
1040
1.0
1070
    74
1070
     0
1000
MTEXTEND
  0
MTEXT
  5
FA0
330
3AC
100
AcDbEntity
  8
Dim
 62
   255
100
AcDbMText
 10
18.24585010231922
 20
22.12719873879203
 30
0.0
 40
0.28
 41
0.0
 71
     5
 72
     1
  1
\A1;[18]
 11
0.0000000000000001
 21
1.0
 31
0.0
 73
     1
 44
1.0
1001
ACAD
1000
MTEXTBEGIN
1070
    73
1070
     1
1070
    44
1040
1.0
1070
    74
1070
     0
1000
MTEXTEND
  0
SOLID
  5
FA1
330
3AC
100
AcDbEntity
  8
Dim
100
AcDbTrace
 10
18.45833333333332
 20
22.02719873879203
 30
0.0
 11
18.54166666666665
 21
22.02719873879203
 31
0.0
 12
18.49999999999998
 22
21.77719873879203
 32
0.0
 13
18.49999999999998
 23
21.77719873879203
 33
0.0
  0
SOLID
  5
FA2
330
3AC
100
AcDbEntity
  8
Dim
100
AcDbTrace
 10
18.45833333333332
 20
22.22719873879203
 30
0.0
 11
18.54166666666665
 21
22.22719873879203
 31
0.0
 12
18.49999999999998
 22
22.47719873879203
 32
0.0
 13
18.49999999999998
 23
22.47719873879203
 33
0.0
  0
POINT
  5
FA3
330
3AC
100
AcDbEntity
  8
Defpoints
 62
     0
100
AcDbPoint
 10
19.29875028954808
 20
21.77719873879203
 30
0.0
  0
POINT
  5
FA4
330
3AC
100
AcDbEntity
  8
Defpoints
 62
     0
100
AcDbPoint
 10
20.73999999999998
 20
22.47719873879203
 30
0.0
  0
POINT
  5
FA5
330
3AC
100
AcDbEntity
  8
Defpoints
 62
     0
100
AcDbPoint
 10
18.49999999999998
 20
22.47719873879203
 30
0.0
  0
ENDBLK
  5
3AE
330
3AC
100
AcDbEntity
  8
0
100
AcDbBlockEnd
  0
BLOCK
  5
3BB
330
3BA
100
AcDbEntity
  8
0
100
AcDbBlockBegin
  2
*D22
 70
     1
 10
0.0
 20
0.0
 30
0.0
  3
*D22
  1

  0
LINE
  5
FA6
330
3BA
100
AcDbEntity
  8
Dim
100
AcDbLine
 10
2.175310386795345
 20
16.286875
 30
0.0
 11
2.175310386795345
 21
17.06479711043957
 31
0.0
  0
LINE
  5
FA7
330
3BA
100
AcDbEntity
  8
Dim
100
AcDbLine
 10
3.741310386795348
 20
16.286875
 30
0.0
 11
3.741310386795348
 21
17.06479711043957
 31
0.0
  0
LINE
  5
FA8
330
3BA
100
AcDbEntity
  8
Dim
100
AcDbLine
 10
2.425310386795345
 20
17.00229711043957
 30
0.0
 11
3.491310386795348
 21
17.00229711043957
 31
0.0
  0
SOLID
  5
FA9
330
3BA
100
AcDbEntity
  8
Dim
100
AcDbTrace
 10
2.425310386795345
 20
17.04396377710623
 30
0.0
 11
2.425310386795345
 21
16.9606304437729
 31
0.0
 12
2.175310386795345
 22
17.00229711043957
 32
0.0
 13
2.175310386795345
 23
17.00229711043957
 33
0.0
  0
SOLID
  5
FAA
330
3BA
100
AcDbEntity
  8
Dim
100
AcDbTrace
 10
3.491310386795348
 20
17.04396377710623
 30
0.0
 11
3.491310386795348
 21
16.9606304437729
 31
0.0
 12
3.741310386795348
 22
17.00229711043957
 32
0.0
 13
3.741310386795348
 23
17.00229711043957
 33
0.0
  0
MTEXT
  5
FAB
330
3BA
100
AcDbEntity
  8
Dim
 62
   255
100
AcDbMText
 10
2.958310386795346
 20
17.17832200812033
 30
0.0
 40
0.28
 41
0.0
 71
     5
 72
     1
  1
\A1;1 9/16"
 73
     1
 44
1.0
1001
ACAD
1000
MTEXTBEGIN
1070
    73
1070
     1
1070
    44
1040
1.0
1070
    74
1070
     0
1000
MTEXTEND
  0
MTEXT
  5
FAC
330
3BA
100
AcDbEntity
  8
Dim
 62
   255
100
AcDbMText
 10
2.958310386795346
 20
16.79160645559646
 30
0.0
 40
0.28
 41
0.0
 71
     5
 72
     1
  1
\A1;[40]
 73
     1
 44
1.0
1001
ACAD
1000
MTEXTBEGIN
1070
    73
1070
     1
1070
    44
1040
1.0
1070
    74
1070
     0
1000
MTEXTEND
  0
POINT
  5
FAD
330
3BA
100
AcDbEntity
  8
Defpoints
 62
     0
100
AcDbPoint
 10
2.175310386795345
 20
16.161875
 30
0.0
  0
POINT
  5
FAE
330
3BA
100
AcDbEntity
  8
Defpoints
 62
     0
100
AcDbPoint
 10
3.741310386795348
 20
16.161875
 30
0.0
  0
POINT
  5
FAF
330
3BA
100
AcDbEntity
  8
Defpoints
 62
     0
100
AcDbPoint
 10
3.741310386795348
 20
17.00229711043957
 30
0.0
  0
ENDBLK
  5
3BC
330
3BA
100
AcDbEntity
  8
0
100
AcDbBlockEnd
  0
BLOCK
  5
3C8
330
3C7
100
AcDbEntity
  8
0
100
AcDbBlockBegin
  2
*D23
 70
     1
 10
0.0
 20
0.0
 30
0.0
  3
*D23
  1

  0
LINE
  5
FB0
330
3C7
100
AcDbEntity
  8
Dim
100
AcDbLine
 10
2.283310386795342
 20
14.706875
 30
0.0
 11
0.9390559166922184
 21
14.706875
 31
0.0
  0
LINE
  5
FB1
330
3C7
100
AcDbEntity
  8
Dim
100
AcDbLine
 10
2.065310386795353
 20
16.176875
 30
0.0
 11
0.9390559166922187
 21
16.176875
 31
0.0
  0
LINE
  5
FB2
330
3C7
100
AcDbEntity
  8
Dim
100
AcDbLine
 10
1.001555916692218
 20
14.956875
 30
0.0
 11
1.001555916692218
 21
15.926875
 31
0.0
  0
MTEXT
  5
FB3
330
3C7
100
AcDbEntity
  8
Dim
 62
   255
100
AcDbMText
 10
1.001555916692218
 20
15.441875
 30
0.0
 40
0.28
 41
0.0
 71
     5
 72
     1
  1
\A1;1 1/2"\P [37]
 11
0.0000000000000001
 21
1.0
 31
0.0
 73
     1
 44
1.0
1001
ACAD
1000
MTEXTBEGIN
1070
    73
1070
     1
1070
    44
1040
1.0
1070
    74
1070
     0
1000
MTEXTEND
  0
SOLID
  5
FB4
330
3C7
100
AcDbEntity
  8
Dim
100
AcDbTrace
 10
0.9598892500255519
 20
14.956875
 30
0.0
 11
1.043222583358885
 21
14.956875
 31
0.0
 12
1.001555916692218
 22
14.706875
 32
0.0
 13
1.001555916692218
 23
14.706875
 33
0.0
  0
SOLID
  5
FB5
330
3C7
100
AcDbEntity
  8
Dim
100
AcDbTrace
 10
0.9598892500255521
 20
15.926875
 30
0.0
 11
1.043222583358885
 21
15.926875
 31
0.0
 12
1.001555916692218
 22
16.176875
 32
0.0
 13
1.001555916692218
 23
16.176875
 33
0.0
  0
POINT
  5
FB6
330
3C7
100
AcDbEntity
  8
Defpoints
 62
     0
100
AcDbPoint
 10
2.408310386795342
 20
14.706875
 30
0.0
  0
POINT
  5
FB7
330
3C7
100
AcDbEntity
  8
Defpoints
 62
     0
100
AcDbPoint
 10
2.190310386795353
 20
16.176875
 30
0.0
  0
POINT
  5
FB8
330
3C7
100
AcDbEntity
  8
Defpoints
 62
     0
100
AcDbPoint
 10
1.001555916692218
 20
16.176875
 30
0.0
  0
ENDBLK
  5
3C9
330
3C7
100
AcDbEntity
  8
0
100
AcDbBlockEnd
  0
BLOCK
  5
3D4
330
3D3
100
AcDbEntity
  8
0
100
AcDbBlockBegin
  2
*D24
 70
     1
 10
0.0
 20
0.0
 30
0.0
  3
*D24
  1

  0
LINE
  5
FB9
330
3D3
100
AcDbEntity
  8
Dim
100
AcDbLine
 10
7.63758204056522
 20
16.2819579037684
 30
0.0
 11
7.63758204056522
 21
17.06258290376841
 31
0.0
  0
LINE
  5
FBA
330
3D3
100
AcDbEntity
  8
Dim
100
AcDbLine
 10
9.20333651066835
 20
16.28466079332884
 30
0.0
 11
9.20333651066835
 21
17.06258290376841
 31
0.0
  0
LINE
  5
FBB
330
3D3
100
AcDbEntity
  8
Dim
100
AcDbLine
 10
7.88758204056522
 20
17.00008290376841
 30
0.0
 11
8.95333651066835
 21
17.00008290376841
 31
0.0
  0
SOLID
  5
FBC
330
3D3
100
AcDbEntity
  8
Dim
100
AcDbTrace
 10
7.88758204056522
 20
17.04174957043508
 30
0.0
 11
7.88758204056522
 21
16.95841623710174
 31
0.0
 12
7.63758204056522
 22
17.00008290376841
 32
0.0
 13
7.63758204056522
 23
17.00008290376841
 33
0.0
  0
SOLID
  5
FBD
330
3D3
100
AcDbEntity
  8
Dim
100
AcDbTrace
 10
8.95333651066835
 20
17.04174957043508
 30
0.0
 11
8.95333651066835
 21
16.95841623710174
 31
0.0
 12
9.20333651066835
 22
17.00008290376841
 32
0.0
 13
9.20333651066835
 23
17.00008290376841
 33
0.0
  0
MTEXT
  5
FBE
330
3D3
100
AcDbEntity
  8
Dim
 62
   255
100
AcDbMText
 10
8.420459275616785
 20
17.17610780144918
 30
0.0
 40
0.28
 41
0.0
 71
     5
 72
     1
  1
\A1;1 9/16"
 73
     1
 44
1.0
1001
ACAD
1000
MTEXTBEGIN
1070
    73
1070
     1
1070
    44
1040
1.0
1070
    74
1070
     0
1000
MTEXTEND
  0
MTEXT
  5
FBF
330
3D3
100
AcDbEntity
  8
Dim
 62
   255
100
AcDbMText
 10
8.420459275616785
 20
16.78939224892531
 30
0.0
 40
0.28
 41
0.0
 71
     5
 72
     1
  1
\A1;[40]
 73
     1
 44
1.0
1001
ACAD
1000
MTEXTBEGIN
1070
    73
1070
     1
1070
    44
1040
1.0
1070
    74
1070
     0
1000
MTEXTEND
  0
POINT
  5
FC0
330
3D3
100
AcDbEntity
  8
Defpoints
 62
     0
100
AcDbPoint
 10
7.63758204056522
 20
16.1569579037684
 30
0.0
  0
POINT
  5
FC1
330
3D3
100
AcDbEntity
  8
Defpoints
 62
     0
100
AcDbPoint
 10
9.20333651066835
 20
16.15966079332884
 30
0.0
  0
POINT
  5
FC2
330
3D3
100
AcDbEntity
  8
Defpoints
 62
     0
100
AcDbPoint
 10
9.20333651066835
 20
17.00008290376841
 30
0.0
  0
ENDBLK
  5
3D5
330
3D3
100
AcDbEntity
  8
0
100
AcDbBlockEnd
  0
BLOCK
  5
3E1
330
3E0
100
AcDbEntity
  8
0
100
AcDbBlockBegin
  2
*D25
 70
     1
 10
0.0
 20
0.0
 30
0.0
  3
*D25
  1

  0
LINE
  5
FC3
330
3E0
100
AcDbEntity
  8
Dim
100
AcDbLine
 10
7.745582040565224
 20
14.70195790376841
 30
0.0
 11
6.442238634139869
 21
14.70195790376841
 31
0.0
  0
LINE
  5
FC4
330
3E0
100
AcDbEntity
  8
Dim
100
AcDbLine
 10
7.527582040565221
 20
16.1719579037684
 30
0.0
 11
6.442238634139869
 21
16.1719579037684
 31
0.0
  0
LINE
  5
FC5
330
3E0
100
AcDbEntity
  8
Dim
100
AcDbLine
 10
6.504738634139869
 20
14.95195790376841
 30
0.0
 11
6.504738634139869
 21
15.9219579037684
 31
0.0
  0
SOLID
  5
FC6
330
3E0
100
AcDbEntity
  8
Dim
100
AcDbTrace
 10
6.463071967473202
 20
14.95195790376841
 30
0.0
 11
6.546405300806536
 21
14.95195790376841
 31
0.0
 12
6.504738634139869
 22
14.70195790376841
 32
0.0
 13
6.504738634139869
 23
14.70195790376841
 33
0.0
  0
SOLID
  5
FC7
330
3E0
100
AcDbEntity
  8
Dim
100
AcDbTrace
 10
6.463071967473202
 20
15.9219579037684
 30
0.0
 11
6.546405300806536
 21
15.9219579037684
 31
0.0
 12
6.504738634139869
 22
16.1719579037684
 32
0.0
 13
6.504738634139869
 23
16.1719579037684
 33
0.0
  0
MTEXT
  5
FC8
330
3E0
100
AcDbEntity
  8
Dim
 62
   255
100
AcDbMText
 10
6.328713736459102
 20
15.43695790376841
 30
0.0
 40
0.28
 41
0.0
 71
     5
 72
     1
  1
\A1;1 1/2"
 11
0.0000000000000001
 21
1.0
 31
0.0
 73
     1
 44
1.0
1001
ACAD
1000
MTEXTBEGIN
1070
    73
1070
     1
1070
    44
1040
1.0
1070
    74
1070
     0
1000
MTEXTEND
  0
MTEXT
  5
FC9
330
3E0
100
AcDbEntity
  8
Dim
 62
   255
100
AcDbMText
 10
6.715429288982977
 20
15.43695790376841
 30
0.0
 40
0.28
 41
0.0
 71
     5
 72
     1
  1
\A1;[37]
 11
0.0000000000000001
 21
1.0
 31
0.0
 73
     1
 44
1.0
1001
ACAD
1000
MTEXTBEGIN
1070
    73
1070
     1
1070
    44
1040
1.0
1070
    74
1070
     0
1000
MTEXTEND
  0
POINT
  5
FCA
330
3E0
100
AcDbEntity
  8
Defpoints
 62
     0
100
AcDbPoint
 10
7.870582040565224
 20
14.70195790376841
 30
0.0
  0
POINT
  5
FCB
330
3E0
100
AcDbEntity
  8
Defpoints
 62
     0
100
AcDbPoint
 10
7.652582040565221
 20
16.1719579037684
 30
0.0
  0
POINT
  5
FCC
330
3E0
100
AcDbEntity
  8
Defpoints
 62
     0
100
AcDbPoint
 10
6.504738634139869
 20
16.1719579037684
 30
0.0
  0
ENDBLK
  5
3E2
330
3E0
100
AcDbEntity
  8
0
100
AcDbBlockEnd
  0
BLOCK
  5
3EE
330
3ED
100
AcDbEntity
  8
0
100
AcDbBlockBegin
  2
*D26
 70
     1
 10
0.0
 20
0.0
 30
0.0
  3
*D26
  1

  0
LINE
  5
FCD
330
3ED
100
AcDbEntity
  8
Dim
100
AcDbLine
 10
13.25369335672839
 20
11.81095790376859
 30
0.0
 11
13.25369335672839
 21
12.56249999999999
 31
0.0
  0
LINE
  5
FCE
330
3ED
100
AcDbEntity
  8
Dim
100
AcDbLine
 10
15.49169335672646
 20
11.81095790376859
 30
0.0
 11
15.49169335672646
 21
12.56249999999999
 31
0.0
  0
LINE
  5
FCF
330
3ED
100
AcDbEntity
  8
Dim
100
AcDbLine
 10
13.50369335672839
 20
12.5
 30
0.0
 11
15.24169335672645
 21
12.5
 31
0.0
  0
MTEXT
  5
FD0
330
3ED
100
AcDbEntity
  8
Dim
 62
   255
100
AcDbMText
 10
14.37269335672742
 20
12.5
 30
0.0
 40
0.28
 41
0.0
 71
     5
 72
     1
  1
\A1;2 1/4"\P [57]
 73
     1
 44
1.0
1001
ACAD
1000
MTEXTBEGIN
1070
    73
1070
     1
1070
    44
1040
1.0
1070
    74
1070
     0
1000
MTEXTEND
  0
SOLID
  5
FD1
330
3ED
100
AcDbEntity
  8
Dim
100
AcDbTrace
 10
13.50369335672839
 20
12.54166666666666
 30
0.0
 11
13.50369335672839
 21
12.45833333333333
 31
0.0
 12
13.25369335672839
 22
12.5
 32
0.0
 13
13.25369335672839
 23
12.5
 33
0.0
  0
SOLID
  5
FD2
330
3ED
100
AcDbEntity
  8
Dim
100
AcDbTrace
 10
15.24169335672645
 20
12.54166666666666
 30
0.0
 11
15.24169335672645
 21
12.45833333333333
 31
0.0
 12
15.49169335672646
 22
12.5
 32
0.0
 13
15.49169335672646
 23
12.5
 33
0.0
  0
POINT
  5
FD3
330
3ED
100
AcDbEntity
  8
Defpoints
 62
     0
100
AcDbPoint
 10
13.25369335672839
 20
11.68595790376859
 30
0.0
  0
POINT
  5
FD4
330
3ED
100
AcDbEntity
  8
Defpoints
 62
     0
100
AcDbPoint
 10
15.49169335672646
 20
11.68595790376859
 30
0.0
  0
POINT
  5
FD5
330
3ED
100
AcDbEntity
  8
Defpoints
 62
     0
100
AcDbPoint
 10
15.49169335672646
 20
12.5
 30
0.0
  0
ENDBLK
  5
3EF
330
3ED
100
AcDbEntity
  8
0
100
AcDbBlockEnd
  0
BLOCK
  5
3FA
330
3F9
100
AcDbEntity
  8
0
100
AcDbBlockBegin
  2
*D27
 70
     1
 10
0.0
 20
0.0
 30
0.0
  3
*D27
  1

  0
LINE
  5
FD6
330
3F9
100
AcDbEntity
  8
Dim
100
AcDbLine
 10
14.03331038679534
 20
8.200957903768653
 30
0.0
 11
12.18749999999999
 21
8.200957903768653
 31
0.0
  0
LINE
  5
FD7
330
3F9
100
AcDbEntity
  8
Dim
100
AcDbLine
 10
13.1436933567284
 20
11.70095790376859
 30
0.0
 11
12.18749999999999
 21
11.70095790376859
 31
0.0
  0
LINE
  5
FD8
330
3F9
100
AcDbEntity
  8
Dim
100
AcDbLine
 10
12.24999999999999
 20
8.450957903768653
 30
0.0
 11
12.24999999999999
 21
11.45095790376859
 31
0.0
  0
MTEXT
  5
FD9
330
3F9
100
AcDbEntity
  8
Dim
 62
   255
100
AcDbMText
 10
12.24999999999999
 20
9.950957903768621
 30
0.0
 40
0.28
 41
0.0
 71
     5
 72
     1
  1
\A1;3 1/2"\P [89]
 11
0.0000000000000001
 21
1.0
 31
0.0
 73
     1
 44
1.0
1001
ACAD
1000
MTEXTBEGIN
1070
    73
1070
     1
1070
    44
1040
1.0
1070
    74
1070
     0
1000
MTEXTEND
  0
SOLID
  5
FDA
330
3F9
100
AcDbEntity
  8
Dim
100
AcDbTrace
 10
12.20833333333332
 20
8.450957903768653
 30
0.0
 11
12.29166666666666
 21
8.450957903768653
 31
0.0
 12
12.24999999999999
 22
8.200957903768653
 32
0.0
 13
12.24999999999999
 23
8.200957903768653
 33
0.0
  0
SOLID
  5
FDB
330
3F9
100
AcDbEntity
  8
Dim
100
AcDbTrace
 10
12.20833333333332
 20
11.45095790376859
 30
0.0
 11
12.29166666666666
 21
11.45095790376859
 31
0.0
 12
12.24999999999999
 22
11.70095790376859
 32
0.0
 13
12.24999999999999
 23
11.70095790376859
 33
0.0
  0
POINT
  5
FDC
330
3F9
100
AcDbEntity
  8
Defpoints
 62
     0
100
AcDbPoint
 10
14.15831038679534
 20
8.200957903768653
 30
0.0
  0
POINT
  5
FDD
330
3F9
100
AcDbEntity
  8
Defpoints
 62
     0
100
AcDbPoint
 10
13.2686933567284
 20
11.70095790376859
 30
0.0
  0
POINT
  5
FDE
330
3F9
100
AcDbEntity
  8
Defpoints
 62
     0
100
AcDbPoint
 10
12.24999999999999
 20
11.70095790376859
 30
0.0
  0
ENDBLK
  5
3FB
330
3F9
100
AcDbEntity
  8
0
100
AcDbBlockEnd
  0
BLOCK
  5
406
330
405
100
AcDbEntity
  8
0
100
AcDbBlockBegin
  2
*D28
 70
     1
 10
0.0
 20
0.0
 30
0.0
  3
*D28
  1

  0
LINE
  5
FDF
330
405
100
AcDbEntity
  8
Dim
100
AcDbLine
 10
2.175310386795345
 20
11.81092630891746
 30
0.0
 11
2.175310386795345
 21
12.56249999999999
 31
0.0
  0
LINE
  5
FE0
330
405
100
AcDbEntity
  8
Dim
100
AcDbLine
 10
3.741310386795348
 20
11.81092630891746
 30
0.0
 11
3.741310386795348
 21
12.56249999999999
 31
0.0
  0
LINE
  5
FE1
330
405
100
AcDbEntity
  8
Dim
100
AcDbLine
 10
2.425310386795345
 20
12.5
 30
0.0
 11
3.491310386795348
 21
12.5
 31
0.0
  0
MTEXT
  5
FE2
330
405
100
AcDbEntity
  8
Dim
 62
   255
100
AcDbMText
 10
2.958310386795346
 20
12.5
 30
0.0
 40
0.28
 41
0.0
 71
     5
 72
     1
  1
\A1;1 9/16"\P [40]
 73
     1
 44
1.0
1001
ACAD
1000
MTEXTBEGIN
1070
    73
1070
     1
1070
    44
1040
1.0
1070
    74
1070
     0
1000
MTEXTEND
  0
SOLID
  5
FE3
330
405
100
AcDbEntity
  8
Dim
100
AcDbTrace
 10
2.425310386795345
 20
12.54166666666666
 30
0.0
 11
2.425310386795345
 21
12.45833333333333
 31
0.0
 12
2.175310386795345
 22
12.5
 32
0.0
 13
2.175310386795345
 23
12.5
 33
0.0
  0
SOLID
  5
FE4
330
405
100
AcDbEntity
  8
Dim
100
AcDbTrace
 10
3.491310386795348
 20
12.54166666666666
 30
0.0
 11
3.491310386795348
 21
12.45833333333333
 31
0.0
 12
3.741310386795348
 22
12.5
 32
0.0
 13
3.741310386795348
 23
12.5
 33
0.0
  0
POINT
  5
FE5
330
405
100
AcDbEntity
  8
Defpoints
 62
     0
100
AcDbPoint
 10
2.175310386795345
 20
11.68592630891746
 30
0.0
  0
POINT
  5
FE6
330
405
100
AcDbEntity
  8
Defpoints
 62
     0
100
AcDbPoint
 10
3.741310386795348
 20
11.68592630891746
 30
0.0
  0
POINT
  5
FE7
330
405
100
AcDbEntity
  8
Defpoints
 62
     0
100
AcDbPoint
 10
3.741310386795348
 20
12.5
 30
0.0
  0
ENDBLK
  5
407
330
405
100
AcDbEntity
  8
0
100
AcDbBlockEnd
  0
BLOCK
  5
412
330
411
100
AcDbEntity
  8
0
100
AcDbBlockBegin
  2
*D29
 70
     1
 10
0.0
 20
0.0
 30
0.0
  3
*D29
  1

  0
LINE
  5
FE8
330
411
100
AcDbEntity
  8
Dim
100
AcDbLine
 10
2.283310386795342
 20
8.200926308917459
 30
0.0
 11
0.9354931735840912
 21
8.200926308917459
 31
0.0
  0
LINE
  5
FE9
330
411
100
AcDbEntity
  8
Dim
100
AcDbLine
 10
2.065310386795353
 20
11.70092630891746
 30
0.0
 11
0.9354931735840919
 21
11.70092630891746
 31
0.0
  0
LINE
  5
FEA
330
411
100
AcDbEntity
  8
Dim
100
AcDbLine
 10
0.9979931735840914
 20
8.450926308917459
 30
0.0
 11
0.9979931735840921
 21
11.45092630891746
 31
0.0
  0
MTEXT
  5
FEB
330
411
100
AcDbEntity
  8
Dim
 62
   255
100
AcDbMText
 10
0.9979931735840921
 20
9.950926308917459
 30
0.0
 40
0.28
 41
0.0
 71
     5
 72
     1
  1
\A1;3 1/2"\P [89]
 11
0.0000000000000001
 21
1.0
 31
0.0
 73
     1
 44
1.0
1001
ACAD
1000
MTEXTBEGIN
1070
    73
1070
     1
1070
    44
1040
1.0
1070
    74
1070
     0
1000
MTEXTEND
  0
SOLID
  5
FEC
330
411
100
AcDbEntity
  8
Dim
100
AcDbTrace
 10
0.9563265069174248
 20
8.450926308917459
 30
0.0
 11
1.039659840250757
 21
8.450926308917459
 31
0.0
 12
0.9979931735840914
 22
8.200926308917459
 32
0.0
 13
0.9979931735840914
 23
8.200926308917459
 33
0.0
  0
SOLID
  5
FED
330
411
100
AcDbEntity
  8
Dim
100
AcDbTrace
 10
0.9563265069174255
 20
11.45092630891746
 30
0.0
 11
1.039659840250758
 21
11.45092630891746
 31
0.0
 12
0.9979931735840921
 22
11.70092630891746
 32
0.0
 13
0.9979931735840921
 23
11.70092630891746
 33
0.0
  0
POINT
  5
FEE
330
411
100
AcDbEntity
  8
Defpoints
 62
     0
100
AcDbPoint
 10
2.408310386795342
 20
8.200926308917459
 30
0.0
  0
POINT
  5
FEF
330
411
100
AcDbEntity
  8
Defpoints
 62
     0
100
AcDbPoint
 10
2.190310386795353
 20
11.70092630891746
 30
0.0
  0
POINT
  5
FF0
330
411
100
AcDbEntity
  8
Defpoints
 62
     0
100
AcDbPoint
 10
0.9979931735840921
 20
11.70092630891746
 30
0.0
  0
ENDBLK
  5
413
330
411
100
AcDbEntity
  8
0
100
AcDbBlockEnd
  0
BLOCK
  5
41E
330
41D
100
AcDbEntity
  8
0
100
AcDbBlockBegin
  2
*D30
 70
     1
 10
0.0
 20
0.0
 30
0.0
  3
*D30
  1

  0
LINE
  5
FF1
330
41D
100
AcDbEntity
  8
Dim
100
AcDbLine
 10
19.51781038679533
 20
11.81095790376864
 30
0.0
 11
19.51781038679533
 21
12.55689258345205
 31
0.0
  0
LINE
  5
FF2
330
41D
100
AcDbEntity
  8
Dim
100
AcDbLine
 10
20.86581038679534
 20
11.81095790376865
 30
0.0
 11
20.86581038679534
 21
12.55689258345205
 31
0.0
  0
LINE
  5
FF3
330
41D
100
AcDbEntity
  8
Dim
100
AcDbLine
 10
19.76781038679533
 20
12.49439258345205
 30
0.0
 11
20.61581038679535
 21
12.49439258345205
 31
0.0
  0
MTEXT
  5
FF4
330
41D
100
AcDbEntity
  8
Dim
 62
   255
100
AcDbMText
 10
20.19181038679534
 20
12.49439258345205
 30
0.0
 40
0.28
 41
0.0
 71
     5
 72
     1
  1
\A1;1 3/8"\P [34]
 73
     1
 44
1.0
1001
ACAD
1000
MTEXTBEGIN
1070
    73
1070
     1
1070
    44
1040
1.0
1070
    74
1070
     0
1000
MTEXTEND
  0
SOLID
  5
FF5
330
41D
100
AcDbEntity
  8
Dim
100
AcDbTrace
 10
19.76781038679533
 20
12.53605925011872
 30
0.0
 11
19.76781038679533
 21
12.45272591678538
 31
0.0
 12
19.51781038679533
 22
12.49439258345205
 32
0.0
 13
19.51781038679533
 23
12.49439258345205
 33
0.0
  0
SOLID
  5
FF6
330
41D
100
AcDbEntity
  8
Dim
100
AcDbTrace
 10
20.61581038679535
 20
12.53605925011872
 30
0.0
 11
20.61581038679535
 21
12.45272591678538
 31
0.0
 12
20.86581038679534
 22
12.49439258345205
 32
0.0
 13
20.86581038679534
 23
12.49439258345205
 33
0.0
  0
POINT
  5
FF7
330
41D
100
AcDbEntity
  8
Defpoints
 62
     0
100
AcDbPoint
 10
19.51781038679533
 20
11.68595790376864
 30
0.0
  0
POINT
  5
FF8
330
41D
100
AcDbEntity
  8
Defpoints
 62
     0
100
AcDbPoint
 10
20.86581038679534
 20
11.68595790376865
 30
0.0
  0
POINT
  5
FF9
330
41D
100
AcDbEntity
  8
Defpoints
 62
     0
100
AcDbPoint
 10
20.86581038679534
 20
12.49439258345205
 30
0.0
  0
ENDBLK
  5
41F
330
41D
100
AcDbEntity
  8
0
100
AcDbBlockEnd
  0
BLOCK
  5
42A
330
429
100
AcDbEntity
  8
0
100
AcDbBlockBegin
  2
*D31
 70
     1
 10
0.0
 20
0.0
 30
0.0
  3
*D31
  1

  0
LINE
  5
FFA
330
429
100
AcDbEntity
  8
Dim
100
AcDbLine
 10
19.40781038679535
 20
8.200957903768653
 30
0.0
 11
18.43749999999998
 21
8.200957903768653
 31
0.0
  0
LINE
  5
FFB
330
429
100
AcDbEntity
  8
Dim
100
AcDbLine
 10
19.40781038679534
 20
11.70095790376865
 30
0.0
 11
18.43749999999998
 21
11.70095790376865
 31
0.0
  0
LINE
  5
FFC
330
429
100
AcDbEntity
  8
Dim
100
AcDbLine
 10
18.49999999999998
 20
8.450957903768653
 30
0.0
 11
18.49999999999998
 21
11.45095790376865
 31
0.0
  0
MTEXT
  5
FFD
330
429
100
AcDbEntity
  8
Dim
 62
   255
100
AcDbMText
 10
18.49999999999998
 20
9.950957903768653
 30
0.0
 40
0.28
 41
0.0
 71
     5
 72
     1
  1
\A1;3 1/2"\P [89]
 11
0.0000000000000001
 21
1.0
 31
0.0
 73
     1
 44
1.0
1001
ACAD
1000
MTEXTBEGIN
1070
    73
1070
     1
1070
    44
1040
1.0
1070
    74
1070
     0
1000
MTEXTEND
  0
SOLID
  5
FFE
330
429
100
AcDbEntity
  8
Dim
100
AcDbTrace
 10
18.45833333333332
 20
8.450957903768653
 30
0.0
 11
18.54166666666665
 21
8.450957903768653
 31
0.0
 12
18.49999999999998
 22
8.200957903768653
 32
0.0
 13
18.49999999999998
 23
8.200957903768653
 33
0.0
  0
SOLID
  5
FFF
330
429
100
AcDbEntity
  8
Dim
100
AcDbTrace
 10
18.45833333333332
 20
11.45095790376865
 30
0.0
 11
18.54166666666665
 21
11.45095790376865
 31
0.0
 12
18.49999999999998
 22
11.70095790376865
 32
0.0
 13
18.49999999999998
 23
11.70095790376865
 33
0.0
  0
POINT
  5
1000
330
429
100
AcDbEntity
  8
Defpoints
 62
     0
100
AcDbPoint
 10
19.53281038679534
 20
8.200957903768653
 30
0.0
  0
POINT
  5
1001
330
429
100
AcDbEntity
  8
Defpoints
 62
     0
100
AcDbPoint
 10
19.53281038679534
 20
11.70095790376865
 30
0.0
  0
POINT
  5
1002
330
429
100
AcDbEntity
  8
Defpoints
 62
     0
100
AcDbPoint
 10
18.49999999999998
 20
11.70095790376865
 30
0.0
  0
ENDBLK
  5
42B
330
429
100
AcDbEntity
  8
0
100
AcDbBlockEnd
  0
BLOCK
  5
436
330
435
100
AcDbEntity
  8
0
100
AcDbBlockBegin
  2
*D32
 70
     1
 10
0.0
 20
0.0
 30
0.0
  3
*D32
  1

  0
LINE
  5
1003
330
435
100
AcDbEntity
  8
Dim
100
AcDbLine
 10
1.999999999999992
 20
2.11323658395022
 30
0.0
 11
1.999999999999992
 21
3.562499999999996
 31
0.0
  0
LINE
  5
1004
330
435
100
AcDbEntity
  8
Dim
100
AcDbLine
 10
2.330898065712219
 20
3.079080288801497
 30
0.0
 11
2.330898065712219
 21
3.562499999999996
 31
0.0
  0
LINE
  5
1005
330
435
100
AcDbEntity
  8
Dim
100
AcDbLine
 10
1.749999999999992
 20
3.499999999999996
 30
0.0
 11
1.499999999999992
 21
3.499999999999996
 31
0.0
  0
LINE
  5
1006
330
435
100
AcDbEntity
  8
Dim
100
AcDbLine
 10
2.580898065712219
 20
3.499999999999996
 30
0.0
 11
2.830898065712219
 21
3.499999999999996
 31
0.0
  0
MTEXT
  5
1007
330
435
100
AcDbEntity
  8
Dim
 62
   255
100
AcDbMText
 10
2.999999999999992
 20
3.499999999999996
 30
0.0
 40
0.28
 41
0.0
 71
     5
 72
     1
  1
\A1;5/16"\P [8]
 73
     1
 44
1.0
1001
ACAD
1000
MTEXTBEGIN
1070
    73
1070
     1
1070
    44
1040
1.0
1070
    74
1070
     0
1000
MTEXTEND
  0
SOLID
  5
1008
330
435
100
AcDbEntity
  8
Dim
100
AcDbTrace
 10
1.749999999999992
 20
3.541666666666662
 30
0.0
 11
1.749999999999992
 21
3.458333333333329
 31
0.0
 12
1.999999999999992
 22
3.499999999999996
 32
0.0
 13
1.999999999999992
 23
3.499999999999996
 33
0.0
  0
SOLID
  5
1009
330
435
100
AcDbEntity
  8
Dim
100
AcDbTrace
 10
2.580898065712219
 20
3.541666666666662
 30
0.0
 11
2.580898065712219
 21
3.458333333333329
 31
0.0
 12
2.330898065712219
 22
3.499999999999996
 32
0.0
 13
2.330898065712219
 23
3.499999999999996
 33
0.0
  0
POINT
  5
100A
330
435
100
AcDbEntity
  8
Defpoints
 62
     0
100
AcDbPoint
 10
1.999999999999992
 20
1.98823658395022
 30
0.0
  0
POINT
  5
100B
330
435
100
AcDbEntity
  8
Defpoints
 62
     0
100
AcDbPoint
 10
2.330898065712219
 20
2.954080288801497
 30
0.0
  0
POINT
  5
100C
330
435
100
AcDbEntity
  8
Defpoints
 62
     0
100
AcDbPoint
 10
2.330898065712219
 20
3.499999999999996
 30
0.0
  0
ENDBLK
  5
437
330
435
100
AcDbEntity
  8
0
100
AcDbBlockEnd
  0
BLOCK
  5
442
330
441
100
AcDbEntity
  8
0
100
AcDbBlockBegin
  2
*D33
 70
     1
 10
0.0
 20
0.0
 30
0.0
  3
*D33
  1

  0
LINE
  5
100D
330
441
100
AcDbEntity
  8
Dim
100
AcDbLine
 10
1.874999999999992
 20
1.499999999999998
 30
0.0
 11
0.9374999999999927
 21
1.499999999999998
 31
0.0
  0
LINE
  5
100E
330
441
100
AcDbEntity
  8
Dim
100
AcDbLine
 10
1.889999999999993
 20
1.997436943668152
 30
0.0
 11
0.9374999999999928
 21
1.997436943668152
 31
0.0
  0
LINE
  5
100F
330
441
100
AcDbEntity
  8
Dim
100
AcDbLine
 10
0.9999999999999927
 20
1.249999999999998
 30
0.0
 11
0.9999999999999927
 21
0.9999999999999984
 31
0.0
  0
LINE
  5
1010
330
441
100
AcDbEntity
  8
Dim
100
AcDbLine
 10
0.9999999999999928
 20
2.247436943668152
 30
0.0
 11
0.999999999999993
 21
2.497436943668152
 31
0.0
  0
MTEXT
  5
1011
330
441
100
AcDbEntity
  8
Dim
 62
   255
100
AcDbMText
 10
0.9999999999999928
 20
0.6874999999999983
 30
0.0
 40
0.28
 41
0.0
 71
     5
 72
     1
  1
\A1;1/2"\P [13]
 11
0.0000000000000001
 21
1.0
 31
0.0
 73
     1
 44
1.0
1001
ACAD
1000
MTEXTBEGIN
1070
    73
1070
     1
1070
    44
1040
1.0
1070
    74
1070
     0
1000
MTEXTEND
  0
SOLID
  5
1012
330
441
100
AcDbEntity
  8
Dim
100
AcDbTrace
 10
0.9583333333333261
 20
1.249999999999998
 30
0.0
 11
1.041666666666659
 21
1.249999999999998
 31
0.0
 12
0.9999999999999927
 22
1.499999999999998
 32
0.0
 13
0.9999999999999927
 23
1.499999999999998
 33
0.0
  0
SOLID
  5
1013
330
441
100
AcDbEntity
  8
Dim
100
AcDbTrace
 10
0.9583333333333262
 20
2.247436943668152
 30
0.0
 11
1.041666666666659
 21
2.247436943668152
 31
0.0
 12
0.9999999999999928
 22
1.997436943668152
 32
0.0
 13
0.9999999999999928
 23
1.997436943668152
 33
0.0
  0
POINT
  5
1014
330
441
100
AcDbEntity
  8
Defpoints
 62
     0
100
AcDbPoint
 10
1.999999999999992
 20
1.499999999999998
 30
0.0
  0
POINT
  5
1015
330
441
100
AcDbEntity
  8
Defpoints
 62
     0
100
AcDbPoint
 10
2.014999999999993
 20
1.997436943668152
 30
0.0
  0
POINT
  5
1016
330
441
100
AcDbEntity
  8
Defpoints
 62
     0
100
AcDbPoint
 10
0.9999999999999928
 20
1.997436943668152
 30
0.0
  0
ENDBLK
  5
443
330
441
100
AcDbEntity
  8
0
100
AcDbBlockEnd
  0
BLOCK
  5
44E
330
44D
100
AcDbEntity
  8
0
100
AcDbBlockBegin
  2
*D34
 70
     1
 10
0.0
 20
0.0
 30
0.0
  3
*D34
  1

  0
LINE
  5
1017
330
44D
100
AcDbEntity
  8
Dim
100
AcDbLine
 10
1.889999999999993
 20
1.997436943668152
 30
0.0
 11
0.9374999999999927
 21
1.997436943668152
 31
0.0
  0
LINE
  5
1018
330
44D
100
AcDbEntity
  8
Dim
100
AcDbLine
 10
2.220898065712212
 20
2.969080288801496
 30
0.0
 11
2.062499999999992
 21
2.969080288801496
 31
0.0
  0
LINE
  5
1019
330
44D
100
AcDbEntity
  8
Dim
100
AcDbLine
 10
1.937499999999993
 20
2.969080288801496
 30
0.0
 11
0.9374999999999928
 21
2.969080288801496
 31
0.0
  0
LINE
  5
101A
330
44D
100
AcDbEntity
  8
Dim
100
AcDbLine
 10
0.9999999999999927
 20
2.247436943668152
 30
0.0
 11
0.9999999999999927
 21
2.719080288801496
 31
0.0
  0
MTEXT
  5
101B
330
44D
100
AcDbEntity
  8
Dim
 62
   255
100
AcDbMText
 10
0.9999999999999928
 20
2.483258616234826
 30
0.0
 40
0.28
 41
0.0
 71
     5
 72
     1
  1
\A1;1"\P [25]
 11
0.0000000000000001
 21
1.0
 31
0.0
 73
     1
 44
1.0
1001
ACAD
1000
MTEXTBEGIN
1070
    73
1070
     1
1070
    44
1040
1.0
1070
    74
1070
     0
1000
MTEXTEND
  0
SOLID
  5
101C
330
44D
100
AcDbEntity
  8
Dim
100
AcDbTrace
 10
0.9583333333333261
 20
2.247436943668152
 30
0.0
 11
1.041666666666659
 21
2.247436943668152
 31
0.0
 12
0.9999999999999927
 22
1.997436943668152
 32
0.0
 13
0.9999999999999927
 23
1.997436943668152
 33
0.0
  0
SOLID
  5
101D
330
44D
100
AcDbEntity
  8
Dim
100
AcDbTrace
 10
0.9583333333333261
 20
2.719080288801496
 30
0.0
 11
1.041666666666659
 21
2.719080288801496
 31
0.0
 12
0.9999999999999928
 22
2.969080288801496
 32
0.0
 13
0.9999999999999928
 23
2.969080288801496
 33
0.0
  0
POINT
  5
101E
330
44D
100
AcDbEntity
  8
Defpoints
 62
     0
100
AcDbPoint
 10
2.014999999999993
 20
1.997436943668152
 30
0.0
  0
POINT
  5
101F
330
44D
100
AcDbEntity
  8
Defpoints
 62
     0
100
AcDbPoint
 10
2.345898065712212
 20
2.969080288801496
 30
0.0
  0
POINT
  5
1020
330
44D
100
AcDbEntity
  8
Defpoints
 62
     0
100
AcDbPoint
 10
0.9999999999999928
 20
2.969080288801496
 30
0.0
  0
ENDBLK
  5
44F
330
44D
100
AcDbEntity
  8
0
100
AcDbBlockEnd
  0
BLOCK
  5
45B
330
45A
100
AcDbEntity
  8
0
100
AcDbBlockBegin
  2
*D35
 70
     1
 10
0.0
 20
0.0
 30
0.0
  3
*D35
  1

  0
LINE
  5
1021
330
45A
100
AcDbEntity
  8
Dim
100
AcDbLine
 10
7.499999999999992
 20
2.624999999999996
 30
0.0
 11
7.499999999999992
 21
4.062499999999996
 31
0.0
  0
LINE
  5
1022
330
45A
100
AcDbEntity
  8
Dim
100
AcDbLine
 10
8.680893728342176
 20
3.790216921824704
 30
0.0
 11
8.680893728342176
 21
4.062499999999996
 31
0.0
  0
LINE
  5
1023
330
45A
100
AcDbEntity
  8
Dim
100
AcDbLine
 10
7.749999999999992
 20
3.999999999999996
 30
0.0
 11
8.430893728342176
 21
3.999999999999996
 31
0.0
  0
MTEXT
  5
1024
330
45A
100
AcDbEntity
  8
Dim
 62
   255
100
AcDbMText
 10
8.090446864171084
 20
4.641056446111865
 30
0.0
 40
0.28
 41
0.0
 71
     5
 72
     1
  1
\A1;1 3/16"
 73
     1
 44
1.0
1001
ACAD
1000
MTEXTBEGIN
1070
    73
1070
     1
1070
    44
1040
1.0
1070
    74
1070
     0
1000
MTEXTEND
  0
MTEXT
  5
1025
330
45A
100
AcDbEntity
  8
Dim
 62
   255
100
AcDbMText
 10
8.090446864171084
 20
4.254245395634375
 30
0.0
 40
0.28
 41
0.0
 71
     5
 72
     1
  1
\A1;[30]
 73
     1
 44
1.0
1001
ACAD
1000
MTEXTBEGIN
1070
    73
1070
     1
1070
    44
1040
1.0
1070
    74
1070
     0
1000
MTEXTEND
  0
SOLID
  5
1026
330
45A
100
AcDbEntity
  8
Dim
100
AcDbTrace
 10
7.749999999999992
 20
4.041666666666663
 30
0.0
 11
7.749999999999992
 21
3.95833333333333
 31
0.0
 12
7.499999999999992
 22
3.999999999999996
 32
0.0
 13
7.499999999999992
 23
3.999999999999996
 33
0.0
  0
SOLID
  5
1027
330
45A
100
AcDbEntity
  8
Dim
100
AcDbTrace
 10
8.430893728342176
 20
4.041666666666663
 30
0.0
 11
8.430893728342176
 21
3.95833333333333
 31
0.0
 12
8.680893728342176
 22
3.999999999999996
 32
0.0
 13
8.680893728342176
 23
3.999999999999996
 33
0.0
  0
POINT
  5
1028
330
45A
100
AcDbEntity
  8
Defpoints
 62
     0
100
AcDbPoint
 10
7.499999999999992
 20
2.499999999999996
 30
0.0
  0
POINT
  5
1029
330
45A
100
AcDbEntity
  8
Defpoints
 62
     0
100
AcDbPoint
 10
8.680893728342176
 20
3.665216921824704
 30
0.0
  0
POINT
  5
102A
330
45A
100
AcDbEntity
  8
Defpoints
 62
     0
100
AcDbPoint
 10
8.680893728342176
 20
3.999999999999996
 30
0.0
  0
ENDBLK
  5
45C
330
45A
100
AcDbEntity
  8
0
100
AcDbBlockEnd
  0
BLOCK
  5
468
330
467
100
AcDbEntity
  8
0
100
AcDbBlockBegin
  2
*D36
 70
     1
 10
0.0
 20
0.0
 30
0.0
  3
*D36
  1

  0
LINE
  5
102B
330
467
100
AcDbEntity
  8
Dim
100
AcDbLine
 10
7.374999999999992
 20
1.499999999999998
 30
0.0
 11
6.437499999999992
 21
1.499999999999998
 31
0.0
  0
LINE
  5
102C
330
467
100
AcDbEntity
  8
Dim
100
AcDbLine
 10
7.374999999999992
 20
2.499999999999996
 30
0.0
 11
6.437499999999992
 21
2.499999999999996
 31
0.0
  0
LINE
  5
102D
330
467
100
AcDbEntity
  8
Dim
100
AcDbLine
 10
6.499999999999992
 20
1.749999999999998
 30
0.0
 11
6.499999999999992
 21
2.249999999999996
 31
0.0
  0
SOLID
  5
102E
330
467
100
AcDbEntity
  8
Dim
100
AcDbTrace
 10
6.458333333333325
 20
1.749999999999998
 30
0.0
 11
6.541666666666658
 21
1.749999999999998
 31
0.0
 12
6.499999999999992
 22
1.499999999999998
 32
0.0
 13
6.499999999999992
 23
1.499999999999998
 33
0.0
  0
SOLID
  5
102F
330
467
100
AcDbEntity
  8
Dim
100
AcDbTrace
 10
6.458333333333325
 20
2.249999999999996
 30
0.0
 11
6.541666666666659
 21
2.249999999999996
 31
0.0
 12
6.499999999999992
 22
2.499999999999996
 32
0.0
 13
6.499999999999992
 23
2.499999999999996
 33
0.0
  0
MTEXT
  5
1030
330
467
100
AcDbEntity
  8
Dim
 62
   255
100
AcDbMText
 10
6.3281770122783
 20
1.999999999999998
 30
0.0
 40
0.28
 41
0.0
 71
     5
 72
     1
  1
\A1;1"
 11
0.0000000000000001
 21
1.0
 31
0.0
 73
     1
 44
1.0
1001
ACAD
1000
MTEXTBEGIN
1070
    73
1070
     1
1070
    44
1040
1.0
1070
    74
1070
     0
1000
MTEXTEND
  0
MTEXT
  5
1031
330
467
100
AcDbEntity
  8
Dim
 62
   255
100
AcDbMText
 10
6.710690654843102
 20
1.999999999999998
 30
0.0
 40
0.28
 41
0.0
 71
     5
 72
     1
  1
\A1;[25]
 11
0.0000000000000001
 21
1.0
 31
0.0
 73
     1
 44
1.0
1001
ACAD
1000
MTEXTBEGIN
1070
    73
1070
     1
1070
    44
1040
1.0
1070
    74
1070
     0
1000
MTEXTEND
  0
POINT
  5
1032
330
467
100
AcDbEntity
  8
Defpoints
 62
     0
100
AcDbPoint
 10
7.499999999999992
 20
1.499999999999998
 30
0.0
  0
POINT
  5
1033
330
467
100
AcDbEntity
  8
Defpoints
 62
     0
100
AcDbPoint
 10
7.499999999999992
 20
2.499999999999996
 30
0.0
  0
POINT
  5
1034
330
467
100
AcDbEntity
  8
Defpoints
 62
     0
100
AcDbPoint
 10
6.499999999999992
 20
2.499999999999996
 30
0.0
  0
ENDBLK
  5
469
330
467
100
AcDbEntity
  8
0
100
AcDbBlockEnd
  0
BLOCK
  5
475
330
474
100
AcDbEntity
  8
0
100
AcDbBlockBegin
  2
*D37
 70
     1
 10
0.0
 20
0.0
 30
0.0
  3
*D37
  1

  0
LINE
  5
1035
330
474
100
AcDbEntity
  8
Dim
100
AcDbLine
 10
7.374999999999992
 20
2.499999999999996
 30
0.0
 11
6.437499999999992
 21
2.499999999999996
 31
0.0
  0
LINE
  5
1036
330
474
100
AcDbEntity
  8
Dim
100
AcDbLine
 10
8.570893728342177
 20
3.680216921824708
 30
0.0
 11
7.562499999999992
 21
3.680216921824708
 31
0.0
  0
LINE
  5
1037
330
474
100
AcDbEntity
  8
Dim
100
AcDbLine
 10
7.437499999999992
 20
3.680216921824708
 30
0.0
 11
6.437499999999992
 21
3.680216921824709
 31
0.0
  0
LINE
  5
1038
330
474
100
AcDbEntity
  8
Dim
100
AcDbLine
 10
6.499999999999992
 20
2.749999999999996
 30
0.0
 11
6.499999999999992
 21
3.430216921824709
 31
0.0
  0
MTEXT
  5
1039
330
474
100
AcDbEntity
  8
Dim
 62
   255
100
AcDbMText
 10
6.499999999999992
 20
3.090108460912352
 30
0.0
 40
0.28
 41
0.0
 71
     5
 72
     1
  1
\A1;1 3/16"\P [30]
 11
0.0000000000000001
 21
1.0
 31
0.0
 73
     1
 44
1.0
1001
ACAD
1000
MTEXTBEGIN
1070
    73
1070
     1
1070
    44
1040
1.0
1070
    74
1070
     0
1000
MTEXTEND
  0
SOLID
  5
103A
330
474
100
AcDbEntity
  8
Dim
100
AcDbTrace
 10
6.458333333333325
 20
2.749999999999996
 30
0.0
 11
6.541666666666659
 21
2.749999999999996
 31
0.0
 12
6.499999999999992
 22
2.499999999999996
 32
0.0
 13
6.499999999999992
 23
2.499999999999996
 33
0.0
  0
SOLID
  5
103B
330
474
100
AcDbEntity
  8
Dim
100
AcDbTrace
 10
6.458333333333325
 20
3.430216921824709
 30
0.0
 11
6.541666666666659
 21
3.430216921824709
 31
0.0
 12
6.499999999999992
 22
3.680216921824709
 32
0.0
 13
6.499999999999992
 23
3.680216921824709
 33
0.0
  0
POINT
  5
103C
330
474
100
AcDbEntity
  8
Defpoints
 62
     0
100
AcDbPoint
 10
7.499999999999992
 20
2.499999999999996
 30
0.0
  0
POINT
  5
103D
330
474
100
AcDbEntity
  8
Defpoints
 62
     0
100
AcDbPoint
 10
8.695893728342177
 20
3.680216921824708
 30
0.0
  0
POINT
  5
103E
330
474
100
AcDbEntity
  8
Defpoints
 62
     0
100
AcDbPoint
 10
6.499999999999992
 20
3.680216921824709
 30
0.0
  0
ENDBLK
  5
476
330
474
100
AcDbEntity
  8
0
100
AcDbBlockEnd
  0
BLOCK
  5
483
330
482
100
AcDbEntity
  8
0
100
AcDbBlockBegin
  2
*D38
 70
     1
 10
0.0
 20
0.0
 30
0.0
  3
*D38
  1

  0
LINE
  5
103F
330
482
100
AcDbEntity
  8
Dim
100
AcDbLine
 10
13.24999999999999
 20
3.624999999999996
 30
0.0
 11
13.24999999999999
 21
5.062499999999996
 31
0.0
  0
LINE
  5
1040
330
482
100
AcDbEntity
  8
Dim
100
AcDbLine
 10
14.43089372789676
 20
4.790216921825932
 30
0.0
 11
14.43089372789676
 21
5.062499999999996
 31
0.0
  0
LINE
  5
1041
330
482
100
AcDbEntity
  8
Dim
100
AcDbLine
 10
13.49999999999999
 20
4.999999999999996
 30
0.0
 11
14.18089372789676
 21
4.999999999999996
 31
0.0
  0
MTEXT
  5
1042
330
482
100
AcDbEntity
  8
Dim
 62
   255
100
AcDbMText
 10
13.84044686394838
 20
5.641056446111865
 30
0.0
 40
0.28
 41
0.0
 71
     5
 72
     1
  1
\A1;1 3/16"
 73
     1
 44
1.0
1001
ACAD
1000
MTEXTBEGIN
1070
    73
1070
     1
1070
    44
1040
1.0
1070
    74
1070
     0
1000
MTEXTEND
  0
MTEXT
  5
1043
330
482
100
AcDbEntity
  8
Dim
 62
   255
100
AcDbMText
 10
13.84044686394838
 20
5.254245395634375
 30
0.0
 40
0.28
 41
0.0
 71
     5
 72
     1
  1
\A1;[30]
 73
     1
 44
1.0
1001
ACAD
1000
MTEXTBEGIN
1070
    73
1070
     1
1070
    44
1040
1.0
1070
    74
1070
     0
1000
MTEXTEND
  0
SOLID
  5
1044
330
482
100
AcDbEntity
  8
Dim
100
AcDbTrace
 10
13.49999999999999
 20
5.041666666666663
 30
0.0
 11
13.49999999999999
 21
4.958333333333329
 31
0.0
 12
13.24999999999999
 22
4.999999999999996
 32
0.0
 13
13.24999999999999
 23
4.999999999999996
 33
0.0
  0
SOLID
  5
1045
330
482
100
AcDbEntity
  8
Dim
100
AcDbTrace
 10
14.18089372789676
 20
5.041666666666663
 30
0.0
 11
14.18089372789676
 21
4.958333333333329
 31
0.0
 12
14.43089372789676
 22
4.999999999999996
 32
0.0
 13
14.43089372789676
 23
4.999999999999996
 33
0.0
  0
POINT
  5
1046
330
482
100
AcDbEntity
  8
Defpoints
 62
     0
100
AcDbPoint
 10
13.24999999999999
 20
3.499999999999996
 30
0.0
  0
POINT
  5
1047
330
482
100
AcDbEntity
  8
Defpoints
 62
     0
100
AcDbPoint
 10
14.43089372789676
 20
4.665216921825932
 30
0.0
  0
POINT
  5
1048
330
482
100
AcDbEntity
  8
Defpoints
 62
     0
100
AcDbPoint
 10
14.43089372789676
 20
4.999999999999996
 30
0.0
  0
ENDBLK
  5
484
330
482
100
AcDbEntity
  8
0
100
AcDbBlockEnd
  0
BLOCK
  5
490
330
48F
100
AcDbEntity
  8
0
100
AcDbBlockBegin
  2
*D39
 70
     1
 10
0.0
 20
0.0
 30
0.0
  3
*D39
  1

  0
LINE
  5
1049
330
48F
100
AcDbEntity
  8
Dim
100
AcDbLine
 10
13.12499999999999
 20
1.499999999999998
 30
0.0
 11
12.18749999999999
 21
1.499999999999998
 31
0.0
  0
LINE
  5
104A
330
48F
100
AcDbEntity
  8
Dim
100
AcDbLine
 10
13.12499999999999
 20
3.499999999999996
 30
0.0
 11
12.18749999999999
 21
3.499999999999996
 31
0.0
  0
LINE
  5
104B
330
48F
100
AcDbEntity
  8
Dim
100
AcDbLine
 10
12.24999999999999
 20
1.749999999999998
 30
0.0
 11
12.24999999999999
 21
3.249999999999996
 31
0.0
  0
SOLID
  5
104C
330
48F
100
AcDbEntity
  8
Dim
100
AcDbTrace
 10
12.20833333333332
 20
1.749999999999998
 30
0.0
 11
12.29166666666666
 21
1.749999999999998
 31
0.0
 12
12.24999999999999
 22
1.499999999999998
 32
0.0
 13
12.24999999999999
 23
1.499999999999998
 33
0.0
  0
SOLID
  5
104D
330
48F
100
AcDbEntity
  8
Dim
100
AcDbTrace
 10
12.20833333333332
 20
3.249999999999996
 30
0.0
 11
12.29166666666666
 21
3.249999999999996
 31
0.0
 12
12.24999999999999
 22
3.499999999999996
 32
0.0
 13
12.24999999999999
 23
3.499999999999996
 33
0.0
  0
MTEXT
  5
104E
330
48F
100
AcDbEntity
  8
Dim
 62
   255
100
AcDbMText
 10
12.0781770122783
 20
2.499999999999999
 30
0.0
 40
0.28
 41
0.0
 71
     5
 72
     1
  1
\A1;2"
 11
0.0000000000000001
 21
1.0
 31
0.0
 73
     1
 44
1.0
1001
ACAD
1000
MTEXTBEGIN
1070
    73
1070
     1
1070
    44
1040
1.0
1070
    74
1070
     0
1000
MTEXTEND
  0
MTEXT
  5
104F
330
48F
100
AcDbEntity
  8
Dim
 62
   255
100
AcDbMText
 10
12.4606906548431
 20
2.499999999999999
 30
0.0
 40
0.28
 41
0.0
 71
     5
 72
     1
  1
\A1;[51]
 11
0.0000000000000001
 21
1.0
 31
0.0
 73
     1
 44
1.0
1001
ACAD
1000
MTEXTBEGIN
1070
    73
1070
     1
1070
    44
1040
1.0
1070
    74
1070
     0
1000
MTEXTEND
  0
POINT
  5
1050
330
48F
100
AcDbEntity
  8
Defpoints
 62
     0
100
AcDbPoint
 10
13.24999999999999
 20
1.499999999999998
 30
0.0
  0
POINT
  5
1051
330
48F
100
AcDbEntity
  8
Defpoints
 62
     0
100
AcDbPoint
 10
13.24999999999999
 20
3.499999999999996
 30
0.0
  0
POINT
  5
1052
330
48F
100
AcDbEntity
  8
Defpoints
 62
     0
100
AcDbPoint
 10
12.24999999999999
 20
3.499999999999996
 30
0.0
  0
ENDBLK
  5
491
330
48F
100
AcDbEntity
  8
0
100
AcDbBlockEnd
  0
BLOCK
  5
49D
330
49C
100
AcDbEntity
  8
0
100
AcDbBlockBegin
  2
*D40
 70
     1
 10
0.0
 20
0.0
 30
0.0
  3
*D40
  1

  0
LINE
  5
1053
330
49C
100
AcDbEntity
  8
Dim
100
AcDbLine
 10
13.12499999999999
 20
3.499999999999996
 30
0.0
 11
12.18749999999999
 21
3.499999999999996
 31
0.0
  0
LINE
  5
1054
330
49C
100
AcDbEntity
  8
Dim
100
AcDbLine
 10
14.32089372789677
 20
4.680216921825932
 30
0.0
 11
13.31249999999999
 21
4.680216921825933
 31
0.0
  0
LINE
  5
1055
330
49C
100
AcDbEntity
  8
Dim
100
AcDbLine
 10
13.18749999999999
 20
4.680216921825933
 30
0.0
 11
12.18749999999999
 21
4.680216921825933
 31
0.0
  0
LINE
  5
1056
330
49C
100
AcDbEntity
  8
Dim
100
AcDbLine
 10
12.24999999999999
 20
3.749999999999996
 30
0.0
 11
12.24999999999999
 21
4.430216921825933
 31
0.0
  0
MTEXT
  5
1057
330
49C
100
AcDbEntity
  8
Dim
 62
   255
100
AcDbMText
 10
12.24999999999999
 20
4.090108460912965
 30
0.0
 40
0.28
 41
0.0
 71
     5
 72
     1
  1
\A1;1 3/16"\P [30]
 11
0.0000000000000001
 21
1.0
 31
0.0
 73
     1
 44
1.0
1001
ACAD
1000
MTEXTBEGIN
1070
    73
1070
     1
1070
    44
1040
1.0
1070
    74
1070
     0
1000
MTEXTEND
  0
SOLID
  5
1058
330
49C
100
AcDbEntity
  8
Dim
100
AcDbTrace
 10
12.20833333333332
 20
3.749999999999996
 30
0.0
 11
12.29166666666666
 21
3.749999999999996
 31
0.0
 12
12.24999999999999
 22
3.499999999999996
 32
0.0
 13
12.24999999999999
 23
3.499999999999996
 33
0.0
  0
SOLID
  5
1059
330
49C
100
AcDbEntity
  8
Dim
100
AcDbTrace
 10
12.20833333333332
 20
4.430216921825933
 30
0.0
 11
12.29166666666666
 21
4.430216921825933
 31
0.0
 12
12.24999999999999
 22
4.680216921825933
 32
0.0
 13
12.24999999999999
 23
4.680216921825933
 33
0.0
  0
POINT
  5
105A
330
49C
100
AcDbEntity
  8
Defpoints
 62
     0
100
AcDbPoint
 10
13.24999999999999
 20
3.499999999999996
 30
0.0
  0
POINT
  5
105B
330
49C
100
AcDbEntity
  8
Defpoints
 62
     0
100
AcDbPoint
 10
14.44589372789677
 20
4.680216921825932
 30
0.0
  0
POINT
  5
105C
330
49C
100
AcDbEntity
  8
Defpoints
 62
     0
100
AcDbPoint
 10
12.24999999999999
 20
4.680216921825933
 30
0.0
  0
ENDBLK
  5
49E
330
49C
100
AcDbEntity
  8
0
100
AcDbBlockEnd
  0
BLOCK
  5
4AB
330
4AA
100
AcDbEntity
  8
0
100
AcDbBlockBegin
  2
*D41
 70
     1
 10
0.0
 20
0.0
 30
0.0
  3
*D41
  1

  0
LINE
  5
105D
330
4AA
100
AcDbEntity
  8
Dim
100
AcDbLine
 10
19.38999999999997
 20
1.499999999999993
 30
0.0
 11
18.43749999999997
 21
1.499999999999993
 31
0.0
  0
LINE
  5
105E
330
4AA
100
AcDbEntity
  8
Dim
100
AcDbLine
 10
19.37499999999996
 20
4.145326785601604
 30
0.0
 11
18.43749999999997
 21
4.145326785601604
 31
0.0
  0
LINE
  5
105F
330
4AA
100
AcDbEntity
  8
Dim
100
AcDbLine
 10
18.49999999999997
 20
1.749999999999993
 30
0.0
 11
18.49999999999997
 21
3.895326785601604
 31
0.0
  0
SOLID
  5
1060
330
4AA
100
AcDbEntity
  8
Dim
100
AcDbTrace
 10
18.4583333333333
 20
1.749999999999993
 30
0.0
 11
18.54166666666664
 21
1.749999999999993
 31
0.0
 12
18.49999999999997
 22
1.499999999999993
 32
0.0
 13
18.49999999999997
 23
1.499999999999993
 33
0.0
  0
SOLID
  5
1061
330
4AA
100
AcDbEntity
  8
Dim
100
AcDbTrace
 10
18.4583333333333
 20
3.895326785601604
 30
0.0
 11
18.54166666666664
 21
3.895326785601604
 31
0.0
 12
18.49999999999997
 22
4.145326785601604
 32
0.0
 13
18.49999999999997
 23
4.145326785601604
 33
0.0
  0
MTEXT
  5
1062
330
4AA
100
AcDbEntity
  8
Dim
 62
   255
100
AcDbMText
 10
18.3239751023192
 20
2.822663392800801
 30
0.0
 40
0.28
 41
0.0
 71
     5
 72
     1
  1
\A1;2 5/8"
 11
0.0000000000000001
 21
1.0
 31
0.0
 73
     1
 44
1.0
1001
ACAD
1000
MTEXTBEGIN
1070
    73
1070
     1
1070
    44
1040
1.0
1070
    74
1070
     0
1000
MTEXTEND
  0
MTEXT
  5
1063
330
4AA
100
AcDbEntity
  8
Dim
 62
   255
100
AcDbMText
 10
18.71069065484308
 20
2.822663392800801
 30
0.0
 40
0.28
 41
0.0
 71
     5
 72
     1
  1
\A1;[67]
 11
0.0000000000000001
 21
1.0
 31
0.0
 73
     1
 44
1.0
1001
ACAD
1000
MTEXTBEGIN
1070
    73
1070
     1
1070
    44
1040
1.0
1070
    74
1070
     0
1000
MTEXTEND
  0
POINT
  5
1064
330
4AA
100
AcDbEntity
  8
Defpoints
 62
     0
100
AcDbPoint
 10
19.51499999999997
 20
1.499999999999992
 30
0.0
  0
POINT
  5
1065
330
4AA
100
AcDbEntity
  8
Defpoints
 62
     0
100
AcDbPoint
 10
19.49999999999996
 20
4.145326785601604
 30
0.0
  0
POINT
  5
1066
330
4AA
100
AcDbEntity
  8
Defpoints
 62
     0
100
AcDbPoint
 10
18.49999999999997
 20
4.145326785601604
 30
0.0
  0
ENDBLK
  5
4AC
330
4AA
100
AcDbEntity
  8
0
100
AcDbBlockEnd
  0
BLOCK
  5
4B8
330
4B7
100
AcDbEntity
  8
0
100
AcDbBlockBegin
  2
*D42
 70
     1
 10
0.0
 20
0.0
 30
0.0
  3
*D42
  1

  0
LINE
  5
1067
330
4B7
100
AcDbEntity
  8
Dim
100
AcDbLine
 10
19.37499999999996
 20
4.145326785601604
 30
0.0
 11
18.43749999999997
 21
4.145326785601604
 31
0.0
  0
LINE
  5
1068
330
4B7
100
AcDbEntity
  8
Dim
100
AcDbLine
 10
19.37499999999997
 20
4.984999999999988
 30
0.0
 11
18.43749999999997
 21
4.984999999999988
 31
0.0
  0
LINE
  5
1069
330
4B7
100
AcDbEntity
  8
Dim
100
AcDbLine
 10
18.49999999999997
 20
4.395326785601604
 30
0.0
 11
18.49999999999997
 21
4.734999999999988
 31
0.0
  0
MTEXT
  5
106A
330
4B7
100
AcDbEntity
  8
Dim
 62
   255
100
AcDbMText
 10
18.49999999999997
 20
4.565163392800796
 30
0.0
 40
0.28
 41
0.0
 71
     5
 72
     1
  1
\A1;13/16"\P [21]
 11
0.0000000000000001
 21
1.0
 31
0.0
 73
     1
 44
1.0
1001
ACAD
1000
MTEXTBEGIN
1070
    73
1070
     1
1070
    44
1040
1.0
1070
    74
1070
     0
1000
MTEXTEND
  0
SOLID
  5
106B
330
4B7
100
AcDbEntity
  8
Dim
100
AcDbTrace
 10
18.4583333333333
 20
4.395326785601604
 30
0.0
 11
18.54166666666664
 21
4.395326785601604
 31
0.0
 12
18.49999999999997
 22
4.145326785601604
 32
0.0
 13
18.49999999999997
 23
4.145326785601604
 33
0.0
  0
SOLID
  5
106C
330
4B7
100
AcDbEntity
  8
Dim
100
AcDbTrace
 10
18.4583333333333
 20
4.734999999999988
 30
0.0
 11
18.54166666666664
 21
4.734999999999988
 31
0.0
 12
18.49999999999997
 22
4.984999999999988
 32
0.0
 13
18.49999999999997
 23
4.984999999999988
 33
0.0
  0
POINT
  5
106D
330
4B7
100
AcDbEntity
  8
Defpoints
 62
     0
100
AcDbPoint
 10
19.49999999999996
 20
4.145326785601604
 30
0.0
  0
POINT
  5
106E
330
4B7
100
AcDbEntity
  8
Defpoints
 62
     0
100
AcDbPoint
 10
19.49999999999997
 20
4.984999999999988
 30
0.0
  0
POINT
  5
106F
330
4B7
100
AcDbEntity
  8
Defpoints
 62
     0
100
AcDbPoint
 10
18.49999999999997
 20
4.984999999999988
 30
0.0
  0
ENDBLK
  5
4B9
330
4B7
100
AcDbEntity
  8
0
100
AcDbBlockEnd
  0
BLOCK
  5
EA3
330
EA2
100
AcDbEntity
  8
0
100
AcDbBlockBegin
  2
EDET Sill Nose Half in  50H2
 70
     0
 10
0.0
 20
0.0
 30
0.0
  3
EDET Sill Nose Half in  50H2
  1

  0
LWPOLYLINE
  5
EA4
330
EA2
100
AcDbEntity
  8
Clad
100
AcDbPolyline
 90
      100
 70
     1
 43
0.0
 10
-0.0547409346726795
 20
-0.3306974037148933
 42
0.3443276132878092
 10
-0.0486763098375036
 20
-0.3229350379046991
 10
-0.0486763098375036
 20
0.5424369436660186
 42
-0.4142135623730928
 10
-0.0336763098375172
 20
0.5574369436660192
 10
0.0243236901624755
 20
0.5574369436660192
 42
-0.4142135623730951
 10
0.0393236901624903
 20
0.5424369436660186
 10
0.0393236901624903
 20
0.5224369436659942
 42
-0.4142135623730864
 10
0.0243236901624755
 20
0.5074369436659936
 10
0.0093340494392464
 20
0.5074369436659936
 42
0.4142135623730951
 10
0.0013340494392651
 20
0.4994369436659909
 10
0.0013340494392651
 20
0.1854369436661116
 42
0.4142135623730959
 10
0.0093340494392464
 20
0.177436943666109
 10
0.1863340494392673
 20
0.177436943666109
 42
-0.4142135623730964
 10
0.2013340494392537
 20
0.1624369436661084
 10
0.2013340494392537
 20
0.1350254009383391
 42
-0.2679491924879096
 10
0.1938340494359352
 20
0.1220350198789859
 10
0.1661210494386864
 20
0.1060349118783463
 42
-0.5773502691189786
 10
0.1586210494392617
 20
0.1103650388979886
 10
0.1586210494392617
 20
0.1194369436648941
 42
0.4142135623731237
 10
0.1506210494362676
 20
0.1274369436678882
 10
0.1493340494368454
 20
0.1274369436678882
 42
0.1316524975334951
 10
0.1453340494368263
 20
0.1263651468986069
 10
0.1101210494346674
 20
0.1060349118783463
 42
-0.5773502691189878
 10
0.1026210494352426
 20
0.1103650388979886
 10
0.1026210494352426
 20
0.1194369436648941
 42
0.4142135623730952
 10
0.0946210494322486
 20
0.1274369436678882
 10
0.0933340498024222
 20
0.1274369436678882
 42
0.131652497533496
 10
0.0893340498024031
 20
0.1263651468986069
 10
0.0541210498002442
 20
0.1060349118783463
 42
-0.5773502691189831
 10
0.0466210498008479
 20
0.1103650388979886
 10
0.0466210498008479
 20
0.1194369436648941
 42
0.4142135623731237
 10
0.0386210497978539
 20
0.1274369436678882
 10
0.0093340494392464
 20
0.1274369436678882
 42
0.4142135623730951
 10
0.0013340494392651
 20
0.1194369436678855
 10
0.0013340494392651
 20
-0.0237070563340396
 42
0.4142135623730931
 10
0.0093340494392464
 20
-0.0317070563340423
 10
0.0386210497978539
 20
-0.0317070563340423
 42
0.4142135623730951
 10
0.0466210498008479
 20
-0.0237070563310482
 10
0.0466210498008479
 20
-0.0146351517748471
 42
-0.5773502671703846
 10
0.0541210497749489
 20
-0.0103050247405889
 10
0.0906210494727304
 20
-0.030635259588145
 42
0.5773502671704241
 10
0.1026210494352426
 20
-0.0237070563310482
 10
0.1026210494352426
 20
-0.0146351517748471
 42
-0.5773502671704521
 10
0.1101210494093436
 20
-0.0103050247405889
 10
0.1466210494767495
 20
-0.030635259588145
 42
0.5773502671704236
 10
0.1586210494392617
 20
-0.0237070563310482
 10
0.1586210494392617
 20
-0.0146351517748471
 42
-0.5773502671704222
 10
0.1661210494133627
 20
-0.0103050247405889
 10
0.1938340493599924
 20
-0.026305132496006
 42
-0.2679491940542563
 10
0.2013340494392537
 20
-0.0392955135991997
 10
0.2013340494392537
 20
-0.0667070563338825
 42
-0.4142135623730951
 10
0.1863340494392673
 20
-0.0817070563338831
 10
0.0093340494392464
 20
-0.0817070563338831
 42
0.4142135623730951
 10
0.0013340494392651
 20
-0.0897070563338858
 10
0.0013340494392651
 20
-0.3064768068587966
 42
0.4877325885679145
 10
0.0112694246041087
 20
-0.3142391726689908
 10
1.251796796016208
 20
-0.004940960673764
 42
-0.4877325885679252
 10
1.270425624450297
 20
-0.0194953965678835
 10
1.270425624450297
 20
-0.0401076691550486
 42
-0.344327613287845
 10
1.259054452884385
 20
-0.054662105049168
 10
1.057140249285453
 20
-0.1050049701795572
 42
0.3443276132878417
 10
1.051075624450277
 20
-0.1127673359897514
 10
1.051075624450277
 20
-0.1875941194797406
 42
0.3360829017402969
 10
1.056911690024065
 20
-0.1952958977029127
 42
-0.5604894340147219
 10
1.109755681235924
 20
-0.3824648920882936
 42
-1.0
 10
1.073053901943978
 20
-0.3485093417790281
 42
2.287506271601668
 10
0.979097346956621
 20
-0.3485093417790281
 42
-1.0
 10
0.9423955676646755
 20
-0.3824648920882936
 42
-0.5604894340147233
 10
0.9952395588765341
 20
-0.1952958977029127
 42
0.3360829017402778
 10
1.001075624450294
 20
-0.1875941194797406
 10
1.001075624450294
 20
-0.1292229841778578
 42
0.4877325885678785
 10
0.9911402492854506
 20
-0.1214606183676636
 10
0.7968372492854315
 20
-0.1699057973054394
 42
0.3443276132878486
 10
0.7907726244503124
 20
-0.1776681631156336
 10
0.7907726244503124
 20
-0.21904038193356
 42
-0.4142135623730951
 10
0.7757726244502976
 20
-0.2340403819335606
 10
0.7557726244503727
 20
-0.2340403819335606
 42
-0.4142135623730951
 10
0.7407726244503579
 20
-0.21904038193356
 10
0.7407726244503579
 20
-0.1941238113037187
 42
0.4877325885678589
 10
0.7308372492855142
 20
-0.1863614454935245
 10
-0.3235097507145781
 20
-0.4492396773145231
 42
0.3443276132878754
 10
-0.3295743755497256
 20
-0.4570020431247244
 10
-0.3295743755496687
 20
-0.8536433451354312
 42
0.4142135623730644
 10
-0.3215743755496874
 20
-0.8616433451354339
 10
-0.2665437911168169
 20
-0.8616433451354339
 42
0.3079450377957924
 10
-0.2591023032906037
 20
-0.8565800539961188
 42
-0.6804138174466764
 10
0.0199534901993843
 20
-0.8565800539961188
 42
0.3079450377957936
 10
0.0273949780255976
 20
-0.8616433451354339
 10
0.5054256244586384
 20
-0.8616433451354339
 42
-0.4142135623730951
 10
0.5204256244586248
 20
-0.8766433451354345
 10
0.5204256244586248
 20
-0.8966433451354873
 42
-0.414213562373108
 10
0.5054256244586384
 20
-0.9116433451354879
 10
-0.0055568640314903
 20
-0.9116433451354879
 42
-0.3763996637125353
 10
-0.0204287174023534
 20
-0.898599866874548
 42
0.8770580193112216
 10
-0.218720095688866
 20
-0.898599866874548
 42
-0.3763996637125336
 10
-0.2335919490597291
 20
-0.9116433451354879
 10
-0.3645743755497506
 20
-0.9116433451354879
 42
-0.4142135623730951
 10
-0.3795743755497369
 20
-0.8966433451354873
 10
-0.3795743755497369
 20
-0.4234067611852624
 42
-0.3443276132878093
 10
-0.3682032039838248
 20
-0.40885232529115
  0
POINT
  5
EA5
330
EA2
100
AcDbEntity
  8
Points
100
AcDbPoint
 10
0.0
 20
0.0
 30
0.0
  0
ENDBLK
  5
EA6
330
EA2
100
AcDbEntity
  8
0
100
AcDbBlockEnd
  0
BLOCK
  5
EAA
330
EA7
100
AcDbEntity
  8
0
100
AcDbBlockBegin
  2
ECET Sill Nose 1in 50H4  w-Nose Extension 50H8
 70
     0
 10
0.0
 20
0.0
 30
0.0
  3
ECET Sill Nose 1in 50H4  w-Nose Extension 50H8
  1

  0
LWPOLYLINE
  5
EAB
330
EA7
100
AcDbEntity
  8
Clad
100
AcDbPolyline
 90
      106
 70
     1
 43
0.0
 10
-0.0486763098375036
 20
-0.3229350361351351
 10
-0.0486763098375036
 20
0.5424369436660186
 42
-0.4142135623730951
 10
-0.0336763098375172
 20
0.5574369436660192
 10
0.0243236901624755
 20
0.5574369436660192
 42
-0.4142135623730927
 10
0.0393236901624903
 20
0.5424369436660186
 10
0.0393236901624903
 20
0.5224369472666979
 42
-0.414213562373069
 10
0.0243236901624755
 20
0.5074369472666973
 10
0.0093340493676806
 20
0.5074369472666973
 42
0.4142135623731038
 10
0.0013340493676708
 20
0.4994369472666947
 10
0.0013340493676708
 20
0.1854369467608592
 42
0.4142135623730951
 10
0.0093340493676806
 20
0.1774369467608636
 10
0.186334049367673
 20
0.1774369467608636
 42
-0.4142135623730951
 10
0.2013340493676878
 20
0.1624369467608631
 10
0.2013340493676878
 20
0.1350254044909107
 42
-0.2679491922476392
 10
0.1938340489556083
 20
0.1220350227101576
 10
0.1661210493706733
 20
0.1060349149144386
 42
-0.5773502694178757
 10
0.1586210493676674
 20
0.1103650419316651
 10
0.1586210493676674
 20
0.1194369467609633
 42
0.414213562373152
 10
0.1506210493676576
 20
0.1274369467609659
 10
0.1493340423330096
 20
0.1274369467609659
 42
0.1316524977615501
 10
0.1453340423282725
 20
0.1263651499885015
 10
0.1101210423058774
 20
0.1060349149144386
 42
-0.5773502694178711
 10
0.1026210423028715
 20
0.1103650419316651
 10
0.1026210423028715
 20
0.1194369467609633
 42
0.414213562373152
 10
0.0946210423028902
 20
0.1274369467609659
 10
0.093334049051407
 20
0.1274369467609659
 42
0.1316524977615568
 10
0.0893340490466699
 20
0.1263651499885015
 10
0.0541210490242747
 20
0.1060349149144386
 42
-0.5773502694178757
 10
0.0466210490212689
 20
0.1103650419316651
 10
0.0466210490212689
 20
0.1194369467609633
 42
0.4142135623730951
 10
0.0386210490212591
 20
0.1274369467609659
 10
0.0093340493676806
 20
0.1274369467609659
 42
0.414213562373095
 10
0.0013340493676708
 20
0.1194369467609633
 10
0.0013340493676708
 20
-0.0237070532391428
 42
0.4142135623730911
 10
0.0093340493676806
 20
-0.0317070532391384
 10
0.0386210490212591
 20
-0.0317070532391384
 42
0.414213562373095
 10
0.0466210490212689
 20
-0.0237070532391428
 10
0.0466210490212689
 20
-0.0146351478567795
 42
-0.5773502694179484
 10
0.0541210490242747
 20
-0.0103050208395459
 10
0.0893340500045952
 20
-0.0306352564666739
 42
0.1316524977615542
 10
0.0933340500093323
 20
-0.0317070532391384
 10
0.0946210423028902
 20
-0.0317070532391384
 42
0.414213562373095
 10
0.1026210423028715
 20
-0.0237070532391428
 10
0.1026210423028715
 20
-0.0146351478567723
 42
-0.5773502694178783
 10
0.1101210423058774
 20
-0.0103050208395459
 10
0.1453340432862262
 20
-0.0306352564666739
 42
0.1316524977615546
 10
0.1493340432909633
 20
-0.0317070532391384
 10
0.1506210493676576
 20
-0.0317070532391384
 42
0.414213562373095
 10
0.1586210493676674
 20
-0.0237070532391428
 10
0.1586210493676674
 20
-0.0146351478567723
 42
-0.5773502694178787
 10
0.1661210493706733
 20
-0.0103050208395459
 10
0.1938340489556083
 20
-0.026305128635272
 42
-0.2679491922476394
 10
0.2013340493676878
 20
-0.0392955104160251
 10
0.2013340493676878
 20
-0.066707053239135
 42
-0.4142135623730951
 10
0.186334049367673
 20
-0.0817070532391355
 10
0.0093340493676806
 20
-0.0817070532391355
 42
0.414213562373095
 10
0.0013340493676708
 20
-0.0897070532391382
 10
0.0013340493676708
 20
-0.3064768050059783
 42
0.4877325890141332
 10
0.0112694245437126
 20
-0.3142391708133871
 10
1.251796795565439
 20
-0.0049409570156129
 42
-0.4877325890141334
 10
1.270425624020504
 20
-0.0194953929044957
 10
1.270425624020504
 20
-0.0401076654991997
 42
-0.3443276128845789
 10
1.259054452475595
 20
-0.0546621013880824
 10
1.057140248844461
 20
-0.1050049668357573
 42
0.3443276128845991
 10
1.051075624020512
 20
-0.1127673326431662
 10
1.051075624020512
 20
-0.1875834277970583
 42
0.3360829017402755
 10
1.056911689594272
 20
-0.1952852060202375
 42
-0.5604894340147194
 10
1.109755680806131
 20
-0.3824542004056113
 42
-1.0
 10
1.073053901514185
 20
-0.3484986500963458
 42
2.287506271601686
 10
0.979097346526828
 20
-0.3484986500963458
 42
-1.0
 10
0.9423955672348824
 20
-0.3824542004056113
 42
-0.5604894340147268
 10
0.995239558446741
 20
-0.1952852060202375
 42
0.3360829017402791
 10
1.001075624020501
 20
-0.1875834277970583
 10
1.001075624020501
 20
-0.1292229809323544
 42
0.4877325890141416
 10
0.9911402488444593
 20
-0.1214606151249526
 10
0.7967902488444736
 20
-0.1699175127765429
 42
0.3443276128846052
 10
0.7907256240204959
 20
-0.1776798785839517
 10
0.7907256240205243
 20
-0.2190295936563444
 42
-0.4142135623731077
 10
0.7757256240205095
 20
-0.234029593656345
 10
0.7557256240486652
 20
-0.234029593656345
 42
-0.4142135623730951
 10
0.7407256240486504
 20
-0.2190295936563444
 10
0.7407256240486504
 20
-0.1941355268661269
 42
0.4877325890141348
 10
0.7307902488726086
 20
-0.186373161058718
 10
-1.173505413355712
 20
-0.6611673982749267
 42
0.3443276128845991
 10
-1.17957003817969
 20
-0.6689297640823284
 10
-1.17957003817969
 20
-1.14057106240903
 42
0.4142135623730951
 10
-1.17157003817968
 20
-1.148571062409025
 10
-1.084570038179492
 20
-1.148571062409025
 42
-0.8521990761347419
 10
-1.04926739040934
 20
-1.368363893112935
 42
0.3237161634083649
 10
-1.059570038179572
 20
-1.382609414585722
 10
-1.059570038179572
 20
-1.463571062408924
 42
-0.4142135623730995
 10
-1.074570038179672
 20
-1.478571062409024
 10
-1.094570038179483
 20
-1.478571062409024
 42
-0.4142135623730951
 10
-1.109570038179583
 20
-1.463571062408924
 10
-1.109570038179583
 20
-1.349034127831721
 42
-0.41421356237316
 10
-1.084570038179521
 20
-1.324034127831659
 42
1.0
 10
-1.084570038179492
 20
-1.198571062409023
 10
-1.116570038179673
 20
-1.198571062409023
 42
0.4142135623730996
 10
-1.17957003817969
 20
-1.261571062409025
 10
-1.17957003817969
 20
-1.608571062409083
 42
-0.4142135623730909
 10
-1.194570038179676
 20
-1.623571062409084
 10
-1.214570038179687
 20
-1.623571062409084
 42
-0.4142135623730909
 10
-1.229570038179701
 20
-1.608571062409083
 10
-1.229570038179701
 20
-0.635334482192441
 42
-0.3443276128846016
 10
-1.218198866634764
 20
-0.6207800463035582
 10
-0.0547409346614813
 20
-0.3306974019425368
 42
0.3443276128846013
  0
POINT
  5
EAC
330
EA7
100
AcDbEntity
  8
Points
100
AcDbPoint
 10
0.0
 20
0.0
 30
0.0
  0
INSERT
  5
EAD
330
EA7
100
AcDbEntity
  8
0
100
AcDbBlockReference
  2
EDET Sill Nose Extension 50H8
 10
-1.084570038179492
 20
-1.261302595120341
 30
0.0
  0
ENDBLK
  5
EAE
330
EA7
100
AcDbEntity
  8
0
100
AcDbBlockEnd
  0
BLOCK
  5
EB2
330
EAF
100
AcDbEntity
  8
0
100
AcDbBlockBegin
  2
EDET Sill Nose Extension 50H8
 70
     0
 10
0.0
 20
0.0
 30
0.0
  3
EDET Sill Nose Extension 50H8
  1

  0
LWPOLYLINE
  5
EB3
330
EAF
100
AcDbEntity
  8
Clad
100
AcDbPolyline
 90
       33
 70
     1
 43
0.0
 10
0.0967592822919699
 20
-0.3484339047774725
 42
-0.376399663711172
 10
0.0818874289211067
 20
-0.3614773830383484
 10
-0.0786000046186928
 20
-0.3614773830383484
 42
-0.4142135623730929
 10
-0.0936000046186791
 20
-0.3464773830383478
 10
-0.0936000046186791
 20
-0.3176905864739723
 42
-0.2141874428661022
 10
-0.0886163186382021
 20
-0.3064590897964052
 42
0.2138029549735917
 10
-0.0836000046186882
 20
-0.295264179602789
 10
-0.0836000046186882
 20
-0.0122031657534763
 42
-0.0832386501543914
 10
-0.0827799667880527
 20
-0.0073114714789497
 42
-0.2500697563930717
 10
-0.0147665557614687
 20
0.0558616802098513
 42
-1.298689708183451
 10
-0.0147665557614687
 20
-0.0558616802098442
 42
0.4920987427759652
 10
-0.0336000046186769
 20
-0.0703635652548655
 10
-0.0336000046187337
 20
-0.2964773830383436
 42
0.4142135623731229
 10
-0.0186000046187189
 20
-0.3114773830383442
 10
0.044247462550004
 20
-0.3114773830383442
 42
0.300015123648186
 10
0.0580345088119145
 20
-0.3023864739474362
 42
-0.6593804733957725
 10
0.3337754340501533
 20
-0.3023864739474362
 42
0.3000151236481811
 10
0.3475624803120638
 20
-0.3114773830383442
 10
0.7463999953811822
 20
-0.3114773830383442
 10
0.7563999953813152
 20
-0.3214773830383422
 10
0.766399995381164
 20
-0.3114773830383442
 10
1.47139565758141
 20
-0.3114773830383442
 10
1.481395657581572
 20
-0.3214773830383422
 10
1.491395657581421
 20
-0.3114773830383442
 10
1.84639565758141
 20
-0.3114773830383442
 10
1.856395657581572
 20
-0.3214773830383422
 10
1.866395657581421
 20
-0.3114773830383442
 10
2.341395657581415
 20
-0.3114773830383442
 42
-0.4142135623730929
 10
2.35639565758143
 20
-0.3264773830383447
 10
2.35639565758143
 20
-0.3464773830383478
 42
-0.4142135623730931
 10
2.341395657581415
 20
-0.3614773830383484
 10
0.3099225139409327
 20
-0.3614773830383484
 42
-0.3763996637111722
 10
0.295050660570098
 20
-0.3484339047774725
 42
0.8770580193070262
  0
ENDBLK
  5
EB4
330
EAF
100
AcDbEntity
  8
0
100
AcDbBlockEnd
  0
BLOCK
  5
EB8
330
EB5
100
AcDbEntity
  8
0
100
AcDbBlockBegin
  2
ECET Sill Nose 2in 50H6  w-Nose Extension
 70
     0
 10
0.0
 20
0.0
 30
0.0
  3
ECET Sill Nose 2in 50H6  w-Nose Extension
  1

  0
LWPOLYLINE
  5
EB9
330
EB5
100
AcDbEntity
  8
Clad
100
AcDbPolyline
 90
       99
 70
     1
 43
0.0
 10
-0.0547409346731627
 20
-0.3306974000838778
 42
0.3443276133057264
 10
-0.0486763098375036
 20
-0.3229350342735557
 10
-0.0486763098375036
 20
0.5424369436660186
 42
-0.4142135623730951
 10
-0.0336763098375172
 20
0.5574369436660192
 10
0.0243236901624755
 20
0.5574369436660192
 42
-0.4142135623730951
 10
0.0393236901624903
 20
0.5424369436660186
 10
0.0393236901624903
 20
0.5224369472660158
 42
-0.4142135623730951
 10
0.0243236901624755
 20
0.5074369472660152
 10
0.0093340493661458
 20
0.5074369472660152
 42
0.414213562373095
 10
0.0013340493661644
 20
0.4994369472660054
 10
0.0013340493661644
 20
0.1854369472961537
 42
0.4142135623730943
 10
0.0093340493661458
 20
0.1774369472961581
 10
0.1863340493661667
 20
0.1774369472961581
 42
-0.4142135623730934
 10
0.2013340493661531
 20
0.1624369472961575
 10
0.2013340493661531
 20
0.1350254045205332
 42
-0.2679491923447874
 10
0.1938340493949226
 20
0.1220350235087579
 10
0.1661210493674332
 20
0.1060349154709286
 42
-1.256084725497877
 10
0.1571815588002892
 20
0.1148587690598077
 42
0.6062707494691068
 10
0.1506210493661513
 20
0.1274369472962604
 10
0.1471904558236474
 20
0.1274369472962604
 10
0.1101210493445706
 20
0.1060349154709286
 42
-1.2560847254978
 10
0.1011815587773981
 20
0.1148587690598077
 42
0.6062707494691479
 10
0.0946210493432887
 20
0.1274369472962604
 10
0.0911904558245169
 20
0.1274369472962604
 10
0.0541210493454401
 20
0.1060349154709286
 42
-1.2560847254978
 10
0.045181558778296
 20
0.1148587690598077
 42
0.6062707494691475
 10
0.0386210493441581
 20
0.1274369472962604
 10
0.0093340493661458
 20
0.1274369472962604
 42
0.414213562373095
 10
0.0013340493661644
 20
0.1194369472962649
 10
0.0013340493661644
 20
-0.0237070527038412
 42
0.4142135623730951
 10
0.0093340493661458
 20
-0.0317070527038368
 10
0.0386210493441581
 20
-0.0317070527038368
 42
0.4142135623730994
 10
0.0466210493441679
 20
-0.0237070527038412
 10
0.0466210493441679
 20
-0.0146351477376214
 42
-0.5773502702810374
 10
0.0541210493582298
 20
-0.0103050207269604
 10
0.0911904558471406
 20
-0.0317070527038368
 10
0.0946210493432887
 20
-0.0317070527038368
 42
0.414213562373095
 10
0.10262104934327
 20
-0.0237070527038412
 10
0.10262104934327
 20
-0.0146351477376214
 42
-0.5773502702810398
 10
0.1101210493573603
 20
-0.0103050207269604
 10
0.1471904558462427
 20
-0.0317070527038368
 10
0.1506210493661513
 20
-0.0317070527038368
 42
0.4142135623730901
 10
0.1586210493661611
 20
-0.0237070527038412
 10
0.1586210493661611
 20
-0.0146351477376214
 42
-0.5773502702809733
 10
0.166121049380223
 20
-0.0103050207269604
 10
0.1938340494332635
 20
-0.0263051288886089
 42
-0.2679491915538381
 10
0.2013340493661531
 20
-0.0392955098782437
 10
0.2013340493661531
 20
-0.0667070527038476
 42
-0.4142135623730951
 10
0.1863340493661667
 20
-0.0817070527038482
 10
0.0093340493661458
 20
-0.0817070527038482
 42
0.4142135623730943
 10
0.0013340493661644
 20
-0.0897070527038437
 10
0.0013340493661644
 20
-0.3064768032503764
 42
0.4877325885480869
 10
0.0112694245304965
 20
-0.3142391690606985
 10
1.251796796033005
 20
-0.00494095712736
 42
-0.4877325885480854
 10
1.270425624466156
 20
-0.0194953930216997
 10
1.270425624466156
 20
-0.0401076655989243
 42
-0.3443276133057012
 10
1.259054452899306
 20
-0.0546621014932782
 10
1.057140249301767
 20
-0.1050049666096129
 42
0.3443276133057203
 10
1.051075624466108
 20
-0.112767332419935
 10
1.051075624466108
 20
-0.1875837533135041
 42
0.3360829017402723
 10
1.056911690039896
 20
-0.195285531536669
 42
-0.5604894340147184
 10
1.109755681251755
 20
-0.3824545259220571
 42
-1.0
 10
1.073053901959809
 20
-0.3484989756127845
 42
2.287506271601722
 10
0.9790973469724235
 20
-0.3484989756127845
 42
-1.0
 10
0.942395567680478
 20
-0.3824545259220571
 42
-0.560489434014733
 10
0.9952395588923366
 20
-0.195285531536669
 42
0.3360829017402838
 10
1.001075624466125
 20
-0.1875837533135041
 10
1.001075624466125
 20
-0.1292229806035579
 42
0.4877325885480698
 10
0.9911402493017646
 20
-0.1214606147932358
 10
0.7967902493018073
 20
-0.1699175121339351
 42
0.3443276133057264
 10
0.7907256244661767
 20
-0.1776798779442572
 10
0.7907256244661767
 20
-0.2190295929318751
 42
-0.4142135623730951
 10
0.7757256244661619
 20
-0.2340295929318756
 10
0.7557256244755309
 20
-0.2340295929318756
 42
-0.4142135623730886
 10
0.7407256244755161
 20
-0.2190295929318751
 10
0.7407256244755445
 20
-0.1941355261255495
 42
0.4877325885480864
 10
0.730790249311184
 20
-0.1863731603152274
 10
-1.173505412898293
 20
-0.6611673944806711
 42
0.3443276133057243
 10
-1.179570037733952
 20
-0.6689297602909932
 10
-1.179570037733952
 20
-2.140571062410259
 42
0.4142135623730871
 10
-1.171570037733943
 20
-2.148571062410255
 10
-1.084570037733783
 20
-2.148571062410255
 42
-0.8521990761368957
 10
-1.049267389964143
 20
-2.368363893114334
 42
0.3237161634097398
 10
-1.059570037734204
 20
-2.382609414586781
 10
-1.059570037734204
 20
-2.46357106241021
 42
-0.4142135623730823
 10
-1.074570037734304
 20
-2.47857106241031
 10
-1.094570037734342
 20
-2.47857106241031
 42
-0.4142135623731038
 10
-1.109570037734243
 20
-2.463571062410409
 10
-1.109570037734215
 20
-2.349034127833007
 42
-0.4142135623742291
 10
-1.08457003773401
 20
-2.324034127832888
 42
1.0
 10
-1.084570037733897
 20
-2.198571062410252
 10
-1.116570037733936
 20
-2.198571062410252
 42
0.4142135623731033
 10
-1.179570037733952
 20
-2.261571062410254
 10
-1.179570037733952
 20
-2.608571062410312
 42
-0.4142135623730951
 10
-1.194570037733939
 20
-2.623571062410313
 10
-1.21457003773429
 20
-2.623571062410313
 42
-0.4142135623730863
 10
-1.229570037734276
 20
-2.608571062410312
 10
-1.229570037734276
 20
-0.6353344783587716
 42
-0.3443276133057262
 10
-1.218198866167455
 20
-0.6207800424644319
  0
POINT
  5
EBA
330
EB5
100
AcDbEntity
  8
Points
100
AcDbPoint
 10
0.0
 20
0.0
 30
0.0
  0
INSERT
  5
EBB
330
EB5
100
AcDbEntity
  8
0
100
AcDbBlockReference
  2
EDET Sill Nose Extension 50H8
 10
-1.084570037733925
 20
-2.261302595121577
 30
0.0
  0
ENDBLK
  5
EBC
330
EB5
100
AcDbEntity
  8
0
100
AcDbBlockEnd
  0
BLOCK
  5
EBE
330
EBD
100
AcDbEntity
  8
0
100
AcDbBlockBegin
  2
EDET Sill Nose 3 1-2in Flat 50MD
 70
     0
 10
0.0
 20
0.0
 30
0.0
  3
EDET Sill Nose 3 1-2in Flat 50MD
  1

  0
LWPOLYLINE
  5
EBF
330
EBD
100
AcDbEntity
  8
Clad
100
AcDbPolyline
 90
      140
 70
     1
 43
0.0
 10
0.0019417909687434
 20
-0.3970193131447459
 42
-0.3443276133057271
 10
0.008006415804374
 20
-0.3892569473344238
 10
0.7104083501173762
 20
-0.2141284759018305
 42
-0.4877325885480797
 10
0.7203437252817082
 20
-0.2218908417121526
 10
0.7203437252817082
 20
-0.2405346235060648
 42
0.4142135623730907
 10
0.735343725281723
 20
-0.2555346235060654
 10
0.7553437252723541
 20
-0.2555346235060654
 42
0.4142135623730951
 10
0.7703437252723404
 20
-0.2405346235060648
 10
0.7703437252723404
 20
-0.2054351935308674
 42
-0.3443276133057314
 10
0.7764083501079995
 20
-0.1976728277205453
 10
0.9737583501080564
 20
-0.1484679463714684
 42
-0.4877325885480759
 10
0.9836937252723885
 20
-0.1562303121817905
 10
0.9836937252723885
 20
-0.197733145927792
 42
-0.3291800814362566
 10
0.9780484418044466
 20
-0.2053787531668405
 42
0.5382386032987709
 10
0.9197152922838256
 20
-0.4048579718290739
 42
1.0
 10
0.9670137987110649
 20
-0.3647723831056169
 42
-2.158326376564809
 10
1.062373651833752
 20
-0.3647723831056169
 42
1.0
 10
1.109672158260991
 20
-0.4048579718290739
 42
0.5382386032987664
 10
1.05133900874037
 20
-0.2053787531668405
 42
-0.3291800814362604
 10
1.0456937252724
 20
-0.197733145927792
 10
1.0456937252724
 20
-0.1367827279647855
 42
-0.3443276133057245
 10
1.051758350108059
 20
-0.1290203621544634
 10
1.247672553705598
 20
-0.0801734650548269
 42
0.344327613305723
 10
1.259043725272448
 20
-0.065619029160473
 10
1.259043725272448
 20
-0.0326393669775342
 42
0.4877325885480909
 10
1.240414896839297
 20
-0.0180849310831874
 10
0.0207741613409382
 20
-0.3221755197767777
 42
-0.5036375889186516
 10
0.0108492170416241
 20
-0.3140047607275704
 42
0.1409363266154315
 10
0.0019417909687434
 20
-0.275782582948338
 10
0.0019417909687434
 20
-0.1017070563340354
 42
-0.4142135623730951
 10
0.0099417909687247
 20
-0.0937070563340399
 10
0.2319417909687615
 20
-0.0937070563340399
 42
0.4142135623730962
 10
0.2469417909687763
 20
-0.0787070563340393
 10
0.2469417909687763
 20
-0.0392955136021556
 42
0.2679491924311196
 10
0.2394417909687831
 20
-0.0263051325453958
 10
0.2117289780474039
 20
-0.0103051325452341
 42
1.256077890697554
 10
0.2027895130684953
 20
-0.0191289147638045
 42
-0.6062688386692515
 10
0.1962289780474009
 20
-0.0317070563340352
 10
0.1927981974293118
 20
-0.0317070563340352
 10
0.1557289780473923
 20
-0.0103051325452341
 42
1.256077890697558
 10
0.1467895130685122
 20
-0.0191289147638045
 42
-0.6062688386692515
 10
0.1402289780474177
 20
-0.0317070563340352
 10
0.1367981974293286
 20
-0.0317070563340352
 10
0.0997289780474091
 20
-0.0103051325452341
 42
1.256077890697582
 10
0.0907895130685006
 20
-0.0191289147638045
 42
-0.606268838669253
 10
0.0842289780474062
 20
-0.0317070563340352
 10
0.0099417909687816
 20
-0.0317070563340352
 42
-0.4142135623730958
 10
0.0019417909688002
 20
-0.0237070563340325
 10
0.0019417909688002
 20
0.1194365372054023
 42
-0.4142135623730987
 10
0.0099417909687816
 20
0.1274365372054049
 10
0.0842289780474062
 20
0.1274365372054049
 42
-0.4142135623730915
 10
0.0922289780474159
 20
0.1194365372054023
 10
0.0922289780474159
 20
0.1103647404355286
 42
0.5773502691896165
 10
0.0997289780474091
 20
0.106034613416611
 10
0.1367981974293286
 20
0.127436537205412
 10
0.1402289780474177
 20
0.1274365372054049
 42
-0.4142135623730858
 10
0.1482289780473991
 20
0.1194365372054094
 10
0.1482289780473991
 20
0.1103647404355286
 42
0.577350269189623
 10
0.1557289780473923
 20
0.106034613416611
 10
0.1927981974293118
 20
0.1274365372054049
 10
0.1962289780474009
 20
0.1274365372054049
 42
-0.4142135623730858
 10
0.2042289780474107
 20
0.1194365372054023
 10
0.2042289780474107
 20
0.1103647404355286
 42
0.5773502691896175
 10
0.2117289780474039
 20
0.106034613416611
 10
0.2394417909687831
 20
0.1220346134167656
 42
0.2679491924311286
 10
0.2469417909687763
 20
0.1350249944735324
 10
0.2469417909687763
 20
0.174436537205402
 42
0.4142135623730962
 10
0.2319417909687615
 20
0.1894365372054025
 10
0.0099417909687816
 20
0.1894365372054025
 42
-0.4142135623730964
 10
0.0019417909688002
 20
0.1974365372054052
 10
0.0019417909688002
 20
0.4742929436659651
 42
-0.4142135623730726
 10
0.0099417909687816
 20
0.4822929436659607
 10
0.0329417909687777
 20
0.4822929436659678
 42
0.4142135623730719
 10
0.0479417909687925
 20
0.4972929436659684
 10
0.0479417909687925
 20
0.5292929436659648
 42
0.4142135623730918
 10
0.0329417909687777
 20
0.5442929436659654
 10
-0.0450582090312253
 20
0.5442929436659654
 42
0.4142135623730974
 10
-0.0600582090312116
 20
0.5292929436659648
 10
-0.0600582090312116
 20
-0.2668946409221036
 42
0.3199512864824952
 10
-0.0499495133790617
 20
-0.2810747375993827
 42
-0.7128791772183333
 10
-0.0499495133790617
 20
-0.3396858038654642
 42
0.319951286482484
 10
-0.0600582090312116
 20
-0.3538659005427434
 10
-0.0600582090312116
 20
-2.940707056334034
 42
0.4142135623730875
 10
-0.0450582090312253
 20
-2.955707056334034
 10
1.272941790956963
 20
-2.955707056334034
 42
0.4142135623730995
 10
1.287941790956978
 20
-2.940707056334034
 10
1.287941790956978
 20
-2.902367310371872
 42
0.2679491924311384
 10
1.280441790956984
 20
-2.889376929315105
 10
1.252728978035833
 20
-2.873376929315078
 42
1.190276289358099
 10
1.244042244569442
 20
-2.881514276928704
 42
-0.586740518580012
 10
1.23722897803583
 20
-2.893707056334037
 10
1.231941790956994
 20
-2.893707056334037
 10
1.196728978035821
 20
-2.873376929315078
 42
1.190276289358099
 10
1.188042244569459
 20
-2.881514276928704
 42
-0.586740518580012
 10
1.181228978035818
 20
-2.893707056334037
 10
1.175941790956983
 20
-2.893707056334037
 10
1.140728978035809
 20
-2.873376929315078
 42
1.190276289358102
 10
1.132042244569447
 20
-2.881514276928704
 42
-0.586740518580036
 10
1.125228978035806
 20
-2.893707056334037
 10
0.9959417909687715
 20
-2.893707056334037
 42
-0.4142135623730951
 10
0.9879417909687902
 20
-2.885707056334034
 10
0.9879417909687902
 20
-2.826225858487525
 42
-0.2679491924311195
 10
0.9919417909687808
 20
-2.819297655257244
 10
1.121228978047753
 20
-2.744653662994437
 42
-0.5773502691896339
 10
1.133228978035816
 20
-2.751581866217833
 10
1.133228978035816
 20
-2.752707056308501
 42
0.5773502691897641
 10
1.140728978035809
 20
-2.757037183327426
 10
1.177798197373221
 20
-2.735635259564311
 10
1.181228978035818
 20
-2.735635259564311
 42
-0.4142135623730951
 10
1.189228978035828
 20
-2.743635259564314
 10
1.189228978035828
 20
-2.752707056308501
 42
0.5773502691896618
 10
1.196728978035821
 20
-2.757037183327426
 10
1.233798197373232
 20
-2.735635259564311
 10
1.23722897803583
 20
-2.735635259564311
 42
-0.4142135623730951
 10
1.245228978035839
 20
-2.743635259564314
 10
1.245228978035839
 20
-2.752707056308501
 42
0.577350269189668
 10
1.252728978035833
 20
-2.757037183327426
 10
1.280441790956984
 20
-2.741037183327392
 42
0.2679491924310841
 10
1.287941790956978
 20
-2.728046802270625
 10
1.287941790956978
 20
-2.688635259564307
 42
0.4142135623730951
 10
1.272941790956963
 20
-2.673635259564306
 10
1.128274936834031
 20
-2.673635259564306
 42
0.1316524975873946
 10
1.113274936834017
 20
-2.677654497450774
 10
0.9409417909686794
 20
-2.777151085606433
 42
0.2679491924311263
 10
0.9259417909686646
 20
-2.803131847719967
 10
0.9259417909686646
 20
-2.885707056334034
 42
-0.4142135623730951
 10
0.9179417909686833
 20
-2.893707056334037
 10
0.6809417909687454
 20
-2.893707056334037
 10
0.6709417909686693
 20
-2.903707056334106
 10
0.6609417909686215
 20
-2.893707056334037
 10
0.4239417909686268
 20
-2.893707056334037
 42
-0.4142135623730951
 10
0.415941790968617
 20
-2.885707056334034
 10
0.415941790968617
 20
-2.848707056334035
 42
0.4142135623730516
 10
0.4009417909686306
 20
-2.833707056334034
 10
0.3689417909686483
 20
-2.833707056334034
 42
0.4142135623731353
 10
0.3539417909686335
 20
-2.848707056334035
 10
0.3539417909686335
 20
-2.885707056334034
 42
-0.4142135623730951
 10
0.3459417909686238
 20
-2.893707056334037
 10
0.0099417909687247
 20
-2.893707056334037
 42
-0.4142135623730951
 10
0.0019417909687434
 20
-2.885707056334034
  0
POINT
  5
EC0
330
EBD
100
AcDbEntity
  8
Points
100
AcDbPoint
 10
0.0
 20
0.0
 30
0.0
  0
ENDBLK
  5
EC1
330
EBD
100
AcDbEntity
  8
0
100
AcDbBlockEnd
  0
ENDSEC
  0
SECTION
  2
ENTITIES
  0
MTEXT
  5
DA
330
6C
100
AcDbEntity
  8
TXT
100
AcDbMText
 10
1.999999999999985
 20
0.7499999999999929
 30
0.0
 40
0.28
 41
0.0
 71
     1
 72
     5
  1
\A1;1/2" Nose
 73
     1
 44
1.0
1001
ACAD
1000
MTEXTBEGIN
1070
    73
1070
     1
1070
    44
1040
1.0
1070
    74
1070
     0
1000
MTEXTEND
  0
MTEXT
  5
DB
330
6C
100
AcDbEntity
  8
TXT
100
AcDbMText
 10
7.499999999999985
 20
0.7499999999999929
 30
0.0
 40
0.28
 41
0.0
 71
     1
 72
     5
  1
\A1;1" Nose\Pw/ Nose Extension
 73
     1
 44
1.0
1001
ACAD
1000
MTEXTBEGIN
1070
    73
1070
     1
1070
    44
1040
1.0
1070
    74
1070
     0
1000
MTEXTEND
  0
MTEXT
  5
DC
330
6C
100
AcDbEntity
  8
TXT
100
AcDbMText
 10
13.24999999999999
 20
0.7499999999999929
 30
0.0
 40
0.28
 41
0.0
 71
     1
 72
     5
  1
\A1;2"  Nose\Pw/ Nose Extension
 73
     1
 44
1.0
1001
ACAD
1000
MTEXTBEGIN
1070
    73
1070
     1
1070
    44
1040
1.0
1070
    74
1070
     0
1000
MTEXTEND
  0
MTEXT
  5
DD
330
6C
100
AcDbEntity
  8
TXT
100
AcDbMText
 10
19.49999999999998
 20
0.7499999999999929
 30
0.0
 40
0.28
 41
0.0
 71
     1
 72
     5
  1
\A1;3 1/2" Flat Casing
 73
     1
 44
1.0
1001
ACAD
1000
MTEXTBEGIN
1070
    73
1070
     1
1070
    44
1040
1.0
1070
    74
1070
     0
1000
MTEXTEND
  0
POINT
  5
DE
330
6C
100
AcDbEntity
  8
Points
100
AcDbPoint
 10
14.24999999999998
 20
8.499999999999992
 30
0.0
  0
POINT
  5
DF
330
6C
100
AcDbEntity
  8
Points
100
AcDbPoint
 10
19.62449999999998
 20
8.499999999999992
 30
0.0
  0
POINT
  5
E0
330
6C
100
AcDbEntity
  8
Points
100
AcDbPoint
 10
8.249999999999985
 20
14.99999999999998
 30
0.0
  0
MTEXT
  5
E1
330
6C
100
AcDbEntity
  8
TXT
100
AcDbMText
 10
1.999999999999992
 20
14.25
 30
0.0
 40
0.28
 41
0.0
 71
     1
 72
     5
  1
Brickmould
 73
     1
 44
1.0
1001
ACAD
1000
MTEXTBEGIN
1070
    73
1070
     1
1070
    44
1040
1.0
1070
    74
1070
     0
1000
MTEXTEND
  0
MTEXT
  5
E2
330
6C
100
AcDbEntity
  8
TXT
100
AcDbMText
 10
1.499999999999992
 20
7.749999999999996
 30
0.0
 40
0.28
 41
0.0
 71
     1
 72
     5
  1
3 1/2" Brickmould
 73
     1
 44
1.0
1001
ACAD
1000
MTEXTBEGIN
1070
    73
1070
     1
1070
    44
1040
1.0
1070
    74
1070
     0
1000
MTEXTEND
  0
MTEXT
  5
E3
330
6C
100
AcDbEntity
  8
TXT
100
AcDbMText
 10
7.749999999999992
 20
14.25
 30
0.0
 40
0.28
 41
0.0
 71
     1
 72
     5
  1
Monroe
 73
     1
 44
1.0
1001
ACAD
1000
MTEXTBEGIN
1070
    73
1070
     1
1070
    44
1040
1.0
1070
    74
1070
     0
1000
MTEXTEND
  0
MTEXT
  5
E4
330
6C
100
AcDbEntity
  8
TXT
100
AcDbMText
 10
13.24999999999998
 20
20.74999999999998
 30
0.0
 40
0.28
 41
0.0
 71
     1
 72
     5
  1
Jefferson
 73
     1
 44
1.0
1001
ACAD
1000
MTEXTBEGIN
1070
    73
1070
     1
1070
    44
1040
1.0
1070
    74
1070
     0
1000
MTEXTEND
  0
MTEXT
  5
E5
330
6C
100
AcDbEntity
  8
TXT
100
AcDbMText
 10
19.49999999999998
 20
7.749999999999996
 30
0.0
 40
0.28
 41
0.0
 71
     1
 72
     5
  1
3 1/2" Flat Casing 
 73
     1
 44
1.0
1001
ACAD
1000
MTEXTBEGIN
1070
    73
1070
     1
1070
    44
1040
1.0
1070
    74
1070
     0
1000
MTEXTEND
  0
MTEXT
  5
E6
330
6C
100
AcDbEntity
  8
TXT
100
AcDbMText
 10
19.49999999999998
 20
20.74999999999998
 30
0.0
 40
0.28
 41
0.0
 71
     1
 72
     5
  1
3 1/2" Flat Casing
 73
     1
 44
1.0
1001
ACAD
1000
MTEXTBEGIN
1070
    73
1070
     1
1070
    44
1040
1.0
1070
    74
1070
     0
1000
MTEXTEND
  0
MTEXT
  5
E7
330
6C
100
AcDbEntity
  8
TXT
100
AcDbMText
 10
1.999999999999985
 20
20.74999999999998
 30
0.0
 40
0.28
 41
0.0
 71
     1
 72
     5
  1
Standard
 73
     1
 44
1.0
1001
ACAD
1000
MTEXTBEGIN
1070
    73
1070
     1
1070
    44
1040
1.0
1070
    74
1070
     0
1000
MTEXTEND
  0
MTEXT
  5
E8
330
6C
100
AcDbEntity
  8
TXT
100
AcDbMText
 10
13.24999999999999
 20
7.749999999999996
 30
0.0
 40
0.28
 41
0.0
 71
     1
 72
     5
  1
Jefferson
 73
     1
 44
1.0
1001
ACAD
1000
MTEXTBEGIN
1070
    73
1070
     1
1070
    44
1040
1.0
1070
    74
1070
     0
1000
MTEXTEND
  0
MTEXT
  5
E9
330
6C
100
AcDbEntity
  8
TXT
100
AcDbMText
 10
7.749999999999985
 20
20.74999999999998
 30
0.0
 40
0.28
 41
0.0
 71
     1
 72
     5
  1
Monroe
 73
     1
 44
1.0
1001
ACAD
1000
MTEXTBEGIN
1070
    73
1070
     1
1070
    44
1040
1.0
1070
    74
1070
     0
1000
MTEXTEND
  0
MTEXT
  5
EA
330
6C
100
AcDbEntity
  8
TXT
100
AcDbMText
 10
0.9999999999999857
 20
23.99999999999999
 30
0.0
 40
0.28
 41
0.0
 71
     1
 72
     5
  1
HEAD DRIP CAP
 73
     1
 44
1.0
1001
ACAD
1000
MTEXTBEGIN
1070
    73
1070
     1
1070
    44
1040
1.0
1070
    74
1070
     0
1000
MTEXTEND
  0
MTEXT
  5
EB
330
6C
100
AcDbEntity
  8
TXT
100
AcDbMText
 10
0.9999999999999928
 20
18.18749999999999
 30
0.0
 40
0.28
 41
0.0
 71
     1
 72
     5
  1
TRIM PROFILES
 73
     1
 44
1.0
1001
ACAD
1000
MTEXTBEGIN
1070
    73
1070
     1
1070
    44
1040
1.0
1070
    74
1070
     0
1000
MTEXTEND
  0
MTEXT
  5
EC
330
6C
100
AcDbEntity
  8
TXT
100
AcDbMText
 10
0.9374999999999928
 20
5.499999999999996
 30
0.0
 40
0.28
 41
0.0
 71
     1
 72
     5
  1
SILL NOSE
 73
     1
 44
1.0
1001
ACAD
1000
MTEXTBEGIN
1070
    73
1070
     1
1070
    44
1040
1.0
1070
    74
1070
     0
1000
MTEXTEND
  0
DIMENSION
  5
ED
330
6C
100
AcDbEntity
  8
Dim
100
AcDbDimension
  2
*D10
 10
3.741249999999986
 20
22.99999999999999
 30
0.0
 11
2.904504332784703
 21
22.99999999999999
 31
0.0
 70
    32
 71
     5
 42
1.673491334430565
  3
12 inch Scale
100
AcDbAlignedDimension
 13
2.067758665569421
 23
21.70312499999999
 33
0.0
 14
3.741249999999986
 24
22.43312499999998
 34
0.0
100
AcDbRotatedDimension
1001
ACAD
1000
DSTYLE
1002
{
1070
   144
1040
1.0
1070
    40
1040
1.0
1002
}
  0
DIMENSION
  5
FD
330
6C
100
AcDbEntity
  8
Dim
100
AcDbDimension
  2
*D11
 10
1.249999999999992
 20
21.74999999999999
 30
0.0
 11
1.249999999999992
 21
20.81249999999999
 31
0.0
 70
   160
 71
     5
 42
0.25
  3
12 inch Scale
100
AcDbAlignedDimension
 13
1.999999999999992
 23
21.49999999999999
 33
0.0
 14
1.999999999999992
 24
21.74999999999999
 34
0.0
 50
90.0
100
AcDbRotatedDimension
1001
ACAD
1000
DSTYLE
1002
{
1070
   144
1040
1.0
1070
    40
1040
1.0
1002
}
  0
DIMENSION
  5
10B
102
{ACAD_XDICTIONARY
360
10C
102
}
330
6C
100
AcDbEntity
  8
Dim
100
AcDbDimension
  2
*D12
 10
1.249999999999992
 20
22.45312499999999
 30
0.0
 11
0.7851594474761149
 21
22.10156249999999
 31
0.0
 70
    32
 71
     5
 42
0.703125
  3
12 inch Scale
100
AcDbAlignedDimension
 13
1.999999999999992
 23
21.74999999999999
 33
0.0
 14
3.721250000000004
 24
22.45312499999999
 34
0.0
 50
90.0
100
AcDbRotatedDimension
1001
ACAD
1000
DSTYLE
1002
{
1070
   144
1040
1.0
1070
    40
1040
1.0
1002
}
  0
DIMENSION
  5
11C
330
6C
100
AcDbEntity
  8
Dim
100
AcDbDimension
  2
*D13
 10
9.741249999999993
 20
22.9955537613487
 30
0.0
 11
8.754004264805423
 21
22.9955537613487
 31
0.0
 70
    32
 71
     5
 42
1.974491470389139
  3
12 inch Scale
100
AcDbAlignedDimension
 13
7.766758529610854
 23
21.69516942799547
 33
0.0
 14
9.741249999999993
 24
22.4532079037684
 34
0.0
100
AcDbRotatedDimension
1001
ACAD
1000
DSTYLE
1002
{
1070
   144
1040
1.0
1070
    40
1040
1.0
1002
}
  0
DIMENSION
  5
12A
330
6C
100
AcDbEntity
  8
Dim
100
AcDbDimension
  2
*D14
 10
6.749999999999992
 20
21.75320790376841
 30
0.0
 11
6.749999999999992
 21
20.74999999999999
 31
0.0
 70
   160
 71
     5
 42
0.3256255518229487
  3
12 inch Scale
100
AcDbAlignedDimension
 13
7.545249999999995
 23
21.42758235194546
 33
0.0
 14
7.749999999999992
 24
21.75320790376841
 34
0.0
 50
90.0
100
AcDbRotatedDimension
1001
ACAD
1000
DSTYLE
1002
{
1070
   144
1040
1.0
1070
    40
1040
1.0
1002
}
  0
DIMENSION
  5
138
102
{ACAD_XDICTIONARY
360
139
102
}
330
6C
100
AcDbEntity
  8
Dim
100
AcDbDimension
  2
*D15
 10
6.749999999999992
 20
22.45320790376841
 30
0.0
 11
6.285159447476114
 21
22.10320790376841
 31
0.0
 70
    32
 71
     5
 42
0.6999999999999993
  3
12 inch Scale
100
AcDbAlignedDimension
 13
7.749999999999992
 23
21.75320790376841
 33
0.0
 14
9.691249999999996
 24
22.4532079037684
 34
0.0
 50
90.0
100
AcDbRotatedDimension
1001
ACAD
1000
DSTYLE
1002
{
1070
   144
1040
1.0
1070
    40
1040
1.0
1002
}
  0
DIMENSION
  5
149
330
6C
100
AcDbEntity
  8
Dim
100
AcDbDimension
  2
*D16
 10
15.49124634195193
 20
23.02408290376857
 30
0.0
 11
14.34577694935364
 21
23.02408290376857
 31
0.0
 70
    32
 71
     5
 42
2.29093878519658
  3
12 inch Scale
100
AcDbAlignedDimension
 13
13.20030755675535
 23
21.72369857041534
 33
0.0
 14
15.49124634195193
 24
22.47720790376856
 34
0.0
100
AcDbRotatedDimension
1001
ACAD
1000
DSTYLE
1002
{
1070
   144
1040
1.0
1070
    40
1040
1.0
1002
}
  0
DIMENSION
  5
157
330
6C
100
AcDbEntity
  8
Dim
100
AcDbDimension
  2
*D17
 10
12.24999999999999
 20
21.77408290376856
 30
0.0
 11
12.24999999999999
 21
20.56249999999999
 31
0.0
 70
   160
 71
     5
 42
0.3957221399699406
  3
12 inch Scale
100
AcDbAlignedDimension
 13
13.07624634195192
 23
21.37836076379862
 33
0.0
 14
13.13254889118593
 24
21.77408290376856
 34
0.0
 50
90.0
100
AcDbRotatedDimension
1001
ACAD
1000
DSTYLE
1002
{
1070
   144
1040
1.0
1070
    40
1040
1.0
1002
}
  0
DIMENSION
  5
165
102
{ACAD_XDICTIONARY
360
166
102
}
330
6C
100
AcDbEntity
  8
Dim
100
AcDbDimension
  2
*D18
 10
12.24999999999998
 20
22.47720790376856
 30
0.0
 11
11.7851594474761
 21
22.12564540376857
 31
0.0
 70
    32
 71
     5
 42
0.703125
  3
12 inch Scale
100
AcDbAlignedDimension
 13
13.13254889118592
 23
21.77408290376856
 33
0.0
 14
15.44124634195192
 24
22.47720790376856
 34
0.0
 50
90.0
100
AcDbRotatedDimension
1001
ACAD
1000
DSTYLE
1002
{
1070
   144
1040
1.0
1070
    40
1040
1.0
1002
}
  0
DIMENSION
  5
176
330
6C
100
AcDbEntity
  8
Dim
100
AcDbDimension
  2
*D19
 10
20.78999999999998
 20
23.02407373879199
 30
0.0
 11
20.08198719535727
 21
23.02407373879199
 31
0.0
 70
    32
 71
     5
 42
1.416025609285412
  3
12 inch Scale
100
AcDbAlignedDimension
 13
19.37397439071456
 23
21.72368940543877
 33
0.0
 14
20.78999999999998
 24
22.45719873879201
 34
0.0
100
AcDbRotatedDimension
1001
ACAD
1000
DSTYLE
1002
{
1070
   144
1040
1.0
1070
    40
1040
1.0
1002
}
  0
DIMENSION
  5
184
330
6C
100
AcDbEntity
  8
Dim
100
AcDbDimension
  2
*D20
 10
18.49999999999998
 20
21.77719873879203
 30
0.0
 11
18.49999999999998
 21
20.56249999999999
 31
0.0
 70
   160
 71
     5
 42
0.3983547360934416
  3
12 inch Scale
100
AcDbAlignedDimension
 13
19.24999999999998
 23
21.37884400269859
 33
0.0
 14
19.29875028954808
 24
21.77719873879203
 34
0.0
 50
90.0
100
AcDbRotatedDimension
1001
ACAD
1000
DSTYLE
1002
{
1070
   144
1040
1.0
1070
    40
1040
1.0
1002
}
  0
DIMENSION
  5
192
102
{ACAD_XDICTIONARY
360
193
102
}
330
6C
100
AcDbEntity
  8
Dim
100
AcDbDimension
  2
*D21
 10
18.49999999999998
 20
22.47719873879203
 30
0.0
 11
18.0351594474761
 21
22.12719873879203
 31
0.0
 70
    32
 71
     5
 42
0.6999999999999993
  3
12 inch Scale
100
AcDbAlignedDimension
 13
19.29875028954808
 23
21.77719873879203
 33
0.0
 14
20.73999999999998
 24
22.47719873879203
 34
0.0
 50
90.0
100
AcDbRotatedDimension
1001
ACAD
1000
DSTYLE
1002
{
1070
   144
1040
1.0
1070
    40
1040
1.0
1002
}
  0
DIMENSION
  5
1A3
330
6C
100
AcDbEntity
  8
Dim
100
AcDbDimension
  2
*D22
 10
3.741310386795348
 20
17.00229711043957
 30
0.0
 11
2.958310386795346
 21
17.00229711043957
 31
0.0
 70
    32
 71
     5
 42
1.566000000000002
  3
12 inch Scale
100
AcDbAlignedDimension
 13
2.175310386795345
 23
16.161875
 33
0.0
 14
3.741310386795348
 24
16.161875
 34
0.0
100
AcDbRotatedDimension
1001
ACAD
1000
DSTYLE
1002
{
1070
   144
1040
1.0
1070
    40
1040
1.0
1002
}
  0
DIMENSION
  5
1B1
330
6C
100
AcDbEntity
  8
Dim
100
AcDbDimension
  2
*D23
 10
1.001555916692218
 20
16.176875
 30
0.0
 11
1.001555916692218
 21
15.441875
 31
0.0
 70
   160
 71
     5
 42
1.469999999999998
  3
12 inch Scale
100
AcDbAlignedDimension
 13
2.408310386795342
 23
14.706875
 33
0.0
 14
2.190310386795353
 24
16.176875
 34
0.0
 50
90.0
100
AcDbRotatedDimension
1001
ACAD
1000
DSTYLE
1002
{
1070
   144
1040
1.0
1070
    40
1040
1.0
1070
   279
1070
     1
1002
}
  0
DIMENSION
  5
1BE
330
6C
100
AcDbEntity
  8
Dim
100
AcDbDimension
  2
*D24
 10
9.20333651066835
 20
17.00008290376841
 30
0.0
 11
8.420459275616785
 21
17.00008290376841
 31
0.0
 70
    32
 71
     5
 42
1.565754470103129
  3
12 inch Scale
100
AcDbAlignedDimension
 13
7.63758204056522
 23
16.1569579037684
 33
0.0
 14
9.20333651066835
 24
16.15966079332884
 34
0.0
100
AcDbRotatedDimension
1001
ACAD
1000
DSTYLE
1002
{
1070
   144
1040
1.0
1070
    40
1040
1.0
1002
}
  0
DIMENSION
  5
1CC
330
6C
100
AcDbEntity
  8
Dim
100
AcDbDimension
  2
*D25
 10
6.504738634139869
 20
16.1719579037684
 30
0.0
 11
6.504738634139866
 21
15.43695790376841
 31
0.0
 70
    32
 71
     5
 42
1.469999999999993
  3
12 inch Scale
100
AcDbAlignedDimension
 13
7.870582040565224
 23
14.70195790376841
 33
0.0
 14
7.652582040565221
 24
16.1719579037684
 34
0.0
 50
90.0
100
AcDbRotatedDimension
1001
ACAD
1000
DSTYLE
1002
{
1070
   144
1040
1.0
1070
    40
1040
1.0
1002
}
  0
DIMENSION
  5
1DA
330
6C
100
AcDbEntity
  8
Dim
100
AcDbDimension
  2
*D26
 10
15.49169335672646
 20
12.5
 30
0.0
 11
14.37269335672742
 21
12.5
 31
0.0
 70
   160
 71
     5
 42
2.237999999998066
  3
12 inch Scale
100
AcDbAlignedDimension
 13
13.25369335672839
 23
11.68595790376859
 33
0.0
 14
15.49169335672646
 24
11.68595790376859
 34
0.0
100
AcDbRotatedDimension
1001
ACAD
1000
DSTYLE
1002
{
1070
   144
1040
1.0
1070
    40
1040
1.0
1070
   279
1070
     1
1002
}
  0
DIMENSION
  5
1E7
330
6C
100
AcDbEntity
  8
Dim
100
AcDbDimension
  2
*D27
 10
12.24999999999999
 20
11.70095790376859
 30
0.0
 11
12.24999999999999
 21
9.950957903768621
 31
0.0
 70
   160
 71
     5
 42
3.499999999999936
  3
12 inch Scale
100
AcDbAlignedDimension
 13
14.15831038679534
 23
8.200957903768653
 33
0.0
 14
13.2686933567284
 24
11.70095790376859
 34
0.0
 50
90.0
100
AcDbRotatedDimension
1001
ACAD
1000
DSTYLE
1002
{
1070
   144
1040
1.0
1070
    40
1040
1.0
1070
   279
1070
     1
1002
}
  0
DIMENSION
  5
1F4
330
6C
100
AcDbEntity
  8
Dim
100
AcDbDimension
  2
*D28
 10
3.741310386795348
 20
12.5
 30
0.0
 11
2.958310386795346
 21
12.5
 31
0.0
 70
   160
 71
     5
 42
1.566000000000002
  3
12 inch Scale
100
AcDbAlignedDimension
 13
2.175310386795345
 23
11.68592630891746
 33
0.0
 14
3.741310386795348
 24
11.68592630891746
 34
0.0
100
AcDbRotatedDimension
1001
ACAD
1000
DSTYLE
1002
{
1070
   144
1040
1.0
1070
    40
1040
1.0
1070
   279
1070
     1
1002
}
  0
DIMENSION
  5
201
330
6C
100
AcDbEntity
  8
Dim
100
AcDbDimension
  2
*D29
 10
0.9979931735840921
 20
11.70092630891746
 30
0.0
 11
0.9979931735840921
 21
9.950926308917459
 31
0.0
 70
   160
 71
     5
 42
3.5
  3
12 inch Scale
100
AcDbAlignedDimension
 13
2.408310386795342
 23
8.200926308917459
 33
0.0
 14
2.190310386795353
 24
11.70092630891746
 34
0.0
 50
90.0
100
AcDbRotatedDimension
1001
ACAD
1000
DSTYLE
1002
{
1070
   144
1040
1.0
1070
    40
1040
1.0
1070
   279
1070
     1
1002
}
  0
DIMENSION
  5
20E
330
6C
100
AcDbEntity
  8
Dim
100
AcDbDimension
  2
*D30
 10
20.86581038679534
 20
12.49439258345205
 30
0.0
 11
20.19181038679534
 21
12.49439258345205
 31
0.0
 70
   160
 71
     5
 42
1.348000000000013
  3
12 inch Scale
100
AcDbAlignedDimension
 13
19.51781038679533
 23
11.68595790376864
 33
0.0
 14
20.86581038679534
 24
11.68595790376865
 34
0.0
100
AcDbRotatedDimension
1001
ACAD
1000
DSTYLE
1002
{
1070
   144
1040
1.0
1070
    40
1040
1.0
1070
   279
1070
     1
1002
}
  0
DIMENSION
  5
21B
330
6C
100
AcDbEntity
  8
Dim
100
AcDbDimension
  2
*D31
 10
18.49999999999998
 20
11.70095790376865
 30
0.0
 11
18.49999999999998
 21
9.950957903768653
 31
0.0
 70
   160
 71
     5
 42
3.5
  3
12 inch Scale
100
AcDbAlignedDimension
 13
19.53281038679534
 23
8.200957903768653
 33
0.0
 14
19.53281038679534
 24
11.70095790376865
 34
0.0
 50
90.0
100
AcDbRotatedDimension
1001
ACAD
1000
DSTYLE
1002
{
1070
   144
1040
1.0
1070
    40
1040
1.0
1070
   279
1070
     1
1002
}
  0
DIMENSION
  5
228
330
6C
100
AcDbEntity
  8
Dim
100
AcDbDimension
  2
*D32
 10
2.330898065712219
 20
3.499999999999996
 30
0.0
 11
2.999999999999992
 21
3.499999999999996
 31
0.0
 70
   160
 71
     5
 42
0.3308980657122262
  3
12 inch Scale
100
AcDbAlignedDimension
 13
1.999999999999992
 23
1.98823658395022
 33
0.0
 14
2.330898065712219
 24
2.954080288801497
 34
0.0
100
AcDbRotatedDimension
1001
ACAD
1000
DSTYLE
1002
{
1070
   144
1040
1.0
1070
    40
1040
1.0
1002
}
  0
DIMENSION
  5
236
330
6C
100
AcDbEntity
  8
Dim
100
AcDbDimension
  2
*D33
 10
0.9999999999999928
 20
1.997436943668152
 30
0.0
 11
0.9999999999999928
 21
0.6874999999999983
 31
0.0
 70
   160
 71
     5
 42
0.4974369436681539
  3
12 inch Scale
100
AcDbAlignedDimension
 13
1.999999999999992
 23
1.499999999999998
 33
0.0
 14
2.014999999999993
 24
1.997436943668152
 34
0.0
 50
90.0
100
AcDbRotatedDimension
1001
ACAD
1000
DSTYLE
1002
{
1070
   144
1040
1.0
1070
    40
1040
1.0
1002
}
  0
DIMENSION
  5
244
102
{ACAD_XDICTIONARY
360
245
102
}
330
6C
100
AcDbEntity
  8
Dim
100
AcDbDimension
  2
*D34
 10
0.9999999999999928
 20
2.969080288801496
 30
0.0
 11
0.9999999999999928
 21
2.483258616234826
 31
0.0
 70
   160
 71
     5
 42
0.9716433451333443
  3
12 inch Scale
100
AcDbAlignedDimension
 13
2.014999999999993
 23
1.997436943668152
 33
0.0
 14
2.345898065712212
 24
2.969080288801496
 34
0.0
 50
90.0
100
AcDbRotatedDimension
1001
ACAD
1000
DSTYLE
1002
{
1070
   144
1040
1.0
1070
    40
1040
1.0
1070
   279
1070
     1
1002
}
  0
DIMENSION
  5
254
330
6C
100
AcDbEntity
  8
Dim
100
AcDbDimension
  2
*D35
 10
8.680893728342176
 20
3.999999999999996
 30
0.0
 11
8.090446864171084
 21
4.464936050477485
 31
0.0
 70
    32
 71
     5
 42
1.180893728342184
  3
12 inch Scale
100
AcDbAlignedDimension
 13
7.499999999999992
 23
2.499999999999996
 33
0.0
 14
8.680893728342176
 24
3.665216921824704
 34
0.0
100
AcDbRotatedDimension
1001
ACAD
1000
DSTYLE
1002
{
1070
   144
1040
1.0
1070
    40
1040
1.0
1002
}
  0
DIMENSION
  5
262
330
6C
100
AcDbEntity
  8
Dim
100
AcDbDimension
  2
*D36
 10
6.499999999999992
 20
2.499999999999996
 30
0.0
 11
6.499999999999992
 21
1.999999999999998
 31
0.0
 70
    32
 71
     5
 42
0.9999999999999984
  3
12 inch Scale
100
AcDbAlignedDimension
 13
7.499999999999992
 23
1.499999999999998
 33
0.0
 14
7.499999999999992
 24
2.499999999999996
 34
0.0
 50
90.0
100
AcDbRotatedDimension
1001
ACAD
1000
DSTYLE
1002
{
1070
   144
1040
1.0
1070
    40
1040
1.0
1002
}
  0
DIMENSION
  5
270
102
{ACAD_XDICTIONARY
360
271
102
}
330
6C
100
AcDbEntity
  8
Dim
100
AcDbDimension
  2
*D37
 10
6.499999999999992
 20
3.680216921824709
 30
0.0
 11
6.499999999999992
 21
3.090108460912352
 31
0.0
 70
   160
 71
     5
 42
1.180216921824712
  3
12 inch Scale
100
AcDbAlignedDimension
 13
7.499999999999992
 23
2.499999999999996
 33
0.0
 14
8.695893728342177
 24
3.680216921824708
 34
0.0
 50
90.0
100
AcDbRotatedDimension
1001
ACAD
1000
DSTYLE
1002
{
1070
   144
1040
1.0
1070
    40
1040
1.0
1002
}
  0
DIMENSION
  5
280
330
6C
100
AcDbEntity
  8
Dim
100
AcDbDimension
  2
*D38
 10
14.43089372789676
 20
4.999999999999996
 30
0.0
 11
13.84044686394838
 21
5.464936050477485
 31
0.0
 70
    32
 71
     5
 42
1.180893727896773
  3
12 inch Scale
100
AcDbAlignedDimension
 13
13.24999999999999
 23
3.499999999999996
 33
0.0
 14
14.43089372789676
 24
4.665216921825932
 34
0.0
100
AcDbRotatedDimension
1001
ACAD
1000
DSTYLE
1002
{
1070
   144
1040
1.0
1070
    40
1040
1.0
1002
}
  0
DIMENSION
  5
28E
330
6C
100
AcDbEntity
  8
Dim
100
AcDbDimension
  2
*D39
 10
12.24999999999999
 20
3.499999999999996
 30
0.0
 11
12.24999999999999
 21
2.499999999999999
 31
0.0
 70
    32
 71
     5
 42
1.999999999999998
  3
12 inch Scale
100
AcDbAlignedDimension
 13
13.24999999999999
 23
1.499999999999998
 33
0.0
 14
13.24999999999999
 24
3.499999999999996
 34
0.0
 50
90.0
100
AcDbRotatedDimension
1001
ACAD
1000
DSTYLE
1002
{
1070
   144
1040
1.0
1070
    40
1040
1.0
1002
}
  0
DIMENSION
  5
29C
102
{ACAD_XDICTIONARY
360
29D
102
}
330
6C
100
AcDbEntity
  8
Dim
100
AcDbDimension
  2
*D40
 10
12.24999999999999
 20
4.680216921825933
 30
0.0
 11
12.24999999999999
 21
4.090108460912965
 31
0.0
 70
   160
 71
     5
 42
1.180216921825936
  3
12 inch Scale
100
AcDbAlignedDimension
 13
13.24999999999999
 23
3.499999999999996
 33
0.0
 14
14.44589372789677
 24
4.680216921825932
 34
0.0
 50
90.0
100
AcDbRotatedDimension
1001
ACAD
1000
DSTYLE
1002
{
1070
   144
1040
1.0
1070
    40
1040
1.0
1002
}
  0
DIMENSION
  5
2AC
330
6C
100
AcDbEntity
  8
Dim
100
AcDbDimension
  2
*D41
 10
18.49999999999997
 20
4.145326785601604
 30
0.0
 11
18.49999999999997
 21
2.822663392800801
 31
0.0
 70
    32
 71
     5
 42
2.645326785601611
  3
12 inch Scale
100
AcDbAlignedDimension
 13
19.51499999999997
 23
1.499999999999992
 33
0.0
 14
19.49999999999996
 24
4.145326785601604
 34
0.0
 50
90.0
100
AcDbRotatedDimension
1001
ACAD
1000
DSTYLE
1002
{
1070
   144
1040
1.0
1070
    40
1040
1.0
1002
}
  0
DIMENSION
  5
2BA
102
{ACAD_XDICTIONARY
360
2BB
102
}
330
6C
100
AcDbEntity
  8
Dim
100
AcDbDimension
  2
*D42
 10
18.49999999999997
 20
4.984999999999988
 30
0.0
 11
18.49999999999997
 21
4.565163392800796
 31
0.0
 70
   160
 71
     5
 42
0.8396732143983847
  3
12 inch Scale
100
AcDbAlignedDimension
 13
19.49999999999996
 23
4.145326785601604
 33
0.0
 14
19.49999999999997
 24
4.984999999999988
 34
0.0
 50
90.0
100
AcDbRotatedDimension
1001
ACAD
1000
DSTYLE
1002
{
1070
   144
1040
1.0
1070
    40
1040
1.0
1002
}
  0
INSERT
  5
2C9
330
6C
100
AcDbEntity
  8
0
100
AcDbBlockReference
  2
ECET Drip Cap 50GU
 10
3.726250000000042
 20
21.70312153777118
 30
0.0
  0
INSERT
  5
2D1
330
6C
100
AcDbEntity
  8
0
100
AcDbBlockReference
  2
ECET Drip Cap Monroe 50NN
 10
8.503250000000001
 20
20.53124999999993
 30
0.0
  0
INSERT
  5
2D9
330
6C
100
AcDbEntity
  8
0
100
AcDbBlockReference
  2
ECET Drip Cap Jefferson 50NL
 10
14.24955298522544
 20
18.52624999999995
 30
0.0
  0
INSERT
  5
2E0
330
6C
100
AcDbEntity
  8
0
100
AcDbBlockReference
  2
ECET Drip Cap 3 1-2in Flat 50NM
 10
19.54868961320461
 20
18.52624083502337
 30
0.0
  0
INSERT
  5
2E7
330
6C
100
AcDbEntity
  8
0
100
AcDbBlockReference
  2
ECET Brickmould 3 1-2in 50G9
 10
2.499999999999985
 20
8.499999999999992
 30
0.0
  0
INSERT
  5
2EF
330
6C
100
AcDbEntity
  8
0
100
AcDbBlockReference
  2
ECET Brickmould Jefferson 50GC
 10
14.24999999999998
 20
8.499999999999992
 30
0.0
  0
INSERT
  5
2F7
330
6C
100
AcDbEntity
  8
0
100
AcDbBlockReference
  2
ECET Brickmould 3 1-2in Flat  50GJ
 10
19.62449999999998
 20
8.499999999999992
 30
0.0
  0
INSERT
  5
2FF
330
6C
100
AcDbEntity
  8
0
100
AcDbBlockReference
  2
ECET Brickmould Standard 70F5 Head 70F6 Jamb
 10
2.499999999999985
 20
14.99999999999998
 30
0.0
  0
INSERT
  5
307
330
6C
100
AcDbEntity
  8
0
100
AcDbBlockReference
  2
ECET Brickmould Monroe 50GF
 10
8.499999999999985
 20
14.99999999999998
 30
0.0
  0
INSERT
  5
ED4
330
6C
100
AcDbEntity
  8
0
100
AcDbBlockReference
  2
EDET Sill Nose Half in  50H2
 10
2.382016166518539
 20
2.411643345135487
 30
0.0
  0
INSERT
  5
ED5
330
6C
100
AcDbEntity
  8
0
100
AcDbBlockReference
  2
ECET Sill Nose 1in 50H4  w-Nose Extension 50H8
 10
8.732011829148504
 20
3.122779978158693
 30
0.0
  0
INSERT
  5
ED6
330
6C
100
AcDbEntity
  8
0
100
AcDbBlockReference
  2
ECET Sill Nose 2in 50H6  w-Nose Extension
 10
14.48201182870309
 20
4.122779978159913
 30
0.0
  0
INSERT
  5
ED7
330
6C
100
AcDbEntity
  8
0
100
AcDbBlockReference
  2
EDET Sill Nose 3 1-2in Flat 50MD
 10
19.5625
 20
4.455707056334032
 30
0.0
  0
ENDSEC
  0
SECTION
  2
OBJECTS
  0
DICTIONARY
  5
C
330
0
100
AcDbDictionary
281
     1
  3
ACAD_CIP_PREVIOUS_PRODUCT_INFO
350
A37
  3
ACAD_COLOR
350
63
  3
ACAD_FIELDLIST
350
8DA
  3
ACAD_GROUP
350
D
  3
ACAD_LAYOUT
350
62
  3
ACAD_MATERIAL
350
10
  3
ACAD_MLEADERSTYLE
350
66
  3
ACAD_MLINESTYLE
350
5F
  3
ACAD_PLOTSETTINGS
350
61
  3
ACAD_PLOTSTYLENAME
350
E
  3
ACAD_SCALELIST
350
42
  3
ACAD_TABLESTYLE
350
64
  3
ACAD_VISUALSTYLE
350
29
  3
ACDB_RECOMPOSE_DATA
350
10B5
  3
AcDbVariableDictionary
350
A27
  3
AEC_PROPERTY_SET_DEFS
350
ED2
  3
DWGPROPS
350
10B6
  0
DICTIONARY
  5
E5D
330
8
100
AcDbDictionary
280
     1
281
     1
  0
DICTIONARY
  5
EC7
330
2
100
AcDbDictionary
280
     1
281
     1
  3
ACAD_LAYERSTATES
360
EC8
  0
DICTIONARY
  5
E0A
330
54
100
AcDbDictionary
280
     1
281
     1
  3
ADSK_XREC_LAYER_RECONCILED
360
E0B
  0
DICTIONARY
  5
CB
330
CA
100
AcDbDictionary
280
     1
281
     1
  3
ADSK_XREC_LAYER_RECONCILED
360
E0C
  0
DICTIONARY
  5
CE
330
CD
100
AcDbDictionary
280
     1
281
     1
  3
ADSK_XREC_LAYER_RECONCILED
360
E0D
  0
DICTIONARY
  5
D5
330
D4
100
AcDbDictionary
280
     1
281
     1
  3
ADSK_XREC_LAYER_RECONCILED
360
E0E
  0
DICTIONARY
  5
EF
330
EE
100
AcDbDictionary
280
     1
281
     1
  3
ADSK_XREC_LAYER_RECONCILED
360
E0F
  0
DICTIONARY
  5
317
330
6C
100
AcDbDictionary
280
     1
281
     1
  3
ACAD_SORTENTS
360
8DC
  0
DICTIONARY
  5
8CA
330
68
100
AcDbDictionary
280
     1
281
     1
  3
ACAD_SORTENTS
360
8CB
  0
DICTIONARY
  5
2CB
330
2CA
100
AcDbDictionary
280
     1
281
     1
  3
ACAD_SORTENTS
360
8C8
  0
DICTIONARY
  5
2D3
330
2D2
100
AcDbDictionary
280
     1
281
     1
  3
ACAD_SORTENTS
360
8C9
  0
DICTIONARY
  5
2E9
330
2E8
100
AcDbDictionary
280
     1
281
     1
  3
ACAD_SORTENTS
360
8C4
  0
DICTIONARY
  5
2F1
330
2F0
100
AcDbDictionary
280
     1
281
     1
  3
ACAD_SORTENTS
360
8C5
  0
DICTIONARY
  5
2F9
330
2F8
100
AcDbDictionary
280
     1
281
     1
  3
ACAD_SORTENTS
360
8C6
  0
DICTIONARY
  5
301
330
300
100
AcDbDictionary
280
     1
281
     1
  3
ACAD_SORTENTS
360
8C7
  0
DICTIONARY
  5
EA8
330
EA7
100
AcDbDictionary
280
     1
281
     1
  3
ACAD_SORTENTS
360
EA9
  0
DICTIONARY
  5
EB0
330
EAF
100
AcDbDictionary
280
     1
281
     1
  3
ACAD_SORTENTS
360
EB1
  0
DICTIONARY
  5
EB6
330
EB5
100
AcDbDictionary
280
     1
281
     1
  3
ACAD_SORTENTS
360
EB7
  0
DICTIONARY
  5
10C
330
10B
100
AcDbDictionary
280
     1
281
     1
  3
ACAD_BREAKDATA
360
10D
  0
DICTIONARY
  5
139
330
138
100
AcDbDictionary
280
     1
281
     1
  3
ACAD_BREAKDATA
360
13A
  0
DICTIONARY
  5
166
330
165
100
AcDbDictionary
280
     1
281
     1
  3
ACAD_BREAKDATA
360
167
  0
DICTIONARY
  5
193
330
192
100
AcDbDictionary
280
     1
281
     1
  3
ACAD_BREAKDATA
360
194
  0
DICTIONARY
  5
245
330
244
100
AcDbDictionary
280
     1
281
     1
  3
ACAD_BREAKDATA
360
246
  0
DICTIONARY
  5
271
330
270
100
AcDbDictionary
280
     1
281
     1
  3
ACAD_BREAKDATA
360
272
  0
DICTIONARY
  5
29D
330
29C
100
AcDbDictionary
280
     1
281
     1
  3
ACAD_BREAKDATA
360
29E
  0
DICTIONARY
  5
2BB
330
2BA
100
AcDbDictionary
280
     1
281
     1
  3
ACAD_BREAKDATA
360
2BC
  0
XRECORD
  5
A37
102
{ACAD_REACTORS
330
C
102
}
330
C
100
AcDbXrecord
280
     1
300
ACD
300
2012
300
85730ACD_2012_0F
  0
DICTIONARY
  5
63
102
{ACAD_REACTORS
330
C
102
}
330
C
100
AcDbDictionary
281
     1
  0
FIELDLIST
  5
8DA
102
{ACAD_REACTORS
330
C
102
}
330
C
100
AcDbIdSet
 90
        0
100
AcDbFieldList
  0
DICTIONARY
  5
D
102
{ACAD_REACTORS
330
C
102
}
330
C
100
AcDbDictionary
281
     1
  0
DICTIONARY
  5
62
102
{ACAD_REACTORS
330
C
102
}
330
C
100
AcDbDictionary
281
     1
  3
Layout1
350
6B
  3
Layout2
350
73
  3
Model
350
6F
  0
DICTIONARY
  5
10
102
{ACAD_REACTORS
330
C
102
}
330
C
100
AcDbDictionary
281
     1
  3
ByBlock
350
19
  3
ByLayer
350
11
  3
Global
350
21
  0
DICTIONARY
  5
66
102
{ACAD_REACTORS
330
C
102
}
330
C
100
AcDbDictionary
281
     1
  3
Standard
350
67
  0
DICTIONARY
  5
5F
102
{ACAD_REACTORS
330
C
102
}
330
C
100
AcDbDictionary
281
     1
  3
Standard
350
60
  0
DICTIONARY
  5
61
102
{ACAD_REACTORS
330
C
102
}
330
C
100
AcDbDictionary
281
     1
  0
ACDBDICTIONARYWDFLT
  5
E
102
{ACAD_REACTORS
330
C
102
}
330
C
100
AcDbDictionary
281
     1
  3
Normal
350
F
100
AcDbDictionaryWithDefault
340
F
  0
DICTIONARY
  5
42
102
{ACAD_REACTORS
330
C
102
}
330
C
100
AcDbDictionary
281
     1
  3
*A1
350
8E
  3
*A10
350
93
  3
*A11
350
94
  3
*A12
350
97
  3
*A13
350
95
  3
*A14
350
96
  3
*A15
350
98
  3
*A16
350
99
  3
*A17
350
9A
  3
*A18
350
9B
  3
*A19
350
9C
  3
*A2
350
9F
  3
*A20
350
9D
  3
*A21
350
9E
  3
*A3
350
A0
  3
*A4
350
8F
  3
*A5
350
A1
  3
*A6
350
A2
  3
*A7
350
90
  3
*A8
350
91
  3
*A9
350
92
  3
A0
350
43
  3
A1
350
44
  3
A2
350
45
  3
A3
350
46
  3
A4
350
47
  3
A5
350
48
  3
A6
350
49
  3
A7
350
4A
  3
A8
350
4B
  3
A9
350
4C
  3
B0
350
4D
  3
B1
350
4E
  3
B2
350
4F
  3
B3
350
50
  3
B4
350
51
  3
B5
350
52
  3
B6
350
53
  0
DICTIONARY
  5
64
102
{ACAD_REACTORS
330
C
102
}
330
C
100
AcDbDictionary
281
     1
  3
Standard
350
65
  0
DICTIONARY
  5
29
102
{ACAD_REACTORS
330
C
102
}
330
C
100
AcDbDictionary
281
     1
  3
2dWireframe
350
2F
  3
Basic
350
2E
  3
Brighten
350
35
  3
ColorChange
350
39
  3
Conceptual
350
32
  3
Dim
350
34
  3
EdgeColorOff
350
41
  3
Facepattern
350
38
  3
Flat
350
2A
  3
FlatWithEdges
350
2B
  3
Gouraud
350
2C
  3
GouraudWithEdges
350
2D
  3
Hidden
350
31
  3
JitterOff
350
3F
  3
Linepattern
350
37
  3
OverhangOff
350
40
  3
Realistic
350
33
  3
Shaded
350
3E
  3
Shaded with edges
350
3D
  3
Shades of Gray
350
3A
  3
Sketchy
350
3B
  3
Thicken
350
36
  3
Wireframe
350
30
  3
X-Ray
350
3C
  0
XRECORD
  5
10B5
102
{ACAD_REACTORS
330
C
102
}
330
C
100
AcDbXrecord
280
     1
 90
        1
330
65
  0
DICTIONARY
  5
A27
102
{ACAD_REACTORS
330
C
102
}
330
C
100
AcDbDictionary
281
     1
  3
ANNOALLVISIBLE
350
A2B
  3
CANNOSCALE
350
A2C
  3
CMLEADERSTYLE
350
A29
  3
CTABLESTYLE
350
A28
  3
DIMASSOC
350
E14
  3
HIDETEXT
350
E12
  3
INDEXCTL
350
E11
  3
LAYEREVAL
350
A2E
  3
LAYERNOTIFY
350
A2F
  3
LIGHTINGUNITS
350
A2D
  3
MSLTSCALE
350
A2A
  3
SORTENTS
350
E10
  3
XCLIPFRAME
350
10B1
  0
DICTIONARY
  5
ED2
102
{ACAD_REACTORS
330
C
102
}
330
C
100
AcDbDictionary
281
     1
  0
XRECORD
  5
10B6
102
{ACAD_REACTORS
330
C
102
}
330
C
100
AcDbXrecord
280
     1
  1
DWGPROPS COOKIE
  2

  3

  4

  6

  7

  8
rohwertl
  9

300
Project Number=114369
301
margin 8 1-2 x 11=7.375 x 10
302
margin 11 x 17=16.25 x 10.25
303
Library Location=
304
3 inch Scale=3"  =  1' - 0"
305
1-8 inch Scale=1/8"  =  1' - 0"
306
Engineering Drawing=
307
Offset Drawing=
308
Scale Factor Elev=96
309
Scale Factor Details=4
 40
0.0144233101851852
 41
2456073.397494283
 42
2456077.606970811
  1

 90
       14
300
6 in Scale=6" = 1" - 0"
300
Interior Casing=31NM^ 06
300
Interior Stool Stop=31VF^ 01, 30LC^ 07
300
Interior Mullion Covers=260a^ 19
  0
DICTIONARY
  5
EC8
102
{ACAD_REACTORS
330
EC7
102
}
330
EC7
100
AcDbDictionary
281
     1
  0
XRECORD
  5
E0B
102
{ACAD_REACTORS
330
E0A
102
}
330
E0A
100
AcDbXrecord
280
     1
290
     1
  0
XRECORD
  5
E0C
102
{ACAD_REACTORS
330
CB
102
}
330
CB
100
AcDbXrecord
280
     1
290
     1
  0
XRECORD
  5
E0D
102
{ACAD_REACTORS
330
CE
102
}
330
CE
100
AcDbXrecord
280
     1
290
     1
  0
XRECORD
  5
E0E
102
{ACAD_REACTORS
330
D5
102
}
330
D5
100
AcDbXrecord
280
     1
290
     1
  0
XRECORD
  5
E0F
102
{ACAD_REACTORS
330
EF
102
}
330
EF
100
AcDbXrecord
280
     1
290
     1
  0
SORTENTSTABLE
  5
8DC
102
{ACAD_REACTORS
330
317
102
}
330
317
100
AcDbSortentsTable
330
6C
  0
SORTENTSTABLE
  5
8CB
102
{ACAD_REACTORS
330
8CA
102
}
330
8CA
100
AcDbSortentsTable
330
68
  0
SORTENTSTABLE
  5
8C8
102
{ACAD_REACTORS
330
2CB
102
}
330
2CB
100
AcDbSortentsTable
330
2CA
  0
SORTENTSTABLE
  5
8C9
102
{ACAD_REACTORS
330
2D3
102
}
330
2D3
100
AcDbSortentsTable
330
2D2
  0
SORTENTSTABLE
  5
8C4
102
{ACAD_REACTORS
330
2E9
102
}
330
2E9
100
AcDbSortentsTable
330
2E8
  0
SORTENTSTABLE
  5
8C5
102
{ACAD_REACTORS
330
2F1
102
}
330
2F1
100
AcDbSortentsTable
330
2F0
  0
SORTENTSTABLE
  5
8C6
102
{ACAD_REACTORS
330
2F9
102
}
330
2F9
100
AcDbSortentsTable
330
2F8
  0
SORTENTSTABLE
  5
8C7
102
{ACAD_REACTORS
330
301
102
}
330
301
100
AcDbSortentsTable
330
300
  0
SORTENTSTABLE
  5
EA9
102
{ACAD_REACTORS
330
EA8
102
}
330
EA8
100
AcDbSortentsTable
330
EA7
331
EAC
  5
99
331
EAD
  5
97
331
EAB
  5
98
  0
SORTENTSTABLE
  5
EB1
102
{ACAD_REACTORS
330
EB0
102
}
330
EB0
100
AcDbSortentsTable
330
EAF
  0
SORTENTSTABLE
  5
EB7
102
{ACAD_REACTORS
330
EB6
102
}
330
EB6
100
AcDbSortentsTable
330
EB5
331
EBB
  5
A6
331
EB9
  5
A7
331
EBA
  5
A8
  0
BREAKDATA
  5
10D
102
{ACAD_REACTORS
330
10C
102
}
330
10C
100
AcDbBreakData
 70
     0
330
10B
 90
        1
100
AcDbBreakPointRef
 71
     2
 72
     0
 91
        1
 10
2.130258665569421
 20
22.45312499999999
 30
0.0
 11
2.005258665569421
 21
22.45312499999999
 31
0.0
  0
BREAKDATA
  5
13A
102
{ACAD_REACTORS
330
139
102
}
330
139
100
AcDbBreakData
 70
     0
330
138
 90
        1
100
AcDbBreakPointRef
 71
     2
 72
     0
 91
        1
 10
7.829258529610854
 20
22.44867876134869
 30
0.0
 11
7.704258529610854
 21
22.44867876134869
 31
0.0
  0
BREAKDATA
  5
167
102
{ACAD_REACTORS
330
166
102
}
330
166
100
AcDbBreakData
 70
     0
330
165
 90
        1
100
AcDbBreakPointRef
 71
     2
 72
     0
 91
        1
 10
13.26280755675535
 20
22.47720790376856
 30
0.0
 11
13.13780755675535
 21
22.47720790376856
 31
0.0
  0
BREAKDATA
  5
194
102
{ACAD_REACTORS
330
193
102
}
330
193
100
AcDbBreakData
 70
     0
330
192
 90
        1
100
AcDbBreakPointRef
 71
     2
 72
     0
 91
        1
 10
19.38772410116647
 20
22.47719873879202
 30
0.0
 11
19.26272410116647
 21
22.47719873879202
 31
0.0
  0
BREAKDATA
  5
246
102
{ACAD_REACTORS
330
245
102
}
330
245
100
AcDbBreakData
 70
     0
330
244
 90
        1
100
AcDbBreakPointRef
 71
     2
 72
     0
 91
        1
 10
2.062499999999992
 20
2.499999999999996
 30
0.0
 11
1.937499999999992
 21
2.499999999999996
 31
0.0
  0
BREAKDATA
  5
272
102
{ACAD_REACTORS
330
271
102
}
330
271
100
AcDbBreakData
 70
     0
330
270
 90
        1
100
AcDbBreakPointRef
 71
     2
 72
     0
 91
        1
 10
7.562499999999992
 20
2.999999999999996
 30
0.0
 11
7.437499999999992
 21
2.999999999999996
 31
0.0
  0
BREAKDATA
  5
29E
102
{ACAD_REACTORS
330
29D
102
}
330
29D
100
AcDbBreakData
 70
     0
330
29C
 90
        1
100
AcDbBreakPointRef
 71
     2
 72
     0
 91
        1
 10
13.31249999999999
 20
3.999999999999996
 30
0.0
 11
13.18749999999999
 21
3.999999999999996
 31
0.0
  0
BREAKDATA
  5
2BC
102
{ACAD_REACTORS
330
2BB
102
}
330
2BB
100
AcDbBreakData
 70
     0
330
2BA
 90
        1
100
AcDbBreakPointRef
 71
     2
 72
     0
 91
        1
 10
18.06249999999997
 20
4.688812415411922
 30
0.0
 11
17.93749999999997
 21
4.688812415411922
 31
0.0
  0
LAYOUT
  5
6B
102
{ACAD_XDICTIONARY
360
10EB
102
}
102
{ACAD_REACTORS
330
62
102
}
330
62
100
AcDbPlotSettings
  1

  2
\\pelsprnt01\PEASP3
  4

  6

 40
0.0
 41
0.0
 42
0.0
 43
0.0
 44
0.0
 45
0.0
 46
0.0
 47
0.0
 48
0.0
 49
0.0
140
0.0
141
0.0
142
1.0
143
1.0
 70
   688
 72
     0
 73
     0
 74
     5
  7

 75
    16
147
1.0
148
0.0
149
0.0
100
AcDbLayout
  1
Layout1
 70
     1
 71
     1
 10
0.0
 20
0.0
 11
12.0
 21
9.0
 12
0.0
 22
0.0
 32
0.0
 14
1.000000000000000E+20
 24
1.000000000000000E+20
 34
1.000000000000000E+20
 15
-1.000000000000000E+20
 25
-1.000000000000000E+20
 35
-1.000000000000000E+20
146
0.0
 13
0.0
 23
0.0
 33
0.0
 16
1.0
 26
0.0
 36
0.0
 17
0.0
 27
1.0
 37
0.0
 76
     0
330
68
  0
LAYOUT
  5
73
102
{ACAD_XDICTIONARY
360
10EF
102
}
102
{ACAD_REACTORS
330
62
102
}
330
62
100
AcDbPlotSettings
  1

  2
\\pelsprnt01\PEASP3
  4

  6

 40
0.0
 41
0.0
 42
0.0
 43
0.0
 44
0.0
 45
0.0
 46
0.0
 47
0.0
 48
0.0
 49
0.0
140
0.0
141
0.0
142
1.0
143
1.0
 70
   688
 72
     0
 73
     0
 74
     5
  7

 75
    16
147
1.0
148
0.0
149
0.0
100
AcDbLayout
  1
Layout2
 70
     1
 71
     2
 10
0.0
 20
0.0
 11
12.0
 21
9.0
 12
0.0
 22
0.0
 32
0.0
 14
0.0
 24
0.0
 34
0.0
 15
0.0
 25
0.0
 35
0.0
146
0.0
 13
0.0
 23
0.0
 33
0.0
 16
1.0
 26
0.0
 36
0.0
 17
0.0
 27
1.0
 37
0.0
 76
     0
330
70
  0
LAYOUT
  5
6F
102
{ACAD_XDICTIONARY
360
10ED
102
}
102
{ACAD_REACTORS
330
62
102
}
330
62
100
AcDbPlotSettings
  1

  2
pdfFactory Pro
  4
Letter
  6

 40
7.143749713897705
 41
7.143756389617919
 42
7.14373779296875
 43
7.14373779296875
 44
215.8999938964844
 45
279.3999938964844
 46
0.0
 47
0.0
 48
0.0
 49
0.0
140
0.0
141
0.0
142
1.0
143
3.057888875374763
 70
 11952
 72
     0
 73
     0
 74
     0
  7
PellaCAD 2000.ctb
 75
     0
147
0.3270230020629653
148
306.9612544714305
149
-0.7503648453514719
100
AcDbLayout
  1
Model
 70
     1
 71
     0
 10
0.0
 20
0.0
 11
12.0
 21
9.0
 12
0.0
 22
0.0
 32
0.0
 14
0.0
 24
0.0
 34
0.0
 15
0.0
 25
0.0
 35
0.0
146
0.0
 13
0.0
 23
0.0
 33
0.0
 16
1.0
 26
0.0
 36
0.0
 17
0.0
 27
1.0
 37
0.0
 76
     0
330
6C
331
57
1001
ACAD_PSEXT
1000
pdfFactory Pro
1000
pdfFactory 3
1000
FPP3:
1000

1070
     0
  0
MATERIAL
  5
19
102
{ACAD_XDICTIONARY
360
1A
102
}
102
{ACAD_REACTORS
330
10
102
}
330
10
100
AcDbMaterial
  1
ByBlock
 72
     0
 43
0.0208333333333333
 43
0.0
 43
0.0
 43
0.0
 43
0.0
 43
0.0208333333333333
 43
0.0
 43
0.0
 43
0.0
 43
0.0
 43
1.0
 43
0.0
 43
0.0
 43
0.0
 43
0.0
 43
1.0
 77
     0
 47
0.0208333333333333
 47
0.0
 47
0.0
 47
0.0
 47
0.0
 47
0.0208333333333333
 47
0.0
 47
0.0
 47
0.0
 47
0.0
 47
1.0
 47
0.0
 47
0.0
 47
0.0
 47
0.0
 47
1.0
171
     0
 49
0.0208333333333333
 49
0.0
 49
0.0
 49
0.0
 49
0.0
 49
0.0208333333333333
 49
0.0
 49
0.0
 49
0.0
 49
0.0
 49
1.0
 49
0.0
 49
0.0
 49
0.0
 49
0.0
 49
1.0
175
     0
142
0.0208333333333333
142
0.0
142
0.0
142
0.0
142
0.0
142
0.0208333333333333
142
0.0
142
0.0
142
0.0
142
0.0
142
1.0
142
0.0
142
0.0
142
0.0
142
0.0
142
1.0
179
     0
144
0.0208333333333333
144
0.0
144
0.0
144
0.0
144
0.0
144
0.0208333333333333
144
0.0
144
0.0
144
0.0
144
0.0
144
1.0
144
0.0
144
0.0
144
0.0
144
0.0
144
1.0
147
0.0208333333333333
147
0.0
147
0.0
147
0.0
147
0.0
147
0.0208333333333333
147
0.0
147
0.0
147
0.0
147
0.0
147
1.0
147
0.0
147
0.0
147
0.0
147
0.0
147
1.0
  0
MATERIAL
  5
11
102
{ACAD_XDICTIONARY
360
12
102
}
102
{ACAD_REACTORS
330
10
102
}
330
10
100
AcDbMaterial
  1
ByLayer
 72
     0
 43
0.0208333333333333
 43
0.0
 43
0.0
 43
0.0
 43
0.0
 43
0.0208333333333333
 43
0.0
 43
0.0
 43
0.0
 43
0.0
 43
1.0
 43
0.0
 43
0.0
 43
0.0
 43
0.0
 43
1.0
 77
     0
 47
0.0208333333333333
 47
0.0
 47
0.0
 47
0.0
 47
0.0
 47
0.0208333333333333
 47
0.0
 47
0.0
 47
0.0
 47
0.0
 47
1.0
 47
0.0
 47
0.0
 47
0.0
 47
0.0
 47
1.0
171
     0
 49
0.0208333333333333
 49
0.0
 49
0.0
 49
0.0
 49
0.0
 49
0.0208333333333333
 49
0.0
 49
0.0
 49
0.0
 49
0.0
 49
1.0
 49
0.0
 49
0.0
 49
0.0
 49
0.0
 49
1.0
175
     0
142
0.0208333333333333
142
0.0
142
0.0
142
0.0
142
0.0
142
0.0208333333333333
142
0.0
142
0.0
142
0.0
142
0.0
142
1.0
142
0.0
142
0.0
142
0.0
142
0.0
142
1.0
179
     0
144
0.0208333333333333
144
0.0
144
0.0
144
0.0
144
0.0
144
0.0208333333333333
144
0.0
144
0.0
144
0.0
144
0.0
144
1.0
144
0.0
144
0.0
144
0.0
144
0.0
144
1.0
147
0.0208333333333333
147
0.0
147
0.0
147
0.0
147
0.0
147
0.0208333333333333
147
0.0
147
0.0
147
0.0
147
0.0
147
1.0
147
0.0
147
0.0
147
0.0
147
0.0
147
1.0
  0
MATERIAL
  5
21
102
{ACAD_XDICTIONARY
360
22
102
}
102
{ACAD_REACTORS
330
10
102
}
330
10
100
AcDbMaterial
  1
Global
 72
     0
 43
0.0208333333333333
 43
0.0
 43
0.0
 43
0.0
 43
0.0
 43
0.0208333333333333
 43
0.0
 43
0.0
 43
0.0
 43
0.0
 43
1.0
 43
0.0
 43
0.0
 43
0.0
 43
0.0
 43
1.0
 77
     0
 47
0.0208333333333333
 47
0.0
 47
0.0
 47
0.0
 47
0.0
 47
0.0208333333333333
 47
0.0
 47
0.0
 47
0.0
 47
0.0
 47
1.0
 47
0.0
 47
0.0
 47
0.0
 47
0.0
 47
1.0
171
     0
 49
0.0208333333333333
 49
0.0
 49
0.0
 49
0.0
 49
0.0
 49
0.0208333333333333
 49
0.0
 49
0.0
 49
0.0
 49
0.0
 49
1.0
 49
0.0
 49
0.0
 49
0.0
 49
0.0
 49
1.0
175
     0
142
0.0208333333333333
142
0.0
142
0.0
142
0.0
142
0.0
142
0.0208333333333333
142
0.0
142
0.0
142
0.0
142
0.0
142
1.0
142
0.0
142
0.0
142
0.0
142
0.0
142
1.0
179
     0
144
0.0208333333333333
144
0.0
144
0.0
144
0.0
144
0.0
144
0.0208333333333333
144
0.0
144
0.0
144
0.0
144
0.0
144
1.0
144
0.0
144
0.0
144
0.0
144
0.0
144
1.0
147
0.0208333333333333
147
0.0
147
0.0
147
0.0
147
0.0
147
0.0208333333333333
147
0.0
147
0.0
147
0.0
147
0.0
147
1.0
147
0.0
147
0.0
147
0.0
147
0.0
147
1.0
  0
MLEADERSTYLE
  5
67
102
{ACAD_XDICTIONARY
360
10B3
102
}
102
{ACAD_REACTORS
330
66
102
}
330
66
100
AcDbMLeaderStyle
170
     2
171
     1
172
     0
 90
        2
 40
0.0
 41
0.0
173
     1
 91
-1056964608
340
5B
 92
       -2
290
     1
 42
0.09
291
     1
 43
0.36
  3
Standard
 44
0.18
300

342
55
174
     1
178
     6
175
     1
176
     0
 93
-1056964608
 45
0.18
292
     0
297
     0
 46
0.18
 94
-1056964608
 47
1.0
 49
1.0
140
1.0
293
     1
141
0.0
294
     1
177
     0
142
1.0
295
     0
296
     0
143
0.125
1001
ACAD_MLEADERVER
1070
     2
  0
MLINESTYLE
  5
60
102
{ACAD_REACTORS
330
5F
102
}
330
5F
100
AcDbMlineStyle
  2
STANDARD
 70
     0
  3

 62
   256
 51
90.0
 52
90.0
 71
     2
 49
0.5
 62
   256
  6
BYLAYER
 49
-0.5
 62
   256
  6
BYLAYER
  0
ACDBPLACEHOLDER
  5
F
102
{ACAD_REACTORS
330
E
102
}
330
E
  0
SCALE
  5
8E
102
{ACAD_REACTORS
330
42
102
}
330
42
100
AcDbScale
 70
     0
300
1" = 1'
140
1.0
141
1.0
290
     0
  0
SCALE
  5
93
102
{ACAD_REACTORS
330
42
102
}
330
42
100
AcDbScale
 70
     0
300
1:2
140
1.0
141
2.0
290
     0
  0
SCALE
  5
94
102
{ACAD_REACTORS
330
42
102
}
330
42
100
AcDbScale
 70
     0
300
1:4
140
1.0
141
4.0
290
     0
  0
SCALE
  5
97
102
{ACAD_REACTORS
330
42
102
}
330
42
100
AcDbScale
 70
     0
300
1:10
140
1.0
141
10.0
290
     0
  0
SCALE
  5
95
102
{ACAD_REACTORS
330
42
102
}
330
42
100
AcDbScale
 70
     0
300
1:5
140
1.0
141
5.0
290
     0
  0
SCALE
  5
96
102
{ACAD_REACTORS
330
42
102
}
330
42
100
AcDbScale
 70
     0
300
1:8
140
1.0
141
8.0
290
     0
  0
SCALE
  5
98
102
{ACAD_REACTORS
330
42
102
}
330
42
100
AcDbScale
 70
     0
300
1:16
140
1.0
141
16.0
290
     0
  0
SCALE
  5
99
102
{ACAD_REACTORS
330
42
102
}
330
42
100
AcDbScale
 70
     0
300
1:20
140
1.0
141
20.0
290
     0
  0
SCALE
  5
9A
102
{ACAD_REACTORS
330
42
102
}
330
42
100
AcDbScale
 70
     0
300
1:30
140
1.0
141
30.0
290
     0
  0
SCALE
  5
9B
102
{ACAD_REACTORS
330
42
102
}
330
42
100
AcDbScale
 70
     0
300
1:40
140
1.0
141
40.0
290
     0
  0
SCALE
  5
9C
102
{ACAD_REACTORS
330
42
102
}
330
42
100
AcDbScale
 70
     0
300
1:50
140
1.0
141
50.0
290
     0
  0
SCALE
  5
9F
102
{ACAD_REACTORS
330
42
102
}
330
42
100
AcDbScale
 70
     0
300
4:1
140
4.0
141
1.0
290
     0
  0
SCALE
  5
9D
102
{ACAD_REACTORS
330
42
102
}
330
42
100
AcDbScale
 70
     0
300
1:100
140
1.0
141
100.0
290
     0
  0
SCALE
  5
9E
102
{ACAD_REACTORS
330
42
102
}
330
42
100
AcDbScale
 70
     0
300
2:1
140
2.0
141
1.0
290
     0
  0
SCALE
  5
A0
102
{ACAD_REACTORS
330
42
102
}
330
42
100
AcDbScale
 70
     0
300
8:1
140
8.0
141
1.0
290
     0
  0
SCALE
  5
8F
102
{ACAD_REACTORS
330
42
102
}
330
42
100
AcDbScale
 70
     0
300
1.5:1
140
1.0
141
1.0
290
     0
  0
SCALE
  5
A1
102
{ACAD_REACTORS
330
42
102
}
330
42
100
AcDbScale
 70
     0
300
10:1
140
10.0
141
1.0
290
     0
  0
SCALE
  5
A2
102
{ACAD_REACTORS
330
42
102
}
330
42
100
AcDbScale
 70
     0
300
100:1
140
100.0
141
1.0
290
     0
  0
SCALE
  5
90
102
{ACAD_REACTORS
330
42
102
}
330
42
100
AcDbScale
 70
     0
300
3:1
140
3.0
141
1.0
290
     0
  0
SCALE
  5
91
102
{ACAD_REACTORS
330
42
102
}
330
42
100
AcDbScale
 70
     0
300
5:1
140
5.0
141
1.0
290
     0
  0
SCALE
  5
92
102
{ACAD_REACTORS
330
42
102
}
330
42
100
AcDbScale
 70
     0
300
1 1/2" = 1'-0"_XREF
140
1.5
141
12.0
290
     0
  0
SCALE
  5
43
102
{ACAD_REACTORS
330
42
102
}
330
42
100
AcDbScale
 70
     0
300
1:1
140
1.0
141
1.0
290
     1
  0
SCALE
  5
44
102
{ACAD_REACTORS
330
42
102
}
330
42
100
AcDbScale
 70
     0
300
1/128" = 1'-0"
140
0.0078125
141
12.0
290
     0
  0
SCALE
  5
45
102
{ACAD_REACTORS
330
42
102
}
330
42
100
AcDbScale
 70
     0
300
1/64" = 1'-0"
140
0.015625
141
12.0
290
     0
  0
SCALE
  5
46
102
{ACAD_REACTORS
330
42
102
}
330
42
100
AcDbScale
 70
     0
300
1/32" = 1'-0"
140
0.03125
141
12.0
290
     0
  0
SCALE
  5
47
102
{ACAD_REACTORS
330
42
102
}
330
42
100
AcDbScale
 70
     0
300
1/16" = 1'-0"
140
0.0625
141
12.0
290
     0
  0
SCALE
  5
48
102
{ACAD_REACTORS
330
42
102
}
330
42
100
AcDbScale
 70
     0
300
3/32" = 1'-0"
140
0.09375
141
12.0
290
     0
  0
SCALE
  5
49
102
{ACAD_REACTORS
330
42
102
}
330
42
100
AcDbScale
 70
     0
300
1/8" = 1'-0"
140
0.125
141
12.0
290
     0
  0
SCALE
  5
4A
102
{ACAD_REACTORS
330
42
102
}
330
42
100
AcDbScale
 70
     0
300
3/16" = 1'-0"
140
0.1875
141
12.0
290
     0
  0
SCALE
  5
4B
102
{ACAD_REACTORS
330
42
102
}
330
42
100
AcDbScale
 70
     0
300
1/4" = 1'-0"
140
0.25
141
12.0
290
     0
  0
SCALE
  5
4C
102
{ACAD_REACTORS
330
42
102
}
330
42
100
AcDbScale
 70
     0
300
3/8" = 1'-0"
140
0.375
141
12.0
290
     0
  0
SCALE
  5
4D
102
{ACAD_REACTORS
330
42
102
}
330
42
100
AcDbScale
 70
     0
300
1/2" = 1'-0"
140
0.5
141
12.0
290
     0
  0
SCALE
  5
4E
102
{ACAD_REACTORS
330
42
102
}
330
42
100
AcDbScale
 70
     0
300
3/4" = 1'-0"
140
0.75
141
12.0
290
     0
  0
SCALE
  5
4F
102
{ACAD_REACTORS
330
42
102
}
330
42
100
AcDbScale
 70
     0
300
1" = 1'-0"
140
1.0
141
12.0
290
     0
  0
SCALE
  5
50
102
{ACAD_REACTORS
330
42
102
}
330
42
100
AcDbScale
 70
     0
300
1-1/2" = 1'-0"
140
1.5
141
12.0
290
     0
  0
SCALE
  5
51
102
{ACAD_REACTORS
330
42
102
}
330
42
100
AcDbScale
 70
     0
300
3" = 1'-0"
140
3.0
141
12.0
290
     0
  0
SCALE
  5
52
102
{ACAD_REACTORS
330
42
102
}
330
42
100
AcDbScale
 70
     0
300
6" = 1'-0"
140
6.0
141
12.0
290
     0
  0
SCALE
  5
53
102
{ACAD_REACTORS
330
42
102
}
330
42
100
AcDbScale
 70
     0
300
1'-0" = 1'-0"
140
12.0
141
12.0
290
     0
  0
TABLESTYLE
  5
65
102
{ACAD_XDICTIONARY
360
E57
102
}
102
{ACAD_REACTORS
330
64
102
}
330
64
100
AcDbTableStyle
  3
Standard
 70
     0
 71
     3
 40
0.06
 41
0.06
280
     0
281
     0
  7
Standard
140
0.18
170
     2
 62
     0
 63
     7
283
     0
274
    -2
284
     1
 64
     0
275
    -2
285
     1
 65
     0
276
    -2
286
     1
 66
     0
277
    -2
287
     1
 67
     0
278
    -2
288
     1
 68
     0
279
    -2
289
     1
 69
     0
  7
Standard
140
0.25
170
     5
 62
     0
 63
     7
283
     0
274
    -2
284
     1
 64
     0
275
    -2
285
     1
 65
     0
276
    -2
286
     1
 66
     0
277
    -2
287
     1
 67
     0
278
    -2
288
     1
 68
     0
279
    -2
289
     1
 69
     0
  7
Standard
140
0.18
170
     5
 62
     0
 63
     7
283
     0
274
    -2
284
     1
 64
     0
275
    -2
285
     1
 65
     0
276
    -2
286
     1
 66
     0
277
    -2
287
     1
 67
     0
278
    -2
288
     1
 68
     0
279
    -2
289
     1
 69
     0
  0
VISUALSTYLE
  5
2F
102
{ACAD_XDICTIONARY
360
10C4
102
}
102
{ACAD_REACTORS
330
29
102
}
330
29
100
AcDbVisualStyle
  2
2dWireframe
 70
     4
 71
     0
 72
     2
 73
     0
 90
        0
 40
-0.6
 41
-30.0
 62
     5
 63
     7
 74
     1
 91
        4
 64
     7
 65
   257
 75
     1
175
     1
 42
1.0
 92
        0
 66
   257
 43
1.0
 76
     1
 77
     6
 78
     2
 67
     7
 79
     5
170
     0
171
     0
290
     0
174
     0
 93
        1
 44
0.0
173
     0
291
     0
 45
0.0
1001
ACAD
1000
AcDbSavedByObjectVersion
1070
     0
  0
VISUALSTYLE
  5
2E
102
{ACAD_XDICTIONARY
360
10C2
102
}
102
{ACAD_REACTORS
330
29
102
}
330
29
100
AcDbVisualStyle
  2
Basic
 70
     7
 71
     1
 72
     0
 73
     1
 90
        0
 40
-0.6
 41
-30.0
 62
     5
 63
     7
 74
     0
 91
        4
 64
     7
 65
   257
 75
     1
175
     1
 42
1.0
 92
        8
 66
     7
 43
1.0
 76
     1
 77
     6
 78
     2
 67
     7
 79
     5
170
     0
171
     0
290
     0
174
     0
 93
        1
 44
0.0
173
     0
291
     1
 45
0.0
1001
ACAD
1000
AcDbSavedByObjectVersion
1070
     0
  0
VISUALSTYLE
  5
35
102
{ACAD_XDICTIONARY
360
10D0
102
}
102
{ACAD_REACTORS
330
29
102
}
330
29
100
AcDbVisualStyle
  2
Brighten
 70
    12
 71
     2
 72
     2
 73
     0
 90
        0
 40
-0.6
 41
-30.0
 62
     5
 63
     7
 74
     1
 91
        4
 64
     7
 65
   257
 75
     1
175
     1
 42
1.0
 92
        8
 66
     7
 43
1.0
 76
     1
 77
     6
 78
     2
 67
     7
 79
     5
170
     0
171
     0
290
     0
174
     0
 93
        1
 44
50.0
173
     0
291
     1
 45
0.0
1001
ACAD
1000
AcDbSavedByObjectVersion
1070
     0
  0
VISUALSTYLE
  5
39
102
{ACAD_XDICTIONARY
360
10D8
102
}
102
{ACAD_REACTORS
330
29
102
}
330
29
100
AcDbVisualStyle
  2
ColorChange
 70
    16
 71
     2
 72
     2
 73
     3
 90
        0
 40
-0.6
 41
-30.0
 62
     5
 63
     8
 74
     1
 91
        4
 64
     7
 65
   257
 75
     1
175
     1
 42
1.0
 92
        8
 66
     8
 43
1.0
 76
     1
 77
     6
 78
     2
 67
     7
 79
     5
170
     0
171
     0
290
     0
174
     0
 93
        1
 44
0.0
173
     0
291
     1
 45
0.0
1001
ACAD
1000
AcDbSavedByObjectVersion
1070
     0
  0
VISUALSTYLE
  5
32
102
{ACAD_XDICTIONARY
360
10CA
102
}
102
{ACAD_REACTORS
330
29
102
}
330
29
100
AcDbVisualStyle
  2
Conceptual
 70
     9
 71
     3
 72
     2
 73
     0
 90
        0
 40
-0.6
 41
-30.0
 62
     5
 63
     7
 74
     2
 91
        2
 64
     7
 65
   257
 75
     1
175
     1
 42
179.0
 92
        8
 66
     7
 43
1.0
 76
     1
 77
     6
 78
     2
 67
     7
 79
     3
170
     0
171
     0
290
     0
174
     0
 93
        1
 44
0.0
173
     0
291
     0
 45
0.0
1001
ACAD
1000
AcDbSavedByObjectVersion
1070
     0
  0
VISUALSTYLE
  5
34
102
{ACAD_XDICTIONARY
360
10CE
102
}
102
{ACAD_REACTORS
330
29
102
}
330
29
100
AcDbVisualStyle
  2
Dim
 70
    11
 71
     2
 72
     2
 73
     0
 90
        0
 40
-0.6
 41
-30.0
 62
     5
 63
     7
 74
     1
 91
        4
 64
     7
 65
   257
 75
     1
175
     1
 42
1.0
 92
        8
 66
     7
 43
1.0
 76
     1
 77
     6
 78
     2
 67
     7
 79
     5
170
     0
171
     0
290
     0
174
     0
 93
        1
 44
-50.0
173
     0
291
     1
 45
0.0
1001
ACAD
1000
AcDbSavedByObjectVersion
1070
     0
  0
VISUALSTYLE
  5
41
102
{ACAD_XDICTIONARY
360
10E8
102
}
102
{ACAD_REACTORS
330
29
102
}
330
29
100
AcDbVisualStyle
  2
EdgeColorOff
 70
    22
 71
     2
 72
     2
 73
     0
 90
        0
 40
-0.6
 41
-30.0
 62
     5
 63
     7
 74
     1
 91
        4
 64
     7
 65
   257
 75
     1
175
     1
 42
1.0
 92
        8
 66
     7
 43
1.0
 76
     1
 77
     6
 78
     2
 67
     7
 79
     5
170
     0
171
     0
290
     0
174
     0
 93
        1
 44
0.0
173
     0
291
     1
 45
0.0
1001
ACAD
1000
AcDbSavedByObjectVersion
1070
     0
  0
VISUALSTYLE
  5
38
102
{ACAD_XDICTIONARY
360
10D6
102
}
102
{ACAD_REACTORS
330
29
102
}
330
29
100
AcDbVisualStyle
  2
Facepattern
 70
    15
 71
     2
 72
     2
 73
     0
 90
        0
 40
-0.6
 41
-30.0
 62
     5
 63
     7
 74
     1
 91
        4
 64
     7
 65
   257
 75
     1
175
     1
 42
1.0
 92
        8
 66
     7
 43
1.0
 76
     1
 77
     6
 78
     2
 67
     7
 79
     5
170
     0
171
     0
290
     0
174
     0
 93
        1
 44
0.0
173
     0
291
     1
 45
0.0
1001
ACAD
1000
AcDbSavedByObjectVersion
1070
     0
  0
VISUALSTYLE
  5
2A
102
{ACAD_XDICTIONARY
360
10BA
102
}
102
{ACAD_REACTORS
330
29
102
}
330
29
100
AcDbVisualStyle
  2
Flat
 70
     0
 71
     2
 72
     1
 73
     1
 90
        2
 40
-0.6
 41
30.0
 62
     5
 63
     7
 74
     0
 91
        0
 64
     7
 65
   257
 75
     1
175
     1
 42
1.0
 92
        8
 66
     7
 43
1.0
 76
     1
 77
     6
 78
     2
 67
     7
 79
     5
170
     0
171
     0
290
     0
174
     0
 93
       13
 44
0.0
173
     0
291
     1
 45
0.0
1001
ACAD
1000
AcDbSavedByObjectVersion
1070
     0
  0
VISUALSTYLE
  5
2B
102
{ACAD_XDICTIONARY
360
10BC
102
}
102
{ACAD_REACTORS
330
29
102
}
330
29
100
AcDbVisualStyle
  2
FlatWithEdges
 70
     1
 71
     2
 72
     1
 73
     1
 90
        2
 40
-0.6
 41
30.0
 62
     5
 63
     7
 74
     1
 91
        0
 64
     7
 65
   257
 75
     1
175
     1
 42
1.0
 92
        0
 66
   257
 43
1.0
 76
     1
 77
     6
 78
     2
 67
     7
 79
     5
170
     0
171
     0
290
     0
174
     0
 93
       13
 44
0.0
173
     0
291
     1
 45
0.0
1001
ACAD
1000
AcDbSavedByObjectVersion
1070
     0
  0
VISUALSTYLE
  5
2C
102
{ACAD_XDICTIONARY
360
10BE
102
}
102
{ACAD_REACTORS
330
29
102
}
330
29
100
AcDbVisualStyle
  2
Gouraud
 70
     2
 71
     2
 72
     2
 73
     1
 90
        2
 40
-0.6
 41
30.0
 62
     5
 63
     7
 74
     0
 91
        0
 64
     7
 65
   257
 75
     1
175
     1
 42
1.0
 92
        0
 66
     7
 43
1.0
 76
     1
 77
     6
 78
     2
 67
     7
 79
     5
170
     0
171
     0
290
     0
174
     0
 93
       13
 44
0.0
173
     0
291
     1
 45
0.0
1001
ACAD
1000
AcDbSavedByObjectVersion
1070
     0
  0
VISUALSTYLE
  5
2D
102
{ACAD_XDICTIONARY
360
10C0
102
}
102
{ACAD_REACTORS
330
29
102
}
330
29
100
AcDbVisualStyle
  2
GouraudWithEdges
 70
     3
 71
     2
 72
     2
 73
     1
 90
        2
 40
-0.6
 41
30.0
 62
     5
 63
     7
 74
     1
 91
        0
 64
     7
 65
   257
 75
     1
175
     1
 42
1.0
 92
        0
 66
   257
 43
1.0
 76
     1
 77
     6
 78
     2
 67
     7
 79
     5
170
     0
171
     0
290
     0
174
     0
 93
       13
 44
0.0
173
     0
291
     1
 45
0.0
1001
ACAD
1000
AcDbSavedByObjectVersion
1070
     0
  0
VISUALSTYLE
  5
31
102
{ACAD_XDICTIONARY
360
10C8
102
}
102
{ACAD_REACTORS
330
29
102
}
330
29
100
AcDbVisualStyle
  2
Hidden
 70
     6
 71
     1
 72
     2
 73
     2
 90
        0
 40
-0.6
 41
-30.0
 62
     5
 63
     7
 74
     2
 91
        2
 64
     7
 65
   257
 75
     2
175
     1
 42
40.0
 92
        0
 66
   257
 43
1.0
 76
     1
 77
     6
 78
     2
 67
     7
 79
     3
170
     0
171
     0
290
     0
174
     0
 93
        1
 44
0.0
173
     0
291
     0
 45
0.0
1001
ACAD
1000
AcDbSavedByObjectVersion
1070
     0
  0
VISUALSTYLE
  5
3F
102
{ACAD_XDICTIONARY
360
10E4
102
}
102
{ACAD_REACTORS
330
29
102
}
330
29
100
AcDbVisualStyle
  2
JitterOff
 70
    20
 71
     2
 72
     2
 73
     0
 90
        0
 40
-0.6
 41
-30.0
 62
     5
 63
     7
 74
     1
 91
        4
 64
     7
 65
   257
 75
     1
175
     1
 42
1.0
 92
       10
 66
     7
 43
1.0
 76
     1
 77
     6
 78
     2
 67
     7
 79
     5
170
     0
171
     0
290
     0
174
     0
 93
        1
 44
0.0
173
     0
291
     1
 45
0.0
1001
ACAD
1000
AcDbSavedByObjectVersion
1070
     0
  0
VISUALSTYLE
  5
37
102
{ACAD_XDICTIONARY
360
10D4
102
}
102
{ACAD_REACTORS
330
29
102
}
330
29
100
AcDbVisualStyle
  2
Linepattern
 70
    14
 71
     2
 72
     2
 73
     0
 90
        0
 40
-0.6
 41
-30.0
 62
     5
 63
     7
 74
     1
 91
        4
 64
     7
 65
   257
 75
     7
175
     7
 42
1.0
 92
        8
 66
     7
 43
1.0
 76
     1
 77
     6
 78
     2
 67
     7
 79
     5
170
     0
171
     0
290
     0
174
     0
 93
        1
 44
0.0
173
     0
291
     1
 45
0.0
1001
ACAD
1000
AcDbSavedByObjectVersion
1070
     0
  0
VISUALSTYLE
  5
40
102
{ACAD_XDICTIONARY
360
10E6
102
}
102
{ACAD_REACTORS
330
29
102
}
330
29
100
AcDbVisualStyle
  2
OverhangOff
 70
    21
 71
     2
 72
     2
 73
     0
 90
        0
 40
-0.6
 41
-30.0
 62
     5
 63
     7
 74
     1
 91
        4
 64
     7
 65
   257
 75
     1
175
     1
 42
1.0
 92
        9
 66
     7
 43
1.0
 76
     1
 77
     6
 78
     2
 67
     7
 79
     5
170
     0
171
     0
290
     0
174
     0
 93
        1
 44
0.0
173
     0
291
     1
 45
0.0
1001
ACAD
1000
AcDbSavedByObjectVersion
1070
     0
  0
VISUALSTYLE
  5
33
102
{ACAD_XDICTIONARY
360
10CC
102
}
102
{ACAD_REACTORS
330
29
102
}
330
29
100
AcDbVisualStyle
  2
Realistic
 70
     8
 71
     2
 72
     2
 73
     0
 90
        2
 40
-0.6
 41
30.0
 62
     5
 63
     7
 74
     0
 91
        0
 64
     7
 65
   257
 75
     1
175
     1
 42
1.0
 92
        8
 66
   257
 43
1.0
 76
     1
 77
     6
 78
     2
 67
     7
 79
     3
170
     0
171
     0
290
     0
174
     0
 93
       13
 44
0.0
173
     0
291
     0
 45
0.0
1001
ACAD
1000
AcDbSavedByObjectVersion
1070
     0
  0
VISUALSTYLE
  5
3E
102
{ACAD_XDICTIONARY
360
10E2
102
}
102
{ACAD_REACTORS
330
29
102
}
330
29
100
AcDbVisualStyle
  2
Shaded
 70
    27
 71
     2
 72
     2
 73
     1
 90
        2
 40
-0.6
 41
30.0
 62
     5
 63
     7
 74
     0
 91
        4
 64
     7
 65
   257
 75
     1
175
     1
 42
1.0
 92
        8
 66
   257
 43
1.0
 76
     1
 77
     6
 78
     2
 67
     8
 79
     3
170
     0
171
     0
290
     0
174
     0
 93
        5
 44
0.0
173
     0
291
     0
 45
0.0
1001
ACAD
1000
AcDbSavedByObjectVersion
1070
     0
  0
VISUALSTYLE
  5
3D
102
{ACAD_XDICTIONARY
360
10E0
102
}
102
{ACAD_REACTORS
330
29
102
}
330
29
100
AcDbVisualStyle
  2
Shaded with edges
 70
    26
 71
     2
 72
     2
 73
     1
 90
        2
 40
-0.6
 41
30.0
 62
     5
 63
     7
 74
     1
 91
       10
 64
     7
 65
   257
 75
     2
175
     1
 42
1.0
 92
        8
 66
   257
 43
1.0
 76
     1
 77
     6
 78
     2
 67
     7
 79
     3
170
     0
171
     0
290
     0
174
     0
 93
        5
 44
0.0
173
     0
291
     0
 45
0.0
1001
ACAD
1000
AcDbSavedByObjectVersion
1070
     0
  0
VISUALSTYLE
  5
3A
102
{ACAD_XDICTIONARY
360
10DA
102
}
102
{ACAD_REACTORS
330
29
102
}
330
29
100
AcDbVisualStyle
  2
Shades of Gray
 70
    23
 71
     2
 72
     2
 73
     3
 90
        0
 40
-0.6
 41
-30.0
 62
     5
 63
     7
 74
     2
 91
        2
 64
     7
 65
     7
 75
     1
175
     1
 42
40.0
 92
        8
 66
     7
 43
1.0
 76
     1
 77
     6
 78
     2
 67
     7
 79
     3
170
     0
171
     0
290
     0
174
     0
 93
        1
 44
0.0
173
     0
291
     0
 45
0.0
1001
ACAD
1000
AcDbSavedByObjectVersion
1070
     0
  0
VISUALSTYLE
  5
3B
102
{ACAD_XDICTIONARY
360
10DC
102
}
102
{ACAD_REACTORS
330
29
102
}
330
29
100
AcDbVisualStyle
  2
Sketchy
 70
    24
 71
     1
 72
     2
 73
     2
 90
        0
 40
-0.6
 41
-30.0
 62
     5
 63
     7
 74
     2
 91
        2
 64
     7
 65
     7
 75
     1
175
     1
 42
40.0
 92
       11
 66
     7
 43
1.0
 76
     1
 77
     6
 78
     2
 67
     7
 79
     6
170
     0
171
     0
290
     0
174
     0
 93
        1
 44
0.0
173
     0
291
     0
 45
0.0
1001
ACAD
1000
AcDbSavedByObjectVersion
1070
     0
  0
VISUALSTYLE
  5
36
102
{ACAD_XDICTIONARY
360
10D2
102
}
102
{ACAD_REACTORS
330
29
102
}
330
29
100
AcDbVisualStyle
  2
Thicken
 70
    13
 71
     2
 72
     2
 73
     0
 90
        0
 40
-0.6
 41
-30.0
 62
     5
 63
     7
 74
     1
 91
        4
 64
     7
 65
   257
 75
     1
175
     1
 42
1.0
 92
       12
 66
     7
 43
1.0
 76
     1
 77
     6
 78
     2
 67
     7
 79
     5
170
     0
171
     0
290
     0
174
     0
 93
        1
 44
0.0
173
     0
291
     1
 45
0.0
1001
ACAD
1000
AcDbSavedByObjectVersion
1070
     0
  0
VISUALSTYLE
  5
30
102
{ACAD_XDICTIONARY
360
10C6
102
}
102
{ACAD_REACTORS
330
29
102
}
330
29
100
AcDbVisualStyle
  2
Wireframe
 70
     5
 71
     0
 72
     2
 73
     0
 90
        0
 40
-0.6
 41
-30.0
 62
     5
 63
     7
 74
     1
 91
        4
 64
     7
 65
   257
 75
     1
175
     1
 42
1.0
 92
        0
 66
   257
 43
1.0
 76
     1
 77
     6
 78
     2
 67
     7
 79
     3
170
     0
171
     0
290
     0
174
     0
 93
        1
 44
0.0
173
     0
291
     0
 45
0.0
1001
ACAD
1000
AcDbSavedByObjectVersion
1070
     0
  0
VISUALSTYLE
  5
3C
102
{ACAD_XDICTIONARY
360
10DE
102
}
102
{ACAD_REACTORS
330
29
102
}
330
29
100
AcDbVisualStyle
  2
X-Ray
 70
    25
 71
     2
 72
     2
 73
     1
 90
        1
 40
0.5
 41
-30.0
 62
     5
 63
     7
 74
     1
 91
        0
 64
     7
 65
   257
 75
     1
175
     1
 42
1.0
 92
        8
 66
     7
 43
1.0
 76
     1
 77
     6
 78
     2
 67
     7
 79
     3
170
     0
171
     0
290
     0
174
     0
 93
       13
 44
0.0
173
     0
291
     0
 45
0.0
1001
ACAD
1000
AcDbSavedByObjectVersion
1070
     0
  0
DICTIONARYVAR
  5
A2B
102
{ACAD_REACTORS
330
A27
102
}
330
A27
100
DictionaryVariables
280
     0
  1
0
  0
DICTIONARYVAR
  5
A2C
102
{ACAD_REACTORS
330
A27
102
}
330
A27
100
DictionaryVariables
280
     0
  1
1:1
  0
DICTIONARYVAR
  5
A29
102
{ACAD_REACTORS
330
A27
102
}
330
A27
100
DictionaryVariables
280
     0
  1
STANDARD
  0
DICTIONARYVAR
  5
A28
102
{ACAD_REACTORS
330
A27
102
}
330
A27
100
DictionaryVariables
280
     0
  1
STANDARD
  0
DICTIONARYVAR
  5
E14
102
{ACAD_REACTORS
330
A27
102
}
330
A27
100
DictionaryVariables
280
     0
  1
2
  0
DICTIONARYVAR
  5
E12
102
{ACAD_REACTORS
330
A27
102
}
330
A27
100
DictionaryVariables
280
     0
  1
1
  0
DICTIONARYVAR
  5
E11
102
{ACAD_REACTORS
330
A27
102
}
330
A27
100
DictionaryVariables
280
     0
  1
0
  0
DICTIONARYVAR
  5
A2E
102
{ACAD_REACTORS
330
A27
102
}
330
A27
100
DictionaryVariables
280
     0
  1
1
  0
DICTIONARYVAR
  5
A2F
102
{ACAD_REACTORS
330
A27
102
}
330
A27
100
DictionaryVariables
280
     0
  1
15
  0
DICTIONARYVAR
  5
A2D
102
{ACAD_REACTORS
330
A27
102
}
330
A27
100
DictionaryVariables
280
     0
  1
0
  0
DICTIONARYVAR
  5
A2A
102
{ACAD_REACTORS
330
A27
102
}
330
A27
100
DictionaryVariables
280
     0
  1
0
  0
DICTIONARYVAR
  5
E10
102
{ACAD_REACTORS
330
A27
102
}
330
A27
100
DictionaryVariables
280
     0
  1
127
  0
DICTIONARYVAR
  5
10B1
102
{ACAD_REACTORS
330
A27
102
}
330
A27
100
DictionaryVariables
280
     0
  1
2
  0
DICTIONARY
  5
10EB
330
6B
100
AcDbDictionary
280
     1
281
     1
  3
ACAD_XREC_ROUNDTRIP
360
10EC
  0
DICTIONARY
  5
10EF
330
73
100
AcDbDictionary
280
     1
281
     1
  3
ACAD_XREC_ROUNDTRIP
360
10F0
  0
DICTIONARY
  5
10ED
330
6F
100
AcDbDictionary
280
     1
281
     1
  3
ACAD_XREC_ROUNDTRIP
360
10EE
  0
DICTIONARY
  5
1A
330
19
100
AcDbDictionary
280
     1
281
     1
  3
ACAD_XREC_ROUNDTRIP
360
10B8
  3
BUMPTILE
360
1C
  3
DIFFUSETILE
360
1B
  3
OPACITYTILE
360
1F
  3
REFLECTIONTILE
360
1E
  3
REFRACTIONTILE
360
20
  3
SPECULARTILE
360
1D
  0
DICTIONARY
  5
12
330
11
100
AcDbDictionary
280
     1
281
     1
  3
ACAD_XREC_ROUNDTRIP
360
10B7
  3
BUMPTILE
360
14
  3
DIFFUSETILE
360
13
  3
OPACITYTILE
360
17
  3
REFLECTIONTILE
360
16
  3
REFRACTIONTILE
360
18
  3
SPECULARTILE
360
15
  0
DICTIONARY
  5
22
330
21
100
AcDbDictionary
280
     1
281
     1
  3
ACAD_XREC_ROUNDTRIP
360
10B9
  3
BUMPTILE
360
24
  3
DIFFUSETILE
360
23
  3
OPACITYTILE
360
27
  3
REFLECTIONTILE
360
26
  3
REFRACTIONTILE
360
28
  3
SPECULARTILE
360
25
  0
DICTIONARY
  5
10B3
330
67
100
AcDbDictionary
280
     1
281
     1
  3
ACAD_XREC_ROUNDTRIP
360
10B4
  0
DICTIONARY
  5
E57
330
65
100
AcDbDictionary
280
     1
281
     1
  3
ACAD_ROUNDTRIP_2008_TABLESTYLE_CELLSTYLEMAP
360
10B2
  3
ACAD_XREC_ROUNDTRIP
360
10EA
  0
DICTIONARY
  5
10C4
330
2F
100
AcDbDictionary
280
     1
281
     1
  3
ACAD_XREC_ROUNDTRIP
360
10C5
  0
DICTIONARY
  5
10C2
330
2E
100
AcDbDictionary
280
     1
281
     1
  3
ACAD_XREC_ROUNDTRIP
360
10C3
  0
DICTIONARY
  5
10D0
330
35
100
AcDbDictionary
280
     1
281
     1
  3
ACAD_XREC_ROUNDTRIP
360
10D1
  0
DICTIONARY
  5
10D8
330
39
100
AcDbDictionary
280
     1
281
     1
  3
ACAD_XREC_ROUNDTRIP
360
10D9
  0
DICTIONARY
  5
10CA
330
32
100
AcDbDictionary
280
     1
281
     1
  3
ACAD_XREC_ROUNDTRIP
360
10CB
  0
DICTIONARY
  5
10CE
330
34
100
AcDbDictionary
280
     1
281
     1
  3
ACAD_XREC_ROUNDTRIP
360
10CF
  0
DICTIONARY
  5
10E8
330
41
100
AcDbDictionary
280
     1
281
     1
  3
ACAD_XREC_ROUNDTRIP
360
10E9
  0
DICTIONARY
  5
10D6
330
38
100
AcDbDictionary
280
     1
281
     1
  3
ACAD_XREC_ROUNDTRIP
360
10D7
  0
DICTIONARY
  5
10BA
330
2A
100
AcDbDictionary
280
     1
281
     1
  3
ACAD_XREC_ROUNDTRIP
360
10BB
  0
DICTIONARY
  5
10BC
330
2B
100
AcDbDictionary
280
     1
281
     1
  3
ACAD_XREC_ROUNDTRIP
360
10BD
  0
DICTIONARY
  5
10BE
330
2C
100
AcDbDictionary
280
     1
281
     1
  3
ACAD_XREC_ROUNDTRIP
360
10BF
  0
DICTIONARY
  5
10C0
330
2D
100
AcDbDictionary
280
     1
281
     1
  3
ACAD_XREC_ROUNDTRIP
360
10C1
  0
DICTIONARY
  5
10C8
330
31
100
AcDbDictionary
280
     1
281
     1
  3
ACAD_XREC_ROUNDTRIP
360
10C9
  0
DICTIONARY
  5
10E4
330
3F
100
AcDbDictionary
280
     1
281
     1
  3
ACAD_XREC_ROUNDTRIP
360
10E5
  0
DICTIONARY
  5
10D4
330
37
100
AcDbDictionary
280
     1
281
     1
  3
ACAD_XREC_ROUNDTRIP
360
10D5
  0
DICTIONARY
  5
10E6
330
40
100
AcDbDictionary
280
     1
281
     1
  3
ACAD_XREC_ROUNDTRIP
360
10E7
  0
DICTIONARY
  5
10CC
330
33
100
AcDbDictionary
280
     1
281
     1
  3
ACAD_XREC_ROUNDTRIP
360
10CD
  0
DICTIONARY
  5
10E2
330
3E
100
AcDbDictionary
280
     1
281
     1
  3
ACAD_XREC_ROUNDTRIP
360
10E3
  0
DICTIONARY
  5
10E0
330
3D
100
AcDbDictionary
280
     1
281
     1
  3
ACAD_XREC_ROUNDTRIP
360
10E1
  0
DICTIONARY
  5
10DA
330
3A
100
AcDbDictionary
280
     1
281
     1
  3
ACAD_XREC_ROUNDTRIP
360
10DB
  0
DICTIONARY
  5
10DC
330
3B
100
AcDbDictionary
280
     1
281
     1
  3
ACAD_XREC_ROUNDTRIP
360
10DD
  0
DICTIONARY
  5
10D2
330
36
100
AcDbDictionary
280
     1
281
     1
  3
ACAD_XREC_ROUNDTRIP
360
10D3
  0
DICTIONARY
  5
10C6
330
30
100
AcDbDictionary
280
     1
281
     1
  3
ACAD_XREC_ROUNDTRIP
360
10C7
  0
DICTIONARY
  5
10DE
330
3C
100
AcDbDictionary
280
     1
281
     1
  3
ACAD_XREC_ROUNDTRIP
360
10DF
  0
XRECORD
  5
10EC
102
{ACAD_REACTORS
330
10EB
102
}
330
10EB
100
AcDbXrecord
280
     1
102
SHADEPLOT
 70
     0
102
SHADEPLOTRESLEVEL
 70
     2
102
SHADEPLOTCUSTOMDPI
 70
   300
  0
XRECORD
  5
10F0
102
{ACAD_REACTORS
330
10EF
102
}
330
10EF
100
AcDbXrecord
280
     1
102
SHADEPLOT
 70
     0
102
SHADEPLOTRESLEVEL
 70
     2
102
SHADEPLOTCUSTOMDPI
 70
   300
  0
XRECORD
  5
10EE
102
{ACAD_REACTORS
330
10ED
102
}
330
10ED
100
AcDbXrecord
280
     1
102
SHADEPLOT
 70
     1
102
SHADEPLOTRESLEVEL
 70
     2
102
SHADEPLOTCUSTOMDPI
 70
   150
  0
XRECORD
  5
10B8
102
{ACAD_REACTORS
330
1A
102
}
330
1A
100
AcDbXrecord
280
     1
102
MATERIAL
148
0.0
149
0.0
149
0.0
 93
        0
 94
      127
282
     0
 72
     0
 77
     0
171
     0
175
     0
179
     0
273
     0
  0
XRECORD
  5
1C
102
{ACAD_REACTORS
330
1A
102
}
330
1A
100
AcDbXrecord
280
     1
270
     1
271
     1
  0
XRECORD
  5
1B
102
{ACAD_REACTORS
330
1A
102
}
330
1A
100
AcDbXrecord
280
     1
270
     1
271
     1
  0
XRECORD
  5
1F
102
{ACAD_REACTORS
330
1A
102
}
330
1A
100
AcDbXrecord
280
     1
270
     1
271
     1
  0
XRECORD
  5
1E
102
{ACAD_REACTORS
330
1A
102
}
330
1A
100
AcDbXrecord
280
     1
270
     1
271
     1
  0
XRECORD
  5
20
102
{ACAD_REACTORS
330
1A
102
}
330
1A
100
AcDbXrecord
280
     1
270
     1
271
     1
  0
XRECORD
  5
1D
102
{ACAD_REACTORS
330
1A
102
}
330
1A
100
AcDbXrecord
280
     1
270
     1
271
     1
  0
XRECORD
  5
10B7
102
{ACAD_REACTORS
330
12
102
}
330
12
100
AcDbXrecord
280
     1
102
MATERIAL
148
0.0
149
0.0
149
0.0
 93
        0
 94
      127
282
     0
 72
     0
 77
     0
171
     0
175
     0
179
     0
273
     0
  0
XRECORD
  5
14
102
{ACAD_REACTORS
330
12
102
}
330
12
100
AcDbXrecord
280
     1
270
     1
271
     1
  0
XRECORD
  5
13
102
{ACAD_REACTORS
330
12
102
}
330
12
100
AcDbXrecord
280
     1
270
     1
271
     1
  0
XRECORD
  5
17
102
{ACAD_REACTORS
330
12
102
}
330
12
100
AcDbXrecord
280
     1
270
     1
271
     1
  0
XRECORD
  5
16
102
{ACAD_REACTORS
330
12
102
}
330
12
100
AcDbXrecord
280
     1
270
     1
271
     1
  0
XRECORD
  5
18
102
{ACAD_REACTORS
330
12
102
}
330
12
100
AcDbXrecord
280
     1
270
     1
271
     1
  0
XRECORD
  5
15
102
{ACAD_REACTORS
330
12
102
}
330
12
100
AcDbXrecord
280
     1
270
     1
271
     1
  0
XRECORD
  5
10B9
102
{ACAD_REACTORS
330
22
102
}
330
22
100
AcDbXrecord
280
     1
102
MATERIAL
148
0.0
149
0.0
149
0.0
 93
        0
 94
      127
282
     0
 72
     0
 77
     0
171
     0
175
     0
179
     0
273
     0
  0
XRECORD
  5
24
102
{ACAD_REACTORS
330
22
102
}
330
22
100
AcDbXrecord
280
     1
270
     1
271
     1
  0
XRECORD
  5
23
102
{ACAD_REACTORS
330
22
102
}
330
22
100
AcDbXrecord
280
     1
270
     1
271
     1
  0
XRECORD
  5
27
102
{ACAD_REACTORS
330
22
102
}
330
22
100
AcDbXrecord
280
     1
270
     1
271
     1
  0
XRECORD
  5
26
102
{ACAD_REACTORS
330
22
102
}
330
22
100
AcDbXrecord
280
     1
270
     1
271
     1
  0
XRECORD
  5
28
102
{ACAD_REACTORS
330
22
102
}
330
22
100
AcDbXrecord
280
     1
270
     1
271
     1
  0
XRECORD
  5
25
102
{ACAD_REACTORS
330
22
102
}
330
22
100
AcDbXrecord
280
     1
270
     1
271
     1
  0
XRECORD
  5
10B4
102
{ACAD_REACTORS
330
10B3
102
}
330
10B3
100
AcDbXrecord
280
     1
102
ACAD_ROUNDTRIP_2012_MLEADER_STYLE
298
     1
  0
CELLSTYLEMAP
  5
10B2
102
{ACAD_REACTORS
330
E57
102
}
330
E57
100
AcDbCellStyleMap
 90
        3
300
CELLSTYLE
  1
TABLEFORMAT_BEGIN
 90
        5
170
     1
 91
        0
 92
    32768
 62
   257
 93
        1
300
CONTENTFORMAT
  1
CONTENTFORMAT_BEGIN
 90
        0
 91
        0
 92
      512
 93
        0
300

 40
0.0
140
1.0
 94
        5
 62
     0
340
55
144
0.25
309
CONTENTFORMAT_END
171
     0
 94
        6
 95
        1
302
GRIDFORMAT
  1
GRIDFORMAT_BEGIN
 90
        0
 91
        1
 62
     0
 92
       -2
340
0
 93
        0
 40
0.045
309
GRIDFORMAT_END
 95
        2
302
GRIDFORMAT
  1
GRIDFORMAT_BEGIN
 90
        0
 91
        1
 62
     0
 92
       -2
340
0
 93
        0
 40
0.045
309
GRIDFORMAT_END
 95
        4
302
GRIDFORMAT
  1
GRIDFORMAT_BEGIN
 90
        0
 91
        1
 62
     0
 92
       -2
340
0
 93
        0
 40
0.045
309
GRIDFORMAT_END
 95
        8
302
GRIDFORMAT
  1
GRIDFORMAT_BEGIN
 90
        0
 91
        1
 62
     0
 92
       -2
340
0
 93
        0
 40
0.045
309
GRIDFORMAT_END
 95
       16
302
GRIDFORMAT
  1
GRIDFORMAT_BEGIN
 90
        0
 91
        1
 62
     0
 92
       -2
340
0
 93
        0
 40
0.045
309
GRIDFORMAT_END
 95
       32
302
GRIDFORMAT
  1
GRIDFORMAT_BEGIN
 90
        0
 91
        1
 62
     0
 92
       -2
340
0
 93
        0
 40
0.045
309
GRIDFORMAT_END
309
TABLEFORMAT_END
  1
CELLSTYLE_BEGIN
 90
        1
 91
        1
300
_TITLE
309
CELLSTYLE_END
300
CELLSTYLE
  1
TABLEFORMAT_BEGIN
 90
        5
170
     1
 91
        0
 92
        0
 62
   257
 93
        1
300
CONTENTFORMAT
  1
CONTENTFORMAT_BEGIN
 90
        0
 91
        0
 92
      512
 93
        0
300

 40
0.0
140
1.0
 94
        5
 62
     0
340
55
144
0.18
309
CONTENTFORMAT_END
171
     0
 94
        6
 95
        1
302
GRIDFORMAT
  1
GRIDFORMAT_BEGIN
 90
        0
 91
        1
 62
     0
 92
       -2
340
0
 93
        0
 40
0.045
309
GRIDFORMAT_END
 95
        2
302
GRIDFORMAT
  1
GRIDFORMAT_BEGIN
 90
        0
 91
        1
 62
     0
 92
       -2
340
0
 93
        0
 40
0.045
309
GRIDFORMAT_END
 95
        4
302
GRIDFORMAT
  1
GRIDFORMAT_BEGIN
 90
        0
 91
        1
 62
     0
 92
       -2
340
0
 93
        0
 40
0.045
309
GRIDFORMAT_END
 95
        8
302
GRIDFORMAT
  1
GRIDFORMAT_BEGIN
 90
        0
 91
        1
 62
     0
 92
       -2
340
0
 93
        0
 40
0.045
309
GRIDFORMAT_END
 95
       16
302
GRIDFORMAT
  1
GRIDFORMAT_BEGIN
 90
        0
 91
        1
 62
     0
 92
       -2
340
0
 93
        0
 40
0.045
309
GRIDFORMAT_END
 95
       32
302
GRIDFORMAT
  1
GRIDFORMAT_BEGIN
 90
        0
 91
        1
 62
     0
 92
       -2
340
0
 93
        0
 40
0.045
309
GRIDFORMAT_END
309
TABLEFORMAT_END
  1
CELLSTYLE_BEGIN
 90
        2
 91
        1
300
_HEADER
309
CELLSTYLE_END
300
CELLSTYLE
  1
TABLEFORMAT_BEGIN
 90
        5
170
     1
 91
        0
 92
        0
 62
   257
 93
        1
300
CONTENTFORMAT
  1
CONTENTFORMAT_BEGIN
 90
        0
 91
        0
 92
      512
 93
        0
300

 40
0.0
140
1.0
 94
        2
 62
     0
340
55
144
0.18
309
CONTENTFORMAT_END
171
     0
 94
        6
 95
        1
302
GRIDFORMAT
  1
GRIDFORMAT_BEGIN
 90
        0
 91
        1
 62
     0
 92
       -2
340
0
 93
        0
 40
0.045
309
GRIDFORMAT_END
 95
        2
302
GRIDFORMAT
  1
GRIDFORMAT_BEGIN
 90
        0
 91
        1
 62
     0
 92
       -2
340
0
 93
        0
 40
0.045
309
GRIDFORMAT_END
 95
        4
302
GRIDFORMAT
  1
GRIDFORMAT_BEGIN
 90
        0
 91
        1
 62
     0
 92
       -2
340
0
 93
        0
 40
0.045
309
GRIDFORMAT_END
 95
        8
302
GRIDFORMAT
  1
GRIDFORMAT_BEGIN
 90
        0
 91
        1
 62
     0
 92
       -2
340
0
 93
        0
 40
0.045
309
GRIDFORMAT_END
 95
       16
302
GRIDFORMAT
  1
GRIDFORMAT_BEGIN
 90
        0
 91
        1
 62
     0
 92
       -2
340
0
 93
        0
 40
0.045
309
GRIDFORMAT_END
 95
       32
302
GRIDFORMAT
  1
GRIDFORMAT_BEGIN
 90
        0
 91
        1
 62
     0
 92
       -2
340
0
 93
        0
 40
0.045
309
GRIDFORMAT_END
309
TABLEFORMAT_END
  1
CELLSTYLE_BEGIN
 90
        3
 91
        2
300
_DATA
309
CELLSTYLE_END
  0
XRECORD
  5
10EA
102
{ACAD_REACTORS
330
E57
102
}
330
E57
100
AcDbXrecord
280
     1
102
ACAD_ROUNDTRIP_PRE2007_TABLESTYLE
 90
      512
 91
        0
  1

 92
      512
 93
        0
  2

 94
      512
 95
        0
  3

  0
XRECORD
  5
10C5
102
{ACAD_REACTORS
330
10C4
102
}
330
10C4
100
AcDbXrecord
280
     1
102
RTVSPropertyOp0
 70
     1
102
RTVSPropertyOp1
 70
     1
102
RTVSPropertyOp2
 70
     1
102
RTVSPropertyOp3
 70
     1
102
RTVSPropertyOp4
 70
     1
102
RTVSPropertyOp5
 70
     1
102
RTVSPropertyOp6
 70
     1
102
RTVSPropertyOp7
 70
     1
102
RTVSPropertyOp8
 70
     1
102
RTVSPropertyOp9
 70
     1
102
RTVSPropertyOp10
 70
     1
102
RTVSPropertyOp11
 70
     1
102
RTVSPropertyOp12
 70
     1
102
RTVSPropertyOp13
 70
     1
102
RTVSPropertyOp14
 70
     1
102
RTVSPropertyOp15
 70
     1
102
RTVSPropertyOp16
 70
     1
102
RTVSPropertyOp17
 70
     1
102
RTVSPropertyOp18
 70
     1
102
RTVSPropertyOp19
 70
     1
102
RTVSPropertyOp20
 70
     1
102
RTVSPropertyOp21
 70
     1
102
RTVSPropertyOp22
 70
     1
102
RTVSPropertyOp23
 70
     1
102
RTVSPropertyOp24
 70
     1
102
RTVSPropertyOp25
 70
     1
102
RTVSPropertyOp26
 70
     1
102
RTVSPropertyOp27
 70
     1
102
RTVSPropertyOp28
 70
     1
102
RTVSPropertyOp29
 70
     1
102
RTVSPropertyOp30
 70
     1
102
RTVSPropertyOp31
 70
     1
102
RTVSPropertyOp32
 70
     1
  0
XRECORD
  5
10C3
102
{ACAD_REACTORS
330
10C2
102
}
330
10C2
100
AcDbXrecord
280
     1
102
RTVSPropertyOp0
 70
     1
102
RTVSPropertyOp1
 70
     1
102
RTVSPropertyOp2
 70
     1
102
RTVSPropertyOp3
 70
     1
102
RTVSPropertyOp4
 70
     1
102
RTVSPropertyOp5
 70
     1
102
RTVSPropertyOp6
 70
     1
102
RTVSPropertyOp7
 70
     1
102
RTVSPropertyOp8
 70
     1
102
RTVSPropertyOp9
 70
     1
102
RTVSPropertyOp10
 70
     1
102
RTVSPropertyOp11
 70
     1
102
RTVSPropertyOp12
 70
     1
102
RTVSPropertyOp13
 70
     1
102
RTVSPropertyOp14
 70
     1
102
RTVSPropertyOp15
 70
     1
102
RTVSPropertyOp16
 70
     1
102
RTVSPropertyOp17
 70
     1
102
RTVSPropertyOp18
 70
     1
102
RTVSPropertyOp19
 70
     1
102
RTVSPropertyOp20
 70
     1
102
RTVSPropertyOp21
 70
     1
102
RTVSPropertyOp22
 70
     1
102
RTVSPropertyOp23
 70
     1
102
RTVSPropertyOp24
 70
     1
102
RTVSPropertyOp25
 70
     1
102
RTVSPropertyOp26
 70
     1
102
RTVSPropertyOp27
 70
     1
102
RTVSPropertyOp28
 70
     1
102
RTVSPropertyOp29
 70
     1
102
RTVSPropertyOp30
 70
     1
102
RTVSPropertyOp31
 70
     1
102
RTVSPropertyOp32
 70
     1
  0
XRECORD
  5
10D1
102
{ACAD_REACTORS
330
10D0
102
}
330
10D0
100
AcDbXrecord
280
     1
102
RTVSPropertyOp0
 70
     1
102
RTVSPropertyOp1
 70
     1
102
RTVSPropertyOp2
 70
     1
102
RTVSPropertyOp3
 70
     1
102
RTVSPropertyOp4
 70
     1
102
RTVSPropertyOp5
 70
     1
102
RTVSPropertyOp6
 70
     1
102
RTVSPropertyOp7
 70
     1
102
RTVSPropertyOp8
 70
     1
102
RTVSPropertyOp9
 70
     1
102
RTVSPropertyOp10
 70
     1
102
RTVSPropertyOp11
 70
     1
102
RTVSPropertyOp12
 70
     1
102
RTVSPropertyOp13
 70
     1
102
RTVSPropertyOp14
 70
     1
102
RTVSPropertyOp15
 70
     1
102
RTVSPropertyOp16
 70
     1
102
RTVSPropertyOp17
 70
     1
102
RTVSPropertyOp18
 70
     1
102
RTVSPropertyOp19
 70
     1
102
RTVSPropertyOp20
 70
     1
102
RTVSPropertyOp21
 70
     1
102
RTVSPropertyOp22
 70
     1
102
RTVSPropertyOp23
 70
     1
102
RTVSPropertyOp24
 70
     1
102
RTVSPropertyOp25
 70
     1
102
RTVSPropertyOp26
 70
     1
102
RTVSPropertyOp27
 70
     1
102
RTVSPropertyOp28
 70
     1
102
RTVSPropertyOp29
 70
     1
102
RTVSPropertyOp30
 70
     1
102
RTVSPropertyOp31
 70
     1
102
RTVSPropertyOp32
 70
     1
  0
XRECORD
  5
10D9
102
{ACAD_REACTORS
330
10D8
102
}
330
10D8
100
AcDbXrecord
280
     1
102
RTVSPropertyOp0
 70
     1
102
RTVSPropertyOp1
 70
     1
102
RTVSPropertyOp2
 70
     1
102
RTVSPropertyOp3
 70
     1
102
RTVSPropertyOp4
 70
     1
102
RTVSPropertyOp5
 70
     1
102
RTVSPropertyOp6
 70
     1
102
RTVSPropertyOp7
 70
     1
102
RTVSPropertyOp8
 70
     1
102
RTVSPropertyOp9
 70
     1
102
RTVSPropertyOp10
 70
     1
102
RTVSPropertyOp11
 70
     1
102
RTVSPropertyOp12
 70
     1
102
RTVSPropertyOp13
 70
     1
102
RTVSPropertyOp14
 70
     1
102
RTVSPropertyOp15
 70
     1
102
RTVSPropertyOp16
 70
     1
102
RTVSPropertyOp17
 70
     1
102
RTVSPropertyOp18
 70
     1
102
RTVSPropertyOp19
 70
     1
102
RTVSPropertyOp20
 70
     1
102
RTVSPropertyOp21
 70
     1
102
RTVSPropertyOp22
 70
     1
102
RTVSPropertyOp23
 70
     1
102
RTVSPropertyOp24
 70
     1
102
RTVSPropertyOp25
 70
     1
102
RTVSPropertyOp26
 70
     1
102
RTVSPropertyOp27
 70
     1
102
RTVSPropertyOp28
 70
     1
102
RTVSPropertyOp29
 70
     1
102
RTVSPropertyOp30
 70
     1
102
RTVSPropertyOp31
 70
     1
102
RTVSPropertyOp32
 70
     1
  0
XRECORD
  5
10CB
102
{ACAD_REACTORS
330
10CA
102
}
330
10CA
100
AcDbXrecord
280
     1
102
RTVSPropertyOp0
 70
     1
102
RTVSPropertyOp1
 70
     1
102
RTVSPropertyOp2
 70
     1
102
RTVSPropertyOp3
 70
     1
102
RTVSPropertyOp4
 70
     1
102
RTVSPropertyOp5
 70
     1
102
RTVSPropertyOp6
 70
     1
102
RTVSPropertyOp7
 70
     1
102
RTVSPropertyOp8
 70
     1
102
RTVSPropertyOp9
 70
     1
102
RTVSPropertyOp10
 70
     1
102
RTVSPropertyOp11
 70
     1
102
RTVSPropertyOp12
 70
     1
102
RTVSPropertyOp13
 70
     1
102
RTVSPropertyOp14
 70
     1
102
RTVSPropertyOp15
 70
     1
102
RTVSPropertyOp16
 70
     1
102
RTVSPropertyOp17
 70
     1
102
RTVSPropertyOp18
 70
     1
102
RTVSPropertyOp19
 70
     1
102
RTVSPropertyOp20
 70
     1
102
RTVSPropertyOp21
 70
     1
102
RTVSPropertyOp22
 70
     1
102
RTVSPropertyOp23
 70
     1
102
RTVSPropertyOp24
 70
     1
102
RTVSPropertyOp25
 70
     1
102
RTVSPropertyOp26
 70
     1
102
RTVSPropertyOp27
 70
     1
102
RTVSPropertyOp28
 70
     1
102
RTVSPropertyOp29
 70
     1
102
RTVSPropertyOp30
 70
     1
102
RTVSPropertyOp31
 70
     1
102
RTVSPropertyOp32
 70
     1
  0
XRECORD
  5
10CF
102
{ACAD_REACTORS
330
10CE
102
}
330
10CE
100
AcDbXrecord
280
     1
102
RTVSPropertyOp0
 70
     1
102
RTVSPropertyOp1
 70
     1
102
RTVSPropertyOp2
 70
     1
102
RTVSPropertyOp3
 70
     1
102
RTVSPropertyOp4
 70
     1
102
RTVSPropertyOp5
 70
     1
102
RTVSPropertyOp6
 70
     1
102
RTVSPropertyOp7
 70
     1
102
RTVSPropertyOp8
 70
     1
102
RTVSPropertyOp9
 70
     1
102
RTVSPropertyOp10
 70
     1
102
RTVSPropertyOp11
 70
     1
102
RTVSPropertyOp12
 70
     1
102
RTVSPropertyOp13
 70
     1
102
RTVSPropertyOp14
 70
     1
102
RTVSPropertyOp15
 70
     1
102
RTVSPropertyOp16
 70
     1
102
RTVSPropertyOp17
 70
     1
102
RTVSPropertyOp18
 70
     1
102
RTVSPropertyOp19
 70
     1
102
RTVSPropertyOp20
 70
     1
102
RTVSPropertyOp21
 70
     1
102
RTVSPropertyOp22
 70
     1
102
RTVSPropertyOp23
 70
     1
102
RTVSPropertyOp24
 70
     1
102
RTVSPropertyOp25
 70
     1
102
RTVSPropertyOp26
 70
     1
102
RTVSPropertyOp27
 70
     1
102
RTVSPropertyOp28
 70
     1
102
RTVSPropertyOp29
 70
     1
102
RTVSPropertyOp30
 70
     1
102
RTVSPropertyOp31
 70
     1
102
RTVSPropertyOp32
 70
     1
  0
XRECORD
  5
10E9
102
{ACAD_REACTORS
330
10E8
102
}
330
10E8
100
AcDbXrecord
280
     1
102
RTVSPropertyOp0
 70
     0
102
RTVSPropertyOp1
 70
     0
102
RTVSPropertyOp2
 70
     0
102
RTVSPropertyOp3
 70
     0
102
RTVSPropertyOp4
 70
     0
102
RTVSPropertyOp5
 70
     0
102
RTVSPropertyOp6
 70
     0
102
RTVSPropertyOp7
 70
     0
102
RTVSPropertyOp8
 70
     0
102
RTVSPropertyOp9
 70
     0
102
RTVSPropertyOp10
 70
     0
102
RTVSPropertyOp11
 70
     0
102
RTVSPropertyOp12
 70
     0
102
RTVSPropertyOp13
 70
     0
102
RTVSPropertyOp14
 70
     2
102
RTVSPropertyOp15
 70
     0
102
RTVSPropertyOp16
 70
     0
102
RTVSPropertyOp17
 70
     0
102
RTVSPropertyOp18
 70
     0
102
RTVSPropertyOp19
 70
     0
102
RTVSPropertyOp20
 70
     0
102
RTVSPropertyOp21
 70
     0
102
RTVSPropertyOp22
 70
     0
102
RTVSPropertyOp23
 70
     0
102
RTVSPropertyOp24
 70
     0
102
RTVSPropertyOp25
 70
     0
102
RTVSPropertyOp26
 70
     0
102
RTVSPropertyOp27
 70
     0
102
RTVSPropertyOp28
 70
     1
102
RTVSPropertyOp29
 70
     1
102
RTVSPropertyOp30
 70
     1
102
RTVSPropertyOp31
 70
     1
102
RTVSPropertyOp32
 70
     1
  0
XRECORD
  5
10D7
102
{ACAD_REACTORS
330
10D6
102
}
330
10D6
100
AcDbXrecord
280
     1
102
RTVSPropertyOp0
 70
     1
102
RTVSPropertyOp1
 70
     1
102
RTVSPropertyOp2
 70
     1
102
RTVSPropertyOp3
 70
     1
102
RTVSPropertyOp4
 70
     1
102
RTVSPropertyOp5
 70
     1
102
RTVSPropertyOp6
 70
     1
102
RTVSPropertyOp7
 70
     1
102
RTVSPropertyOp8
 70
     1
102
RTVSPropertyOp9
 70
     1
102
RTVSPropertyOp10
 70
     1
102
RTVSPropertyOp11
 70
     1
102
RTVSPropertyOp12
 70
     1
102
RTVSPropertyOp13
 70
     1
102
RTVSPropertyOp14
 70
     1
102
RTVSPropertyOp15
 70
     1
102
RTVSPropertyOp16
 70
     1
102
RTVSPropertyOp17
 70
     1
102
RTVSPropertyOp18
 70
     1
102
RTVSPropertyOp19
 70
     1
102
RTVSPropertyOp20
 70
     1
102
RTVSPropertyOp21
 70
     1
102
RTVSPropertyOp22
 70
     1
102
RTVSPropertyOp23
 70
     1
102
RTVSPropertyOp24
 70
     1
102
RTVSPropertyOp25
 70
     1
102
RTVSPropertyOp26
 70
     1
102
RTVSPropertyOp27
 70
     1
102
RTVSPropertyOp28
 70
     1
102
RTVSPropertyOp29
 70
     1
102
RTVSPropertyOp30
 70
     1
102
RTVSPropertyOp31
 70
     1
102
RTVSPropertyOp32
 70
     1
  0
XRECORD
  5
10BB
102
{ACAD_REACTORS
330
10BA
102
}
330
10BA
100
AcDbXrecord
280
     1
102
RTVSPropertyOp0
 70
     1
102
RTVSPropertyOp1
 70
     1
102
RTVSPropertyOp2
 70
     1
102
RTVSPropertyOp3
 70
     1
102
RTVSPropertyOp4
 70
     1
102
RTVSPropertyOp5
 70
     1
102
RTVSPropertyOp6
 70
     1
102
RTVSPropertyOp7
 70
     1
102
RTVSPropertyOp8
 70
     1
102
RTVSPropertyOp9
 70
     1
102
RTVSPropertyOp10
 70
     1
102
RTVSPropertyOp11
 70
     1
102
RTVSPropertyOp12
 70
     1
102
RTVSPropertyOp13
 70
     1
102
RTVSPropertyOp14
 70
     1
102
RTVSPropertyOp15
 70
     1
102
RTVSPropertyOp16
 70
     1
102
RTVSPropertyOp17
 70
     1
102
RTVSPropertyOp18
 70
     1
102
RTVSPropertyOp19
 70
     1
102
RTVSPropertyOp20
 70
     1
102
RTVSPropertyOp21
 70
     1
102
RTVSPropertyOp22
 70
     1
102
RTVSPropertyOp23
 70
     1
102
RTVSPropertyOp24
 70
     1
102
RTVSPropertyOp25
 70
     1
102
RTVSPropertyOp26
 70
     1
102
RTVSPropertyOp27
 70
     1
102
RTVSPropertyOp28
 70
     1
102
RTVSPropertyOp29
 70
     1
102
RTVSPropertyOp30
 70
     1
102
RTVSPropertyOp31
 70
     1
102
RTVSPropertyOp32
 70
     1
  0
XRECORD
  5
10BD
102
{ACAD_REACTORS
330
10BC
102
}
330
10BC
100
AcDbXrecord
280
     1
102
RTVSPropertyOp0
 70
     1
102
RTVSPropertyOp1
 70
     1
102
RTVSPropertyOp2
 70
     1
102
RTVSPropertyOp3
 70
     1
102
RTVSPropertyOp4
 70
     1
102
RTVSPropertyOp5
 70
     1
102
RTVSPropertyOp6
 70
     1
102
RTVSPropertyOp7
 70
     1
102
RTVSPropertyOp8
 70
     1
102
RTVSPropertyOp9
 70
     1
102
RTVSPropertyOp10
 70
     1
102
RTVSPropertyOp11
 70
     1
102
RTVSPropertyOp12
 70
     1
102
RTVSPropertyOp13
 70
     1
102
RTVSPropertyOp14
 70
     1
102
RTVSPropertyOp15
 70
     1
102
RTVSPropertyOp16
 70
     1
102
RTVSPropertyOp17
 70
     1
102
RTVSPropertyOp18
 70
     1
102
RTVSPropertyOp19
 70
     1
102
RTVSPropertyOp20
 70
     1
102
RTVSPropertyOp21
 70
     1
102
RTVSPropertyOp22
 70
     1
102
RTVSPropertyOp23
 70
     1
102
RTVSPropertyOp24
 70
     1
102
RTVSPropertyOp25
 70
     1
102
RTVSPropertyOp26
 70
     1
102
RTVSPropertyOp27
 70
     1
102
RTVSPropertyOp28
 70
     1
102
RTVSPropertyOp29
 70
     1
102
RTVSPropertyOp30
 70
     1
102
RTVSPropertyOp31
 70
     1
102
RTVSPropertyOp32
 70
     1
  0
XRECORD
  5
10BF
102
{ACAD_REACTORS
330
10BE
102
}
330
10BE
100
AcDbXrecord
280
     1
102
RTVSPropertyOp0
 70
     1
102
RTVSPropertyOp1
 70
     1
102
RTVSPropertyOp2
 70
     1
102
RTVSPropertyOp3
 70
     1
102
RTVSPropertyOp4
 70
     1
102
RTVSPropertyOp5
 70
     1
102
RTVSPropertyOp6
 70
     1
102
RTVSPropertyOp7
 70
     1
102
RTVSPropertyOp8
 70
     1
102
RTVSPropertyOp9
 70
     1
102
RTVSPropertyOp10
 70
     1
102
RTVSPropertyOp11
 70
     1
102
RTVSPropertyOp12
 70
     1
102
RTVSPropertyOp13
 70
     1
102
RTVSPropertyOp14
 70
     1
102
RTVSPropertyOp15
 70
     1
102
RTVSPropertyOp16
 70
     1
102
RTVSPropertyOp17
 70
     1
102
RTVSPropertyOp18
 70
     1
102
RTVSPropertyOp19
 70
     1
102
RTVSPropertyOp20
 70
     1
102
RTVSPropertyOp21
 70
     1
102
RTVSPropertyOp22
 70
     1
102
RTVSPropertyOp23
 70
     1
102
RTVSPropertyOp24
 70
     1
102
RTVSPropertyOp25
 70
     1
102
RTVSPropertyOp26
 70
     1
102
RTVSPropertyOp27
 70
     1
102
RTVSPropertyOp28
 70
     1
102
RTVSPropertyOp29
 70
     1
102
RTVSPropertyOp30
 70
     1
102
RTVSPropertyOp31
 70
     1
102
RTVSPropertyOp32
 70
     1
  0
XRECORD
  5
10C1
102
{ACAD_REACTORS
330
10C0
102
}
330
10C0
100
AcDbXrecord
280
     1
102
RTVSPropertyOp0
 70
     1
102
RTVSPropertyOp1
 70
     1
102
RTVSPropertyOp2
 70
     1
102
RTVSPropertyOp3
 70
     1
102
RTVSPropertyOp4
 70
     1
102
RTVSPropertyOp5
 70
     1
102
RTVSPropertyOp6
 70
     1
102
RTVSPropertyOp7
 70
     1
102
RTVSPropertyOp8
 70
     1
102
RTVSPropertyOp9
 70
     1
102
RTVSPropertyOp10
 70
     1
102
RTVSPropertyOp11
 70
     1
102
RTVSPropertyOp12
 70
     1
102
RTVSPropertyOp13
 70
     1
102
RTVSPropertyOp14
 70
     1
102
RTVSPropertyOp15
 70
     1
102
RTVSPropertyOp16
 70
     1
102
RTVSPropertyOp17
 70
     1
102
RTVSPropertyOp18
 70
     1
102
RTVSPropertyOp19
 70
     1
102
RTVSPropertyOp20
 70
     1
102
RTVSPropertyOp21
 70
     1
102
RTVSPropertyOp22
 70
     1
102
RTVSPropertyOp23
 70
     1
102
RTVSPropertyOp24
 70
     1
102
RTVSPropertyOp25
 70
     1
102
RTVSPropertyOp26
 70
     1
102
RTVSPropertyOp27
 70
     1
102
RTVSPropertyOp28
 70
     1
102
RTVSPropertyOp29
 70
     1
102
RTVSPropertyOp30
 70
     1
102
RTVSPropertyOp31
 70
     1
102
RTVSPropertyOp32
 70
     1
  0
XRECORD
  5
10C9
102
{ACAD_REACTORS
330
10C8
102
}
330
10C8
100
AcDbXrecord
280
     1
102
RTVSPropertyOp0
 70
     1
102
RTVSPropertyOp1
 70
     1
102
RTVSPropertyOp2
 70
     1
102
RTVSPropertyOp3
 70
     1
102
RTVSPropertyOp4
 70
     1
102
RTVSPropertyOp5
 70
     1
102
RTVSPropertyOp6
 70
     1
102
RTVSPropertyOp7
 70
     1
102
RTVSPropertyOp8
 70
     1
102
RTVSPropertyOp9
 70
     1
102
RTVSPropertyOp10
 70
     1
102
RTVSPropertyOp11
 70
     1
102
RTVSPropertyOp12
 70
     1
102
RTVSPropertyOp13
 70
     1
102
RTVSPropertyOp14
 70
     1
102
RTVSPropertyOp15
 70
     1
102
RTVSPropertyOp16
 70
     1
102
RTVSPropertyOp17
 70
     1
102
RTVSPropertyOp18
 70
     1
102
RTVSPropertyOp19
 70
     1
102
RTVSPropertyOp20
 70
     1
102
RTVSPropertyOp21
 70
     1
102
RTVSPropertyOp22
 70
     1
102
RTVSPropertyOp23
 70
     1
102
RTVSPropertyOp24
 70
     1
102
RTVSPropertyOp25
 70
     1
102
RTVSPropertyOp26
 70
     1
102
RTVSPropertyOp27
 70
     1
102
RTVSPropertyOp28
 70
     1
102
RTVSPropertyOp29
 70
     1
102
RTVSPropertyOp30
 70
     1
102
RTVSPropertyOp31
 70
     1
102
RTVSPropertyOp32
 70
     1
  0
XRECORD
  5
10E5
102
{ACAD_REACTORS
330
10E4
102
}
330
10E4
100
AcDbXrecord
280
     1
102
RTVSPropertyOp0
 70
     0
102
RTVSPropertyOp1
 70
     0
102
RTVSPropertyOp2
 70
     0
102
RTVSPropertyOp3
 70
     0
102
RTVSPropertyOp4
 70
     0
102
RTVSPropertyOp5
 70
     0
102
RTVSPropertyOp6
 70
     0
102
RTVSPropertyOp7
 70
     0
102
RTVSPropertyOp8
 70
     0
102
RTVSPropertyOp9
 70
     0
102
RTVSPropertyOp10
 70
     0
102
RTVSPropertyOp11
 70
     0
102
RTVSPropertyOp12
 70
     0
102
RTVSPropertyOp13
 70
     0
102
RTVSPropertyOp14
 70
     2
102
RTVSPropertyOp15
 70
     0
102
RTVSPropertyOp16
 70
     0
102
RTVSPropertyOp17
 70
     0
102
RTVSPropertyOp18
 70
     0
102
RTVSPropertyOp19
 70
     0
102
RTVSPropertyOp20
 70
     0
102
RTVSPropertyOp21
 70
     0
102
RTVSPropertyOp22
 70
     0
102
RTVSPropertyOp23
 70
     0
102
RTVSPropertyOp24
 70
     0
102
RTVSPropertyOp25
 70
     0
102
RTVSPropertyOp26
 70
     0
102
RTVSPropertyOp27
 70
     0
102
RTVSPropertyOp28
 70
     1
102
RTVSPropertyOp29
 70
     1
102
RTVSPropertyOp30
 70
     1
102
RTVSPropertyOp31
 70
     1
102
RTVSPropertyOp32
 70
     1
  0
XRECORD
  5
10D5
102
{ACAD_REACTORS
330
10D4
102
}
330
10D4
100
AcDbXrecord
280
     1
102
RTVSPropertyOp0
 70
     1
102
RTVSPropertyOp1
 70
     1
102
RTVSPropertyOp2
 70
     1
102
RTVSPropertyOp3
 70
     1
102
RTVSPropertyOp4
 70
     1
102
RTVSPropertyOp5
 70
     1
102
RTVSPropertyOp6
 70
     1
102
RTVSPropertyOp7
 70
     1
102
RTVSPropertyOp8
 70
     1
102
RTVSPropertyOp9
 70
     1
102
RTVSPropertyOp10
 70
     1
102
RTVSPropertyOp11
 70
     1
102
RTVSPropertyOp12
 70
     1
102
RTVSPropertyOp13
 70
     1
102
RTVSPropertyOp14
 70
     1
102
RTVSPropertyOp15
 70
     1
102
RTVSPropertyOp16
 70
     1
102
RTVSPropertyOp17
 70
     1
102
RTVSPropertyOp18
 70
     1
102
RTVSPropertyOp19
 70
     1
102
RTVSPropertyOp20
 70
     1
102
RTVSPropertyOp21
 70
     1
102
RTVSPropertyOp22
 70
     1
102
RTVSPropertyOp23
 70
     1
102
RTVSPropertyOp24
 70
     1
102
RTVSPropertyOp25
 70
     1
102
RTVSPropertyOp26
 70
     1
102
RTVSPropertyOp27
 70
     1
102
RTVSPropertyOp28
 70
     1
102
RTVSPropertyOp29
 70
     1
102
RTVSPropertyOp30
 70
     1
102
RTVSPropertyOp31
 70
     1
102
RTVSPropertyOp32
 70
     1
  0
XRECORD
  5
10E7
102
{ACAD_REACTORS
330
10E6
102
}
330
10E6
100
AcDbXrecord
280
     1
102
RTVSPropertyOp0
 70
     0
102
RTVSPropertyOp1
 70
     0
102
RTVSPropertyOp2
 70
     0
102
RTVSPropertyOp3
 70
     0
102
RTVSPropertyOp4
 70
     0
102
RTVSPropertyOp5
 70
     0
102
RTVSPropertyOp6
 70
     0
102
RTVSPropertyOp7
 70
     0
102
RTVSPropertyOp8
 70
     0
102
RTVSPropertyOp9
 70
     0
102
RTVSPropertyOp10
 70
     0
102
RTVSPropertyOp11
 70
     0
102
RTVSPropertyOp12
 70
     0
102
RTVSPropertyOp13
 70
     0
102
RTVSPropertyOp14
 70
     2
102
RTVSPropertyOp15
 70
     0
102
RTVSPropertyOp16
 70
     0
102
RTVSPropertyOp17
 70
     0
102
RTVSPropertyOp18
 70
     0
102
RTVSPropertyOp19
 70
     0
102
RTVSPropertyOp20
 70
     0
102
RTVSPropertyOp21
 70
     0
102
RTVSPropertyOp22
 70
     0
102
RTVSPropertyOp23
 70
     0
102
RTVSPropertyOp24
 70
     0
102
RTVSPropertyOp25
 70
     0
102
RTVSPropertyOp26
 70
     0
102
RTVSPropertyOp27
 70
     0
102
RTVSPropertyOp28
 70
     1
102
RTVSPropertyOp29
 70
     1
102
RTVSPropertyOp30
 70
     1
102
RTVSPropertyOp31
 70
     1
102
RTVSPropertyOp32
 70
     1
  0
XRECORD
  5
10CD
102
{ACAD_REACTORS
330
10CC
102
}
330
10CC
100
AcDbXrecord
280
     1
102
RTVSPropertyOp0
 70
     1
102
RTVSPropertyOp1
 70
     1
102
RTVSPropertyOp2
 70
     1
102
RTVSPropertyOp3
 70
     1
102
RTVSPropertyOp4
 70
     1
102
RTVSPropertyOp5
 70
     1
102
RTVSPropertyOp6
 70
     1
102
RTVSPropertyOp7
 70
     1
102
RTVSPropertyOp8
 70
     1
102
RTVSPropertyOp9
 70
     1
102
RTVSPropertyOp10
 70
     1
102
RTVSPropertyOp11
 70
     1
102
RTVSPropertyOp12
 70
     1
102
RTVSPropertyOp13
 70
     1
102
RTVSPropertyOp14
 70
     1
102
RTVSPropertyOp15
 70
     1
102
RTVSPropertyOp16
 70
     1
102
RTVSPropertyOp17
 70
     1
102
RTVSPropertyOp18
 70
     1
102
RTVSPropertyOp19
 70
     1
102
RTVSPropertyOp20
 70
     1
102
RTVSPropertyOp21
 70
     1
102
RTVSPropertyOp22
 70
     1
102
RTVSPropertyOp23
 70
     1
102
RTVSPropertyOp24
 70
     1
102
RTVSPropertyOp25
 70
     1
102
RTVSPropertyOp26
 70
     1
102
RTVSPropertyOp27
 70
     1
102
RTVSPropertyOp28
 70
     1
102
RTVSPropertyOp29
 70
     1
102
RTVSPropertyOp30
 70
     1
102
RTVSPropertyOp31
 70
     1
102
RTVSPropertyOp32
 70
     1
  0
XRECORD
  5
10E3
102
{ACAD_REACTORS
330
10E2
102
}
330
10E2
100
AcDbXrecord
280
     1
102
RTVSPropertyOp0
 70
     1
102
RTVSPropertyOp1
 70
     1
102
RTVSPropertyOp2
 70
     1
102
RTVSPropertyOp3
 70
     1
102
RTVSPropertyOp4
 70
     1
102
RTVSPropertyOp5
 70
     1
102
RTVSPropertyOp6
 70
     1
102
RTVSPropertyOp7
 70
     1
102
RTVSPropertyOp8
 70
     1
102
RTVSPropertyOp9
 70
     1
102
RTVSPropertyOp10
 70
     1
102
RTVSPropertyOp11
 70
     1
102
RTVSPropertyOp12
 70
     1
102
RTVSPropertyOp13
 70
     1
102
RTVSPropertyOp14
 70
     1
102
RTVSPropertyOp15
 70
     1
102
RTVSPropertyOp16
 70
     1
102
RTVSPropertyOp17
 70
     1
102
RTVSPropertyOp18
 70
     1
102
RTVSPropertyOp19
 70
     1
102
RTVSPropertyOp20
 70
     1
102
RTVSPropertyOp21
 70
     1
102
RTVSPropertyOp22
 70
     1
102
RTVSPropertyOp23
 70
     1
102
RTVSPropertyOp24
 70
     1
102
RTVSPropertyOp25
 70
     1
102
RTVSPropertyOp26
 70
     1
102
RTVSPropertyOp27
 70
     1
102
RTVSPropertyOp28
 70
     1
102
RTVSPropertyOp29
 70
     1
102
RTVSPropertyOp30
 70
     1
102
RTVSPropertyOp31
 70
     1
102
RTVSPropertyOp32
 70
     1
  0
XRECORD
  5
10E1
102
{ACAD_REACTORS
330
10E0
102
}
330
10E0
100
AcDbXrecord
280
     1
102
RTVSPropertyOp0
 70
     1
102
RTVSPropertyOp1
 70
     1
102
RTVSPropertyOp2
 70
     1
102
RTVSPropertyOp3
 70
     1
102
RTVSPropertyOp4
 70
     1
102
RTVSPropertyOp5
 70
     1
102
RTVSPropertyOp6
 70
     1
102
RTVSPropertyOp7
 70
     1
102
RTVSPropertyOp8
 70
     1
102
RTVSPropertyOp9
 70
     1
102
RTVSPropertyOp10
 70
     1
102
RTVSPropertyOp11
 70
     1
102
RTVSPropertyOp12
 70
     1
102
RTVSPropertyOp13
 70
     1
102
RTVSPropertyOp14
 70
     1
102
RTVSPropertyOp15
 70
     1
102
RTVSPropertyOp16
 70
     1
102
RTVSPropertyOp17
 70
     1
102
RTVSPropertyOp18
 70
     1
102
RTVSPropertyOp19
 70
     1
102
RTVSPropertyOp20
 70
     1
102
RTVSPropertyOp21
 70
     1
102
RTVSPropertyOp22
 70
     1
102
RTVSPropertyOp23
 70
     1
102
RTVSPropertyOp24
 70
     1
102
RTVSPropertyOp25
 70
     1
102
RTVSPropertyOp26
 70
     1
102
RTVSPropertyOp27
 70
     1
102
RTVSPropertyOp28
 70
     1
102
RTVSPropertyOp29
 70
     1
102
RTVSPropertyOp30
 70
     1
102
RTVSPropertyOp31
 70
     1
102
RTVSPropertyOp32
 70
     1
  0
XRECORD
  5
10DB
102
{ACAD_REACTORS
330
10DA
102
}
330
10DA
100
AcDbXrecord
280
     1
102
RTVSPropertyOp0
 70
     1
102
RTVSPropertyOp1
 70
     1
102
RTVSPropertyOp2
 70
     1
102
RTVSPropertyOp3
 70
     1
102
RTVSPropertyOp4
 70
     1
102
RTVSPropertyOp5
 70
     1
102
RTVSPropertyOp6
 70
     1
102
RTVSPropertyOp7
 70
     1
102
RTVSPropertyOp8
 70
     1
102
RTVSPropertyOp9
 70
     1
102
RTVSPropertyOp10
 70
     1
102
RTVSPropertyOp11
 70
     1
102
RTVSPropertyOp12
 70
     1
102
RTVSPropertyOp13
 70
     1
102
RTVSPropertyOp14
 70
     1
102
RTVSPropertyOp15
 70
     1
102
RTVSPropertyOp16
 70
     1
102
RTVSPropertyOp17
 70
     1
102
RTVSPropertyOp18
 70
     1
102
RTVSPropertyOp19
 70
     1
102
RTVSPropertyOp20
 70
     1
102
RTVSPropertyOp21
 70
     1
102
RTVSPropertyOp22
 70
     1
102
RTVSPropertyOp23
 70
     1
102
RTVSPropertyOp24
 70
     1
102
RTVSPropertyOp25
 70
     1
102
RTVSPropertyOp26
 70
     1
102
RTVSPropertyOp27
 70
     1
102
RTVSPropertyOp28
 70
     1
102
RTVSPropertyOp29
 70
     1
102
RTVSPropertyOp30
 70
     1
102
RTVSPropertyOp31
 70
     1
102
RTVSPropertyOp32
 70
     1
  0
XRECORD
  5
10DD
102
{ACAD_REACTORS
330
10DC
102
}
330
10DC
100
AcDbXrecord
280
     1
102
RTVSPropertyOp0
 70
     1
102
RTVSPropertyOp1
 70
     1
102
RTVSPropertyOp2
 70
     1
102
RTVSPropertyOp3
 70
     1
102
RTVSPropertyOp4
 70
     1
102
RTVSPropertyOp5
 70
     1
102
RTVSPropertyOp6
 70
     1
102
RTVSPropertyOp7
 70
     1
102
RTVSPropertyOp8
 70
     1
102
RTVSPropertyOp9
 70
     1
102
RTVSPropertyOp10
 70
     1
102
RTVSPropertyOp11
 70
     1
102
RTVSPropertyOp12
 70
     1
102
RTVSPropertyOp13
 70
     1
102
RTVSPropertyOp14
 70
     1
102
RTVSPropertyOp15
 70
     1
102
RTVSPropertyOp16
 70
     1
102
RTVSPropertyOp17
 70
     1
102
RTVSPropertyOp18
 70
     1
102
RTVSPropertyOp19
 70
     1
102
RTVSPropertyOp20
 70
     1
102
RTVSPropertyOp21
 70
     1
102
RTVSPropertyOp22
 70
     1
102
RTVSPropertyOp23
 70
     1
102
RTVSPropertyOp24
 70
     1
102
RTVSPropertyOp25
 70
     1
102
RTVSPropertyOp26
 70
     1
102
RTVSPropertyOp27
 70
     1
102
RTVSPropertyOp28
 70
     1
102
RTVSPropertyOp29
 70
     1
102
RTVSPropertyOp30
 70
     1
102
RTVSPropertyOp31
 70
     1
102
RTVSPropertyOp32
 70
     1
  0
XRECORD
  5
10D3
102
{ACAD_REACTORS
330
10D2
102
}
330
10D2
100
AcDbXrecord
280
     1
102
RTVSPropertyOp0
 70
     1
102
RTVSPropertyOp1
 70
     1
102
RTVSPropertyOp2
 70
     1
102
RTVSPropertyOp3
 70
     1
102
RTVSPropertyOp4
 70
     1
102
RTVSPropertyOp5
 70
     1
102
RTVSPropertyOp6
 70
     1
102
RTVSPropertyOp7
 70
     1
102
RTVSPropertyOp8
 70
     1
102
RTVSPropertyOp9
 70
     1
102
RTVSPropertyOp10
 70
     1
102
RTVSPropertyOp11
 70
     1
102
RTVSPropertyOp12
 70
     1
102
RTVSPropertyOp13
 70
     1
102
RTVSPropertyOp14
 70
     1
102
RTVSPropertyOp15
 70
     1
102
RTVSPropertyOp16
 70
     1
102
RTVSPropertyOp17
 70
     1
102
RTVSPropertyOp18
 70
     1
102
RTVSPropertyOp19
 70
     1
102
RTVSPropertyOp20
 70
     1
102
RTVSPropertyOp21
 70
     1
102
RTVSPropertyOp22
 70
     1
102
RTVSPropertyOp23
 70
     1
102
RTVSPropertyOp24
 70
     1
102
RTVSPropertyOp25
 70
     1
102
RTVSPropertyOp26
 70
     1
102
RTVSPropertyOp27
 70
     1
102
RTVSPropertyOp28
 70
     1
102
RTVSPropertyOp29
 70
     1
102
RTVSPropertyOp30
 70
     1
102
RTVSPropertyOp31
 70
     1
102
RTVSPropertyOp32
 70
     1
  0
XRECORD
  5
10C7
102
{ACAD_REACTORS
330
10C6
102
}
330
10C6
100
AcDbXrecord
280
     1
102
RTVSPropertyOp0
 70
     1
102
RTVSPropertyOp1
 70
     1
102
RTVSPropertyOp2
 70
     1
102
RTVSPropertyOp3
 70
     1
102
RTVSPropertyOp4
 70
     1
102
RTVSPropertyOp5
 70
     1
102
RTVSPropertyOp6
 70
     1
102
RTVSPropertyOp7
 70
     1
102
RTVSPropertyOp8
 70
     1
102
RTVSPropertyOp9
 70
     1
102
RTVSPropertyOp10
 70
     1
102
RTVSPropertyOp11
 70
     1
102
RTVSPropertyOp12
 70
     1
102
RTVSPropertyOp13
 70
     1
102
RTVSPropertyOp14
 70
     1
102
RTVSPropertyOp15
 70
     1
102
RTVSPropertyOp16
 70
     1
102
RTVSPropertyOp17
 70
     1
102
RTVSPropertyOp18
 70
     1
102
RTVSPropertyOp19
 70
     1
102
RTVSPropertyOp20
 70
     1
102
RTVSPropertyOp21
 70
     1
102
RTVSPropertyOp22
 70
     1
102
RTVSPropertyOp23
 70
     1
102
RTVSPropertyOp24
 70
     1
102
RTVSPropertyOp25
 70
     1
102
RTVSPropertyOp26
 70
     1
102
RTVSPropertyOp27
 70
     1
102
RTVSPropertyOp28
 70
     1
102
RTVSPropertyOp29
 70
     1
102
RTVSPropertyOp30
 70
     1
102
RTVSPropertyOp31
 70
     1
102
RTVSPropertyOp32
 70
     1
  0
XRECORD
  5
10DF
102
{ACAD_REACTORS
330
10DE
102
}
330
10DE
100
AcDbXrecord
280
     1
102
RTVSPropertyOp0
 70
     1
102
RTVSPropertyOp1
 70
     1
102
RTVSPropertyOp2
 70
     1
102
RTVSPropertyOp3
 70
     1
102
RTVSPropertyOp4
 70
     1
102
RTVSPropertyOp5
 70
     1
102
RTVSPropertyOp6
 70
     1
102
RTVSPropertyOp7
 70
     1
102
RTVSPropertyOp8
 70
     1
102
RTVSPropertyOp9
 70
     1
102
RTVSPropertyOp10
 70
     1
102
RTVSPropertyOp11
 70
     1
102
RTVSPropertyOp12
 70
     1
102
RTVSPropertyOp13
 70
     1
102
RTVSPropertyOp14
 70
     1
102
RTVSPropertyOp15
 70
     1
102
RTVSPropertyOp16
 70
     1
102
RTVSPropertyOp17
 70
     1
102
RTVSPropertyOp18
 70
     1
102
RTVSPropertyOp19
 70
     1
102
RTVSPropertyOp20
 70
     1
102
RTVSPropertyOp21
 70
     1
102
RTVSPropertyOp22
 70
     1
102
RTVSPropertyOp23
 70
     1
102
RTVSPropertyOp24
 70
     1
102
RTVSPropertyOp25
 70
     1
102
RTVSPropertyOp26
 70
     1
102
RTVSPropertyOp27
 70
     1
102
RTVSPropertyOp28
 70
     1
102
RTVSPropertyOp29
 70
     1
102
RTVSPropertyOp30
 70
     1
102
RTVSPropertyOp31
 70
     1
102
RTVSPropertyOp32
 70
     1
  0
ENDSEC
  0
EOF
