  0
SECTION
  2
HEADER
  9
$ACADVER
  1
AC1015
  9
$ACADMAINTVER
 70
    20
  9
$DWGCODEPAGE
  3
ANSI_1252
  9
$INSBASE
 10
0.0
 20
0.0
 30
0.0
  9
$EXTMIN
 10
0.0
 20
0.0
 30
0.0
  9
$EXTMAX
 10
29.50000000000001
 20
36.0
 30
0.0
  9
$LIMMIN
 10
0.0
 20
0.0
  9
$LIMMAX
 10
12.0
 20
9.0
  9
$ORTHOMODE
 70
     1
  9
$REGENMODE
 70
     1
  9
$FILLMODE
 70
     1
  9
$QTEXTMODE
 70
     0
  9
$MIRRTEXT
 70
     0
  9
$LTSCALE
 40
0.5
  9
$ATTMODE
 70
     1
  9
$TEXTSIZE
 40
1.0
  9
$TRACEWID
 40
0.05
  9
$TEXTSTYLE
  7
ARCHQUIK
  9
$CLAYER
  8
0
  9
$CELTYPE
  6
ByLayer
  9
$CECOLOR
 62
   256
  9
$CELTSCALE
 40
1.0
  9
$DISPSILH
 70
     0
  9
$DIMSCALE
 40
1.0
  9
$DIMASZ
 40
0.0833333333333333
  9
$DIMEXO
 40
0.5
  9
$DIMDLI
 40
0.2
  9
$DIMRND
 40
0.0
  9
$DIMDLE
 40
0.0
  9
$DIMEXE
 40
0.125
  9
$DIMTP
 40
0.0
  9
$DIMTM
 40
0.0
  9
$DIMTXT
 40
0.08
  9
$DIMCEN
 40
0.09
  9
$DIMTSZ
 40
0.0
  9
$DIMTOL
 70
     0
  9
$DIMLIM
 70
     0
  9
$DIMTIH
 70
     0
  9
$DIMTOH
 70
     0
  9
$DIMSE1
 70
     0
  9
$DIMSE2
 70
     0
  9
$DIMTAD
 70
     1
  9
$DIMZIN
 70
    10
  9
$DIMBLK
  1

  9
$DIMASO
 70
     1
  9
$DIMSHO
 70
     1
  9
$DIMPOST
  1
"\X
  9
$DIMAPOST
  1

  9
$DIMALT
 70
     1
  9
$DIMALTD
 70
     0
  9
$DIMALTF
 40
25.4
  9
$DIMLFAC
 40
1.0
  9
$DIMTOFL
 70
     0
  9
$DIMTVP
 40
0.0
  9
$DIMTIX
 70
     0
  9
$DIMSOXD
 70
     0
  9
$DIMSAH
 70
     0
  9
$DIMBLK1
  1

  9
$DIMBLK2
  1

  9
$DIMSTYLE
  2
3 inch Scale
  9
$DIMCLRD
 70
   256
  9
$DIMCLRE
 70
   256
  9
$DIMCLRT
 70
   255
  9
$DIMTFAC
 40
0.75
  9
$DIMGAP
 40
0.125
  9
$DIMJUST
 70
     0
  9
$DIMSD1
 70
     0
  9
$DIMSD2
 70
     0
  9
$DIMTOLJ
 70
     1
  9
$DIMTZIN
 70
     0
  9
$DIMALTZ
 70
     0
  9
$DIMALTTZ
 70
     0
  9
$DIMUPT
 70
     0
  9
$DIMDEC
 70
     4
  9
$DIMTDEC
 70
     4
  9
$DIMALTU
 70
     2
  9
$DIMALTTD
 70
     0
  9
$DIMTXSTY
  7
Standard
  9
$DIMAUNIT
 70
     0
  9
$DIMADEC
 70
     3
  9
$DIMALTRND
 40
0.0
  9
$DIMAZIN
 70
     0
  9
$DIMDSEP
 70
    46
  9
$DIMATFIT
 70
     3
  9
$DIMFRAC
 70
     2
  9
$DIMLDRBLK
  1

  9
$DIMLUNIT
 70
     5
  9
$DIMLWD
 70
    -1
  9
$DIMLWE
 70
    -1
  9
$DIMTMOVE
 70
     0
  9
$LUNITS
 70
     2
  9
$LUPREC
 70
     4
  9
$SKETCHINC
 40
0.1
  9
$FILLETRAD
 40
0.0
  9
$AUNITS
 70
     0
  9
$AUPREC
 70
     3
  9
$MENU
  1
.
  9
$ELEVATION
 40
0.0
  9
$PELEVATION
 40
0.0
  9
$THICKNESS
 40
0.0
  9
$LIMCHECK
 70
     0
  9
$CHAMFERA
 40
0.5
  9
$CHAMFERB
 40
0.5
  9
$CHAMFERC
 40
1.0
  9
$CHAMFERD
 40
0.0
  9
$SKPOLY
 70
     0
  9
$TDCREATE
 40
2453439.481697118
  9
$TDUCREATE
 40
2453439.690030451
  9
$TDUPDATE
 40
2455636.421391840
  9
$TDUUPDATE
 40
2455636.629725174
  9
$TDINDWG
 40
2.7838906134
  9
$TDUSRTIMER
 40
2.7838900347
  9
$USRTIMER
 70
     1
  9
$ANGBASE
 50
0.0
  9
$ANGDIR
 70
     0
  9
$PDMODE
 70
    34
  9
$PDSIZE
 40
0.016
  9
$PLINEWID
 40
0.0
  9
$SPLFRAME
 70
     0
  9
$SPLINETYPE
 70
     6
  9
$SPLINESEGS
 70
     8
  9
$HANDSEED
  5
193AB
  9
$SURFTAB1
 70
     6
  9
$SURFTAB2
 70
     6
  9
$SURFTYPE
 70
     6
  9
$SURFU
 70
     6
  9
$SURFV
 70
     6
  9
$UCSBASE
  2

  9
$UCSNAME
  2

  9
$UCSORG
 10
0.0
 20
0.0
 30
0.0
  9
$UCSXDIR
 10
1.0
 20
0.0
 30
0.0
  9
$UCSYDIR
 10
0.0
 20
1.0
 30
0.0
  9
$UCSORTHOREF
  2

  9
$UCSORTHOVIEW
 70
     0
  9
$UCSORGTOP
 10
0.0
 20
0.0
 30
0.0
  9
$UCSORGBOTTOM
 10
0.0
 20
0.0
 30
0.0
  9
$UCSORGLEFT
 10
0.0
 20
0.0
 30
0.0
  9
$UCSORGRIGHT
 10
0.0
 20
0.0
 30
0.0
  9
$UCSORGFRONT
 10
0.0
 20
0.0
 30
0.0
  9
$UCSORGBACK
 10
0.0
 20
0.0
 30
0.0
  9
$PUCSBASE
  2

  9
$PUCSNAME
  2

  9
$PUCSORG
 10
0.0
 20
0.0
 30
0.0
  9
$PUCSXDIR
 10
1.0
 20
0.0
 30
0.0
  9
$PUCSYDIR
 10
0.0
 20
1.0
 30
0.0
  9
$PUCSORTHOREF
  2

  9
$PUCSORTHOVIEW
 70
     0
  9
$PUCSORGTOP
 10
0.0
 20
0.0
 30
0.0
  9
$PUCSORGBOTTOM
 10
0.0
 20
0.0
 30
0.0
  9
$PUCSORGLEFT
 10
0.0
 20
0.0
 30
0.0
  9
$PUCSORGRIGHT
 10
0.0
 20
0.0
 30
0.0
  9
$PUCSORGFRONT
 10
0.0
 20
0.0
 30
0.0
  9
$PUCSORGBACK
 10
0.0
 20
0.0
 30
0.0
  9
$USERI1
 70
     0
  9
$USERI2
 70
     0
  9
$USERI3
 70
     0
  9
$USERI4
 70
     0
  9
$USERI5
 70
     0
  9
$USERR1
 40
1.0
  9
$USERR2
 40
0.0
  9
$USERR3
 40
22.0
  9
$USERR4
 40
0.0
  9
$USERR5
 40
0.0
  9
$WORLDVIEW
 70
     1
  9
$SHADEDGE
 70
     3
  9
$SHADEDIF
 70
    70
  9
$TILEMODE
 70
     1
  9
$MAXACTVP
 70
    64
  9
$PINSBASE
 10
0.0
 20
0.0
 30
0.0
  9
$PLIMCHECK
 70
     0
  9
$PEXTMIN
 10
0.0045044512824113
 20
0.0025467006634372
 30
0.0
  9
$PEXTMAX
 10
7.932995314148659
 20
10.43495255003633
 30
0.0
  9
$PLIMMIN
 10
-0.2812499887361301
 20
-0.2812502515597606
  9
$PLIMMAX
 10
8.218749770967978
 20
10.71874950814434
  9
$UNITMODE
 70
     0
  9
$VISRETAIN
 70
     1
  9
$PLINEGEN
 70
     0
  9
$PSLTSCALE
 70
     1
  9
$TREEDEPTH
 70
  3020
  9
$CMLSTYLE
  2
Standard
  9
$CMLJUST
 70
     1
  9
$CMLSCALE
 40
0.0156
  9
$PROXYGRAPHICS
 70
     1
  9
$MEASUREMENT
 70
     0
  9
$CELWEIGHT
370
    -1
  9
$ENDCAPS
280
     0
  9
$JOINSTYLE
280
     0
  9
$LWDISPLAY
290
     0
  9
$INSUNITS
 70
     1
  9
$HYPERLINKBASE
  1

  9
$STYLESHEET
  1

  9
$XEDIT
290
     1
  9
$CEPSNTYPE
380
     0
  9
$PSTYLEMODE
290
     1
  9
$FINGERPRINTGUID
  2
{FDEAD576-A652-11D2-9A35-0060089B3A3F}
  9
$VERSIONGUID
  2
{3D90C897-0FE6-4AFE-91D3-D9C74964ED83}
  9
$EXTNAMES
290
     1
  9
$PSVPSCALE
 40
0.0
  9
$OLESTARTUP
290
     0
  0
ENDSEC
  0
SECTION
  2
CLASSES
  0
CLASS
  1
ACDBDICTIONARYWDFLT
  2
AcDbDictionaryWithDefault
  3
ObjectDBX Classes
 90
        0
280
     0
281
     0
  0
CLASS
  1
ACDBPLACEHOLDER
  2
AcDbPlaceHolder
  3
ObjectDBX Classes
 90
        0
280
     0
281
     0
  0
CLASS
  1
LAYOUT
  2
AcDbLayout
  3
ObjectDBX Classes
 90
        0
280
     0
281
     0
  0
CLASS
  1
PLOTSETTINGS
  2
AcDbPlotSettings
  3
ObjectDBX Classes
 90
        0
280
     0
281
     0
  0
CLASS
  1
AMLOADER
  2
AMLoader
  3
AMAcad
 90
        0
280
     0
281
     0
  0
CLASS
  1
DICTIONARYVAR
  2
AcDbDictionaryVar
  3
ObjectDBX Classes
 90
        0
280
     0
281
     0
  0
CLASS
  1
SORTENTSTABLE
  2
AcDbSortentsTable
  3
ObjectDBX Classes
 90
        0
280
     0
281
     0
  0
CLASS
  1
DIMASSOC
  2
AcDbDimAssoc
  3
"AcDbDimAssoc|Product Desc:     AcDim ARX App For Dimension|Company:          Autodesk, Inc.|WEB Address:      www.autodesk.com"
 90
    32768
280
     0
281
     0
  0
CLASS
  1
MATERIAL
  2
AcDbMaterial
  3
ObjectDBX Classes
 90
     1153
280
     0
281
     0
  0
CLASS
  1
VISUALSTYLE
  2
AcDbVisualStyle
  3
ObjectDBX Classes
 90
     4095
280
     0
281
     0
  0
CLASS
  1
TABLESTYLE
  2
AcDbTableStyle
  3
ObjectDBX Classes
 90
     4095
280
     0
281
     0
  0
CLASS
  1
SCALE
  2
AcDbScale
  3
ObjectDBX Classes
 90
     1153
280
     0
281
     0
  0
CLASS
  1
MLEADERSTYLE
  2
AcDbMLeaderStyle
  3
ACDB_MLEADERSTYLE_CLASS
 90
     4095
280
     0
281
     0
  0
CLASS
  1
CELLSTYLEMAP
  2
AcDbCellStyleMap
  3
ObjectDBX Classes
 90
     1152
280
     0
281
     0
  0
CLASS
  1
ACDB_BLOCKREPRESENTATION_DATA
  2
AcDbBlockRepresentationData
  3
ObjectDBX Classes
 90
     1153
280
     0
281
     0
  0
CLASS
  1
ACAD_EVALUATION_GRAPH
  2
AcDbEvalGraph
  3
ObjectDBX Classes
 90
     1153
280
     0
281
     0
  0
CLASS
  1
BLOCKBASEPOINTPARAMETER
  2
AcDbBlockBasepointParameter
  3
ObjectDBX Classes
 90
     1153
280
     0
281
     0
  0
CLASS
  1
BLOCKVISIBILITYPARAMETER
  2
AcDbBlockVisibilityParameter
  3
ObjectDBX Classes
 90
     1153
280
     0
281
     0
  0
CLASS
  1
BLOCKVISIBILITYGRIP
  2
AcDbBlockVisibilityGrip
  3
ObjectDBX Classes
 90
     1153
280
     0
281
     0
  0
CLASS
  1
BLOCKGRIPLOCATIONCOMPONENT
  2
AcDbBlockGripExpr
  3
ObjectDBX Classes
 90
     1153
280
     0
281
     0
  0
CLASS
  1
BLOCKLINEARPARAMETER
  2
AcDbBlockLinearParameter
  3
ObjectDBX Classes
 90
     1153
280
     0
281
     0
  0
CLASS
  1
BLOCKLINEARGRIP
  2
AcDbBlockLinearGrip
  3
ObjectDBX Classes
 90
     1153
280
     0
281
     0
  0
CLASS
  1
BLOCKSTRETCHACTION
  2
AcDbBlockStretchAction
  3
ObjectDBX Classes
 90
     1153
280
     0
281
     0
  0
CLASS
  1
ACDB_DYNAMICBLOCKPURGEPREVENTER_VERSION
  2
AcDbDynamicBlockPurgePreventer
  3
ObjectDBX Classes
 90
     1153
280
     0
281
     0
  0
CLASS
  1
BLOCKALIGNMENTPARAMETER
  2
AcDbBlockAlignmentParameter
  3
ObjectDBX Classes
 90
     1153
280
     0
281
     0
  0
CLASS
  1
BLOCKALIGNMENTGRIP
  2
AcDbBlockAlignmentGrip
  3
ObjectDBX Classes
 90
     1153
280
     0
281
     0
  0
CLASS
  1
ACAECUSTOBJ
  2
AcAeEditorObj
  3
AcAeEditorObj
 90
     1024
280
     0
281
     0
  0
CLASS
  1
BASEPOINTPARAMETERENTITY
  2
AcDbBlockBasepointParameterEntity
  3
ObjectDBX Classes
 90
     1025
280
     0
281
     1
  0
CLASS
  1
ACAEEEMGROBJ
  2
AcAeEEMgrObj
  3
AcAeEEMgrObj
 90
     1024
280
     0
281
     0
  0
CLASS
  1
VISIBILITYPARAMETERENTITY
  2
AcDbBlockVisibilityParameterEntity
  3
ObjectDBX Classes
 90
     1025
280
     0
281
     1
  0
CLASS
  1
VISIBILITYGRIPENTITY
  2
AcDbBlockVisibilityGripEntity
  3
ObjectDBX Classes
 90
     1025
280
     0
281
     1
  0
CLASS
  1
LINEARPARAMETERENTITY
  2
AcDbBlockLinearParameterEntity
  3
ObjectDBX Classes
 90
     1025
280
     0
281
     1
  0
CLASS
  1
LINEARGRIPENTITY
  2
AcDbBlockLinearGripEntity
  3
ObjectDBX Classes
 90
     1025
280
     0
281
     1
  0
CLASS
  1
STRETCHACTIONENTITY
  2
AcDbBlockStretchActionEntity
  3
ObjectDBX Classes
 90
     1025
280
     0
281
     1
  0
CLASS
  1
ALIGNMENTPARAMETERENTITY
  2
AcDbBlockAlignmentParameterEntity
  3
ObjectDBX Classes
 90
     1025
280
     0
281
     1
  0
CLASS
  1
ALIGNMENTGRIPENTITY
  2
AcDbBlockAlignmentGripEntity
  3
ObjectDBX Classes
 90
     1025
280
     0
281
     1
  0
ENDSEC
  0
SECTION
  2
TABLES
  0
TABLE
  2
VPORT
  5
8
102
{ACAD_XDICTIONARY
360
16C24
102
}
330
0
100
AcDbSymbolTable
 70
     1
  0
VPORT
  5
16B3B
330
8
100
AcDbSymbolTableRecord
100
AcDbViewportTableRecord
  2
*Active
 70
     0
 10
0.0
 20
0.0
 11
1.0
 21
1.0
 12
14.75
 22
18.0
 13
0.0
 23
0.0
 14
0.03125
 24
0.03125
 15
0.5
 25
0.5
 16
0.0
 26
0.0
 36
1.0
 17
0.0
 27
0.0
 37
0.0
 40
36.30508474576271
 41
1.596888260254596
 42
50.0
 43
0.0
 44
0.0
 50
0.0
 51
0.0
 71
     0
 72
  5000
 73
     1
 74
     0
 75
     0
 76
     0
 77
     0
 78
     0
281
     0
 65
     1
110
0.0
120
0.0
130
0.0
111
1.0
121
0.0
131
0.0
112
0.0
122
1.0
132
0.0
 79
     0
146
0.0
  0
ENDTAB
  0
TABLE
  2
LTYPE
  5
5
330
0
100
AcDbSymbolTable
 70
     3
  0
LTYPE
  5
14
330
5
100
AcDbSymbolTableRecord
100
AcDbLinetypeTableRecord
  2
ByBlock
 70
     0
  3

 72
    65
 73
     0
 40
0.0
  0
LTYPE
  5
15
330
5
100
AcDbSymbolTableRecord
100
AcDbLinetypeTableRecord
  2
ByLayer
 70
     0
  3

 72
    65
 73
     0
 40
0.0
  0
LTYPE
  5
16
330
5
100
AcDbSymbolTableRecord
100
AcDbLinetypeTableRecord
  2
Continuous
 70
     0
  3
Solid line
 72
    65
 73
     0
 40
0.0
  0
ENDTAB
  0
TABLE
  2
LAYER
  5
2
102
{ACAD_XDICTIONARY
360
E8F4
102
}
330
0
100
AcDbSymbolTable
 70
    23
  0
LAYER
  5
10
102
{ACAD_XDICTIONARY
360
16C00
102
}
330
2
100
AcDbSymbolTableRecord
100
AcDbLayerTableRecord
  2
0
 70
     0
 62
     7
  6
Continuous
370
    -3
390
F
  0
LAYER
  5
5F
102
{ACAD_XDICTIONARY
360
16C02
102
}
330
2
100
AcDbSymbolTableRecord
100
AcDbLayerTableRecord
  2
Dim
 70
     0
 62
     1
  6
Continuous
370
    -3
390
F
  0
LAYER
  5
A7
330
2
100
AcDbSymbolTableRecord
100
AcDbLayerTableRecord
  2
Defpoints
 70
     0
 62
     7
  6
Continuous
290
     0
370
    -3
390
F
  0
LAYER
  5
F16
102
{ACAD_XDICTIONARY
360
16C04
102
}
330
2
100
AcDbSymbolTableRecord
100
AcDbLayerTableRecord
  2
BORDER
 70
     0
 62
     5
  6
Continuous
370
    -3
390
F
  0
LAYER
  5
E0E6
102
{ACAD_XDICTIONARY
360
16C06
102
}
330
2
100
AcDbSymbolTableRecord
100
AcDbLayerTableRecord
  2
Symbol TXT
 70
     0
 62
   255
  6
Continuous
370
    -3
390
F
  0
LAYER
  5
FA0B
102
{ACAD_XDICTIONARY
360
16C08
102
}
330
2
100
AcDbSymbolTableRecord
100
AcDbLayerTableRecord
  2
Wall
 70
     0
 62
     9
  6
Continuous
370
    -3
390
F
  0
LAYER
  5
1341C
102
{ACAD_XDICTIONARY
360
16C0A
102
}
330
2
100
AcDbSymbolTableRecord
100
AcDbLayerTableRecord
  2
Clad
 70
     0
 62
    63
  6
Continuous
370
    -3
390
F
  0
LAYER
  5
134A7
102
{ACAD_XDICTIONARY
360
16C0E
102
}
330
2
100
AcDbSymbolTableRecord
100
AcDbLayerTableRecord
  2
CS-Hardware
 70
     0
 62
    53
  6
Continuous
370
    -3
390
F
  0
LAYER
  5
1352F
102
{ACAD_XDICTIONARY
360
16C10
102
}
330
2
100
AcDbSymbolTableRecord
100
AcDbLayerTableRecord
  2
Hatch
 70
     0
 62
     7
  6
Continuous
370
    -3
390
F
  0
LAYER
  5
13F05
102
{ACAD_XDICTIONARY
360
16C12
102
}
330
2
100
AcDbSymbolTableRecord
100
AcDbLayerTableRecord
  2
CS-Sealant
 70
     0
 62
    40
  6
Continuous
370
    -3
390
F
  0
LAYER
  5
13F06
102
{ACAD_XDICTIONARY
360
16C14
102
}
330
2
100
AcDbSymbolTableRecord
100
AcDbLayerTableRecord
  2
CS-Cross Section
 70
     0
 62
     7
  6
Continuous
370
    -3
390
F
  0
LAYER
  5
13F09
102
{ACAD_XDICTIONARY
360
16C16
102
}
330
2
100
AcDbSymbolTableRecord
100
AcDbLayerTableRecord
  2
Points
 70
     0
 62
     7
  6
Continuous
290
     0
370
    -3
390
F
  0
LAYER
  5
13FEF
102
{ACAD_XDICTIONARY
360
16C18
102
}
330
2
100
AcDbSymbolTableRecord
100
AcDbLayerTableRecord
  2
TXT
 70
     0
 62
   255
  6
Continuous
370
    -3
390
F
  0
LAYER
  5
172FC
102
{ACAD_XDICTIONARY
360
172FD
102
}
330
2
100
AcDbSymbolTableRecord
100
AcDbLayerTableRecord
  2
CS-Weatherstrip
 70
     0
 62
     8
  6
Continuous
370
    -3
390
F
  0
ENDTAB
  0
TABLE
  2
STYLE
  5
3
330
0
100
AcDbSymbolTable
 70
     6
  0
STYLE
  5
11
330
3
100
AcDbSymbolTableRecord
100
AcDbTextStyleTableRecord
  2
Standard
 70
     0
 40
0.0
 41
1.0
 50
0.0
 71
     0
 42
0.2
  3
ARIAL.TTF
  4

1001
ACAD
1000
Arial
1071
       34
  0
STYLE
  5
13FF4
330
3
100
AcDbSymbolTableRecord
100
AcDbTextStyleTableRecord
  2
ARCHQUIK
 70
     0
 40
0.0
 41
1.0
 50
0.0
 71
     0
 42
1.0
  3
archquik.shx
  4

  0
ENDTAB
  0
TABLE
  2
VIEW
  5
6
330
0
100
AcDbSymbolTable
 70
     1
  0
VIEW
  5
D380
330
6
100
AcDbSymbolTableRecord
100
AcDbViewTableRecord
  2
org
 70
     0
 40
27.15590980939017
 10
6.083222462400622
 20
8.786030387711486
 41
41.12824514700171
 11
0.0
 21
0.0
 31
1.0
 12
0.0
 22
0.0
 32
0.0
 42
50.0
 43
0.0
 44
0.0
 50
0.0
 71
     0
281
     0
 72
     1
110
0.0
120
0.0
130
0.0
111
1.0
121
0.0
131
0.0
112
0.0
122
1.0
132
0.0
 79
     0
146
0.0
  0
ENDTAB
  0
TABLE
  2
UCS
  5
7
330
0
100
AcDbSymbolTable
 70
     0
  0
ENDTAB
  0
TABLE
  2
APPID
  5
9
330
0
100
AcDbSymbolTable
 70
    34
  0
APPID
  5
12
330
9
100
AcDbSymbolTableRecord
100
AcDbRegAppTableRecord
  2
ACAD
 70
     0
  0
APPID
  5
1B8
330
9
100
AcDbSymbolTableRecord
100
AcDbRegAppTableRecord
  2
AMAcad
 70
     0
  0
APPID
  5
FBF
330
9
100
AcDbSymbolTableRecord
100
AcDbRegAppTableRecord
  2
ADE
 70
     0
  0
APPID
  5
1010
330
9
100
AcDbSymbolTableRecord
100
AcDbRegAppTableRecord
  2
DCO15
 70
     0
  0
APPID
  5
2B00
330
9
100
AcDbSymbolTableRecord
100
AcDbRegAppTableRecord
  2
ADCADD_ZZ
 70
     0
  0
APPID
  5
2B01
330
9
100
AcDbSymbolTableRecord
100
AcDbRegAppTableRecord
  2
SDSK_PMN
 70
     0
  0
APPID
  5
D27F
330
9
100
AcDbSymbolTableRecord
100
AcDbRegAppTableRecord
  2
GENIUS_GENODEF_13
 70
     0
  0
APPID
  5
D280
330
9
100
AcDbSymbolTableRecord
100
AcDbRegAppTableRecord
  2
GENIUS_GENOBJ-N-FIL_13
 70
     0
  0
APPID
  5
D281
330
9
100
AcDbSymbolTableRecord
100
AcDbRegAppTableRecord
  2
GENIUS_GENDTOL_13
 70
     0
  0
APPID
  5
D282
330
9
100
AcDbSymbolTableRecord
100
AcDbRegAppTableRecord
  2
AVE_RENDER
 70
     0
  0
APPID
  5
D283
330
9
100
AcDbSymbolTableRecord
100
AcDbRegAppTableRecord
  2
AVE_ENTITY_MATERIAL
 70
     0
  0
APPID
  5
D284
330
9
100
AcDbSymbolTableRecord
100
AcDbRegAppTableRecord
  2
AVE_FINISH
 70
     0
  0
APPID
  5
D285
330
9
100
AcDbSymbolTableRecord
100
AcDbRegAppTableRecord
  2
AVE_MATERIAL
 70
     0
  0
APPID
  5
D286
330
9
100
AcDbSymbolTableRecord
100
AcDbRegAppTableRecord
  2
AVE_GLOBAL
 70
     0
  0
APPID
  5
FF55
330
9
100
AcDbSymbolTableRecord
100
AcDbRegAppTableRecord
  2
ACAD_DSTYLE_DIMTEXT_FILL
 70
     0
  0
APPID
  5
FF56
330
9
100
AcDbSymbolTableRecord
100
AcDbRegAppTableRecord
  2
ACAD_DSTYLE_DIMEXT_LENGTH
 70
     0
  0
APPID
  5
FF57
330
9
100
AcDbSymbolTableRecord
100
AcDbRegAppTableRecord
  2
ACAD_DSTYLE_DIMEXT_ENABLED
 70
     0
  0
APPID
  5
FF58
330
9
100
AcDbSymbolTableRecord
100
AcDbRegAppTableRecord
  2
ACAD_DSTYLE_DIM_LINETYPE
 70
     0
  0
APPID
  5
FF59
330
9
100
AcDbSymbolTableRecord
100
AcDbRegAppTableRecord
  2
ACAD_DSTYLE_DIM_EXT1_LINETYPE
 70
     0
  0
APPID
  5
FF5A
330
9
100
AcDbSymbolTableRecord
100
AcDbRegAppTableRecord
  2
ACAD_DSTYLE_DIM_EXT2_LINETYPE
 70
     0
  0
APPID
  5
FF5B
330
9
100
AcDbSymbolTableRecord
100
AcDbRegAppTableRecord
  2
ACAD_EXEMPT_FROM_CAD_STANDARDS
 70
     0
  0
APPID
  5
FF5C
330
9
100
AcDbSymbolTableRecord
100
AcDbRegAppTableRecord
  2
ACAD_DSTYLE_DIMJOGGED_JOGANGLE_SYMBOL
 70
     0
  0
APPID
  5
FF5D
330
9
100
AcDbSymbolTableRecord
100
AcDbRegAppTableRecord
  2
ACAD_DSTYLE_DIMARC_LENGTH_SYMBOL
 70
     0
  0
APPID
  5
16BA4
330
9
100
AcDbSymbolTableRecord
100
AcDbRegAppTableRecord
  2
ACAD_MLEADERVER
 70
     0
  0
APPID
  5
16BC9
330
9
100
AcDbSymbolTableRecord
100
AcDbRegAppTableRecord
  2
AcAecLayerStandard
 70
     0
  0
APPID
  5
16CCD
330
9
100
AcDbSymbolTableRecord
100
AcDbRegAppTableRecord
  2
AcadAnnotative
 70
     0
  0
APPID
  5
16CCE
330
9
100
AcDbSymbolTableRecord
100
AcDbRegAppTableRecord
  2
AcDbDynamicBlockTrueName
 70
     0
  0
APPID
  5
16CCF
330
9
100
AcDbSymbolTableRecord
100
AcDbRegAppTableRecord
  2
AcDbDynamicBlockGUID
 70
     0
  0
APPID
  5
16CD0
330
9
100
AcDbSymbolTableRecord
100
AcDbRegAppTableRecord
  2
AcDbBlockRepETag
 70
     0
  0
APPID
  5
16CD1
330
9
100
AcDbSymbolTableRecord
100
AcDbRegAppTableRecord
  2
AcDbBlockRepBTag
 70
     0
  0
APPID
  5
16CD2
330
9
100
AcDbSymbolTableRecord
100
AcDbRegAppTableRecord
  2
ACAUTHENVIRON
 70
     0
  0
APPID
  5
16CD3
330
9
100
AcDbSymbolTableRecord
100
AcDbRegAppTableRecord
  2
AcadAnnoPO
 70
     0
  0
APPID
  5
172FE
330
9
100
AcDbSymbolTableRecord
100
AcDbRegAppTableRecord
  2
ACAD_DSTYLE_DIMJAG
 70
     0
  0
APPID
  5
172FF
330
9
100
AcDbSymbolTableRecord
100
AcDbRegAppTableRecord
  2
ACAD_DSTYLE_DIMTALN
 70
     0
  0
ENDTAB
  0
TABLE
  2
DIMSTYLE
  5
A
330
0
100
AcDbSymbolTable
 70
     7
100
AcDbDimStyleTable
 71
     1
340
CC50
  0
DIMSTYLE
105
CC50
102
{ACAD_REACTORS
330
EA72
330
EA8C
330
EAA6
330
F1B4
330
F1EA
330
EA58
330
F2A3
330
F32F
102
}
330
A
100
AcDbSymbolTableRecord
100
AcDbDimStyleTableRecord
  2
3 inch Scale
 70
     0
  3
"\X
 41
0.5
 42
0.5
 43
0.2
 44
0.125
 73
     0
 74
     0
 77
     1
 78
    10
140
0.28
146
0.75
147
0.125
170
     1
171
     0
176
   256
177
   256
178
   255
179
     3
274
     0
276
     2
277
     5
279
     2
340
11
371
    -1
372
    -1
  0
ENDTAB
  0
TABLE
  2
BLOCK_RECORD
  5
1
330
0
100
AcDbSymbolTable
 70
    61
  0
BLOCK_RECORD
  5
1F
102
{ACAD_XDICTIONARY
360
D9A1
102
}
330
1
100
AcDbSymbolTableRecord
100
AcDbBlockTableRecord
  2
*Model_Space
340
22
  0
BLOCK_RECORD
  5
CBD2
330
1
100
AcDbSymbolTableRecord
100
AcDbBlockTableRecord
  2
*Paper_Space
340
CBD3
  0
BLOCK_RECORD
  5
CBE8
102
{ACAD_XDICTIONARY
360
E143
102
}
330
1
100
AcDbSymbolTableRecord
100
AcDbBlockTableRecord
  2
Border
340
0
310
2800000020000000200000000100080000000000000400000000000000000000000000000000000000000000000080000080000000808000800000008000800080800000C0C0C000C0DCC000F0CAA6000020400000206000002080000020A0000020C0000020E00000400000004020000040400000406000004080000040A0
310
000040C0000040E00000600000006020000060400000606000006080000060A0000060C0000060E00000800000008020000080400000806000008080000080A0000080C0000080E00000A0000000A0200000A0400000A0600000A0800000A0A00000A0C00000A0E00000C0000000C0200000C0400000C0600000C0800000C0
310
A00000C0C00000C0E00000E0000000E0200000E0400000E0600000E0800000E0A00000E0C00000E0E00040000000400020004000400040006000400080004000A0004000C0004000E00040200000402020004020400040206000402080004020A0004020C0004020E000404000004040200040404000404060004040800040
310
40A0004040C0004040E00040600000406020004060400040606000406080004060A0004060C0004060E00040800000408020004080400040806000408080004080A0004080C0004080E00040A0000040A0200040A0400040A0600040A0800040A0A00040A0C00040A0E00040C0000040C0200040C0400040C0600040C08000
310
40C0A00040C0C00040C0E00040E0000040E0200040E0400040E0600040E0800040E0A00040E0C00040E0E00080000000800020008000400080006000800080008000A0008000C0008000E00080200000802020008020400080206000802080008020A0008020C0008020E00080400000804020008040400080406000804080
310
008040A0008040C0008040E00080600000806020008060400080606000806080008060A0008060C0008060E00080800000808020008080400080806000808080008080A0008080C0008080E00080A0000080A0200080A0400080A0600080A0800080A0A00080A0C00080A0E00080C0000080C0200080C0400080C0600080C0
310
800080C0A00080C0C00080C0E00080E0000080E0200080E0400080E0600080E0800080E0A00080E0C00080E0E000C0000000C0002000C0004000C0006000C0008000C000A000C000C000C000E000C0200000C0202000C0204000C0206000C0208000C020A000C020C000C020E000C0400000C0402000C0404000C0406000C0
310
408000C040A000C040C000C040E000C0600000C0602000C0604000C0606000C0608000C060A000C060C000C060E000C0800000C0802000C0804000C0806000C0808000C080A000C080C000C080E000C0A00000C0A02000C0A04000C0A06000C0A08000C0A0A000C0A0C000C0A0E000C0C00000C0C02000C0C04000C0C06000
310
C0C08000C0C0A000F0FBFF00A4A0A000808080000000FF0000FF000000FFFF00FF000000FF00FF00FFFF0000FFFFFF000000000000000000000000000000000000000000000000000000000000000000000000FCFCFCFCFCFCFCFCFCFCFCFCFCFCFCFCFCFCFCFCFCFCFCFCFCFC000000000000FC0000000000000000000000
310
00000000000000000000000000FC000000000000FC000000000000000000000000000000000000000000000000FC000000000000FC000000000000000000000000000000000000000000000000FC000000000000FC000000000000000000000000000000000000000000000000FC000000000000FC00000000000000000000
310
0000000000000000000000000000FC000000000000FC000000000000000000000000000000000000000000000000FC000000000000FC000000000000000000000000000000000000000000000000FC000000000000FC000000000000000000000000000000000000000000000000FC000000000000FC000000000000000000
310
000000000000000000000000000000FC000000000000FC000000000000000000000000000000000000000000000000FC000000000000FC000000000000000000000000000000000000000000000000FC000000000000FC000000000000000000000000000000000000000000000000FC000000000000FC0000000000000000
310
00000000000000000000000000000000FC000000000000FC000000000000000000000000000000000000000000000000FC000000000000FC000000000000000000000000000000000000000000000000FC000000000000FC000000000000000000000000000000000000000000000000FC000000000000FC00000000000000
310
0000000000000000000000000000000000FC000000000000FC000000000000000000000000000000000000000000000000FC000000000000FC000000000000000000000000000000000000000000000000FC000000000000FC000000000000000000000000000000000000000000000000FC000000000000FC000000000000
310
000000000000000000000000000000000000FC000000000000FC000000000000000000000000000000000000000000000000FC000000000000FC000000000000000000000000000000000000000000000000FC000000000000FC000000000000000000000000000000000000000000000000FC000000000000FC0000000000
310
00000000000000000000000000000000000000FC000000000000FC000000000000000000000000000000000000000000000000FC000000000000FC000000000000000000000000000000000000000000000000FC000000000000FC000000000000000000000000000000000000000000000000FC000000000000FCFCFCFCFC
310
FCFCFCFCFCFCFCFCFCFCFCFCFCFCFCFCFCFCFCFCFC0000000000000000000000000000000000000000000000000000000000000000000000
102
{BLKREFS
331
CCAF
102
}
1001
ACAD
1000
DesignCenter Data
1002
{
1070
     1
1070
     1
1002
}
  0
BLOCK_RECORD
  5
E784
102
{ACAD_XDICTIONARY
360
E785
102
}
330
1
100
AcDbSymbolTableRecord
100
AcDbBlockTableRecord
  2
ESSblock
340
0
310
2800000020000000200000000100080000000000000400000000000000000000000000000000000000000000000080000080000000808000800000008000800080800000C0C0C000C0DCC000F0CAA6000020400000206000002080000020A0000020C0000020E00000400000004020000040400000406000004080000040A0
310
000040C0000040E00000600000006020000060400000606000006080000060A0000060C0000060E00000800000008020000080400000806000008080000080A0000080C0000080E00000A0000000A0200000A0400000A0600000A0800000A0A00000A0C00000A0E00000C0000000C0200000C0400000C0600000C0800000C0
310
A00000C0C00000C0E00000E0000000E0200000E0400000E0600000E0800000E0A00000E0C00000E0E00040000000400020004000400040006000400080004000A0004000C0004000E00040200000402020004020400040206000402080004020A0004020C0004020E000404000004040200040404000404060004040800040
310
40A0004040C0004040E00040600000406020004060400040606000406080004060A0004060C0004060E00040800000408020004080400040806000408080004080A0004080C0004080E00040A0000040A0200040A0400040A0600040A0800040A0A00040A0C00040A0E00040C0000040C0200040C0400040C0600040C08000
310
40C0A00040C0C00040C0E00040E0000040E0200040E0400040E0600040E0800040E0A00040E0C00040E0E00080000000800020008000400080006000800080008000A0008000C0008000E00080200000802020008020400080206000802080008020A0008020C0008020E00080400000804020008040400080406000804080
310
008040A0008040C0008040E00080600000806020008060400080606000806080008060A0008060C0008060E00080800000808020008080400080806000808080008080A0008080C0008080E00080A0000080A0200080A0400080A0600080A0800080A0A00080A0C00080A0E00080C0000080C0200080C0400080C0600080C0
310
800080C0A00080C0C00080C0E00080E0000080E0200080E0400080E0600080E0800080E0A00080E0C00080E0E000C0000000C0002000C0004000C0006000C0008000C000A000C000C000C000E000C0200000C0202000C0204000C0206000C0208000C020A000C020C000C020E000C0400000C0402000C0404000C0406000C0
310
408000C040A000C040C000C040E000C0600000C0602000C0604000C0606000C0608000C060A000C060C000C060E000C0800000C0802000C0804000C0806000C0808000C080A000C080C000C080E000C0A00000C0A02000C0A04000C0A06000C0A08000C0A0A000C0A0C000C0A0E000C0C00000C0C02000C0C04000C0C06000
310
C0C08000C0C0A000F0FBFF00A4A0A000808080000000FF0000FF000000FFFF00FF000000FF00FF00FFFF0000FFFFFF0000000000000000000000000000000000000000000000000000000000000000000000000000000000000000000000000000000000000000000000000000000000000000000000000000000000000000
310
00000000000000000000000000000000000000000000000000000000000000000000000000000000000000000000000000000000000000000000000000000000000000000000000000000000000000000000000000000000000000000000000000000000000000000000000000000000000000000000000000000000000000
310
00000000000000000000000000000000000000000000000000000000000000000000000000000000000000000000000000000000000000000000000000000000000000000000000000000000000000000000000000000000000000000000000000000000000000000000000000000000000000070000000007000000000000
310
00070707070707070700000000000000000000000700070707000000000000070000000707070707070000000000000000000000070007000000000000000000000000070707000707000000000000000000000007000700000700000700000000000007070707070700000000000000000000000700000000000000070700
310
00000707070707070707000000000000000000000007070000000000000000000000000007070707070700000000000000000000000700070000000000000000000000000707070700070000000000000000000000070700000007000007070000000000070707000007000000000000000000000007070700000007000700
310
00000700070707070707070707070707070707000000000000070707070700000000070000070707070707070707070707070700000000000000000000000707070707070707070707070707070707070707070000000000000000000000000000000700000000000000000000000000070707000000000000000000000000
310
00000000000000000000000000000000000000000000000000000000000000000000000000000000000000000000000000000000000000000000000000000000000000000000000000000000000000000000000000000000000000000000000000000000000000000000000000000000000000000000000000000000000000
310
00000000000000000000000000000000000000000000000000000000000000000000000000000000000000000000000000000000000000000000000000000000000000000000000000000000000000000000000000000000000000000000000000000000000000000000000000000000000000000000000000000000000000
310
0000000000000000000000000000000000000000000000000000000000000000000000000000000000000000000000000000000000000000
102
{BLKREFS
331
E981
102
}
  0
BLOCK_RECORD
  5
EA59
330
1
100
AcDbSymbolTableRecord
100
AcDbBlockTableRecord
  2
*D2
340
0
  0
BLOCK_RECORD
  5
EA73
330
1
100
AcDbSymbolTableRecord
100
AcDbBlockTableRecord
  2
*D3
340
0
  0
BLOCK_RECORD
  5
EA8D
330
1
100
AcDbSymbolTableRecord
100
AcDbBlockTableRecord
  2
*D4
340
0
  0
BLOCK_RECORD
  5
EAA7
330
1
100
AcDbSymbolTableRecord
100
AcDbBlockTableRecord
  2
*D5
340
0
  0
BLOCK_RECORD
  5
F1B5
330
1
100
AcDbSymbolTableRecord
100
AcDbBlockTableRecord
  2
*D6
340
0
  0
BLOCK_RECORD
  5
F1EB
330
1
100
AcDbSymbolTableRecord
100
AcDbBlockTableRecord
  2
*D7
340
0
  0
BLOCK_RECORD
  5
F24B
330
1
100
AcDbSymbolTableRecord
100
AcDbBlockTableRecord
  2
_None
340
0
  0
BLOCK_RECORD
  5
F2A4
330
1
100
AcDbSymbolTableRecord
100
AcDbBlockTableRecord
  2
*D9
340
0
  0
BLOCK_RECORD
  5
F330
330
1
100
AcDbSymbolTableRecord
100
AcDbBlockTableRecord
  2
*D10
340
0
  0
BLOCK_RECORD
  5
FA0D
102
{ACAD_XDICTIONARY
360
FAD9
102
}
330
1
100
AcDbSymbolTableRecord
100
AcDbBlockTableRecord
  2
Td--2xwsid-fH-wdDr
340
0
102
{BLKREFS
331
FADC
102
}
  0
BLOCK_RECORD
  5
109D0
102
{ACAD_XDICTIONARY
360
10BC9
102
}
330
1
100
AcDbSymbolTableRecord
100
AcDbBlockTableRecord
  2
Td--2xwsid-fJ-ESDr
340
0
102
{BLKREFS
331
10BCC
102
}
  0
BLOCK_RECORD
  5
10DC7
102
{ACAD_XDICTIONARY
360
113B8
102
}
330
1
100
AcDbSymbolTableRecord
100
AcDbBlockTableRecord
  2
1.25 WD
340
0
310
2800000020000000200000000100080000000000000400000000000000000000000000000000000000000000000080000080000000808000800000008000800080800000C0C0C000C0DCC000F0CAA6000020400000206000002080000020A0000020C0000020E00000400000004020000040400000406000004080000040A0
310
000040C0000040E00000600000006020000060400000606000006080000060A0000060C0000060E00000800000008020000080400000806000008080000080A0000080C0000080E00000A0000000A0200000A0400000A0600000A0800000A0A00000A0C00000A0E00000C0000000C0200000C0400000C0600000C0800000C0
310
A00000C0C00000C0E00000E0000000E0200000E0400000E0600000E0800000E0A00000E0C00000E0E00040000000400020004000400040006000400080004000A0004000C0004000E00040200000402020004020400040206000402080004020A0004020C0004020E000404000004040200040404000404060004040800040
310
40A0004040C0004040E00040600000406020004060400040606000406080004060A0004060C0004060E00040800000408020004080400040806000408080004080A0004080C0004080E00040A0000040A0200040A0400040A0600040A0800040A0A00040A0C00040A0E00040C0000040C0200040C0400040C0600040C08000
310
40C0A00040C0C00040C0E00040E0000040E0200040E0400040E0600040E0800040E0A00040E0C00040E0E00080000000800020008000400080006000800080008000A0008000C0008000E00080200000802020008020400080206000802080008020A0008020C0008020E00080400000804020008040400080406000804080
310
008040A0008040C0008040E00080600000806020008060400080606000806080008060A0008060C0008060E00080800000808020008080400080806000808080008080A0008080C0008080E00080A0000080A0200080A0400080A0600080A0800080A0A00080A0C00080A0E00080C0000080C0200080C0400080C0600080C0
310
800080C0A00080C0C00080C0E00080E0000080E0200080E0400080E0600080E0800080E0A00080E0C00080E0E000C0000000C0002000C0004000C0006000C0008000C000A000C000C000C000E000C0200000C0202000C0204000C0206000C0208000C020A000C020C000C020E000C0400000C0402000C0404000C0406000C0
310
408000C040A000C040C000C040E000C0600000C0602000C0604000C0606000C0608000C060A000C060C000C060E000C0800000C0802000C0804000C0806000C0808000C080A000C080C000C080E000C0A00000C0A02000C0A04000C0A06000C0A08000C0A0A000C0A0C000C0A0E000C0C00000C0C02000C0C04000C0C06000
310
C0C08000C0C0A000F0FBFF00A4A0A000808080000000FF0000FF000000FFFF00FF000000FF00FF00FFFF0000FFFFFF0000000000000000000000000000000000000000000000000000000000000000000000000000000000000000000000000000000000000000000000000000000000000000000000000000000000000000
310
00000000000000000000000000000000000000000000000000000000000000000000000000000000000000000000000000000000000000000000000000000000000000000000000000000000000000000000000000000000000000000000000000000000000000000000000000000000000000000000000000000000000000
310
00000000000000000000000000000000000000000000000000000000000000000000000000000000000000000000000000000000000000000000000000000000000000000000000000000000000000000000000000000000000000000000000000000000000000000000000000000000000000000000000000000000000000
310
00000000000000000000000000000000000000000000000000000000000000000000000000000000000000000000000000000000000000000000000000000000000000000000000007000000000000000707000000000000000000000000000000000000000000000700000000070000070700000007000007070707070707
310
07070707070707070707070707070707070007000007070707070007000700070007000007000700070007000700000707000700000007070700070007000700070007000007000700070007000700070700070000000000070707070707070707070707070707070707070707070707070007000000000000000000000000
310
00000000000000000007000000000000000007070000000000000000000000000000000000000000000700070700070000070007000000000000000000000000000000000000000000000000000000000000000000000000000000000000000000000000000000000000000000000000000000000000000000000000000000
310
00000000000000000000000000000000000000000000000000000000000000000000000000000000000000000000000000000000000000000000000000000000000000000000000000000000000000000000000000000000000000000000000000000000000000000000000000000000000000000000000000000000000000
310
00000000000000000000000000000000000000000000000000000000000000000000000000000000000000000000000000000000000000000000000000000000000000000000000000000000000000000000000000000000000000000000000000000000000000000000000000000000000000000000000000000000000000
310
0000000000000000000000000000000000000000000000000000000000000000000000000000000000000000000000000000000000000000
102
{BLKREFS
331
11761
331
11831
331
12ECC
331
12ECD
102
}
  0
BLOCK_RECORD
  5
134A9
102
{ACAD_XDICTIONARY
360
1352A
102
}
330
1
100
AcDbSymbolTableRecord
100
AcDbBlockTableRecord
  2
SPIFDHJ
340
0
102
{BLKREFS
331
1352E
102
}
  0
BLOCK_RECORD
  5
13531
102
{ACAD_XDICTIONARY
360
13611
102
}
330
1
100
AcDbSymbolTableRecord
100
AcDbBlockTableRecord
  2
SPIFDS
340
0
102
{BLKREFS
331
13615
102
}
  0
BLOCK_RECORD
  5
13EA7
102
{ACAD_XDICTIONARY
360
13EA8
102
}
330
1
100
AcDbSymbolTableRecord
100
AcDbBlockTableRecord
  2
sill support
340
0
102
{BLKREFS
331
13FA3
102
}
  0
BLOCK_RECORD
  5
16826
102
{ACAD_XDICTIONARY
360
168A4
102
}
330
1
100
AcDbSymbolTableRecord
100
AcDbBlockTableRecord
  2
Lag screw.5x4
340
0
102
{BLKREFS
331
168F3
102
}
1001
ACAD
1000
DesignCenter Data
1002
{
1070
     1
1070
     1
1002
}
  0
BLOCK_RECORD
  5
16A84
330
1
100
AcDbSymbolTableRecord
100
AcDbBlockTableRecord
  2
2.5 WD
340
0
102
{BLKREFS
331
16AD2
102
}
  0
BLOCK_RECORD
  5
16B01
102
{ACAD_XDICTIONARY
360
16B02
102
}
330
1
100
AcDbSymbolTableRecord
100
AcDbBlockTableRecord
  2
03AY
340
0
102
{BLKREFS
331
16B1C
331
16B1D
331
16B1F
331
16B1E
102
}
1001
ACAD
1000
DesignCenter Data
1002
{
1070
     1
1070
     1
1002
}
  0
BLOCK_RECORD
  5
16BA9
102
{ACAD_XDICTIONARY
360
16BAA
102
}
330
1
100
AcDbSymbolTableRecord
100
AcDbBlockTableRecord
  2
I Drive Info Block
340
0
102
{BLKREFS
331
16BE9
102
}
  0
BLOCK_RECORD
  5
17743
102
{ACAD_XDICTIONARY
360
17974
102
}
330
1
100
AcDbSymbolTableRecord
100
AcDbBlockTableRecord
  2
SPIFDH1
340
0
102
{BLKREFS
331
176AD
102
}
1001
AcDbBlockRepBTag
1070
     1
1005
0
1001
AcDbDynamicBlockGUID
1000
{62F8FEED-B5C9-44E3-B821-B3B9E9ED6024}
1001
AcDbBlockRepETag
1070
     1
1071
       11
  0
ENDTAB
  0
ENDSEC
  0
SECTION
  2
BLOCKS
  0
BLOCK
  5
20
330
1F
100
AcDbEntity
  8
0
100
AcDbBlockBegin
  2
*Model_Space
 70
     0
 10
0.0
 20
0.0
 30
0.0
  3
*Model_Space
  1

  0
ENDBLK
  5
21
330
1F
100
AcDbEntity
  8
0
100
AcDbBlockEnd
  0
BLOCK
  5
CBD4
330
CBD2
100
AcDbEntity
 67
     1
  8
0
100
AcDbBlockBegin
  2
*Paper_Space
 70
     0
 10
0.0
 20
0.0
 30
0.0
  3
*Paper_Space
  1

  0
ENDBLK
  5
CBD5
330
CBD2
100
AcDbEntity
 67
     1
  8
0
100
AcDbBlockEnd
  0
BLOCK
  5
CBE9
330
CBE8
100
AcDbEntity
  8
0
100
AcDbBlockBegin
  2
Border
 70
     0
 10
0.0
 20
0.0
 30
0.0
  3
Border
  1

  0
POLYLINE
  5
CBEA
330
CBE8
100
AcDbEntity
  8
BORDER
100
AcDb2dPolyline
 66
     1
 10
0.0
 20
0.0
 30
0.0
 70
     1
  0
VERTEX
  5
E13E
330
CBEA
100
AcDbEntity
  8
BORDER
100
AcDbVertex
100
AcDb2dVertex
 10
0.0000000000000009
 20
9.0
 30
0.0
  0
VERTEX
  5
E13F
330
CBEA
100
AcDbEntity
  8
BORDER
100
AcDbVertex
100
AcDb2dVertex
 10
7.375
 20
9.0
 30
0.0
  0
VERTEX
  5
E140
330
CBEA
100
AcDbEntity
  8
BORDER
100
AcDbVertex
100
AcDb2dVertex
 10
7.375
 20
0.0
 30
0.0
  0
VERTEX
  5
E141
330
CBEA
100
AcDbEntity
  8
BORDER
100
AcDbVertex
100
AcDb2dVertex
 10
0.0
 20
0.0
 30
0.0
  0
SEQEND
  5
E142
330
CBEA
100
AcDbEntity
  8
BORDER
  0
ENDBLK
  5
CBF0
330
CBE8
100
AcDbEntity
  8
0
100
AcDbBlockEnd
  0
BLOCK
  5
E787
330
E784
100
AcDbEntity
  8
0
 62
   132
100
AcDbBlockBegin
  2
ESSblock
 70
     0
 10
0.0
 20
0.0
 30
0.0
  3
ESSblock
  1

  0
POLYLINE
  5
E7AB
330
E784
100
AcDbEntity
  8
Wall
100
AcDb2dPolyline
 66
     1
 10
0.0
 20
0.0
 30
0.0
  0
VERTEX
  5
19322
330
E7AB
100
AcDbEntity
  8
Wall
100
AcDbVertex
100
AcDb2dVertex
 10
0.6337499918471448
 20
-4.375
 30
0.0
  0
VERTEX
  5
19323
330
E7AB
100
AcDbEntity
  8
Wall
100
AcDbVertex
100
AcDb2dVertex
 10
0.6337499918471448
 20
-0.875
 30
0.0
  0
VERTEX
  5
19324
330
E7AB
100
AcDbEntity
  8
Wall
100
AcDbVertex
100
AcDb2dVertex
 10
2.133749991847144
 20
-0.875
 30
0.0
  0
VERTEX
  5
19325
330
E7AB
100
AcDbEntity
  8
Wall
100
AcDbVertex
100
AcDb2dVertex
 10
2.133749991847144
 20
-4.375
 30
0.0
  0
SEQEND
  5
19326
330
E7AB
100
AcDbEntity
  8
Wall
  0
POLYLINE
  5
E7B1
102
{ACAD_REACTORS
330
14362
102
}
330
E784
100
AcDbEntity
  8
Wall
  6
Continuous
100
AcDb2dPolyline
 66
     1
 10
0.0
 20
0.0
 30
0.0
 70
     1
  0
VERTEX
  5
19328
330
E7B1
100
AcDbEntity
  8
Wall
  6
Continuous
100
AcDbVertex
100
AcDb2dVertex
 10
5.690274749368997
 20
-0.125
 30
0.0
  0
VERTEX
  5
19329
330
E7B1
100
AcDbEntity
  8
Wall
  6
Continuous
100
AcDbVertex
100
AcDb2dVertex
 10
0.6337499918471448
 20
-0.125
 30
0.0
  0
VERTEX
  5
1932A
330
E7B1
100
AcDbEntity
  8
Wall
  6
Continuous
100
AcDbVertex
100
AcDb2dVertex
 10
0.6337499918471448
 20
-0.875
 30
0.0
  0
VERTEX
  5
1932B
330
E7B1
100
AcDbEntity
  8
Wall
  6
Continuous
100
AcDbVertex
100
AcDb2dVertex
 10
5.690274749368997
 20
-0.875
 30
0.0
  0
VERTEX
  5
1932C
330
E7B1
100
AcDbEntity
  8
Wall
100
AcDbVertex
100
AcDb2dVertex
 10
5.690274741216216
 20
-0.6010731833298451
 30
0.0
  0
VERTEX
  5
1932D
330
E7B1
100
AcDbEntity
  8
Wall
100
AcDbVertex
100
AcDb2dVertex
 10
5.440274741216216
 20
-0.5385731833298451
 30
0.0
  0
VERTEX
  5
1932E
330
E7B1
100
AcDbEntity
  8
Wall
100
AcDbVertex
100
AcDb2dVertex
 10
5.940274741216216
 20
-0.4135731833298451
 30
0.0
  0
VERTEX
  5
1932F
330
E7B1
100
AcDbEntity
  8
Wall
100
AcDbVertex
100
AcDb2dVertex
 10
5.690274741216216
 20
-0.351073183329845
 30
0.0
  0
VERTEX
  5
19330
330
E7B1
100
AcDbEntity
  8
Wall
100
AcDbVertex
100
AcDb2dVertex
 10
5.690274741216216
 20
-0.125
 30
0.0
  0
SEQEND
  5
19331
330
E7B1
100
AcDbEntity
  8
Wall
  6
Continuous
  0
LINE
  5
E7C1
330
E784
100
AcDbEntity
  8
Wall
100
AcDbLine
 10
2.133749991847144
 20
-0.875
 30
0.0
 11
1.293749991847141
 21
-4.375
 31
0.0
  0
POLYLINE
  5
E7D8
102
{ACAD_REACTORS
330
14363
102
}
330
E784
100
AcDbEntity
  8
Wall
  6
Continuous
100
AcDb2dPolyline
 66
     1
 10
0.0
 20
0.0
 30
0.0
 70
     1
  0
VERTEX
  5
19334
330
E7D8
100
AcDbEntity
  8
Wall
  6
Continuous
100
AcDbVertex
100
AcDb2dVertex
 10
0.0087499918471519
 20
-4.375
 30
0.0
  0
VERTEX
  5
19335
330
E7D8
100
AcDbEntity
  8
Wall
  6
Continuous
100
AcDbVertex
100
AcDb2dVertex
 10
0.0087499918471519
 20
-0.125
 30
0.0
  0
VERTEX
  5
19336
330
E7D8
100
AcDbEntity
  8
Wall
  6
Continuous
100
AcDbVertex
100
AcDb2dVertex
 10
0.6337499918471448
 20
-0.125
 30
0.0
  0
VERTEX
  5
19337
330
E7D8
100
AcDbEntity
  8
Wall
  6
Continuous
100
AcDbVertex
100
AcDb2dVertex
 10
0.6337499918471448
 20
-4.375
 30
0.0
  0
VERTEX
  5
19338
330
E7D8
100
AcDbEntity
  8
Wall
  6
Continuous
100
AcDbVertex
100
AcDb2dVertex
 10
0.0087499918471519
 20
-4.375
 30
0.0
  0
SEQEND
  5
19339
330
E7D8
100
AcDbEntity
  8
Wall
  6
Continuous
  0
LINE
  5
E7DF
330
E784
100
AcDbEntity
  8
Wall
100
AcDbLine
 10
0.6337499918471448
 20
-0.875
 30
0.0
 11
1.473749991847148
 21
-4.375
 31
0.0
  0
LINE
  5
E7E5
330
E784
100
AcDbEntity
  8
Wall
  6
Continuous
100
AcDbLine
 10
4.719847431948222
 20
0.0
 30
0.0
 11
5.690274749368999
 21
0.0
 31
0.0
  0
LINE
  5
E7E6
330
E784
100
AcDbEntity
  8
Wall
  6
Continuous
100
AcDbLine
 10
4.735847431956591
 20
0.0625
 30
0.0
 11
4.735847431956591
 21
0.375
 31
0.0
  0
LINE
  5
E7E7
330
E784
100
AcDbEntity
  8
Wall
  6
Continuous
100
AcDbLine
 10
4.798347431956591
 20
0.0625
 30
0.0
 11
4.798347431956591
 21
0.375
 31
0.0
  0
LINE
  5
E7E8
330
E784
100
AcDbEntity
  8
Wall
  6
Continuous
100
AcDbLine
 10
4.860847431956591
 20
0.0625
 30
0.0
 11
4.860847431956591
 21
0.375
 31
0.0
  0
LINE
  5
E7E9
330
E784
100
AcDbEntity
  8
Wall
  6
Continuous
100
AcDbLine
 10
5.110847431956591
 20
0.0625
 30
0.0
 11
5.110847431956591
 21
0.375
 31
0.0
  0
LINE
  5
E7EA
330
E784
100
AcDbEntity
  8
Wall
  6
Continuous
100
AcDbLine
 10
5.110847431956591
 20
0.0625
 30
0.0
 11
5.110847431956591
 21
0.375
 31
0.0
  0
LINE
  5
E7EB
330
E784
100
AcDbEntity
  8
Wall
  6
Continuous
100
AcDbLine
 10
5.048347431956591
 20
0.0625
 30
0.0
 11
5.048347431956591
 21
0.375
 31
0.0
  0
LINE
  5
E7EC
330
E784
100
AcDbEntity
  8
Wall
  6
Continuous
100
AcDbLine
 10
5.048347431956591
 20
0.0625
 30
0.0
 11
5.048347431956591
 21
0.375
 31
0.0
  0
LINE
  5
E7ED
330
E784
100
AcDbEntity
  8
Wall
  6
Continuous
100
AcDbLine
 10
4.985847431956591
 20
0.0625
 30
0.0
 11
4.985847431956591
 21
0.375
 31
0.0
  0
LINE
  5
E7EE
330
E784
100
AcDbEntity
  8
Wall
  6
Continuous
100
AcDbLine
 10
4.985847431956591
 20
0.0625
 30
0.0
 11
4.985847431956591
 21
0.375
 31
0.0
  0
LINE
  5
E7EF
330
E784
100
AcDbEntity
  8
Wall
  6
Continuous
100
AcDbLine
 10
4.923347431956591
 20
0.0625
 30
0.0
 11
4.923347431956591
 21
0.375
 31
0.0
  0
LINE
  5
E7F0
330
E784
100
AcDbEntity
  8
Wall
  6
Continuous
100
AcDbLine
 10
4.923347431956591
 20
0.0625
 30
0.0
 11
4.923347431956591
 21
0.375
 31
0.0
  0
LINE
  5
E7F1
330
E784
100
AcDbEntity
  8
Wall
  6
Continuous
100
AcDbLine
 10
5.423347431956591
 20
0.0625
 30
0.0
 11
5.423347431956591
 21
0.375
 31
0.0
  0
LINE
  5
E7F2
330
E784
100
AcDbEntity
  8
Wall
  6
Continuous
100
AcDbLine
 10
5.423347431956591
 20
0.0625
 30
0.0
 11
5.423347431956591
 21
0.375
 31
0.0
  0
LINE
  5
E7F3
330
E784
100
AcDbEntity
  8
Wall
  6
Continuous
100
AcDbLine
 10
5.360847431956591
 20
0.0625
 30
0.0
 11
5.360847431956591
 21
0.375
 31
0.0
  0
LINE
  5
E7F4
330
E784
100
AcDbEntity
  8
Wall
  6
Continuous
100
AcDbLine
 10
5.360847431956591
 20
0.0625
 30
0.0
 11
5.360847431956591
 21
0.375
 31
0.0
  0
LINE
  5
E7F5
330
E784
100
AcDbEntity
  8
Wall
  6
Continuous
100
AcDbLine
 10
5.298347431956591
 20
0.0625
 30
0.0
 11
5.298347431956591
 21
0.375
 31
0.0
  0
LINE
  5
E7F6
330
E784
100
AcDbEntity
  8
Wall
  6
Continuous
100
AcDbLine
 10
5.298347431956591
 20
0.0625
 30
0.0
 11
5.298347431956591
 21
0.375
 31
0.0
  0
LINE
  5
E7F7
330
E784
100
AcDbEntity
  8
Wall
  6
Continuous
100
AcDbLine
 10
5.235847431956591
 20
0.0625
 30
0.0
 11
5.235847431956591
 21
0.375
 31
0.0
  0
LINE
  5
E7F8
330
E784
100
AcDbEntity
  8
Wall
  6
Continuous
100
AcDbLine
 10
5.235847431956591
 20
0.0625
 30
0.0
 11
5.235847431956591
 21
0.375
 31
0.0
  0
LINE
  5
E7F9
330
E784
100
AcDbEntity
  8
Wall
  6
Continuous
100
AcDbLine
 10
5.173347431956591
 20
0.0625
 30
0.0
 11
5.173347431956591
 21
0.375
 31
0.0
  0
LINE
  5
E7FA
330
E784
100
AcDbEntity
  8
Wall
  6
Continuous
100
AcDbLine
 10
5.173347431956591
 20
0.0625
 30
0.0
 11
5.173347431956591
 21
0.375
 31
0.0
  0
LINE
  5
E7FB
330
E784
100
AcDbEntity
  8
Wall
  6
Continuous
100
AcDbLine
 10
5.673347431956591
 20
0.0625
 30
0.0
 11
5.673347431956591
 21
0.375
 31
0.0
  0
LINE
  5
E7FC
330
E784
100
AcDbEntity
  8
Wall
  6
Continuous
100
AcDbLine
 10
5.673347431956591
 20
0.0625
 30
0.0
 11
5.673347431956591
 21
0.375
 31
0.0
  0
LINE
  5
E7FD
330
E784
100
AcDbEntity
  8
Wall
  6
Continuous
100
AcDbLine
 10
5.610847431956591
 20
0.0625
 30
0.0
 11
5.610847431956591
 21
0.375
 31
0.0
  0
LINE
  5
E7FE
330
E784
100
AcDbEntity
  8
Wall
  6
Continuous
100
AcDbLine
 10
5.610847431956591
 20
0.0625
 30
0.0
 11
5.610847431956591
 21
0.375
 31
0.0
  0
LINE
  5
E7FF
330
E784
100
AcDbEntity
  8
Wall
  6
Continuous
100
AcDbLine
 10
5.548347431956591
 20
0.0625
 30
0.0
 11
5.548347431956591
 21
0.375
 31
0.0
  0
LINE
  5
E800
330
E784
100
AcDbEntity
  8
Wall
  6
Continuous
100
AcDbLine
 10
5.548347431956591
 20
0.0625
 30
0.0
 11
5.548347431956591
 21
0.375
 31
0.0
  0
LINE
  5
E801
330
E784
100
AcDbEntity
  8
Wall
  6
Continuous
100
AcDbLine
 10
5.485847431956591
 20
0.0625
 30
0.0
 11
5.485847431956591
 21
0.375
 31
0.0
  0
LINE
  5
E802
330
E784
100
AcDbEntity
  8
Wall
  6
Continuous
100
AcDbLine
 10
5.485847431956591
 20
0.0625
 30
0.0
 11
5.485847431956591
 21
0.375
 31
0.0
  0
ARC
  5
132A2
330
E784
100
AcDbEntity
  8
Wall
100
AcDbCircle
 10
4.767548674629161
 20
-0.0587417084364717
 30
0.0
 40
0.099051008510418
100
AcDbArc
 50
141.6704719176741
 51
221.9846134758441
  0
ARC
  5
132A3
330
E784
100
AcDbEntity
  8
Wall
100
AcDbCircle
 10
4.728312249550789
 20
-0.0587417084364717
 30
0.0
 40
0.099051008510418
100
AcDbArc
 50
141.6704719176741
 51
221.9846134758441
  0
ARC
  5
132A4
330
E784
100
AcDbEntity
  8
Wall
100
AcDbCircle
 10
4.68225204551863
 20
-0.0595942782361476
 30
0.0
 40
0.099051008510418
100
AcDbArc
 50
141.6704719176741
 51
221.9846134758441
  0
ARC
  5
13F8F
330
E784
100
AcDbEntity
  8
Wall
  6
Continuous
100
AcDbCircle
 10
-0.8270524369027398
 20
-0.1151427378332919
 30
0.0
 40
0.2355637139408562
100
AcDbArc
 50
111.6980120481289
 51
166.952740287679
  0
ARC
  5
13F90
330
E784
100
AcDbEntity
  8
Wall
  6
Continuous
100
AcDbCircle
 10
-0.8191754770782324
 20
-0.1062181358343786
 30
0.0
 40
0.2926976786285613
100
AcDbArc
 50
108.9327789354788
 51
170.4481791494054
  0
ARC
  5
13F91
330
E784
100
AcDbEntity
  8
Wall
  6
Continuous
100
AcDbCircle
 10
-0.8651203238104372
 20
-0.1175255312764705
 30
0.0
 40
0.1015631804469333
100
AcDbArc
 50
36.12574617802196
 51
182.4188374610511
  0
INSERT
  5
13FA3
330
E784
100
AcDbEntity
  8
Wall
100
AcDbBlockReference
  2
sill support
 10
-1.366250000000055
 20
-0.0598119178395926
 30
0.0
  0
ARC
  5
13FA4
330
E784
100
AcDbEntity
  8
Wall
  6
Continuous
100
AcDbCircle
 10
-0.8807169055858192
 20
-0.1137355486767468
 30
0.0
 40
0.1527467679447847
100
AcDbArc
 50
21.54260548534294
 51
183.0308841109144
  0
ARC
  5
13FA5
330
E784
100
AcDbEntity
  8
Wall
  6
Continuous
100
AcDbCircle
 10
-0.904557125694323
 20
-0.1116632532620443
 30
0.0
 40
0.2202506649423613
100
AcDbArc
 50
14.19627874039624
 51
78.10086281912531
  0
ARC
  5
13FA6
330
E784
100
AcDbEntity
  8
Wall
  6
Continuous
100
AcDbCircle
 10
-0.8974114652194042
 20
-0.1051043126234212
 30
0.0
 40
0.2686953180618066
100
AcDbArc
 50
10.17280274350923
 51
81.81206954439966
  0
HATCH
  5
14362
330
E784
100
AcDbEntity
  8
Wall
100
AcDbHatch
 10
0.0
 20
0.0
 30
0.0
210
0.0
220
0.0
230
1.0
  2
PLY
 70
     0
 71
     1
 91
        1
 92
        1
 93
        9
 72
     1
 10
5.690274749368997
 20
-0.125
 11
0.6337499918471448
 21
-0.125
 72
     1
 10
0.6337499918471448
 20
-0.125
 11
0.6337499918471448
 21
-0.875
 72
     1
 10
0.6337499918471448
 20
-0.875
 11
5.690274749368997
 21
-0.875
 72
     1
 10
5.690274749368997
 20
-0.875
 11
5.690274741216216
 21
-0.6010731833298451
 72
     1
 10
5.690274741216216
 20
-0.6010731833298451
 11
5.440274741216216
 21
-0.5385731833298451
 72
     1
 10
5.440274741216216
 20
-0.5385731833298451
 11
5.940274741216216
 21
-0.4135731833298451
 72
     1
 10
5.940274741216216
 20
-0.4135731833298451
 11
5.690274741216216
 21
-0.351073183329845
 72
     1
 10
5.690274741216216
 20
-0.351073183329845
 11
5.690274741216216
 21
-0.125
 72
     1
 10
5.690274741216216
 20
-0.125
 11
5.690274749368997
 21
-0.125
 97
        1
330
E7B1
 75
     0
 76
     1
 52
0.0
 41
1.0
 77
     0
 78
     2
 53
0.0
 43
-9.928750008152855
 44
-17.65625
 45
0.0
 46
0.125
 79
     0
 53
45.0
 43
-9.928750008152855
 44
-17.78125
 45
-0.3535533905932737
 46
0.3535533905932738
 79
     0
 98
        1
 10
-9.928750008152855
 20
-17.78125
  0
HATCH
  5
14363
330
E784
100
AcDbEntity
  8
Wall
100
AcDbHatch
 10
0.0
 20
0.0
 30
0.0
210
0.0
220
0.0
230
1.0
  2
GYP
 70
     0
 71
     1
 91
        1
 92
        1
 93
        4
 72
     1
 10
0.0087499918471519
 20
-4.375
 11
0.0087499918471519
 21
-0.125
 72
     1
 10
0.0087499918471519
 20
-0.125
 11
0.6337499918471448
 21
-0.125
 72
     1
 10
0.6337499918471448
 20
-0.125
 11
0.6337499918471448
 21
-4.375
 72
     1
 10
0.6337499918471448
 20
-4.375
 11
0.0087499918471519
 21
-4.375
 97
        1
330
E7D8
 75
     0
 76
     1
 52
90.0
 41
0.5
 77
     0
 78
     3
 53
90.0
 43
-9.928750008152855
 44
-17.78125
 45
-0.25
 46
0.09
 79
     2
 49
0.0
 49
-0.15
 53
120.0
 43
-9.988750008152855
 44
-17.76625
 45
-0.2615063509461097
 46
-0.0470577136594005
 79
     2
 49
0.0
 49
-0.1499999999999998
 53
150.0
 43
-10.01875000815285
 44
-17.75125
 45
-0.2029422863405995
 46
-0.1715063509461096
 79
     2
 49
0.0
 49
-0.15
 98
        1
 10
-9.928750008152855
 20
-17.78125
  0
INSERT
  5
168F3
330
E784
100
AcDbEntity
  8
Wall
100
AcDbBlockReference
  2
Lag screw.5x4
 10
-0.2412500081528446
 20
-1.38579496487322
 30
0.0
 41
0.5
 42
0.75
 43
0.5
 50
90.0
  0
POLYLINE
  5
1931C
330
E784
100
AcDbEntity
  8
Wall
  6
Continuous
100
AcDb2dPolyline
 66
     1
 10
0.0
 20
0.0
 30
0.0
  0
VERTEX
  5
1931D
330
1931C
100
AcDbEntity
  8
Wall
  6
Continuous
100
AcDbVertex
100
AcDb2dVertex
 10
5.690274749368999
 20
0.0625
 30
0.0
  0
VERTEX
  5
1931E
330
1931C
100
AcDbEntity
  8
Wall
  6
Continuous
100
AcDbVertex
100
AcDb2dVertex
 10
4.719847431948222
 20
0.0625
 30
0.0
  0
VERTEX
  5
1931F
330
1931C
100
AcDbEntity
  8
Wall
  6
Continuous
100
AcDbVertex
100
AcDb2dVertex
 10
4.719847431948222
 20
0.0
 30
0.0
  0
SEQEND
  5
19320
330
1931C
100
AcDbEntity
  8
Wall
  6
Continuous
  0
ENDBLK
  5
E828
330
E784
100
AcDbEntity
  8
0
 62
   132
100
AcDbBlockEnd
  0
BLOCK
  5
EA64
330
EA59
100
AcDbEntity
  8
0
100
AcDbBlockBegin
  2
*D2
 70
     1
 10
0.0
 20
0.0
 30
0.0
  3
*D2
  1

  0
LINE
  5
16A4C
330
EA59
100
AcDbEntity
  8
Dim
100
AcDbLine
 10
20.9952747493693
 20
18.09917297924373
 30
0.0
 11
20.9952747493693
 21
13.62999999999977
 31
0.0
  0
LINE
  5
16A4D
330
EA59
100
AcDbEntity
  8
Dim
100
AcDbLine
 10
21.4952747493693
 20
13.75499999999977
 30
0.0
 11
27.40027474936908
 21
13.75499999999977
 31
0.0
  0
MTEXT
  5
16A4E
330
EA59
100
AcDbEntity
  8
Dim
 62
   255
100
AcDbMText
 10
25.55652474936907
 20
13.48512960436538
 30
0.0
 40
0.28
 41
0.0
 71
     5
 72
     1
  1
\A1;ROUGH OPENING
 73
     1
 44
1.0
1001
ACAD
1000
MTEXTBEGIN
1070
    73
1070
     1
1070
    44
1040
1.0
1070
    74
1070
     0
1000
MTEXTEND
  0
SOLID
  5
16A4F
330
EA59
100
AcDbEntity
  8
Dim
100
AcDbTrace
 10
21.4952747493693
 20
13.8383333333331
 30
0.0
 11
21.4952747493693
 21
13.67166666666643
 31
0.0
 12
20.9952747493693
 22
13.75499999999977
 32
0.0
 13
20.9952747493693
 23
13.75499999999977
 33
0.0
  0
POINT
  5
16A50
330
EA59
100
AcDbEntity
  8
Defpoints
 62
     0
100
AcDbPoint
 10
20.9952747493693
 20
18.59917297924373
 30
0.0
  0
POINT
  5
16A51
330
EA59
100
AcDbEntity
  8
Defpoints
 62
     0
100
AcDbPoint
 10
27.40027474936908
 20
16.70287367283419
 30
0.0
  0
POINT
  5
16A52
330
EA59
100
AcDbEntity
  8
Defpoints
 62
     0
100
AcDbPoint
 10
27.40027474936908
 20
13.75499999999977
 30
0.0
  0
ENDBLK
  5
EA65
330
EA59
100
AcDbEntity
  8
0
100
AcDbBlockEnd
  0
BLOCK
  5
EA7E
330
EA73
100
AcDbEntity
  8
0
100
AcDbBlockBegin
  2
*D3
 70
     1
 10
0.0
 20
0.0
 30
0.0
  3
*D3
  1

  0
LINE
  5
16A25
330
EA73
100
AcDbEntity
  8
Dim
100
AcDbLine
 10
21.39527474936931
 20
18.09917297924373
 30
0.0
 11
21.39527474936931
 21
14.62999999999977
 31
0.0
  0
LINE
  5
16A26
330
EA73
100
AcDbEntity
  8
Dim
100
AcDbLine
 10
21.89527474936931
 20
14.75499999999977
 30
0.0
 11
27.40027474936908
 21
14.75499999999977
 31
0.0
  0
MTEXT
  5
16A27
330
EA73
100
AcDbEntity
  8
Dim
 62
   255
100
AcDbMText
 10
26.55652474936907
 20
14.48999999999976
 30
0.0
 40
0.28
 41
0.0
 71
     5
 72
     1
  1
\A1;FRAME
 73
     1
 44
1.0
1001
ACAD
1000
MTEXTBEGIN
1070
    73
1070
     1
1070
    44
1040
1.0
1070
    74
1070
     0
1000
MTEXTEND
  0
SOLID
  5
16A28
330
EA73
100
AcDbEntity
  8
Dim
100
AcDbTrace
 10
21.89527474936931
 20
14.8383333333331
 30
0.0
 11
21.89527474936931
 21
14.67166666666643
 31
0.0
 12
21.39527474936931
 22
14.75499999999977
 32
0.0
 13
21.39527474936931
 23
14.75499999999977
 33
0.0
  0
POINT
  5
16A29
330
EA73
100
AcDbEntity
  8
Defpoints
 62
     0
100
AcDbPoint
 10
21.39527474936931
 20
18.59917297924373
 30
0.0
  0
POINT
  5
16A2A
330
EA73
100
AcDbEntity
  8
Defpoints
 62
     0
100
AcDbPoint
 10
27.40027474936908
 20
16.70287367283419
 30
0.0
  0
POINT
  5
16A2B
330
EA73
100
AcDbEntity
  8
Defpoints
 62
     0
100
AcDbPoint
 10
27.40027474936908
 20
14.75499999999977
 30
0.0
  0
ENDBLK
  5
EA7F
330
EA73
100
AcDbEntity
  8
0
100
AcDbBlockEnd
  0
BLOCK
  5
EA98
330
EA8D
100
AcDbEntity
  8
0
100
AcDbBlockBegin
  2
*D4
 70
     1
 10
0.0
 20
0.0
 30
0.0
  3
*D4
  1

  0
LINE
  5
16A2C
330
EA8D
100
AcDbEntity
  8
Dim
100
AcDbLine
 10
8.46875
 20
30.78125
 30
0.0
 11
4.967827020756034
 21
30.78125
 31
0.0
  0
LINE
  5
16A2D
330
EA8D
100
AcDbEntity
  8
Dim
100
AcDbLine
 10
5.092827020756034
 20
30.28125000000001
 30
0.0
 11
5.092827020756033
 21
24.78125
 31
0.0
  0
MTEXT
  5
16A2E
330
EA8D
100
AcDbEntity
  8
Dim
 62
   255
100
AcDbMText
 10
4.827827020756028
 20
25.59375
 30
0.0
 40
0.28
 41
0.0
 71
     5
 72
     1
  1
\A1;FRAME
 11
0.0000000000000001
 21
1.0
 31
0.0
 73
     1
 44
1.0
1001
ACAD
1000
MTEXTBEGIN
1070
    73
1070
     1
1070
    44
1040
1.0
1070
    74
1070
     0
1000
MTEXTEND
  0
SOLID
  5
16A2F
330
EA8D
100
AcDbEntity
  8
Dim
100
AcDbTrace
 10
5.009493687422701
 20
30.28125000000001
 30
0.0
 11
5.176160354089367
 21
30.28125000000001
 31
0.0
 12
5.092827020756034
 22
30.78125
 32
0.0
 13
5.092827020756034
 23
30.78125
 33
0.0
  0
POINT
  5
16A30
330
EA8D
100
AcDbEntity
  8
Defpoints
 62
     0
100
AcDbPoint
 10
8.96875
 20
30.78125
 30
0.0
  0
POINT
  5
16A31
330
EA8D
100
AcDbEntity
  8
Defpoints
 62
     0
100
AcDbPoint
 10
5.687038510378016
 20
24.78125
 30
0.0
  0
POINT
  5
16A32
330
EA8D
100
AcDbEntity
  8
Defpoints
 62
     0
100
AcDbPoint
 10
5.092827020756033
 20
24.78125
 30
0.0
  0
ENDBLK
  5
EA99
330
EA8D
100
AcDbEntity
  8
0
100
AcDbBlockEnd
  0
BLOCK
  5
EAB2
330
EAA7
100
AcDbEntity
  8
0
100
AcDbBlockBegin
  2
*D5
 70
     1
 10
0.0
 20
0.0
 30
0.0
  3
*D5
  1

  0
LINE
  5
16A33
330
EAA7
100
AcDbEntity
  8
Dim
100
AcDbLine
 10
8.437000000000001
 20
17.73875
 30
0.0
 11
4.967827020756038
 21
17.73875
 31
0.0
  0
LINE
  5
16A34
330
EAA7
100
AcDbEntity
  8
Dim
100
AcDbLine
 10
6.478200693590453
 20
23.78125
 30
0.0
 11
4.96782702075604
 21
23.78125
 31
0.0
  0
LINE
  5
16A35
330
EAA7
100
AcDbEntity
  8
Dim
100
AcDbLine
 10
5.092827020756038
 20
17.73875
 30
0.0
 11
5.09282702075604
 21
23.28125
 31
0.0
  0
MTEXT
  5
16A36
330
EAA7
100
AcDbEntity
  8
Dim
 62
   255
100
AcDbMText
 10
4.827827020756037
 20
18.5625
 30
0.0
 40
0.28
 41
0.0
 71
     5
 72
     1
  1
\A1;FRAME
 11
0.0000000000000001
 21
1.0
 31
0.0
 73
     1
 44
1.0
1001
ACAD
1000
MTEXTBEGIN
1070
    73
1070
     1
1070
    44
1040
1.0
1070
    74
1070
     0
1000
MTEXTEND
  0
SOLID
  5
16A37
330
EAA7
100
AcDbEntity
  8
Dim
100
AcDbTrace
 10
5.009493687422707
 20
23.28125
 30
0.0
 11
5.176160354089373
 21
23.28125
 31
0.0
 12
5.09282702075604
 22
23.78125
 32
0.0
 13
5.09282702075604
 23
23.78125
 33
0.0
  0
POINT
  5
16A38
330
EAA7
100
AcDbEntity
  8
Defpoints
 62
     0
100
AcDbPoint
 10
8.937000000000001
 20
17.73875
 30
0.0
  0
POINT
  5
16A39
330
EAA7
100
AcDbEntity
  8
Defpoints
 62
     0
100
AcDbPoint
 10
6.978200693590453
 20
23.78125
 30
0.0
  0
POINT
  5
16A3A
330
EAA7
100
AcDbEntity
  8
Defpoints
 62
     0
100
AcDbPoint
 10
5.09282702075604
 20
23.78125
 30
0.0
  0
ENDBLK
  5
EAB3
330
EAA7
100
AcDbEntity
  8
0
100
AcDbBlockEnd
  0
BLOCK
  5
F1C0
330
F1B5
100
AcDbEntity
  8
0
100
AcDbBlockBegin
  2
*D6
 70
     1
 10
0.0
 20
0.0
 30
0.0
  3
*D6
  1

  0
LINE
  5
16A3B
330
F1B5
100
AcDbEntity
  8
Dim
100
AcDbLine
 10
8.46875
 20
31.28125
 30
0.0
 11
3.967827020756034
 21
31.28125000000001
 31
0.0
  0
LINE
  5
16A3C
330
F1B5
100
AcDbEntity
  8
Dim
100
AcDbLine
 10
4.092827020756034
 20
30.78125
 30
0.0
 11
4.092827020756033
 21
24.78125
 31
0.0
  0
MTEXT
  5
16A3D
330
F1B5
100
AcDbEntity
  8
Dim
 62
   255
100
AcDbMText
 10
3.82295662512165
 20
26.59375
 30
0.0
 40
0.28
 41
0.0
 71
     5
 72
     1
  1
\A1;ROUGH OPENING
 11
0.0000000000000001
 21
1.0
 31
0.0
 73
     1
 44
1.0
1001
ACAD
1000
MTEXTBEGIN
1070
    73
1070
     1
1070
    44
1040
1.0
1070
    74
1070
     0
1000
MTEXTEND
  0
SOLID
  5
16A3E
330
F1B5
100
AcDbEntity
  8
Dim
100
AcDbTrace
 10
4.009493687422701
 20
30.78125
 30
0.0
 11
4.176160354089367
 21
30.78125
 31
0.0
 12
4.092827020756034
 22
31.28125000000001
 32
0.0
 13
4.092827020756034
 23
31.28125000000001
 33
0.0
  0
POINT
  5
16A3F
330
F1B5
100
AcDbEntity
  8
Defpoints
 62
     0
100
AcDbPoint
 10
8.96875
 20
31.28125
 30
0.0
  0
POINT
  5
16A40
330
F1B5
100
AcDbEntity
  8
Defpoints
 62
     0
100
AcDbPoint
 10
5.687038510378016
 20
24.78125
 30
0.0
  0
POINT
  5
16A41
330
F1B5
100
AcDbEntity
  8
Defpoints
 62
     0
100
AcDbPoint
 10
4.092827020756033
 20
24.78125
 30
0.0
  0
ENDBLK
  5
F1C1
330
F1B5
100
AcDbEntity
  8
0
100
AcDbBlockEnd
  0
BLOCK
  5
F1F7
330
F1EB
100
AcDbEntity
  8
0
100
AcDbBlockBegin
  2
*D7
 70
     1
 10
0.0
 20
0.0
 30
0.0
  3
*D7
  1

  0
LINE
  5
16A42
330
F1EB
100
AcDbEntity
  8
Dim
100
AcDbLine
 10
8.46875
 20
30.78125
 30
0.0
 11
4.967827020756034
 21
30.78125
 31
0.0
  0
LINE
  5
16A43
330
F1EB
100
AcDbEntity
  8
Dim
100
AcDbLine
 10
8.46875
 20
31.28125
 30
0.0
 11
4.967827020756034
 21
31.28125000000001
 31
0.0
  0
LINE
  5
16A44
330
F1EB
100
AcDbEntity
  8
Dim
100
AcDbLine
 10
5.092827020756034
 20
30.28125000000001
 30
0.0
 11
5.092827020756033
 21
29.78125
 31
0.0
  0
LINE
  5
16A45
330
F1EB
100
AcDbEntity
  8
Dim
100
AcDbLine
 10
5.092827020756034
 20
31.78125
 30
0.0
 11
5.092827020756034
 21
32.28125
 31
0.0
  0
MTEXT
  5
16A46
330
F1EB
100
AcDbEntity
  8
Dim
 62
   255
100
AcDbMText
 10
5.092827020756034
 20
32.6234710062938
 30
0.0
 40
0.28
 41
0.0
 71
     5
 72
     1
  1
\A1;1/2"\P [13]
 11
0.0000000000000001
 21
1.0
 31
0.0
 73
     1
 44
1.0
1001
ACAD
1000
MTEXTBEGIN
1070
    73
1070
     1
1070
    44
1040
1.0
1070
    74
1070
     0
1000
MTEXTEND
  0
SOLID
  5
16A47
330
F1EB
100
AcDbEntity
  8
Dim
100
AcDbTrace
 10
5.009493687422701
 20
30.28125000000001
 30
0.0
 11
5.176160354089367
 21
30.28125000000001
 31
0.0
 12
5.092827020756034
 22
30.78125
 32
0.0
 13
5.092827020756034
 23
30.78125
 33
0.0
  0
SOLID
  5
16A48
330
F1EB
100
AcDbEntity
  8
Dim
100
AcDbTrace
 10
5.009493687422701
 20
31.78125
 30
0.0
 11
5.176160354089367
 21
31.78125
 31
0.0
 12
5.092827020756034
 22
31.28125000000001
 32
0.0
 13
5.092827020756034
 23
31.28125000000001
 33
0.0
  0
POINT
  5
16A49
330
F1EB
100
AcDbEntity
  8
Defpoints
 62
     0
100
AcDbPoint
 10
8.96875
 20
30.78125
 30
0.0
  0
POINT
  5
16A4A
330
F1EB
100
AcDbEntity
  8
Defpoints
 62
     0
100
AcDbPoint
 10
8.96875
 20
31.28125
 30
0.0
  0
POINT
  5
16A4B
330
F1EB
100
AcDbEntity
  8
Defpoints
 62
     0
100
AcDbPoint
 10
5.092827020756034
 20
31.28125000000001
 30
0.0
  0
ENDBLK
  5
F1F8
330
F1EB
100
AcDbEntity
  8
0
100
AcDbBlockEnd
  0
BLOCK
  5
F24C
330
F24B
100
AcDbEntity
  8
0
100
AcDbBlockBegin
  2
_None
 70
     0
 10
0.0
 20
0.0
 30
0.0
  3
_None
  1

  0
ENDBLK
  5
F24D
330
F24B
100
AcDbEntity
  8
0
100
AcDbBlockEnd
  0
BLOCK
  5
F2B0
330
F2A4
100
AcDbEntity
  8
0
100
AcDbBlockBegin
  2
*D9
 70
     1
 10
0.0
 20
0.0
 30
0.0
  3
*D9
  1

  0
LINE
  5
16A53
330
F2A4
100
AcDbEntity
  8
Dim
100
AcDbLine
 10
21.39527474936931
 20
18.09917297924373
 30
0.0
 11
21.39527474936931
 21
14.62999999999977
 31
0.0
  0
LINE
  5
16A54
330
F2A4
100
AcDbEntity
  8
Dim
100
AcDbLine
 10
20.9952747493693
 20
18.09917297924373
 30
0.0
 11
20.9952747493693
 21
14.62999999999977
 31
0.0
  0
LINE
  5
16A55
330
F2A4
100
AcDbEntity
  8
Dim
100
AcDbLine
 10
21.89527474936931
 20
14.75499999999977
 30
0.0
 11
22.39527474936931
 21
14.75499999999977
 31
0.0
  0
LINE
  5
16A56
330
F2A4
100
AcDbEntity
  8
Dim
100
AcDbLine
 10
20.4952747493693
 20
14.75499999999977
 30
0.0
 11
19.9952747493693
 21
14.75499999999977
 31
0.0
  0
MTEXT
  5
16A57
330
F2A4
100
AcDbEntity
  8
Dim
 62
   255
100
AcDbMText
 10
19.68316576616211
 20
14.75499999999977
 30
0.0
 40
0.28
 41
0.0
 71
     5
 72
     1
  1
\A1;3/8"\P [10]
 73
     1
 44
1.0
1001
ACAD
1000
MTEXTBEGIN
1070
    73
1070
     1
1070
    44
1040
1.0
1070
    74
1070
     0
1000
MTEXTEND
  0
SOLID
  5
16A58
330
F2A4
100
AcDbEntity
  8
Dim
100
AcDbTrace
 10
21.89527474936931
 20
14.8383333333331
 30
0.0
 11
21.89527474936931
 21
14.67166666666643
 31
0.0
 12
21.39527474936931
 22
14.75499999999977
 32
0.0
 13
21.39527474936931
 23
14.75499999999977
 33
0.0
  0
SOLID
  5
16A59
330
F2A4
100
AcDbEntity
  8
Dim
100
AcDbTrace
 10
20.4952747493693
 20
14.8383333333331
 30
0.0
 11
20.4952747493693
 21
14.67166666666643
 31
0.0
 12
20.9952747493693
 22
14.75499999999977
 32
0.0
 13
20.9952747493693
 23
14.75499999999977
 33
0.0
  0
POINT
  5
16A5A
330
F2A4
100
AcDbEntity
  8
Defpoints
 62
     0
100
AcDbPoint
 10
21.39527474936931
 20
18.59917297924373
 30
0.0
  0
POINT
  5
16A5B
330
F2A4
100
AcDbEntity
  8
Defpoints
 62
     0
100
AcDbPoint
 10
20.9952747493693
 20
18.59917297924373
 30
0.0
  0
POINT
  5
16A5C
330
F2A4
100
AcDbEntity
  8
Defpoints
 62
     0
100
AcDbPoint
 10
20.9952747493693
 20
14.75499999999977
 30
0.0
  0
ENDBLK
  5
F2B1
330
F2A4
100
AcDbEntity
  8
0
100
AcDbBlockEnd
  0
BLOCK
  5
F33B
330
F330
100
AcDbEntity
  8
0
100
AcDbBlockBegin
  2
*D10
 70
     1
 10
0.0
 20
0.0
 30
0.0
  3
*D10
  1

  0
LINE
  5
16A5D
330
F330
100
AcDbEntity
  8
Dim
100
AcDbLine
 10
8.437000000000001
 20
17.73875
 30
0.0
 11
3.967827020756037
 21
17.73875
 31
0.0
  0
LINE
  5
16A5E
330
F330
100
AcDbEntity
  8
Dim
100
AcDbLine
 10
6.217827020756033
 20
23.78125
 30
0.0
 11
3.967827020756038
 21
23.78125
 31
0.0
  0
LINE
  5
16A5F
330
F330
100
AcDbEntity
  8
Dim
100
AcDbLine
 10
4.092827020756036
 20
17.73875
 30
0.0
 11
4.092827020756038
 21
23.28125
 31
0.0
  0
MTEXT
  5
16A60
330
F330
100
AcDbEntity
  8
Dim
 62
   255
100
AcDbMText
 10
3.822956625121658
 20
19.5625
 30
0.0
 40
0.28
 41
0.0
 71
     5
 72
     1
  1
\A1;ROUGH OPENING
 11
0.0000000000000001
 21
1.0
 31
0.0
 73
     1
 44
1.0
1001
ACAD
1000
MTEXTBEGIN
1070
    73
1070
     1
1070
    44
1040
1.0
1070
    74
1070
     0
1000
MTEXTEND
  0
SOLID
  5
16A61
330
F330
100
AcDbEntity
  8
Dim
100
AcDbTrace
 10
4.009493687422705
 20
23.28125
 30
0.0
 11
4.176160354089371
 21
23.28125
 31
0.0
 12
4.092827020756038
 22
23.78125
 32
0.0
 13
4.092827020756038
 23
23.78125
 33
0.0
  0
POINT
  5
16A62
330
F330
100
AcDbEntity
  8
Defpoints
 62
     0
100
AcDbPoint
 10
8.937000000000001
 20
17.73875
 30
0.0
  0
POINT
  5
16A63
330
F330
100
AcDbEntity
  8
Defpoints
 62
     0
100
AcDbPoint
 10
6.717827020756033
 20
23.78125
 30
0.0
  0
POINT
  5
16A64
330
F330
100
AcDbEntity
  8
Defpoints
 62
     0
100
AcDbPoint
 10
4.092827020756038
 20
23.78125
 30
0.0
  0
ENDBLK
  5
F33C
330
F330
100
AcDbEntity
  8
0
100
AcDbBlockEnd
  0
BLOCK
  5
FADA
330
FA0D
100
AcDbEntity
  8
0
100
AcDbBlockBegin
  2
Td--2xwsid-fH-wdDr
 70
     0
 10
0.0
 20
0.0
 30
0.0
  3
Td--2xwsid-fH-wdDr
  1

  0
POLYLINE
  5
FA47
330
FA0D
100
AcDbEntity
  8
Wall
  6
Continuous
100
AcDb2dPolyline
 66
     1
 10
0.0
 20
0.0
 30
0.0
  0
VERTEX
  5
16773
330
FA47
100
AcDbEntity
  8
Wall
  6
Continuous
100
AcDbVertex
100
AcDb2dVertex
 10
2.624999999999991
 20
4.5
 30
0.0
  0
VERTEX
  5
16774
330
FA47
100
AcDbEntity
  8
Wall
  6
Continuous
100
AcDbVertex
100
AcDb2dVertex
 10
2.624999999999991
 20
0.5
 30
0.0
  0
VERTEX
  5
16775
330
FA47
100
AcDbEntity
  8
Wall
  6
Continuous
100
AcDbVertex
100
AcDb2dVertex
 10
4.125
 20
0.5
 30
0.0
  0
VERTEX
  5
16776
330
FA47
100
AcDbEntity
  8
Wall
  6
Continuous
100
AcDbVertex
100
AcDb2dVertex
 10
4.125
 20
4.5
 30
0.0
  0
SEQEND
  5
16777
330
FA47
100
AcDbEntity
  8
Wall
  6
Continuous
  0
LINE
  5
FA4D
330
FA0D
100
AcDbEntity
  8
Wall
  6
Continuous
100
AcDbLine
 10
2.624999999999991
 20
0.5
 30
0.0
 11
3.390086206896546
 21
4.5
 31
0.0
  0
POLYLINE
  5
FA5C
102
{ACAD_REACTORS
330
1428D
102
}
330
FA0D
100
AcDbEntity
  8
Wall
  6
Continuous
100
AcDb2dPolyline
 66
     1
 10
0.0
 20
0.0
 30
0.0
 70
     1
  0
VERTEX
  5
1677A
330
FA5C
100
AcDbEntity
  8
Wall
  6
Continuous
100
AcDbVertex
100
AcDb2dVertex
 10
2.124999999999991
 20
4.5
 30
0.0
  0
VERTEX
  5
1677B
330
FA5C
100
AcDbEntity
  8
Wall
  6
Continuous
100
AcDbVertex
100
AcDb2dVertex
 10
2.124999999999991
 20
0.5
 30
0.0
  0
VERTEX
  5
1677C
330
FA5C
100
AcDbEntity
  8
Wall
  6
Continuous
100
AcDbVertex
100
AcDb2dVertex
 10
2.624999999999991
 20
0.5
 30
0.0
  0
VERTEX
  5
1677D
330
FA5C
100
AcDbEntity
  8
Wall
  6
Continuous
100
AcDbVertex
100
AcDb2dVertex
 10
2.624999999999991
 20
4.5
 30
0.0
  0
SEQEND
  5
1677E
330
FA5C
100
AcDbEntity
  8
Wall
  6
Continuous
  0
POLYLINE
  5
FA62
330
FA0D
100
AcDbEntity
  8
Wall
  6
Continuous
100
AcDb2dPolyline
 66
     1
 10
0.0
 20
0.0
 30
0.0
  0
VERTEX
  5
16780
330
FA62
100
AcDbEntity
  8
Wall
  6
Continuous
100
AcDbVertex
100
AcDb2dVertex
 10
0.6249999999999912
 20
4.5
 30
0.0
  0
VERTEX
  5
16781
330
FA62
100
AcDbEntity
  8
Wall
  6
Continuous
100
AcDbVertex
100
AcDb2dVertex
 10
0.6249999999999912
 20
0.5
 30
0.0
  0
VERTEX
  5
16782
330
FA62
100
AcDbEntity
  8
Wall
  6
Continuous
100
AcDbVertex
100
AcDb2dVertex
 10
2.124999999999991
 20
0.5
 30
0.0
  0
VERTEX
  5
16783
330
FA62
100
AcDbEntity
  8
Wall
  6
Continuous
100
AcDbVertex
100
AcDb2dVertex
 10
2.124999999999991
 20
4.5
 30
0.0
  0
SEQEND
  5
16784
330
FA62
100
AcDbEntity
  8
Wall
  6
Continuous
  0
POLYLINE
  5
FA68
102
{ACAD_REACTORS
330
1428E
102
}
330
FA0D
100
AcDbEntity
  8
Wall
  6
Continuous
100
AcDb2dPolyline
 66
     1
 10
0.0
 20
0.0
 30
0.0
 70
     1
  0
VERTEX
  5
16786
330
FA68
100
AcDbEntity
  8
Wall
  6
Continuous
100
AcDbVertex
100
AcDb2dVertex
 10
-0.0000000000000018
 20
4.5
 30
0.0
  0
VERTEX
  5
16787
330
FA68
100
AcDbEntity
  8
Wall
  6
Continuous
100
AcDbVertex
100
AcDb2dVertex
 10
-0.0000000000000018
 20
0.5
 30
0.0
  0
VERTEX
  5
16788
330
FA68
100
AcDbEntity
  8
Wall
  6
Continuous
100
AcDbVertex
100
AcDb2dVertex
 10
0.6249999999999912
 20
0.5
 30
0.0
  0
VERTEX
  5
16789
330
FA68
100
AcDbEntity
  8
Wall
  6
Continuous
100
AcDbVertex
100
AcDb2dVertex
 10
0.6249999999999912
 20
4.5
 30
0.0
  0
SEQEND
  5
1678A
330
FA68
100
AcDbEntity
  8
Wall
  6
Continuous
  0
LINE
  5
FA6E
330
FA0D
100
AcDbEntity
  8
Wall
  6
Continuous
100
AcDbLine
 10
2.124999999999991
 20
0.5
 30
0.0
 11
1.297413793103439
 21
4.5
 31
0.0
  0
LINE
  5
FA6F
330
FA0D
100
AcDbEntity
  8
Wall
  6
Continuous
100
AcDbLine
 10
0.6249999999999912
 20
0.5
 30
0.0
 11
1.452586206896542
 21
4.5
 31
0.0
  0
POLYLINE
  5
FA86
102
{ACAD_REACTORS
330
1428C
102
}
330
FA0D
100
AcDbEntity
  8
Wall
  6
Continuous
100
AcDb2dPolyline
 66
     1
 10
0.0
 20
0.0
 30
0.0
 70
     1
  0
VERTEX
  5
1678E
330
FA86
100
AcDbEntity
  8
Wall
  6
Continuous
100
AcDbVertex
100
AcDb2dVertex
 10
4.125
 20
4.5
 30
0.0
  0
VERTEX
  5
1678F
330
FA86
100
AcDbEntity
  8
Wall
  6
Continuous
100
AcDbVertex
100
AcDb2dVertex
 10
4.125
 20
0.5
 30
0.0
  0
VERTEX
  5
16790
330
FA86
100
AcDbEntity
  8
Wall
  6
Continuous
100
AcDbVertex
100
AcDb2dVertex
 10
4.625
 20
0.5
 30
0.0
  0
VERTEX
  5
16791
330
FA86
100
AcDbEntity
  8
Wall
  6
Continuous
100
AcDbVertex
100
AcDb2dVertex
 10
4.625
 20
4.5
 30
0.0
  0
SEQEND
  5
16792
330
FA86
100
AcDbEntity
  8
Wall
  6
Continuous
  0
LINE
  5
FA8C
330
FA0D
100
AcDbEntity
  8
Wall
  6
Continuous
100
AcDbLine
 10
4.125
 20
0.5
 30
0.0
 11
3.234913793103439
 21
4.5
 31
0.0
  0
INSERT
  5
12ECC
330
FA0D
100
AcDbEntity
  8
0
100
AcDbBlockReference
  2
1.25 WD
 10
4.687844985343394
 20
1.037950903892237
 30
0.0
  0
INSERT
  5
12ECD
330
FA0D
100
AcDbEntity
  8
0
100
AcDbBlockReference
  2
1.25 WD
 10
-0.0312500000000089
 20
1.037950903892234
 30
0.0
 41
-1.0
  0
HATCH
  5
1428C
330
FA0D
100
AcDbEntity
  8
Wall
100
AcDbHatch
 10
0.0
 20
0.0
 30
0.0
210
0.0
220
0.0
230
1.0
  2
GYP
 70
     0
 71
     1
 91
        1
 92
        1
 93
        4
 72
     1
 10
4.125
 20
4.5
 11
4.125
 21
0.5
 72
     1
 10
4.125
 20
0.5
 11
4.625
 21
0.5
 72
     1
 10
4.625
 20
0.5
 11
4.625
 21
4.5
 72
     1
 10
4.625
 20
4.5
 11
4.125
 21
4.5
 97
        1
330
FA86
 75
     0
 76
     1
 52
0.0
 41
0.5
 77
     0
 78
     3
 53
0.0
 43
-9.8125
 44
-30.78125
 45
0.09
 46
0.25
 79
     2
 49
0.0
 49
-0.15
 53
30.0
 43
-9.797499999999999
 44
-30.72125
 45
-0.0470577136594005
 46
0.2615063509461097
 79
     2
 49
0.0
 49
-0.15
 53
60.0
 43
-9.7825
 44
-30.69125
 45
-0.1715063509461096
 46
0.2029422863405995
 79
     2
 49
0.0
 49
-0.15
 98
        1
 10
-9.8125
 20
-30.78125
  0
HATCH
  5
1428D
330
FA0D
100
AcDbEntity
  8
Wall
100
AcDbHatch
 10
0.0
 20
0.0
 30
0.0
210
0.0
220
0.0
230
1.0
  2
PLY
 70
     0
 71
     1
 91
        1
 92
        1
 93
        4
 72
     1
 10
2.124999999999991
 20
4.5
 11
2.124999999999991
 21
0.5
 72
     1
 10
2.124999999999991
 20
0.5
 11
2.624999999999991
 21
0.5
 72
     1
 10
2.624999999999991
 20
0.5
 11
2.624999999999991
 21
4.5
 72
     1
 10
2.624999999999991
 20
4.5
 11
2.124999999999991
 21
4.5
 97
        1
330
FA5C
 75
     0
 76
     1
 52
90.0
 41
1.0
 77
     0
 78
     2
 53
90.0
 43
-10.00000000000001
 44
-30.78125
 45
-0.125
 46
0.0
 79
     0
 53
135.0
 43
-9.875000000000008
 44
-30.78125
 45
-0.3535533905932738
 46
-0.3535533905932737
 79
     0
 98
        1
 10
-9.875000000000008
 20
-30.78125
  0
HATCH
  5
1428E
330
FA0D
100
AcDbEntity
  8
Wall
100
AcDbHatch
 10
0.0
 20
0.0
 30
0.0
210
0.0
220
0.0
230
1.0
  2
GYP
 70
     0
 71
     1
 91
        1
 92
        1
 93
        4
 72
     1
 10
-0.0000000000000018
 20
4.5
 11
-0.0000000000000018
 21
0.5
 72
     1
 10
-0.0000000000000018
 20
0.5
 11
0.6249999999999912
 21
0.5
 72
     1
 10
0.6249999999999912
 20
0.5
 11
0.6249999999999912
 21
4.5
 72
     1
 10
0.6249999999999912
 20
4.5
 11
-0.0000000000000018
 21
4.5
 97
        1
330
FA68
 75
     0
 76
     1
 52
90.0
 41
0.5
 77
     0
 78
     3
 53
90.0
 43
-9.937500000000008
 44
-30.78125
 45
-0.25
 46
0.09
 79
     2
 49
0.0
 49
-0.15
 53
120.0
 43
-9.997500000000009
 44
-30.76625
 45
-0.2615063509461097
 46
-0.0470577136594005
 79
     2
 49
0.0
 49
-0.1499999999999999
 53
150.0
 43
-10.02750000000001
 44
-30.75125
 45
-0.2029422863405995
 46
-0.1715063509461096
 79
     2
 49
0.0
 49
-0.15
 98
        1
 10
-9.937500000000008
 20
-30.78125
  0
ENDBLK
  5
FADB
330
FA0D
100
AcDbEntity
  8
0
100
AcDbBlockEnd
  0
BLOCK
  5
10BCA
330
109D0
100
AcDbEntity
  8
0
100
AcDbBlockBegin
  2
Td--2xwsid-fJ-ESDr
 70
     0
 10
0.0
 20
0.0
 30
0.0
  3
Td--2xwsid-fJ-ESDr
  1

  0
POLYLINE
  5
109DF
330
109D0
100
AcDbEntity
  8
Wall
  6
Continuous
100
AcDb2dPolyline
 66
     1
 10
0.0
 20
0.0
 30
0.0
  0
VERTEX
  5
15AE2
330
109DF
100
AcDbEntity
  8
Wall
  6
Continuous
100
AcDbVertex
100
AcDb2dVertex
 10
4.123142327516955
 20
4.275000000000009
 30
0.0
 42
-0.657318711172788
  0
VERTEX
  5
15AE3
330
109DF
100
AcDbEntity
  8
Wall
  6
Continuous
100
AcDbVertex
100
AcDb2dVertex
 10
2.788752152348333
 20
3.588383046111992
 30
0.0
  0
VERTEX
  5
15AE4
330
109DF
100
AcDbEntity
  8
Wall
  6
Continuous
100
AcDbVertex
100
AcDb2dVertex
 10
1.98677550955108
 20
4.097414738898184
 30
0.0
 42
0.6394770868481389
  0
VERTEX
  5
15AE5
330
109DF
100
AcDbEntity
  8
Wall
  6
Continuous
100
AcDbVertex
100
AcDb2dVertex
 10
0.626471862576139
 20
3.368750000000009
 30
0.0
  0
SEQEND
  5
15AE6
330
109DF
100
AcDbEntity
  8
Wall
  6
Continuous
  0
POLYLINE
  5
109E5
330
109D0
100
AcDbEntity
  8
Wall
  6
Continuous
100
AcDb2dPolyline
 66
     1
 10
0.0
 20
0.0
 30
0.0
  0
VERTEX
  5
15AE8
330
109E5
100
AcDbEntity
  8
Wall
  6
Continuous
100
AcDbVertex
100
AcDb2dVertex
 10
0.625
 20
1.900000000000009
 30
0.0
  0
VERTEX
  5
15AE9
330
109E5
100
AcDbEntity
  8
Wall
  6
Continuous
100
AcDbVertex
100
AcDb2dVertex
 10
4.125000000000003
 20
1.900000000000009
 30
0.0
  0
VERTEX
  5
15AEA
330
109E5
100
AcDbEntity
  8
Wall
  6
Continuous
100
AcDbVertex
100
AcDb2dVertex
 10
4.125000000000003
 20
3.400000000000009
 30
0.0
  0
VERTEX
  5
15AEB
330
109E5
100
AcDbEntity
  8
Wall
  6
Continuous
100
AcDbVertex
100
AcDb2dVertex
 10
0.625
 20
3.400000000000009
 30
0.0
  0
VERTEX
  5
15AEC
330
109E5
100
AcDbEntity
  8
Wall
  6
Continuous
100
AcDbVertex
100
AcDb2dVertex
 10
0.625
 20
1.900000000000009
 30
0.0
  0
SEQEND
  5
15AED
330
109E5
100
AcDbEntity
  8
Wall
  6
Continuous
  0
LINE
  5
109EC
330
109D0
100
AcDbEntity
  8
Wall
  6
Continuous
100
AcDbLine
 10
0.625
 20
1.900000000000009
 30
0.0
 11
4.125000000000003
 21
3.400000000000009
 31
0.0
  0
LINE
  5
109ED
330
109D0
100
AcDbEntity
  8
Wall
  6
Continuous
100
AcDbLine
 10
0.625
 20
3.400000000000009
 30
0.0
 11
4.125000000000003
 21
1.900000000000009
 31
0.0
  0
LINE
  5
109EE
330
109D0
100
AcDbEntity
  8
Wall
  6
Continuous
100
AcDbLine
 10
0.625
 20
1.900000000000009
 30
0.0
 11
4.125
 21
0.4000000000000128
 31
0.0
  0
LINE
  5
109EF
330
109D0
100
AcDbEntity
  8
Wall
  6
Continuous
100
AcDbLine
 10
0.625
 20
0.4000000000000093
 30
0.0
 11
4.125000000000003
 21
1.900000000000009
 31
0.0
  0
POLYLINE
  5
109F0
330
109D0
100
AcDbEntity
  8
Wall
  6
Continuous
100
AcDb2dPolyline
 66
     1
 10
0.0
 20
0.0
 30
0.0
  0
VERTEX
  5
15AF3
330
109F0
100
AcDbEntity
  8
Wall
  6
Continuous
100
AcDbVertex
100
AcDb2dVertex
 10
0.625
 20
0.4000000000000093
 30
0.0
  0
VERTEX
  5
15AF4
330
109F0
100
AcDbEntity
  8
Wall
  6
Continuous
100
AcDbVertex
100
AcDb2dVertex
 10
4.125
 20
0.399999999999995
 30
0.0
  0
VERTEX
  5
15AF5
330
109F0
100
AcDbEntity
  8
Wall
  6
Continuous
100
AcDbVertex
100
AcDb2dVertex
 10
4.125
 20
1.899999999999995
 30
0.0
  0
VERTEX
  5
15AF6
330
109F0
100
AcDbEntity
  8
Wall
  6
Continuous
100
AcDbVertex
100
AcDb2dVertex
 10
0.625
 20
1.900000000000009
 30
0.0
  0
VERTEX
  5
15AF7
330
109F0
100
AcDbEntity
  8
Wall
  6
Continuous
100
AcDbVertex
100
AcDb2dVertex
 10
0.625
 20
0.4000000000000093
 30
0.0
  0
SEQEND
  5
15AF8
330
109F0
100
AcDbEntity
  8
Wall
  6
Continuous
  0
POLYLINE
  5
109FD
102
{ACAD_REACTORS
330
14584
102
}
330
109D0
100
AcDbEntity
  8
Wall
  6
Continuous
100
AcDb2dPolyline
 66
     1
 10
0.0
 20
0.0
 30
0.0
 70
     1
  0
VERTEX
  5
15AFA
330
109FD
100
AcDbEntity
  8
Wall
  6
Continuous
100
AcDbVertex
100
AcDb2dVertex
 10
0.0
 20
4.276250000000235
 30
0.0
  0
VERTEX
  5
15AFB
330
109FD
100
AcDbEntity
  8
Wall
  6
Continuous
100
AcDbVertex
100
AcDb2dVertex
 10
0.0
 20
0.4000000000000093
 30
0.0
  0
VERTEX
  5
15AFC
330
109FD
100
AcDbEntity
  8
Wall
  6
Continuous
100
AcDbVertex
100
AcDb2dVertex
 10
0.625
 20
0.4000000000000093
 30
0.0
  0
VERTEX
  5
15AFD
330
109FD
100
AcDbEntity
  8
Wall
  6
Continuous
100
AcDbVertex
100
AcDb2dVertex
 10
0.625
 20
4.276250000000235
 30
0.0
  0
SEQEND
  5
15AFE
330
109FD
100
AcDbEntity
  8
Wall
  6
Continuous
  0
POLYLINE
  5
10A5C
102
{ACAD_REACTORS
330
14585
102
}
330
109D0
100
AcDbEntity
  8
Wall
  6
Continuous
100
AcDb2dPolyline
 66
     1
 10
0.0
 20
0.0
 30
0.0
 70
     1
  0
VERTEX
  5
15B00
330
10A5C
100
AcDbEntity
  8
Wall
  6
Continuous
100
AcDbVertex
100
AcDb2dVertex
 10
4.125000000000003
 20
4.276250000000235
 30
0.0
  0
VERTEX
  5
15B01
330
10A5C
100
AcDbEntity
  8
Wall
  6
Continuous
100
AcDbVertex
100
AcDb2dVertex
 10
4.125
 20
0.399999999999995
 30
0.0
  0
VERTEX
  5
15B02
330
10A5C
100
AcDbEntity
  8
Wall
  6
Continuous
100
AcDbVertex
100
AcDb2dVertex
 10
4.625
 20
0.4000000000000128
 30
0.0
  0
VERTEX
  5
15B03
330
10A5C
100
AcDbEntity
  8
Wall
  6
Continuous
100
AcDbVertex
100
AcDb2dVertex
 10
4.625
 20
4.276250000000239
 30
0.0
  0
SEQEND
  5
15B04
330
10A5C
100
AcDbEntity
  8
Wall
  6
Continuous
  0
LINE
  5
10A62
330
109D0
100
AcDbEntity
  8
Wall
  6
Continuous
100
AcDbLine
 10
3.363834981733674
 20
1.112741718597526
 30
0.0
 11
3.363834981737298
 21
1.219884575731533
 31
0.0
  0
LINE
  5
10A63
330
109D0
100
AcDbEntity
  8
Wall
  6
Continuous
100
AcDbLine
 10
3.213834981735615
 20
1.175241718608539
 30
0.0
 11
3.213834981735921
 21
1.282384575745531
 31
0.0
  0
POLYLINE
  5
10A64
330
109D0
100
AcDbEntity
  8
Wall
100
AcDb2dPolyline
 66
     1
 10
0.0
 20
0.0
 30
0.0
  0
VERTEX
  5
15B08
330
10A64
100
AcDbEntity
  8
Wall
100
AcDbVertex
100
AcDb2dVertex
 10
4.3125
 20
0.4000000000000093
 30
0.0
  0
VERTEX
  5
15B09
330
10A64
100
AcDbEntity
  8
Wall
100
AcDbVertex
100
AcDb2dVertex
 10
4.3125
 20
0.1487499999997865
 30
0.0
  0
VERTEX
  5
15B0A
330
10A64
100
AcDbEntity
  8
Wall
100
AcDbVertex
100
AcDb2dVertex
 10
2.1875
 20
0.1487499999997865
 30
0.0
  0
VERTEX
  5
15B0B
330
10A64
100
AcDbEntity
  8
Wall
100
AcDbVertex
100
AcDb2dVertex
 10
2.1875
 20
0.4000000000000093
 30
0.0
  0
VERTEX
  5
15B0C
330
10A64
100
AcDbEntity
  8
Wall
100
AcDbVertex
100
AcDb2dVertex
 10
4.3125
 20
0.4000000000000093
 30
0.0
  0
VERTEX
  5
15B0D
330
10A64
100
AcDbEntity
  8
Wall
100
AcDbVertex
100
AcDb2dVertex
 10
2.1875
 20
0.1487499999997865
 30
0.0
  0
SEQEND
  5
15B0E
330
10A64
100
AcDbEntity
  8
Wall
  0
POLYLINE
  5
10A6E
330
109D0
100
AcDbEntity
  8
Wall
  6
Continuous
100
AcDb2dPolyline
 66
     1
 10
0.0
 20
0.0
 30
0.0
 70
     1
  0
VERTEX
  5
15B10
330
10A6E
100
AcDbEntity
  8
Wall
100
AcDbVertex
100
AcDb2dVertex
 10
3.393834981750416
 20
0.9788131471805385
 30
0.0
  0
VERTEX
  5
15B11
330
10A6E
100
AcDbEntity
  8
Wall
  6
Continuous
100
AcDbVertex
100
AcDb2dVertex
 10
3.183834981738115
 20
0.9788131471839598
 30
0.0
  0
VERTEX
  5
15B12
330
10A6E
100
AcDbEntity
  8
Wall
  6
Continuous
100
AcDbVertex
100
AcDb2dVertex
 10
3.183834981740787
 20
-0.0311500120945993
 30
0.0
  0
VERTEX
  5
15B13
330
10A6E
100
AcDbEntity
  8
Wall
100
AcDbVertex
100
AcDb2dVertex
 10
3.083834981734788
 20
-0.1461868528191843
 30
0.0
  0
VERTEX
  5
15B14
330
10A6E
100
AcDbEntity
  8
Wall
100
AcDbVertex
100
AcDb2dVertex
 10
3.49383498173389
 20
-0.1461868528197385
 30
0.0
  0
VERTEX
  5
15B15
330
10A6E
100
AcDbEntity
  8
Wall
100
AcDbVertex
100
AcDb2dVertex
 10
3.393834981731991
 20
-0.0311500120945993
 30
0.0
  0
SEQEND
  5
15B16
330
10A6E
100
AcDbEntity
  8
Wall
  6
Continuous
  0
LINE
  5
10A76
330
109D0
100
AcDbEntity
  8
Wall
  6
Continuous
100
AcDbLine
 10
3.183834981736787
 20
0.0037868407246577
 30
0.0
 11
3.393834981735587
 21
0.0037868407246577
 31
0.0
  0
LINE
  5
10A8B
330
109D0
100
AcDbEntity
  8
Wall
  6
Continuous
100
AcDbLine
 10
3.363834981737085
 20
1.094884575738525
 30
0.0
 11
3.393834981750416
 21
1.103813147173532
 31
0.0
  0
LINE
  5
10A8C
330
109D0
100
AcDbEntity
  8
Wall
  6
Continuous
100
AcDbLine
 10
3.393834981750416
 20
1.103813147173532
 30
0.0
 11
3.183834981734122
 21
1.166313147176531
 31
0.0
  0
LINE
  5
10A8D
330
109D0
100
AcDbEntity
  8
Wall
  6
Continuous
100
AcDbLine
 10
3.393834981750416
 20
0.9788131471805385
 30
0.0
 11
3.18383498173312
 21
1.041313147184531
 31
0.0
  0
LINE
  5
10A91
330
109D0
100
AcDbEntity
  8
Wall
  6
Continuous
100
AcDbLine
 10
3.213834981735615
 20
1.050241718615531
 30
0.0
 11
3.213834981735921
 21
1.157384575752537
 31
0.0
  0
LINE
  5
10A92
330
109D0
100
AcDbEntity
  8
Wall
  6
Continuous
100
AcDbLine
 10
3.213834981735615
 20
0.9788131471839598
 30
0.0
 11
3.213834981735615
 21
1.032384575760538
 31
0.0
  0
LINE
  5
10A93
330
109D0
100
AcDbEntity
  8
Wall
  6
Continuous
100
AcDbLine
 10
3.36383498173344
 20
0.987741718604532
 30
0.0
 11
3.363834981737085
 21
1.094884575738525
 31
0.0
  0
LINE
  5
10A94
330
109D0
100
AcDbEntity
  8
Wall
  6
Continuous
100
AcDbLine
 10
3.183834981734122
 20
1.166313147176531
 30
0.0
 11
3.213834981735615
 21
1.175241718608539
 31
0.0
  0
LINE
  5
10A95
330
109D0
100
AcDbEntity
  8
Wall
  6
Continuous
100
AcDbLine
 10
3.18383498173312
 20
1.041313147184531
 30
0.0
 11
3.213834981735615
 21
1.050241718615531
 31
0.0
  0
LINE
  5
10AE4
330
109D0
100
AcDbEntity
  8
Wall
  6
Continuous
100
AcDbLine
 10
3.213834981736624
 20
1.925241718571534
 30
0.0
 11
3.213834981736823
 21
2.032384575709535
 31
0.0
  0
LINE
  5
10AE5
330
109D0
100
AcDbEntity
  8
Wall
  6
Continuous
100
AcDbLine
 10
3.363834981734349
 20
1.862741718557536
 30
0.0
 11
3.363834981738207
 21
1.969884575694528
 31
0.0
  0
LINE
  5
10AE6
330
109D0
100
AcDbEntity
  8
Wall
  6
Continuous
100
AcDbLine
 10
3.21383498173612
 20
1.550241718586526
 30
0.0
 11
3.213834981736319
 21
1.657384575731533
 31
0.0
  0
LINE
  5
10AE7
330
109D0
100
AcDbEntity
  8
Wall
  6
Continuous
100
AcDbLine
 10
3.363834981733887
 20
1.487741718575527
 30
0.0
 11
3.363834981737525
 21
1.594884575712534
 31
0.0
  0
LINE
  5
10AE8
330
109D0
100
AcDbEntity
  8
Wall
  6
Continuous
100
AcDbLine
 10
3.363834981737525
 20
1.469884575716527
 30
0.0
 11
3.39383498175092
 21
1.478813147151534
 31
0.0
  0
LINE
  5
10AE9
330
109D0
100
AcDbEntity
  8
Wall
  6
Continuous
100
AcDbLine
 10
3.363834981737525
 20
1.344884575723533
 30
0.0
 11
3.39383498175092
 21
1.353813147158525
 31
0.0
  0
LINE
  5
10AEA
330
109D0
100
AcDbEntity
  8
Wall
  6
Continuous
100
AcDbLine
 10
3.363834981737298
 20
1.219884575731533
 30
0.0
 11
3.393834981750714
 21
1.228813147165531
 31
0.0
  0
LINE
  5
10AEB
330
109D0
100
AcDbEntity
  8
Wall
  6
Continuous
100
AcDbLine
 10
3.39383498175092
 20
1.478813147151534
 30
0.0
 11
3.183834981734122
 21
1.541313147155527
 31
0.0
  0
LINE
  5
10AEC
330
109D0
100
AcDbEntity
  8
Wall
  6
Continuous
100
AcDbLine
 10
3.39383498175092
 20
1.353813147158525
 30
0.0
 11
3.183834981734122
 21
1.416313147162533
 31
0.0
  0
LINE
  5
10AED
330
109D0
100
AcDbEntity
  8
Wall
  6
Continuous
100
AcDbLine
 10
3.393834981750714
 20
1.228813147165531
 30
0.0
 11
3.183834981734122
 21
1.291313147169539
 31
0.0
  0
LINE
  5
10AEE
330
109D0
100
AcDbEntity
  8
Wall
  6
Continuous
100
AcDbLine
 10
3.21383498173612
 20
1.300241718600538
 30
0.0
 11
3.21383498173612
 21
1.407384575738525
 31
0.0
  0
LINE
  5
10AEF
330
109D0
100
AcDbEntity
  8
Wall
  6
Continuous
100
AcDbLine
 10
3.363834981733674
 20
1.237741718589525
 30
0.0
 11
3.363834981737525
 21
1.344884575723533
 31
0.0
  0
LINE
  5
10AF0
330
109D0
100
AcDbEntity
  8
Wall
  6
Continuous
100
AcDbLine
 10
3.363834981733674
 20
1.362741718582533
 30
0.0
 11
3.363834981737525
 21
1.469884575716527
 31
0.0
  0
LINE
  5
10AF1
330
109D0
100
AcDbEntity
  8
Wall
  6
Continuous
100
AcDbLine
 10
3.21383498173612
 20
1.425241718593532
 30
0.0
 11
3.213834981736319
 21
1.532384575731533
 31
0.0
  0
LINE
  5
10AF2
330
109D0
100
AcDbEntity
  8
Wall
  6
Continuous
100
AcDbLine
 10
3.183834981734122
 20
1.541313147155527
 30
0.0
 11
3.21383498173612
 21
1.550241718586526
 31
0.0
  0
LINE
  5
10AF3
330
109D0
100
AcDbEntity
  8
Wall
  6
Continuous
100
AcDbLine
 10
3.183834981734122
 20
1.416313147162533
 30
0.0
 11
3.21383498173612
 21
1.425241718593532
 31
0.0
  0
LINE
  5
10AF4
330
109D0
100
AcDbEntity
  8
Wall
  6
Continuous
100
AcDbLine
 10
3.183834981734122
 20
1.291313147169539
 30
0.0
 11
3.21383498173612
 21
1.300241718600538
 31
0.0
  0
LINE
  5
10AF5
330
109D0
100
AcDbEntity
  8
Wall
  6
Continuous
100
AcDbLine
 10
3.363834981737994
 20
1.844884575702529
 30
0.0
 11
3.393834981751425
 21
1.853813147136527
 31
0.0
  0
LINE
  5
10AF6
330
109D0
100
AcDbEntity
  8
Wall
  6
Continuous
100
AcDbLine
 10
3.36383498173776
 20
1.719884575709535
 30
0.0
 11
3.393834981751119
 21
1.728813147144528
 31
0.0
  0
LINE
  5
10AF7
330
109D0
100
AcDbEntity
  8
Wall
  6
Continuous
100
AcDbLine
 10
3.363834981737525
 20
1.594884575712534
 30
0.0
 11
3.39383498175092
 21
1.603813147147526
 31
0.0
  0
LINE
  5
10AF8
330
109D0
100
AcDbEntity
  8
Wall
  6
Continuous
100
AcDbLine
 10
3.393834981751425
 20
1.853813147136527
 30
0.0
 11
3.183834981734122
 21
1.916313147144528
 31
0.0
  0
LINE
  5
10AF9
330
109D0
100
AcDbEntity
  8
Wall
  6
Continuous
100
AcDbLine
 10
3.393834981751119
 20
1.728813147144528
 30
0.0
 11
3.183834981734122
 21
1.791313147151534
 31
0.0
  0
LINE
  5
10AFA
330
109D0
100
AcDbEntity
  8
Wall
  6
Continuous
100
AcDbLine
 10
3.39383498175092
 20
1.603813147147526
 30
0.0
 11
3.183834981734122
 21
1.666313147158525
 31
0.0
  0
LINE
  5
10AFB
330
109D0
100
AcDbEntity
  8
Wall
  6
Continuous
100
AcDbLine
 10
3.363834981734115
 20
1.612741718571534
 30
0.0
 11
3.36383498173776
 21
1.719884575709535
 31
0.0
  0
LINE
  5
10AFC
330
109D0
100
AcDbEntity
  8
Wall
  6
Continuous
100
AcDbLine
 10
3.213834981736319
 20
1.675241718586526
 30
0.0
 11
3.213834981736319
 21
1.782384575723533
 31
0.0
  0
LINE
  5
10AFD
330
109D0
100
AcDbEntity
  8
Wall
  6
Continuous
100
AcDbLine
 10
3.363834981734115
 20
1.737741718564528
 30
0.0
 11
3.363834981737994
 21
1.844884575702529
 31
0.0
  0
LINE
  5
10AFE
330
109D0
100
AcDbEntity
  8
Wall
  6
Continuous
100
AcDbLine
 10
3.213834981736624
 20
1.800241718578526
 30
0.0
 11
3.213834981736624
 21
1.907384575716527
 31
0.0
  0
LINE
  5
10AFF
330
109D0
100
AcDbEntity
  8
Wall
  6
Continuous
100
AcDbLine
 10
3.183834981734122
 20
1.791313147151534
 30
0.0
 11
3.213834981736624
 21
1.800241718578526
 31
0.0
  0
LINE
  5
10B00
330
109D0
100
AcDbEntity
  8
Wall
  6
Continuous
100
AcDbLine
 10
3.183834981734122
 20
1.916313147144528
 30
0.0
 11
3.213834981736624
 21
1.925241718571534
 31
0.0
  0
LINE
  5
10B01
330
109D0
100
AcDbEntity
  8
Wall
  6
Continuous
100
AcDbLine
 10
3.183834981734122
 20
1.666313147158525
 30
0.0
 11
3.213834981736319
 21
1.675241718586526
 31
0.0
  0
LINE
  5
10B02
330
109D0
100
AcDbEntity
  8
Wall
  6
Continuous
100
AcDbLine
 10
3.213834981737022
 20
2.300241718549536
 30
0.0
 11
3.213834981737022
 21
2.407384575687537
 31
0.0
  0
LINE
  5
10B03
330
109D0
100
AcDbEntity
  8
Wall
  6
Continuous
100
AcDbLine
 10
3.363834981738435
 20
2.34488457567253
 30
0.0
 11
3.393834981751822
 21
2.353813147107537
 31
0.0
  0
LINE
  5
10B04
330
109D0
100
AcDbEntity
  8
Wall
  6
Continuous
100
AcDbLine
 10
3.363834981738207
 20
2.219884575680531
 30
0.0
 11
3.393834981751624
 21
2.228813147115538
 31
0.0
  0
LINE
  5
10B05
330
109D0
100
AcDbEntity
  8
Wall
  6
Continuous
100
AcDbLine
 10
3.363834981738207
 20
1.969884575694528
 30
0.0
 11
3.393834981751624
 21
1.978813147129535
 31
0.0
  0
LINE
  5
10B06
330
109D0
100
AcDbEntity
  8
Wall
  6
Continuous
100
AcDbLine
 10
3.363834981738207
 20
2.094884575687537
 30
0.0
 11
3.393834981751624
 21
2.103813147122529
 31
0.0
  0
LINE
  5
10B07
330
109D0
100
AcDbEntity
  8
Wall
  6
Continuous
100
AcDbLine
 10
3.393834981751624
 20
2.228813147115538
 30
0.0
 11
3.183834981735117
 21
2.291313147122529
 31
0.0
  0
LINE
  5
10B08
330
109D0
100
AcDbEntity
  8
Wall
  6
Continuous
100
AcDbLine
 10
3.393834981751624
 20
1.978813147129535
 30
0.0
 11
3.183834981735117
 21
2.041313147136527
 31
0.0
  0
LINE
  5
10B09
330
109D0
100
AcDbEntity
  8
Wall
  6
Continuous
100
AcDbLine
 10
3.393834981751624
 20
2.103813147122529
 30
0.0
 11
3.183834981735117
 21
2.166313147129535
 31
0.0
  0
LINE
  5
10B0A
330
109D0
100
AcDbEntity
  8
Wall
  6
Continuous
100
AcDbLine
 10
3.213834981736823
 20
2.175241718557536
 30
0.0
 11
3.213834981737022
 21
2.282384575694528
 31
0.0
  0
LINE
  5
10B0B
330
109D0
100
AcDbEntity
  8
Wall
  6
Continuous
100
AcDbLine
 10
3.363834981734584
 20
2.237741718535538
 30
0.0
 11
3.363834981738435
 21
2.34488457567253
 31
0.0
  0
LINE
  5
10B0C
330
109D0
100
AcDbEntity
  8
Wall
  6
Continuous
100
AcDbLine
 10
3.363834981734584
 20
1.987741718549536
 30
0.0
 11
3.363834981738207
 21
2.094884575687537
 31
0.0
  0
LINE
  5
10B0D
330
109D0
100
AcDbEntity
  8
Wall
  6
Continuous
100
AcDbLine
 10
3.213834981736823
 20
2.050241718564528
 30
0.0
 11
3.213834981737022
 21
2.157384575702529
 31
0.0
  0
LINE
  5
10B0E
330
109D0
100
AcDbEntity
  8
Wall
  6
Continuous
100
AcDbLine
 10
3.363834981734584
 20
2.11274171854253
 30
0.0
 11
3.363834981738207
 21
2.219884575680531
 31
0.0
  0
LINE
  5
10B0F
330
109D0
100
AcDbEntity
  8
Wall
  6
Continuous
100
AcDbLine
 10
3.183834981735117
 20
2.291313147122529
 30
0.0
 11
3.213834981737022
 21
2.300241718549536
 31
0.0
  0
LINE
  5
10B10
330
109D0
100
AcDbEntity
  8
Wall
  6
Continuous
100
AcDbLine
 10
3.183834981735117
 20
2.166313147129535
 30
0.0
 11
3.213834981736823
 21
2.175241718557536
 31
0.0
  0
LINE
  5
10B11
330
109D0
100
AcDbEntity
  8
Wall
  6
Continuous
100
AcDbLine
 10
3.183834981735117
 20
2.041313147136527
 30
0.0
 11
3.213834981736823
 21
2.050241718564528
 31
0.0
  0
LINE
  5
10B12
330
109D0
100
AcDbEntity
  8
Wall
  6
Continuous
100
AcDbLine
 10
3.374310012460526
 20
2.478813147093525
 30
0.0
 11
3.229248298675315
 21
2.541313147100531
 31
0.0
  0
LINE
  5
10B13
330
109D0
100
AcDbEntity
  8
Wall
  6
Continuous
100
AcDbLine
 10
3.344643756013589
 20
2.469078847440535
 30
0.0
 11
3.374310012460526
 21
2.478813147093525
 31
0.0
  0
LINE
  5
10B14
330
109D0
100
AcDbEntity
  8
Wall
  6
Continuous
100
AcDbLine
 10
3.393834981751822
 20
2.353813147107537
 30
0.0
 11
3.183834981735117
 21
2.416313147115538
 31
0.0
  0
LINE
  5
10B15
330
109D0
100
AcDbEntity
  8
Wall
  6
Continuous
100
AcDbLine
 10
3.213834981737221
 20
2.42524171854253
 30
0.0
 11
3.259248298677718
 21
2.53238457567253
 31
0.0
  0
LINE
  5
10B16
330
109D0
100
AcDbEntity
  8
Wall
  6
Continuous
100
AcDbLine
 10
3.229248298675315
 20
2.541313147100531
 30
0.0
 11
3.26824714929662
 21
2.554109722886529
 31
0.0
  0
LINE
  5
10B17
330
109D0
100
AcDbEntity
  8
Wall
  6
Continuous
100
AcDbLine
 10
3.363834981734797
 20
2.362741718527537
 30
0.0
 11
3.363834981738669
 21
2.42274713000453
 31
0.0
  0
LINE
  5
10B18
330
109D0
100
AcDbEntity
  8
Wall
  6
Continuous
100
AcDbLine
 10
3.363834981738669
 20
2.42274713000453
 30
0.0
 11
3.344643756013589
 21
2.469078847440535
 31
0.0
  0
LINE
  5
10B19
330
109D0
100
AcDbEntity
  8
Wall
  6
Continuous
100
AcDbLine
 10
3.183834981735117
 20
2.416313147115538
 30
0.0
 11
3.213834981737221
 21
2.42524171854253
 31
0.0
  0
LINE
  5
10B1A
330
109D0
100
AcDbEntity
  8
Wall
  6
Continuous
100
AcDbLine
 10
3.333291297939659
 20
2.496486105680538
 30
0.0
 11
3.288834981734339
 21
2.603813147180538
 31
0.0
  0
LINE
  5
10B1B
330
109D0
100
AcDbEntity
  8
Wall
  6
Continuous
100
AcDbLine
 10
3.26824714929662
 20
2.554109722886529
 30
0.0
 11
3.288834981734339
 21
2.603813147180538
 31
0.0
  0
INSERT
  5
11761
330
109D0
100
AcDbEntity
  8
Wall
100
AcDbBlockReference
  2
1.25 WD
 10
4.68973522724865
 20
0.7816756776985088
 30
0.0
  0
INSERT
  5
11831
330
109D0
100
AcDbEntity
  8
Wall
100
AcDbBlockReference
  2
1.25 WD
 10
-0.0404399257001593
 20
0.7777678997082873
 30
0.0
 41
-1.0
  0
HATCH
  5
14584
330
109D0
100
AcDbEntity
  8
Wall
100
AcDbHatch
 10
0.0
 20
0.0
 30
0.0
210
0.0
220
0.0
230
1.0
  2
GYP
 70
     0
 71
     1
 91
        1
 92
        1
 93
        4
 72
     1
 10
0.0
 20
4.276250000000235
 11
0.0000000000000009
 21
0.4000000000000093
 72
     1
 10
0.0
 20
0.4000000000000093
 11
0.625
 21
0.4000000000000094
 72
     1
 10
0.625
 20
0.4000000000000093
 11
0.6249999999999992
 21
4.276250000000235
 72
     1
 10
0.625
 20
4.276250000000235
 11
0.0
 21
4.276250000000235
 97
        1
330
109FD
 75
     0
 76
     1
 52
-89.99999999999998
 41
0.5
 77
     0
 78
     3
 53
270.0
 43
-19.59342297924375
 44
21.39402474936908
 45
0.25
 46
-0.09
 79
     2
 49
0.0
 49
-0.15
 53
300.0
 43
-19.53342297924375
 44
21.37902474936907
 45
0.2615063509461097
 46
0.0470577136594006
 79
     2
 49
0.0
 49
-0.15
 53
330.0
 43
-19.50342297924375
 44
21.36402474936907
 45
0.2029422863405994
 46
0.1715063509461097
 79
     2
 49
0.0
 49
-0.15
 98
        1
 10
-19.56842297924374
 20
21.39277474936886
  0
HATCH
  5
14585
330
109D0
100
AcDbEntity
  8
Wall
100
AcDbHatch
 10
0.0
 20
0.0
 30
0.0
210
0.0
220
0.0
230
1.0
  2
GYP
 70
     0
 71
     1
 91
        1
 92
        1
 93
        4
 72
     1
 10
4.125000000000003
 20
4.276250000000235
 11
4.125
 21
0.399999999999995
 72
     1
 10
4.125
 20
0.399999999999995
 11
4.625
 21
0.4000000000000094
 72
     1
 10
4.625
 20
0.4000000000000128
 11
4.624999999999999
 21
4.276250000000239
 72
     1
 10
4.625
 20
4.276250000000239
 11
4.125000000000003
 21
4.276250000000239
 97
        1
330
10A5C
 75
     0
 76
     1
 52
-89.99999999999998
 41
0.5
 77
     0
 78
     3
 53
270.0
 43
-19.44342297924374
 44
21.39402474936906
 45
0.25
 46
-0.09
 79
     2
 49
0.0
 49
-0.15
 53
300.0
 43
-19.38342297924374
 44
21.37902474936906
 45
0.2615063509461097
 46
0.0470577136594006
 79
     2
 49
0.0
 49
-0.15
 53
330.0
 43
-19.35342297924374
 44
21.36402474936906
 45
0.2029422863405994
 46
0.1715063509461097
 79
     2
 49
0.0
 49
-0.15
 98
        1
 10
-19.44342297924374
 20
21.39402474936906
  0
ENDBLK
  5
10BCB
330
109D0
100
AcDbEntity
  8
0
100
AcDbBlockEnd
  0
BLOCK
  5
10DF5
330
10DC7
100
AcDbEntity
  8
0
100
AcDbBlockBegin
  2
1.25 WD
 70
     0
 10
0.0
 20
0.0
 30
0.0
  3
1.25 WD
  1

  0
LINE
  5
112C2
330
10DC7
100
AcDbEntity
  8
Wall
  6
Continuous
100
AcDbLine
 10
-0.1239654121418496
 20
0.0750000000011824
 30
0.0
 11
-0.2311082692758575
 21
0.0750000000048061
 31
0.0
  0
LINE
  5
112C3
330
10DC7
100
AcDbEntity
  8
Wall
  6
Continuous
100
AcDbLine
 10
-0.2311082692758575
 20
0.0750000000048061
 30
0.0
 11
-0.2400368407098554
 21
0.1050000000182223
 31
0.0
  0
LINE
  5
112C6
330
10DC7
100
AcDbEntity
  8
Wall
  6
Continuous
100
AcDbLine
 10
-0.3739654121268572
 20
0.0750000000011824
 30
0.0
 11
-0.4811082692608509
 21
0.0750000000050335
 31
0.0
  0
LINE
  5
112C7
330
10DC7
100
AcDbEntity
  8
Wall
  6
Continuous
100
AcDbLine
 10
-0.3561082692678568
 20
0.0750000000050335
 30
0.0
 11
-0.3650368407028495
 21
0.1050000000184283
 31
0.0
  0
LINE
  5
112C8
330
10DC7
100
AcDbEntity
  8
Wall
  6
Continuous
100
AcDbLine
 10
-0.4811082692608509
 20
0.0750000000050335
 30
0.0
 11
-0.4900368406958578
 21
0.1050000000184283
 31
0.0
  0
LINE
  5
112CB
330
10DC7
100
AcDbEntity
  8
Wall
  6
Continuous
100
AcDbLine
 10
-0.3600635094610922
 20
0.092323438229446
 30
0.0
 11
-0.3600635094610922
 21
0.092323438229446
 31
0.0
  0
LINE
  5
112CD
330
10DC7
100
AcDbEntity
  8
Wall
  6
Continuous
100
AcDbLine
 10
-0.2489654121338489
 20
0.0750000000011824
 30
0.0
 11
-0.3561082692678568
 21
0.0750000000050335
 31
0.0
  0
LINE
  5
112CE
330
10DC7
100
AcDbEntity
  8
Wall
  6
Continuous
100
AcDbLine
 10
-0.1150368407248621
 20
-0.0749999999967237
 30
0.0
 11
-0.1686082692968611
 21
-0.0749999999965709
 31
0.0
  0
LINE
  5
112CF
330
10DC7
100
AcDbEntity
  8
Wall
  6
Continuous
100
AcDbLine
 10
-0.1775368407208546
 20
-0.1049999999983697
 30
0.0
 11
-0.186465412152863
 21
-0.0749999999968765
 31
0.0
  0
LINE
  5
112D2
330
10DC7
100
AcDbEntity
  8
Wall
  6
Continuous
100
AcDbLine
 10
-0.113557158514979
 20
0.0192849624565135
 30
0.0
 11
-0.113557158514979
 21
0.0192849624565135
 31
0.0
  0
LINE
  5
112D3
330
10DC7
100
AcDbEntity
  8
Wall
  6
Continuous
100
AcDbLine
 10
-0.3025368407138629
 20
-0.1049999999983697
 30
0.0
 11
-0.3114654121448623
 21
-0.074999999996372
 31
0.0
  0
LINE
  5
112D4
330
10DC7
100
AcDbEntity
  8
Wall
  6
Continuous
100
AcDbLine
 10
-0.427536840706857
 20
-0.1049999999983697
 30
0.0
 11
-0.4364654121378564
 21
-0.074999999996372
 31
0.0
  0
LINE
  5
112D5
330
10DC7
100
AcDbEntity
  8
Wall
  6
Continuous
100
AcDbLine
 10
-0.3114654121448623
 20
-0.074999999996372
 30
0.0
 11
-0.4186082692828493
 21
-0.074999999996372
 31
0.0
  0
LINE
  5
112D7
330
10DC7
100
AcDbEntity
  8
Wall
  6
Continuous
100
AcDbLine
 10
-0.186465412152863
 20
-0.0749999999968765
 30
0.0
 11
-0.2936082692898552
 21
-0.0749999999965709
 31
0.0
  0
LINE
  5
112D8
330
10DC7
100
AcDbEntity
  8
Wall
  6
Continuous
100
AcDbLine
 10
-0.1150368407178561
 20
0.1050000000179239
 30
0.0
 11
-0.1775368407208546
 21
-0.1049999999983697
 31
0.0
  0
LINE
  5
112D9
330
10DC7
100
AcDbEntity
  8
Wall
  6
Continuous
100
AcDbLine
 10
-0.2400368407098554
 20
0.1050000000182223
 30
0.0
 11
-0.3025368407138629
 21
-0.1049999999983697
 31
0.0
  0
LINE
  5
112DA
330
10DC7
100
AcDbEntity
  8
Wall
  6
Continuous
100
AcDbLine
 10
-0.3650368407028495
 20
0.1050000000184283
 30
0.0
 11
-0.427536840706857
 21
-0.1049999999983697
 31
0.0
  0
LINE
  5
112DB
330
10DC7
100
AcDbEntity
  8
Wall
  6
Continuous
100
AcDbLine
 10
-0.6061082692568576
 20
0.0750000000050335
 30
0.0
 11
-0.6150368406918503
 21
0.1050000000184283
 31
0.0
  0
LINE
  5
112DC
330
10DC7
100
AcDbEntity
  8
Wall
  6
Continuous
100
AcDbLine
 10
-0.623965412115858
 20
0.0750000000016229
 30
0.0
 11
-0.7311082692538591
 21
0.075000000005268
 31
0.0
  0
LINE
  5
112DF
330
10DC7
100
AcDbEntity
  8
Wall
  6
Continuous
100
AcDbLine
 10
-0.7489654121088521
 20
0.0750000000016229
 30
0.0
 11
-0.8561082692468531
 21
0.0750000000055025
 31
0.0
  0
LINE
  5
112E0
330
10DC7
100
AcDbEntity
  8
Wall
  6
Continuous
100
AcDbLine
 10
-0.8561082692468531
 20
0.0750000000055025
 30
0.0
 11
-0.865036840680851
 21
0.1050000000189328
 31
0.0
  0
LINE
  5
112E1
330
10DC7
100
AcDbEntity
  8
Wall
  6
Continuous
100
AcDbLine
 10
-0.7311082692538591
 20
0.075000000005268
 30
0.0
 11
-0.7400368406888518
 21
0.1050000000186273
 31
0.0
  0
LINE
  5
112E2
330
10DC7
100
AcDbEntity
  8
Wall
  6
Continuous
100
AcDbLine
 10
-0.552536840699851
 20
-0.1049999999983697
 30
0.0
 11
-0.5614654121308505
 21
-0.074999999996372
 31
0.0
  0
LINE
  5
112E3
330
10DC7
100
AcDbEntity
  8
Wall
  6
Continuous
100
AcDbLine
 10
-0.6775368407028495
 20
-0.1049999999983697
 30
0.0
 11
-0.6864654121308505
 21
-0.074999999996173
 31
0.0
  0
LINE
  5
112E4
330
10DC7
100
AcDbEntity
  8
Wall
  6
Continuous
100
AcDbLine
 10
-0.5614654121308505
 20
-0.074999999996372
 30
0.0
 11
-0.6686082692758575
 21
-0.074999999996173
 31
0.0
  0
LINE
  5
112E6
330
10DC7
100
AcDbEntity
  8
Wall
  6
Continuous
100
AcDbLine
 10
-0.8114654121228497
 20
-0.0749999999958675
 30
0.0
 11
-0.9186082692608508
 21
-0.0749999999958675
 31
0.0
  0
LINE
  5
112E7
330
10DC7
100
AcDbEntity
  8
Wall
  6
Continuous
100
AcDbLine
 10
-0.8025368406958577
 20
-0.1049999999983697
 30
0.0
 11
-0.8114654121228497
 21
-0.0749999999958675
 31
0.0
  0
LINE
  5
112E8
330
10DC7
100
AcDbEntity
  8
Wall
  6
Continuous
100
AcDbLine
 10
-0.9275368406888517
 20
-0.1049999999983697
 30
0.0
 11
-0.9364654121158579
 21
-0.0749999999958675
 31
0.0
  0
LINE
  5
112E9
330
10DC7
100
AcDbEntity
  8
Wall
  6
Continuous
100
AcDbLine
 10
-0.6864654121308505
 20
-0.074999999996173
 30
0.0
 11
-0.7936082692678568
 21
-0.074999999996173
 31
0.0
  0
LINE
  5
112EA
330
10DC7
100
AcDbEntity
  8
Wall
  6
Continuous
100
AcDbLine
 10
-0.6150368406918503
 20
0.1050000000184283
 30
0.0
 11
-0.6775368407028495
 21
-0.1049999999983697
 31
0.0
  0
LINE
  5
112EB
330
10DC7
100
AcDbEntity
  8
Wall
  6
Continuous
100
AcDbLine
 10
-0.7400368406888518
 20
0.1050000000186273
 30
0.0
 11
-0.8025368406958577
 21
-0.1049999999983697
 31
0.0
  0
LINE
  5
112EC
330
10DC7
100
AcDbEntity
  8
Wall
  6
Continuous
100
AcDbLine
 10
-0.865036840680851
 20
0.1050000000189328
 30
0.0
 11
-0.9275368406888517
 21
-0.1049999999983697
 31
0.0
  0
LINE
  5
112ED
330
10DC7
100
AcDbEntity
  8
Wall
  6
Continuous
100
AcDbLine
 10
-0.4900368406958578
 20
0.1050000000184283
 30
0.0
 11
-0.552536840699851
 21
-0.1049999999983697
 31
0.0
  0
LINE
  5
112EE
330
10DC7
100
AcDbEntity
  8
Wall
  6
Continuous
100
AcDbLine
 10
-0.4364654121378564
 20
-0.074999999996372
 30
0.0
 11
-0.5436082692758575
 21
-0.074999999996173
 31
0.0
  0
LINE
  5
112EF
330
10DC7
100
AcDbEntity
  8
Wall
  6
Continuous
100
AcDbLine
 10
-0.4989654121198513
 20
0.0750000000013955
 30
0.0
 11
-0.6061082692568576
 21
0.0750000000050335
 31
0.0
  0
POLYLINE
  5
112F0
330
10DC7
100
AcDbEntity
  8
Wall
  6
Continuous
100
AcDb2dPolyline
 66
     1
 10
0.0
 20
0.0
 30
0.0
  0
VERTEX
  5
11547
330
112F0
100
AcDbEntity
  8
Wall
  6
Continuous
100
AcDbVertex
100
AcDb2dVertex
 10
-0.1150368407248621
 20
0.1049999999976521
 30
0.0
  0
VERTEX
  5
11548
330
112F0
100
AcDbEntity
  8
Wall
  6
Continuous
100
AcDbVertex
100
AcDb2dVertex
 10
0.0000000000002771
 20
0.2049999999995506
 30
0.0
  0
VERTEX
  5
11549
330
112F0
100
AcDbEntity
  8
Wall
  6
Continuous
100
AcDbVertex
100
AcDb2dVertex
 10
-0.0000000000002771
 20
-0.2049999999995506
 30
0.0
  0
VERTEX
  5
1154A
330
112F0
100
AcDbEntity
  8
Wall
  6
Continuous
100
AcDbVertex
100
AcDb2dVertex
 10
-0.1150368407248621
 20
-0.1049999999975526
 30
0.0
  0
VERTEX
  5
1154B
330
112F0
100
AcDbEntity
  8
Wall
  6
Continuous
100
AcDbVertex
100
AcDb2dVertex
 10
-0.1150368407248621
 20
0.1050000000012474
 30
0.0
  0
SEQEND
  5
1154C
330
112F0
100
AcDbEntity
  8
Wall
  6
Continuous
  0
LINE
  5
112F7
330
10DC7
100
AcDbEntity
  8
Wall
  6
Continuous
100
AcDbLine
 10
-0.9989654120938595
 20
0.0750000000020918
 30
0.0
 11
-1.10610826923186
 21
0.0750000000057156
 31
0.0
  0
LINE
  5
112F8
330
10DC7
100
AcDbEntity
  8
Wall
  6
Continuous
100
AcDbLine
 10
-1.10610826923186
 20
0.0750000000057156
 30
0.0
 11
-1.115036840666853
 21
0.1050000000191318
 31
0.0
  0
LINE
  5
112F9
330
10DC7
100
AcDbEntity
  8
Wall
  6
Continuous
100
AcDbLine
 10
-0.9811082692388524
 20
0.0750000000057156
 30
0.0
 11
-0.9900368406738593
 21
0.1050000000191318
 31
0.0
  0
LINE
  5
112FA
330
10DC7
100
AcDbEntity
  8
Wall
  6
Continuous
100
AcDbLine
 10
-1.231108269224854
 20
0.0750000000057156
 30
0.0
 11
-1.240036840659861
 21
0.1050000000191318
 31
0.0
  0
LINE
  5
112FB
330
10DC7
100
AcDbEntity
  8
Wall
  6
Continuous
100
AcDbLine
 10
-1.356108269216854
 20
0.075000000005943
 30
0.0
 11
-1.36503684065186
 21
0.1050000000193307
 31
0.0
  0
LINE
  5
112FC
330
10DC7
100
AcDbEntity
  8
Wall
  6
Continuous
100
AcDbLine
 10
-1.248965412079861
 20
0.0750000000020918
 30
0.0
 11
-1.356108269216854
 21
0.075000000005943
 31
0.0
  0
LINE
  5
112FD
330
10DC7
100
AcDbEntity
  8
Wall
  6
Continuous
100
AcDbLine
 10
-1.123965412086853
 20
0.0750000000020918
 30
0.0
 11
-1.231108269224854
 21
0.0750000000057156
 31
0.0
  0
LINE
  5
112FE
330
10DC7
100
AcDbEntity
  8
Wall
  6
Continuous
100
AcDbLine
 10
-1.052536840680851
 20
-0.104999999997375
 30
0.0
 11
-1.061465412108852
 21
-0.0749999999956685
 31
0.0
  0
LINE
  5
112FF
330
10DC7
100
AcDbEntity
  8
Wall
  6
Continuous
100
AcDbLine
 10
-1.061465412108852
 20
-0.0749999999956685
 30
0.0
 11
-1.168608269246853
 21
-0.0749999999954696
 31
0.0
  0
LINE
  5
11300
330
10DC7
100
AcDbEntity
  8
Wall
  6
Continuous
100
AcDbLine
 10
-1.302536840666853
 20
-0.104999999997375
 30
0.0
 11
-1.311465412093859
 21
-0.0749999999954696
 31
0.0
  0
LINE
  5
11301
330
10DC7
100
AcDbEntity
  8
Wall
  6
Continuous
100
AcDbLine
 10
-1.18646541210186
 20
-0.0749999999956685
 30
0.0
 11
-1.293608269238852
 21
-0.0749999999954696
 31
0.0
  0
LINE
  5
11302
330
10DC7
100
AcDbEntity
  8
Wall
  6
Continuous
100
AcDbLine
 10
-1.177536840673859
 20
-0.104999999997375
 30
0.0
 11
-1.18646541210186
 21
-0.0749999999956685
 31
0.0
  0
LINE
  5
11303
330
10DC7
100
AcDbEntity
  8
Wall
  6
Continuous
100
AcDbLine
 10
-1.115036840666853
 20
0.1050000000191318
 30
0.0
 11
-1.177536840673859
 21
-0.104999999997375
 31
0.0
  0
LINE
  5
11304
330
10DC7
100
AcDbEntity
  8
Wall
  6
Continuous
100
AcDbLine
 10
-0.9900368406738593
 20
0.1050000000191318
 30
0.0
 11
-1.052536840680851
 21
-0.104999999997375
 31
0.0
  0
LINE
  5
11305
330
10DC7
100
AcDbEntity
  8
Wall
  6
Continuous
100
AcDbLine
 10
-1.240036840659861
 20
0.1050000000191318
 30
0.0
 11
-1.302536840666853
 21
-0.104999999997375
 31
0.0
  0
LINE
  5
11306
330
10DC7
100
AcDbEntity
  8
Wall
  6
Continuous
100
AcDbLine
 10
-1.507709799224862
 20
0.0444563162071674
 30
0.0
 11
-1.615036840724862
 21
0.0000000000018474
 31
0.0
  0
LINE
  5
11307
330
10DC7
100
AcDbEntity
  8
Wall
  6
Continuous
100
AcDbLine
 10
-1.436465412086853
 20
-0.0749999999952706
 30
0.0
 11
-1.543608269216854
 21
-0.0295866830547738
 31
0.0
  0
LINE
  5
11308
330
10DC7
100
AcDbEntity
  8
Wall
  6
Continuous
100
AcDbLine
 10
-1.427536840659861
 20
-0.104999999997375
 30
0.0
 11
-1.436465412086853
 21
-0.0749999999952706
 31
0.0
  0
LINE
  5
11309
330
10DC7
100
AcDbEntity
  8
Wall
  6
Continuous
100
AcDbLine
 10
-1.565333416430853
 20
-0.0205878324358722
 30
0.0
 11
-1.615036840724862
 21
0.0000000000018474
 31
0.0
  0
LINE
  5
1130A
330
10DC7
100
AcDbEntity
  8
Wall
  6
Continuous
100
AcDbLine
 10
-1.552536840644854
 20
-0.0595866830571765
 30
0.0
 11
-1.565333416430853
 21
-0.0205878324358722
 31
0.0
  0
LINE
  5
1130B
330
10DC7
100
AcDbEntity
  8
Wall
  6
Continuous
100
AcDbLine
 10
-1.490036840637849
 20
0.0854750307280341
 30
0.0
 11
-1.552536840644854
 21
-0.0595866830571765
 31
0.0
  0
LINE
  5
1130C
330
10DC7
100
AcDbEntity
  8
Wall
  6
Continuous
100
AcDbLine
 10
-1.480302540984858
 20
0.0558087742810969
 30
0.0
 11
-1.490036840637849
 21
0.0854750307280341
 31
0.0
  0
LINE
  5
1130D
330
10DC7
100
AcDbEntity
  8
Wall
  6
Continuous
100
AcDbLine
 10
-1.433970823548854
 20
0.0750000000061775
 30
0.0
 11
-1.480302540984858
 21
0.0558087742810969
 31
0.0
  0
LINE
  5
1130E
330
10DC7
100
AcDbEntity
  8
Wall
  6
Continuous
100
AcDbLine
 10
-1.36503684065186
 20
0.1050000000193307
 30
0.0
 11
-1.427536840659861
 21
-0.104999999997375
 31
0.0
  0
LINE
  5
1130F
330
10DC7
100
AcDbEntity
  8
Wall
  6
Continuous
100
AcDbLine
 10
-1.311465412093859
 20
-0.0749999999954696
 30
0.0
 11
-1.41860826923186
 21
-0.0749999999954696
 31
0.0
  0
LINE
  5
11310
330
10DC7
100
AcDbEntity
  8
Wall
  6
Continuous
100
AcDbLine
 10
-1.373965412071861
 20
0.075000000002305
 30
0.0
 11
-1.433970823548854
 21
0.0750000000061775
 31
0.0
  0
LINE
  5
11311
330
10DC7
100
AcDbEntity
  8
Wall
  6
Continuous
100
AcDbLine
 10
-0.9364654121158579
 20
-0.0749999999958675
 30
0.0
 11
-1.043608269253859
 21
-0.0749999999956685
 31
0.0
  0
LINE
  5
11312
330
10DC7
100
AcDbEntity
  8
Wall
  6
Continuous
100
AcDbLine
 10
-0.8739654121018602
 20
0.0750000000018574
 30
0.0
 11
-0.9811082692388524
 21
0.0750000000057156
 31
0.0
  0
ENDBLK
  5
10DF6
330
10DC7
100
AcDbEntity
  8
0
100
AcDbBlockEnd
  0
BLOCK
  5
1352C
330
134A9
100
AcDbEntity
  8
0
100
AcDbBlockBegin
  2
SPIFDHJ
 70
     0
 10
0.0
 20
0.0
 30
0.0
  3
SPIFDHJ
  1

  0
LWPOLYLINE
  5
188CD
330
134A9
100
AcDbEntity
  8
Clad
100
AcDbPolyline
 90
       30
 70
     1
 43
0.0
 10
4.625000000000004
 20
1.512000000000004
 10
4.675000000000001
 20
1.512000000000004
 10
4.675000000000001
 20
0.0450000000000096
 42
-0.4142135623730951
 10
4.579999999999995
 20
-0.0499999999999893
 10
2.534761552590621
 20
-0.0499999999999897
 42
0.4142135623730951
 10
2.484761552590624
 20
-0.0999999999999869
 42
0.4142135623730951
 10
2.534761552590621
 20
-0.149999999999984
 10
2.727500000000025
 20
-0.1499999999999839
 42
-0.4142135623730376
 10
2.827500000000005
 20
-0.2499999999999783
 10
2.827500000000005
 20
-0.5799999999999943
 42
-0.4142135623730951
 10
2.732500000000006
 20
-0.6749999999999932
 10
1.047500000000004
 20
-0.6749999999999936
 42
-0.4142135623730951
 10
0.9525000000000055
 20
-0.5799999999999947
 10
0.9525000000000053
 20
-0.1199999999999973
 42
-0.4142135623730951
 10
1.047500000000004
 20
-0.0249999999999985
 10
1.452500000000005
 20
-0.0249999999999984
 10
1.452500000000005
 20
-0.0749999999999814
 10
1.047500000000004
 20
-0.0749999999999814
 42
0.4142135623731346
 10
1.002500000000002
 20
-0.1199999999999973
 10
1.002500000000002
 20
-0.5799999999999947
 42
0.4142135623731336
 10
1.047500000000004
 20
-0.6249999999999928
 10
2.732500000000006
 20
-0.624999999999996
 42
0.4142135623731336
 10
2.777500000000008
 20
-0.5799999999999943
 10
2.777500000000015
 20
-0.2499999999999783
 42
0.4142135623730951
 10
2.727500000000025
 20
-0.1999999999999811
 10
2.534761552590621
 20
-0.1999999999999812
 42
-0.4142135623730381
 10
2.434761552590641
 20
-0.0999999999999869
 42
-0.4142135623730376
 10
2.534761552590621
 20
0.0000000000000075
 10
4.579999999999995
 20
0.0000000000000078
 42
0.4142135623731344
 10
4.625000000000004
 20
0.0450000000000096
1001
AcDbBlockRepETag
1070
     1
1071
        0
1005
188CD
  0
LWPOLYLINE
  5
188CE
330
134A9
100
AcDbEntity
  8
Clad
100
AcDbPolyline
 90
        8
 70
     1
 43
0.0
 10
1.765000000000001
 20
0.0000000000000038
 10
0.0450000000000029
 20
0.0000000000000035
 42
-0.4142135623731369
 10
0.0000000000000012
 20
0.0450000000000052
 10
-0.0000000000000062
 20
1.537499999999997
 10
-0.0250000000000048
 20
1.537499999999997
 10
-0.0250000000000045
 20
0.0450000000000087
 42
0.4142135623731316
 10
0.0450000000000029
 20
-0.0249999999999987
 10
1.765000000000001
 20
-0.0249999999999984
1001
AcDbBlockRepETag
1070
     1
1071
        1
1005
188CE
  0
POINT
  5
188CF
330
134A9
100
AcDbEntity
  8
Points
100
AcDbPoint
 10
0.0000000000000012
 20
0.0000000000000035
 30
0.0
 50
0.0000000000000067
1001
AcDbBlockRepETag
1070
     1
1071
       53
1005
188CF
  0
LWPOLYLINE
  5
188D0
330
134A9
100
AcDbEntity
  8
Clad
100
AcDbPolyline
 90
        4
 70
     1
 43
0.0
 10
0.9525000000000053
 20
0.0000000000000072
 10
4.579999999999995
 20
0.0000000000000078
 10
4.579999999999995
 20
0.050000000000005
 10
0.9525000000000053
 20
0.0500000000000044
1001
AcDbBlockRepETag
1070
     1
1071
       54
1005
188D0
  0
LWPOLYLINE
  5
188D1
330
134A9
100
AcDbEntity
  8
CS-Cross Section
 62
    51
100
AcDbPolyline
 90
        5
 70
     0
 43
0.0
 10
3.080000000000031
 20
0.000000000000004
 10
4.580000000000031
 20
0.0000000000000043
 10
4.580000000000031
 20
0.1250000000000043
 10
3.080000000000031
 20
0.125000000000004
 10
3.080000000000031
 20
0.000000000000004
1001
AcDbBlockRepETag
1070
     1
1071
      112
1005
188D1
  0
LWPOLYLINE
  5
188D2
330
134A9
100
AcDbEntity
  8
CS-Hardware
100
AcDbPolyline
 90
        6
 70
     0
 43
0.0
 10
4.839620142611626
 20
-0.1550614352493184
 42
0.0531773840975451
 10
4.792164608314625
 20
-0.1499999999999871
 10
3.110732019788473
 20
-0.1499999999999874
 10
3.110732019788473
 20
-0.2499999999999817
 10
4.792164608314625
 20
-0.2499999999999814
 42
-0.2306084999931892
 10
4.890590004638629
 20
-0.2979452054794321
1001
AcDbBlockRepETag
1070
     1
1071
      113
1005
188D2
  0
LWPOLYLINE
  5
188D3
330
134A9
100
AcDbEntity
  8
CS-Hardware
100
AcDbPolyline
 90
        9
 70
     0
 43
0.0
 10
4.839566765578614
 20
-0.1499999999999871
 10
4.939566765578629
 20
-0.1499999999999871
 42
5.966726375020495
 10
4.969330321696571
 20
-0.0636986301369503
 42
-0.1919410581945857
 10
4.79216460831464
 20
-0.1349999999999866
 10
3.110732019788473
 20
-0.1349999999999869
 10
3.110732019788473
 20
-0.0499999999999931
 10
4.792164608314625
 20
-0.0499999999999928
 42
0.2306084999932693
 10
4.890590004638203
 20
-0.0020547945201584
 42
-5.966726375004548
 10
4.839566765578614
 20
-0.1499999999999871
1001
AcDbBlockRepETag
1070
     1
1071
      114
1005
188D3
  0
HATCH
  5
188D4
330
134A9
100
AcDbEntity
  8
Hatch
 62
     2
100
AcDbHatch
 10
0.0
 20
0.0
 30
0.0
210
0.0
220
0.0
230
1.0
  2
NET
 70
     0
 71
     1
 91
        1
 92
        1
 93
       16
 72
     1
 10
4.635342860000046
 20
-5.999999999999999
 11
4.635342860000045
 21
-0.2961511405004691
 72
     2
 10
4.608233486953168
 20
-0.2961511405005474
 40
0.0271093730468755
 50
0.000000000165198
 51
90.26192447577141
 73
     1
 72
     2
 10
4.607985629815162
 20
-0.2961511405004906
 40
0.0271093730468763
 50
89.73807549673157
 51
89.99999997248071
 73
     1
 72
     1
 10
4.607985629828182
 20
-0.2690417674536143
 11
4.322144400421941
 21
-0.2690417674536143
 72
     1
 10
4.322144400421941
 20
-0.2690417674536143
 11
3.440439151445361
 21
-0.2690417674536145
 72
     2
 10
3.440439151445365
 20
-0.2961511405004908
 40
0.0271093730468763
 50
90.00000000000751
 51
179.99999999997
 73
     1
 72
     1
 10
3.413329778398489
 20
-0.2961511405004765
 11
3.413329778398514
 21
-0.957545662543111
 72
     2
 10
3.347399783148515
 20
-0.957545662543111
 40
0.0659299952499994
 50
360.0
 51
450.0000000000092
 73
     0
 72
     1
 10
3.347399783148504
 20
-1.023475657793109
 11
3.059389803898495
 21
-1.023475657793109
 72
     1
 10
3.059389803898495
 20
-1.023475657793109
 11
2.979657265000068
 21
-1.023475657793109
 72
     1
 10
2.979657265000068
 20
-1.023475657793109
 11
2.979657265000069
 21
-6.0
 72
     1
 10
2.97965726500007
 20
-5.999999999999999
 11
3.568749999999993
 21
-5.999999999999999
 72
     1
 10
3.568749999999993
 20
-5.999999999999999
 11
3.631249999999993
 21
-5.749999999999999
 72
     1
 10
3.631249999999993
 20
-5.749999999999999
 11
3.756249999999993
 21
-6.249999999999999
 72
     1
 10
3.756249999999993
 20
-6.249999999999999
 11
3.818749999999993
 21
-5.999999999999999
 72
     1
 10
3.818749999999993
 20
-5.999999999999999
 11
4.635342860000046
 21
-5.999999999999999
 97
        1
330
188D5
 75
     0
 76
     1
 52
-90.0
 41
3.0
 77
     0
 78
     2
 53
270.0
 43
6.617770386856236
 44
5.972857442362754
 45
0.375
 46
0.0
 79
     0
 53
0.0000000000000067
 43
6.617770386856236
 44
5.972857442362754
 45
0.0
 46
0.375
 79
     0
 98
        1
 10
6.617770386856236
 20
5.972857442362754
1001
ACAD
1010
0.0
1020
0.0
1030
0.0
1001
AcDbBlockRepETag
1070
     1
1071
      172
1005
188D4
  0
LWPOLYLINE
  5
188D5
102
{ACAD_REACTORS
330
188D4
102
}
330
134A9
100
AcDbEntity
  8
Points
100
AcDbPolyline
 90
       16
 70
     1
 43
0.0
 10
4.635342860000046
 20
-5.999999999999999
 10
4.635342860000045
 20
-0.2961511405004693
 42
0.4155531421896546
 10
4.60810955839067
 20
-0.2690420507204394
 42
0.0011428616209216
 10
4.607985629828182
 20
-0.2690417674536143
 10
4.322144400421941
 20
-0.2690417674536143
 10
3.440439151445362
 20
-0.2690417674536144
 42
0.4142135623729225
 10
3.413329778398489
 20
-0.2961511405004765
 10
3.413329778398514
 20
-0.957545662543111
 42
-0.4142135623731346
 10
3.347399783148504
 20
-1.023475657793109
 10
3.059389803898495
 20
-1.023475657793109
 10
2.979657265000068
 20
-1.023475657793109
 10
2.97965726500007
 20
-5.999999999999999
 10
3.568749999999993
 20
-5.999999999999999
 10
3.631249999999993
 20
-5.749999999999999
 10
3.756249999999993
 20
-6.249999999999999
 10
3.818749999999993
 20
-5.999999999999999
1001
AcDbBlockRepETag
1070
     1
1071
      175
1005
188D5
  0
LWPOLYLINE
  5
188D6
330
134A9
100
AcDbEntity
  8
Clad
100
AcDbPolyline
 90
       12
 70
     1
 43
0.0
 10
2.97965726500007
 20
-5.999999999999999
 10
2.979657265000072
 20
-0.2961511405004695
 42
-0.4142135623728648
 10
3.006766638046941
 20
-0.2690417674536145
 10
3.292855724578183
 20
-0.2690417674536145
 42
-0.4142135623729225
 10
3.319965097625052
 20
-0.2961511405004766
 10
3.319965097625052
 20
-0.9318117197036345
 10
3.359870094750065
 20
-0.9318117197036345
 10
3.359870094750065
 20
-0.2950667655786349
 42
0.4142135623730714
 10
3.293940099500078
 20
-0.2291367703286328
 10
3.005930120250071
 20
-0.2291367703286329
 42
0.4142135623730871
 10
2.940000125000076
 20
-0.2950667655786314
 10
2.940000125000039
 20
-6.0
1001
AcDbBlockRepETag
1070
     1
1071
      178
1005
188D6
  0
LWPOLYLINE
  5
188D7
330
134A9
100
AcDbEntity
  8
Clad
100
AcDbPolyline
 90
       21
 70
     1
 43
0.0
 10
4.675000000000077
 20
-5.999999999999999
 10
4.675000000000044
 20
-0.2950667655786311
 42
0.4142135623730714
 10
4.609070004750049
 20
-0.2291367703286326
 10
4.321060025500046
 20
-0.2291367703286326
 10
3.439354776523495
 20
-0.2291367703286328
 42
0.4142135623730871
 10
3.3734247812735
 20
-0.2950667655786349
 10
3.3734247812735
 20
-0.9564612876212693
 42
-0.4142135623729226
 10
3.346315408226624
 20
-0.9835706606681315
 10
3.060474178820358
 20
-0.9835706606681316
 42
-0.4142135623729608
 10
3.033364805773485
 20
-0.956461287621266
 10
3.033364805773488
 20
-0.3208007084181754
 10
2.993459808648496
 20
-0.3208007084181754
 10
2.993459808648496
 20
-0.9575456625431041
 42
0.4142135623731188
 10
3.059389803898495
 20
-1.023475657793109
 10
3.347399783148504
 20
-1.023475657793109
 42
0.4142135623731346
 10
3.413329778398514
 20
-0.957545662543111
 10
3.413329778398489
 20
-0.2961511405004765
 42
-0.4142135623729223
 10
3.440439151445362
 20
-0.2690417674536144
 10
4.608233486953179
 20
-0.2690417674536143
 42
-0.4142135623727689
 10
4.635342860000045
 20
-0.2961511405004693
 10
4.635342860000046
 20
-5.999999999999999
1001
AcDbBlockRepETag
1070
     1
1071
      179
1005
188D7
  0
POLYLINE
  5
188D8
330
134A9
100
AcDbEntity
  8
CS-Sealant
100
AcDb2dPolyline
 66
     1
 10
0.0
 20
0.0
 30
0.0
 70
     1
1001
AcDbBlockRepETag
1070
     1
1071
      126
1005
188D8
  0
VERTEX
  5
188D9
330
188D8
100
AcDbEntity
  8
CS-Sealant
100
AcDbVertex
100
AcDb2dVertex
 10
2.698051146254554
 20
-0.0800006600011894
 30
0.0
  0
VERTEX
  5
188DA
330
188D8
100
AcDbEntity
  8
CS-Sealant
100
AcDbVertex
100
AcDb2dVertex
 10
2.673050596253572
 20
-0.0800006600011894
 30
0.0
 42
0.0582219336589616
  0
VERTEX
  5
188DB
330
188D8
100
AcDbEntity
  8
CS-Sealant
100
AcDbVertex
100
AcDb2dVertex
 10
2.72858046243087
 20
-0.1472158365681078
 30
0.0
 42
0.8463011807844029
  0
VERTEX
  5
188DC
330
188D8
100
AcDbEntity
  8
CS-Sealant
100
AcDbVertex
100
AcDb2dVertex
 10
2.743183341879743
 20
-0.1336582368063897
 30
0.0
 42
-0.0407304801418053
  0
VERTEX
  5
188DD
330
188D8
100
AcDbEntity
  8
CS-Sealant
100
AcDbVertex
100
AcDb2dVertex
 10
2.698051146254554
 20
-0.0800006600011894
 30
0.0
  0
SEQEND
  5
188DE
330
188D8
100
AcDbEntity
  8
CS-Sealant
  0
POLYLINE
  5
188DF
330
134A9
100
AcDbEntity
  8
CS-Sealant
 62
     4
100
AcDb2dPolyline
 66
     1
 10
0.0
 20
0.0
 30
0.0
 70
     1
1001
AcDbBlockRepETag
1070
     1
1071
      127
1005
188DF
  0
VERTEX
  5
188E0
330
188DF
100
AcDbEntity
  8
CS-Sealant
 62
     4
100
AcDbVertex
100
AcDb2dVertex
 10
2.899195221334904
 20
-0.1192369540198395
 30
0.0
  0
VERTEX
  5
188E1
330
188DF
100
AcDbEntity
  8
CS-Sealant
 62
     4
100
AcDbVertex
100
AcDb2dVertex
 10
2.88121936947604
 20
-0.2928603478407932
 30
0.0
 42
-0.4142135623735114
  0
VERTEX
  5
188E2
330
188DF
100
AcDbEntity
  8
CS-Sealant
 62
     4
100
AcDbVertex
100
AcDb2dVertex
 10
2.876219259475843
 20
-0.2978604578410038
 30
0.0
  0
VERTEX
  5
188E3
330
188DF
100
AcDbEntity
  8
CS-Sealant
 62
     4
100
AcDbVertex
100
AcDb2dVertex
 10
2.856218819475036
 20
-0.2978604578410038
 30
0.0
 42
-0.4142135623729911
  0
VERTEX
  5
188E4
330
188DF
100
AcDbEntity
  8
CS-Sealant
 62
     4
100
AcDbVertex
100
AcDb2dVertex
 10
2.85121870947484
 20
-0.2928603478408074
 30
0.0
  0
VERTEX
  5
188E5
330
188DF
100
AcDbEntity
  8
CS-Sealant
 62
     4
100
AcDbVertex
100
AcDb2dVertex
 10
2.869194561333704
 20
-0.1192369540198324
 30
0.0
 42
0.291473419586125
  0
VERTEX
  5
188E6
330
188DF
100
AcDbEntity
  8
CS-Sealant
 62
     4
100
AcDbVertex
100
AcDb2dVertex
 10
2.857646672520087
 20
-0.1011103995029497
 30
0.0
  0
VERTEX
  5
188E7
330
188DF
100
AcDbEntity
  8
CS-Sealant
 62
     4
100
AcDbVertex
100
AcDb2dVertex
 10
2.842792561831108
 20
-0.0941838139335967
 30
0.0
  0
VERTEX
  5
188E8
330
188DF
100
AcDbEntity
  8
CS-Sealant
 62
     4
100
AcDbVertex
100
AcDb2dVertex
 10
2.721283845779735
 20
-0.0963047564616129
 30
0.0
  0
VERTEX
  5
188E9
330
188DF
100
AcDbEntity
  8
CS-Sealant
 62
     4
100
AcDbVertex
100
AcDb2dVertex
 10
2.711870630102799
 20
-0.0800006600011894
 30
0.0
  0
VERTEX
  5
188EA
330
188DF
100
AcDbEntity
  8
CS-Sealant
 62
     4
100
AcDbVertex
100
AcDb2dVertex
 10
2.550390922487847
 20
-0.0800006600011894
 30
0.0
  0
VERTEX
  5
188EB
330
188DF
100
AcDbEntity
  8
CS-Sealant
 62
     4
100
AcDbVertex
100
AcDb2dVertex
 10
2.506332038373164
 20
-0.1138909204510195
 30
0.0
 42
-1.0
  0
VERTEX
  5
188EC
330
188DF
100
AcDbEntity
  8
CS-Sealant
 62
     4
100
AcDbVertex
100
AcDb2dVertex
 10
2.488040716264483
 20
-0.0901113675531132
 30
0.0
  0
VERTEX
  5
188ED
330
188DF
100
AcDbEntity
  8
CS-Sealant
 62
     4
100
AcDbVertex
100
AcDb2dVertex
 10
2.540187323320535
 20
-0.0499999999999897
 30
0.0
  0
VERTEX
  5
188EE
330
188DF
100
AcDbEntity
  8
CS-Sealant
 62
     4
100
AcDbVertex
100
AcDb2dVertex
 10
2.729191481328091
 20
-0.0499999999999897
 30
0.0
  0
VERTEX
  5
188EF
330
188DF
100
AcDbEntity
  8
CS-Sealant
 62
     4
100
AcDbVertex
100
AcDb2dVertex
 10
2.738429271555387
 20
-0.0660002519984242
 30
0.0
  0
VERTEX
  5
188F0
330
188DF
100
AcDbEntity
  8
CS-Sealant
 62
     4
100
AcDbVertex
100
AcDb2dVertex
 10
2.849184143898907
 20
-0.063605414530691
 30
0.0
  0
VERTEX
  5
188F1
330
188DF
100
AcDbEntity
  8
CS-Sealant
 62
     4
100
AcDbVertex
100
AcDb2dVertex
 10
2.870325499300873
 20
-0.0739205677276256
 30
0.0
 42
-0.291473419586106
  0
SEQEND
  5
188F2
330
188DF
100
AcDbEntity
  8
CS-Sealant
 62
     4
  0
POLYLINE
  5
188F3
330
134A9
100
AcDbEntity
  8
CS-Sealant
100
AcDb2dPolyline
 66
     1
 10
0.0
 20
0.0
 30
0.0
 70
     1
1001
AcDbBlockRepETag
1070
     1
1071
      128
1005
188F3
  0
VERTEX
  5
188F4
330
188F3
100
AcDbEntity
  8
CS-Sealant
100
AcDbVertex
100
AcDb2dVertex
 10
2.58039158248904
 20
-0.0800006600011894
 30
0.0
  0
VERTEX
  5
188F5
330
188F3
100
AcDbEntity
  8
CS-Sealant
100
AcDbVertex
100
AcDb2dVertex
 10
2.555391032488058
 20
-0.0800006600011894
 30
0.0
 42
0.0200060303623288
  0
VERTEX
  5
188F6
330
188F3
100
AcDbEntity
  8
CS-Sealant
100
AcDbVertex
100
AcDb2dVertex
 10
2.618587461610233
 20
-0.1470172013098466
 30
0.0
 42
0.9071647986108388
  0
VERTEX
  5
188F7
330
188F3
100
AcDbEntity
  8
CS-Sealant
100
AcDbVertex
100
AcDb2dVertex
 10
2.631696292148569
 20
-0.1373845790204445
 30
0.0
 42
-0.0669701791912106
  0
VERTEX
  5
188F8
330
188F3
100
AcDbEntity
  8
CS-Sealant
100
AcDbVertex
100
AcDb2dVertex
 10
2.58039158248904
 20
-0.0800006600011894
 30
0.0
  0
SEQEND
  5
188F9
330
188F3
100
AcDbEntity
  8
CS-Sealant
  0
LWPOLYLINE
  5
188FA
330
134A9
100
AcDbEntity
  8
CS-Sealant
100
AcDbPolyline
 90
       25
 70
     1
 43
0.0
 10
2.869194561333704
 20
-0.1192369540198324
 42
0.291473419586125
 10
2.857646672520087
 20
-0.1011103995029497
 10
2.842792561831108
 20
-0.0941838139335967
 10
2.799792739514236
 20
-0.0949343786240387
 10
2.8003516367883
 20
-0.181497160516741
 42
-0.1909313252295837
 10
2.827500000000005
 20
-0.2499999999999783
 10
2.827500000000005
 20
-0.5799999999999943
 42
-0.1843830227092362
 10
2.803333329965754
 20
-0.6433059188856976
 42
0.803745270753043
 10
2.940000124999959
 20
-0.6579008194390457
 10
2.940000124999959
 20
-0.3009995970576393
 42
-0.4381792411002691
 10
3.005930120250071
 20
-0.2291367703286329
 10
3.017234725802305
 20
-0.2189324398198305
 10
3.040567433653885
 20
-0.1383495017624656
 42
1.024002525094229
 10
2.954293127947701
 20
-0.1150779727804969
 10
2.880577171437197
 20
-0.4100403108800204
 42
-2.587176526074653
 10
2.874375577371723
 20
-0.4072490477138327
 10
2.939123458609964
 20
-0.1298903018827455
 42
0.9297307254500786
 10
2.881194825334188
 20
-0.0629132519409406
 10
2.849184143898907
 20
-0.063605414530691
 10
2.870325499300873
 20
-0.0739205677276256
 42
-0.2914734195860637
 10
2.899195221334904
 20
-0.1192369540198395
 10
2.88121936947604
 20
-0.2928603478407932
 42
-0.4142135623735114
 10
2.876219259475843
 20
-0.2978604578410038
 10
2.856218819475036
 20
-0.2978604578410038
 42
-0.4142135623730958
 10
2.85121870947484
 20
-0.2928603478408074
1001
AcDbBlockRepETag
1070
     1
1071
      129
1005
188FA
  0
ENDBLK
  5
1352D
330
134A9
100
AcDbEntity
  8
0
100
AcDbBlockEnd
  0
BLOCK
  5
13613
330
13531
100
AcDbEntity
  8
0
100
AcDbBlockBegin
  2
SPIFDS
 70
     0
 10
0.0
 20
0.0
 30
0.0
  3
SPIFDS
  1

  0
POINT
  5
16102
330
13531
100
AcDbEntity
  8
Points
100
AcDbPoint
 10
0.0
 20
0.0
 30
0.0
  0
POINT
  5
1917C
330
13531
100
AcDbEntity
  8
Points
100
AcDbPoint
 10
0.0
 20
0.0
 30
0.0
1001
AcDbBlockRepETag
1070
     1
1071
       13
1005
1917C
  0
POLYLINE
  5
1917D
330
13531
100
AcDbEntity
  8
Clad
100
AcDb2dPolyline
 66
     1
 10
0.0
 20
0.0
 30
0.0
 70
     1
1001
AcDbBlockRepETag
1070
     1
1071
       94
1005
1917D
  0
VERTEX
  5
1917E
330
1917D
100
AcDbEntity
  8
Clad
100
AcDbVertex
100
AcDb2dVertex
 10
-1.171878812598651
 20
0.3151941328346055
 30
0.0
 42
-0.3830967713901975
  0
VERTEX
  5
1917F
330
1917D
100
AcDbEntity
  8
Clad
100
AcDbVertex
100
AcDb2dVertex
 10
-1.147326510607785
 20
0.3425356960022015
 30
0.0
  0
VERTEX
  5
19180
330
1917D
100
AcDbEntity
  8
Clad
100
AcDbVertex
100
AcDb2dVertex
 10
-0.7747226921172104
 20
0.3827061693300919
 30
0.0
 42
0.3157651198789125
  0
VERTEX
  5
19181
330
1917D
100
AcDbEntity
  8
Clad
100
AcDbVertex
100
AcDb2dVertex
 10
-0.7608962102366821
 20
0.3948111487367356
 30
0.0
 42
-0.3324933764560458
  0
VERTEX
  5
19182
330
1917D
100
AcDbEntity
  8
Clad
100
AcDbVertex
100
AcDb2dVertex
 10
-0.7322361947075127
 20
0.4184091405656574
 30
0.0
 42
-0.2991960351528162
  0
VERTEX
  5
19183
330
1917D
100
AcDbEntity
  8
Clad
100
AcDbVertex
100
AcDb2dVertex
 10
-0.7029352462708847
 20
0.401059928920418
 30
0.0
 42
0.3157651199070178
  0
VERTEX
  5
19184
330
1917D
100
AcDbEntity
  8
Clad
100
AcDbVertex
100
AcDb2dVertex
 10
-0.6868463919114323
 20
0.3921801263831668
 30
0.0
  0
VERTEX
  5
19185
330
1917D
100
AcDbEntity
  8
Clad
100
AcDbVertex
100
AcDb2dVertex
 10
-0.2771469991376865
 20
0.4363498791206979
 30
0.0
 42
0.3157651198864896
  0
VERTEX
  5
19186
330
1917D
100
AcDbEntity
  8
Clad
100
AcDbVertex
100
AcDb2dVertex
 10
-0.2633205172567603
 20
0.4484548585268869
 30
0.0
 42
-0.3324933764553438
  0
VERTEX
  5
19187
330
1917D
100
AcDbEntity
  8
Clad
100
AcDbVertex
100
AcDb2dVertex
 10
-0.2346605017292394
 20
0.4720528503559223
 30
0.0
 42
-0.2991960351506831
  0
VERTEX
  5
19188
330
1917D
100
AcDbEntity
  8
Clad
100
AcDbVertex
100
AcDb2dVertex
 10
-0.2053595532929524
 20
0.4547036387109671
 30
0.0
 42
0.3157651199502704
  0
VERTEX
  5
19189
330
1917D
100
AcDbEntity
  8
Clad
100
AcDbVertex
100
AcDb2dVertex
 10
-0.1892706989333863
 20
0.4458238361736875
 30
0.0
  0
VERTEX
  5
1918A
330
1917D
100
AcDbEntity
  8
Clad
100
AcDbVertex
100
AcDb2dVertex
 10
0.2199723460028178
 20
0.4899443899822274
 30
0.0
 42
0.3157651198415028
  0
VERTEX
  5
1918B
330
1917D
100
AcDbEntity
  8
Clad
100
AcDbVertex
100
AcDb2dVertex
 10
0.2337988278827208
 20
0.5020493693883879
 30
0.0
 42
-0.3324933764283839
  0
VERTEX
  5
1918C
330
1917D
100
AcDbEntity
  8
Clad
100
AcDbVertex
100
AcDb2dVertex
 10
0.262458843407229
 20
0.5256473612181623
 30
0.0
 42
-0.2991960351808225
  0
VERTEX
  5
1918D
330
1917D
100
AcDbEntity
  8
Clad
100
AcDbVertex
100
AcDb2dVertex
 10
0.2917597918479498
 20
0.5082981495724113
 30
0.0
 42
0.3157651199068891
  0
VERTEX
  5
1918E
330
1917D
100
AcDbEntity
  8
Clad
100
AcDbVertex
100
AcDb2dVertex
 10
0.307848646207459
 20
0.4994183470351885
 30
0.0
  0
VERTEX
  5
1918F
330
1917D
100
AcDbEntity
  8
Clad
100
AcDbVertex
100
AcDb2dVertex
 10
0.7180043868076052
 20
0.5436372986992666
 30
0.0
 42
0.3157651198789218
  0
VERTEX
  5
19190
330
1917D
100
AcDbEntity
  8
Clad
100
AcDbVertex
100
AcDb2dVertex
 10
0.7318308686881334
 20
0.5557422781059387
 30
0.0
 42
-0.3324933764559979
  0
VERTEX
  5
19191
330
1917D
100
AcDbEntity
  8
Clad
100
AcDbVertex
100
AcDb2dVertex
 10
0.7604908842173029
 20
0.5793402699348036
 30
0.0
 42
-0.2991960351527252
  0
VERTEX
  5
19192
330
1917D
100
AcDbEntity
  8
Clad
100
AcDbVertex
100
AcDb2dVertex
 10
0.7897918326539309
 20
0.5619910582895642
 30
0.0
 42
0.3157651199070754
  0
VERTEX
  5
19193
330
1917D
100
AcDbEntity
  8
Clad
100
AcDbVertex
100
AcDb2dVertex
 10
0.80588068701344
 20
0.5531112557523415
 30
0.0
  0
VERTEX
  5
19194
330
1917D
100
AcDbEntity
  8
Clad
100
AcDbVertex
100
AcDb2dVertex
 10
1.215580079787129
 20
0.5972810084898726
 30
0.0
 42
0.3157651198865208
  0
VERTEX
  5
19195
330
1917D
100
AcDbEntity
  8
Clad
100
AcDbVertex
100
AcDb2dVertex
 10
1.229406561668055
 20
0.6093859878960615
 30
0.0
 42
-0.3324933764554657
  0
VERTEX
  5
19196
330
1917D
100
AcDbEntity
  8
Clad
100
AcDbVertex
100
AcDb2dVertex
 10
1.258066577195576
 20
0.6329839797250969
 30
0.0
 42
-0.2991960351506261
  0
VERTEX
  5
19197
330
1917D
100
AcDbEntity
  8
Clad
100
AcDbVertex
100
AcDb2dVertex
 10
1.287367525631919
 20
0.6156347680801418
 30
0.0
 42
0.3157651199503975
  0
VERTEX
  5
19198
330
1917D
100
AcDbEntity
  8
Clad
100
AcDbVertex
100
AcDb2dVertex
 10
1.303456379991429
 20
0.6067549655428337
 30
0.0
  0
VERTEX
  5
19199
330
1917D
100
AcDbEntity
  8
Clad
100
AcDbVertex
100
AcDb2dVertex
 10
1.71269942492769
 20
0.650875519351402
 30
0.0
 42
0.315765119841223
  0
VERTEX
  5
1919A
330
1917D
100
AcDbEntity
  8
Clad
100
AcDbVertex
100
AcDb2dVertex
 10
1.726525906807536
 20
0.6629804987575625
 30
0.0
 42
-0.3324933764284645
  0
VERTEX
  5
1919B
330
1917D
100
AcDbEntity
  8
Clad
100
AcDbVertex
100
AcDb2dVertex
 10
1.755185922332101
 20
0.6865784905873085
 30
0.0
 42
-0.2991960351807137
  0
VERTEX
  5
1919C
330
1917D
100
AcDbEntity
  8
Clad
100
AcDbVertex
100
AcDb2dVertex
 10
1.784486870772367
 20
0.6692292789416428
 30
0.0
 42
0.3157651199135223
  0
VERTEX
  5
1919D
330
1917D
100
AcDbEntity
  8
Clad
100
AcDbVertex
100
AcDb2dVertex
 10
1.80057572513091
 20
0.6603494764043063
 30
0.0
  0
VERTEX
  5
1919E
330
1917D
100
AcDbEntity
  8
Clad
100
AcDbVertex
100
AcDb2dVertex
 10
2.21027511787703
 20
0.7045192291387111
 30
0.0
 42
0.3157651198498896
  0
VERTEX
  5
1919F
330
1917D
100
AcDbEntity
  8
Clad
100
AcDbVertex
100
AcDb2dVertex
 10
2.224101599752897
 20
0.716624208544701
 30
0.0
 42
-0.3324933764557165
  0
VERTEX
  5
191A0
330
1917D
100
AcDbEntity
  8
Clad
100
AcDbVertex
100
AcDb2dVertex
 10
2.252761615280531
 20
0.7402222003709796
 30
0.0
 42
-0.2991960351404235
  0
VERTEX
  5
191A1
330
1917D
100
AcDbEntity
  8
Clad
100
AcDbVertex
100
AcDb2dVertex
 10
2.282062563713692
 20
0.7228729887286108
 30
0.0
 42
0.315765119987736
  0
VERTEX
  5
191A2
330
1917D
100
AcDbEntity
  8
Clad
100
AcDbVertex
100
AcDb2dVertex
 10
2.298151418077294
 20
0.7139931861915301
 30
0.0
  0
VERTEX
  5
191A3
330
1917D
100
AcDbEntity
  8
Clad
100
AcDbVertex
100
AcDb2dVertex
 10
2.583054526171634
 20
0.7447086328338202
 30
0.0
 42
-0.026855289492574
  0
VERTEX
  5
191A4
330
1917D
100
AcDbEntity
  8
Clad
100
AcDbVertex
100
AcDb2dVertex
 10
2.58627019672731
 20
0.7448814730146723
 30
0.0
  0
VERTEX
  5
191A5
330
1917D
100
AcDbEntity
  8
Clad
100
AcDbVertex
100
AcDb2dVertex
 10
3.018620531727277
 20
0.7448814730146154
 30
0.0
 42
-0.9999999999999998
  0
VERTEX
  5
191A6
330
1917D
100
AcDbEntity
  8
Clad
100
AcDbVertex
100
AcDb2dVertex
 10
3.018620531727277
 20
0.7058189730146154
 30
0.0
  0
VERTEX
  5
191A7
330
1917D
100
AcDbEntity
  8
Clad
100
AcDbVertex
100
AcDb2dVertex
 10
3.018620531727277
 20
0.5998959036060825
 30
0.0
 42
-0.9999999999999998
  0
VERTEX
  5
191A8
330
1917D
100
AcDbEntity
  8
Clad
100
AcDbVertex
100
AcDb2dVertex
 10
2.958620531727275
 20
0.5998959036060825
 30
0.0
  0
VERTEX
  5
191A9
330
1917D
100
AcDbEntity
  8
Clad
100
AcDbVertex
100
AcDb2dVertex
 10
2.958620531727275
 20
0.6898814730146654
 30
0.0
  0
VERTEX
  5
191AA
330
1917D
100
AcDbEntity
  8
Clad
100
AcDbVertex
100
AcDb2dVertex
 10
2.778620531727268
 20
0.6898814730146939
 30
0.0
 42
0.4142135623727309
  0
VERTEX
  5
191AB
330
1917D
100
AcDbEntity
  8
Clad
100
AcDbVertex
100
AcDb2dVertex
 10
2.768620531727277
 20
0.679881473014703
 30
0.0
  0
VERTEX
  5
191AC
330
1917D
100
AcDbEntity
  8
Clad
100
AcDbVertex
100
AcDb2dVertex
 10
2.768620531727277
 20
0.5998959036060825
 30
0.0
 42
-1.0
  0
VERTEX
  5
191AD
330
1917D
100
AcDbEntity
  8
Clad
100
AcDbVertex
100
AcDb2dVertex
 10
2.708620531727275
 20
0.5998959036060825
 30
0.0
  0
VERTEX
  5
191AE
330
1917D
100
AcDbEntity
  8
Clad
100
AcDbVertex
100
AcDb2dVertex
 10
2.708620531727275
 20
0.679881473014703
 30
0.0
 42
0.4142135623732512
  0
VERTEX
  5
191AF
330
1917D
100
AcDbEntity
  8
Clad
100
AcDbVertex
100
AcDb2dVertex
 10
2.698620531727284
 20
0.6898814730146939
 30
0.0
  0
VERTEX
  5
191B0
330
1917D
100
AcDbEntity
  8
Clad
100
AcDbVertex
100
AcDb2dVertex
 10
2.589226410614982
 20
0.6898814730146939
 30
0.0
 42
0.0268552894937349
  0
VERTEX
  5
191B1
330
1917D
100
AcDbEntity
  8
Clad
100
AcDbVertex
100
AcDb2dVertex
 10
2.586010740059192
 20
0.6897086328338134
 30
0.0
  0
VERTEX
  5
191B2
330
1917D
100
AcDbEntity
  8
Clad
100
AcDbVertex
100
AcDb2dVertex
 10
2.50532080339782
 20
0.6810094387085571
 30
0.0
  0
VERTEX
  5
191B3
330
1917D
100
AcDbEntity
  8
Clad
100
AcDbVertex
100
AcDb2dVertex
 10
2.505320803397991
 20
0.065842745529082
 30
0.0
 42
0.414213562372965
  0
VERTEX
  5
191B4
330
1917D
100
AcDbEntity
  8
Clad
100
AcDbVertex
100
AcDb2dVertex
 10
2.52132080339801
 20
0.0498427455290909
 30
0.0
  0
VERTEX
  5
191B5
330
1917D
100
AcDbEntity
  8
Clad
100
AcDbVertex
100
AcDb2dVertex
 10
3.172612032692667
 20
0.0498427455290909
 30
0.0
  0
VERTEX
  5
191B6
330
1917D
100
AcDbEntity
  8
Clad
100
AcDbVertex
100
AcDb2dVertex
 10
3.17261203269278
 20
0.0048427455291034
 30
0.0
  0
VERTEX
  5
191B7
330
1917D
100
AcDbEntity
  8
Clad
100
AcDbVertex
100
AcDb2dVertex
 10
2.744708923762528
 20
0.0048427455291034
 30
0.0
  0
VERTEX
  5
191B8
330
1917D
100
AcDbEntity
  8
Clad
100
AcDbVertex
100
AcDb2dVertex
 10
2.744708923762528
 20
-0.005157254470916
 30
0.0
  0
VERTEX
  5
191B9
330
1917D
100
AcDbEntity
  8
Clad
100
AcDbVertex
100
AcDb2dVertex
 10
2.373320803397986
 20
-0.005157254470916
 30
0.0
 42
-0.4142135623730295
  0
VERTEX
  5
191BA
330
1917D
100
AcDbEntity
  8
Clad
100
AcDbVertex
100
AcDb2dVertex
 10
2.357320803398023
 20
0.0108427455291036
 30
0.0
  0
VERTEX
  5
191BB
330
1917D
100
AcDbEntity
  8
Clad
100
AcDbVertex
100
AcDb2dVertex
 10
2.357320803398023
 20
0.0338427455290997
 30
0.0
 42
-0.414213562373062
  0
VERTEX
  5
191BC
330
1917D
100
AcDbEntity
  8
Clad
100
AcDbVertex
100
AcDb2dVertex
 10
2.373320803397986
 20
0.0498427455291193
 30
0.0
  0
VERTEX
  5
191BD
330
1917D
100
AcDbEntity
  8
Clad
100
AcDbVertex
100
AcDb2dVertex
 10
2.434320803397964
 20
0.0498427455290909
 30
0.0
 42
0.4142135623730956
  0
VERTEX
  5
191BE
330
1917D
100
AcDbEntity
  8
Clad
100
AcDbVertex
100
AcDb2dVertex
 10
2.450320803397984
 20
0.0658427455291104
 30
0.0
  0
VERTEX
  5
191BF
330
1917D
100
AcDbEntity
  8
Clad
100
AcDbVertex
100
AcDb2dVertex
 10
2.45032080339787
 20
0.6750798804924188
 30
0.0
  0
VERTEX
  5
191C0
330
1917D
100
AcDbEntity
  8
Clad
100
AcDbVertex
100
AcDb2dVertex
 10
0.4993584359352905
 20
0.4647463362134801
 30
0.0
 42
0.3830967713866809
  0
VERTEX
  5
191C1
330
1917D
100
AcDbEntity
  8
Clad
100
AcDbVertex
100
AcDb2dVertex
 10
0.4859662712131705
 20
0.4498327563039056
 30
0.0
  0
VERTEX
  5
191C2
330
1917D
100
AcDbEntity
  8
Clad
100
AcDbVertex
100
AcDb2dVertex
 10
0.4859662712131705
 20
0.3206385409050512
 30
0.0
 42
0.4142135623732902
  0
VERTEX
  5
191C3
330
1917D
100
AcDbEntity
  8
Clad
100
AcDbVertex
100
AcDb2dVertex
 10
0.5019662712131901
 20
0.30463854090506
 30
0.0
  0
VERTEX
  5
191C4
330
1917D
100
AcDbEntity
  8
Clad
100
AcDbVertex
100
AcDb2dVertex
 10
0.6048476989759149
 20
0.30463854090506
 30
0.0
 42
-0.4142135623730951
  0
VERTEX
  5
191C5
330
1917D
100
AcDbEntity
  8
Clad
100
AcDbVertex
100
AcDb2dVertex
 10
0.6348476989759444
 20
0.2746385409050589
 30
0.0
  0
VERTEX
  5
191C6
330
1917D
100
AcDbEntity
  8
Clad
100
AcDbVertex
100
AcDb2dVertex
 10
0.6348476989758876
 20
0.069999999999979
 30
0.0
 42
0.4142135623732334
  0
VERTEX
  5
191C7
330
1917D
100
AcDbEntity
  8
Clad
100
AcDbVertex
100
AcDb2dVertex
 10
0.6498476989759308
 20
0.0549999999999642
 30
0.0
  0
VERTEX
  5
191C8
330
1917D
100
AcDbEntity
  8
Clad
100
AcDbVertex
100
AcDb2dVertex
 10
1.04926373870178
 20
0.0549999999999926
 30
0.0
 42
-0.4142135623731784
  0
VERTEX
  5
191C9
330
1917D
100
AcDbEntity
  8
Clad
100
AcDbVertex
100
AcDb2dVertex
 10
1.074263738701757
 20
0.0299999999999869
 30
0.0
  0
VERTEX
  5
191CA
330
1917D
100
AcDbEntity
  8
Clad
100
AcDbVertex
100
AcDb2dVertex
 10
1.074263738701814
 20
0.0249999999999915
 30
0.0
 42
-0.4142135623730951
  0
VERTEX
  5
191CB
330
1917D
100
AcDbEntity
  8
Clad
100
AcDbVertex
100
AcDb2dVertex
 10
1.04926373870178
 20
-0.0000000000000142
 30
0.0
  0
VERTEX
  5
191CC
330
1917D
100
AcDbEntity
  8
Clad
100
AcDbVertex
100
AcDb2dVertex
 10
0.5839614675132463
 20
-0.0000000000000142
 30
0.0
 42
-0.4142135623730951
  0
VERTEX
  5
191CD
330
1917D
100
AcDbEntity
  8
Clad
100
AcDbVertex
100
AcDb2dVertex
 10
0.5564614675132145
 20
0.0274999999999892
 30
0.0
 42
-0.2833168087671307
  0
VERTEX
  5
191CE
330
1917D
100
AcDbEntity
  8
Clad
100
AcDbVertex
100
AcDb2dVertex
 10
0.5715937349302874
 20
0.0520619459888252
 30
0.0
 42
0.28331680876701
  0
VERTEX
  5
191CF
330
1917D
100
AcDbEntity
  8
Clad
100
AcDbVertex
100
AcDb2dVertex
 10
0.5798476989758808
 20
0.0654593710737714
 30
0.0
  0
VERTEX
  5
191D0
330
1917D
100
AcDbEntity
  8
Clad
100
AcDbVertex
100
AcDb2dVertex
 10
0.5798476989759376
 20
0.2196385409050521
 30
0.0
 42
0.4142135623730948
  0
VERTEX
  5
191D1
330
1917D
100
AcDbEntity
  8
Clad
100
AcDbVertex
100
AcDb2dVertex
 10
0.5498476989759081
 20
0.2496385409050532
 30
0.0
  0
VERTEX
  5
191D2
330
1917D
100
AcDbEntity
  8
Clad
100
AcDbVertex
100
AcDb2dVertex
 10
0.3563475654618866
 20
0.2496385409050532
 30
0.0
  0
VERTEX
  5
191D3
330
1917D
100
AcDbEntity
  8
Clad
100
AcDbVertex
100
AcDb2dVertex
 10
0.3428474319477583
 20
0.2496385409050532
 30
0.0
 42
0.4142135623724013
  0
VERTEX
  5
191D4
330
1917D
100
AcDbEntity
  8
Clad
100
AcDbVertex
100
AcDb2dVertex
 10
0.3128474319477288
 20
0.2196385409051373
 30
0.0
  0
VERTEX
  5
191D5
330
1917D
100
AcDbEntity
  8
Clad
100
AcDbVertex
100
AcDb2dVertex
 10
0.3128474319474446
 20
0.068704219702525
 30
0.0
 42
0.3318478543107697
  0
VERTEX
  5
191D6
330
1917D
100
AcDbEntity
  8
Clad
100
AcDbVertex
100
AcDb2dVertex
 10
0.3235704509047661
 20
0.0543268961281882
 30
0.0
 42
-0.3318478543100989
  0
VERTEX
  5
191D7
330
1917D
100
AcDbEntity
  8
Clad
100
AcDbVertex
100
AcDb2dVertex
 10
0.3432293189930657
 20
0.0279684695751286
 30
0.0
 42
-0.4142135623729437
  0
VERTEX
  5
191D8
330
1917D
100
AcDbEntity
  8
Clad
100
AcDbVertex
100
AcDb2dVertex
 10
0.3157293189930908
 20
0.0004684695751251
 30
0.0
  0
VERTEX
  5
191D9
330
1917D
100
AcDbEntity
  8
Clad
100
AcDbVertex
100
AcDb2dVertex
 10
0.2853474319473559
 20
0.0004684695751251
 30
0.0
 42
-0.4142135623737766
  0
VERTEX
  5
191DA
330
1917D
100
AcDbEntity
  8
Clad
100
AcDbVertex
100
AcDb2dVertex
 10
0.2578474319473241
 20
0.027968469575157
 30
0.0
  0
VERTEX
  5
191DB
330
1917D
100
AcDbEntity
  8
Clad
100
AcDbVertex
100
AcDb2dVertex
 10
0.2578474319477788
 20
0.219638540905251
 30
0.0
 42
-0.4142135623724096
  0
VERTEX
  5
191DC
330
1917D
100
AcDbEntity
  8
Clad
100
AcDbVertex
100
AcDb2dVertex
 10
0.3428474319477583
 20
0.30463854090506
 30
0.0
  0
VERTEX
  5
191DD
330
1917D
100
AcDbEntity
  8
Clad
100
AcDbVertex
100
AcDb2dVertex
 10
0.4149662712131441
 20
0.30463854090506
 30
0.0
 42
0.414213562372965
  0
VERTEX
  5
191DE
330
1917D
100
AcDbEntity
  8
Clad
100
AcDbVertex
100
AcDb2dVertex
 10
0.4309662712131637
 20
0.3206385409050512
 30
0.0
  0
VERTEX
  5
191DF
330
1917D
100
AcDbEntity
  8
Clad
100
AcDbVertex
100
AcDb2dVertex
 10
0.4309662712131637
 20
0.440668893605718
 30
0.0
 42
0.4460304162194123
  0
VERTEX
  5
191E0
330
1917D
100
AcDbEntity
  8
Clad
100
AcDbVertex
100
AcDb2dVertex
 10
0.4143584359352542
 20
0.4555824735152925
 30
0.0
  0
VERTEX
  5
191E1
330
1917D
100
AcDbEntity
  8
Clad
100
AcDbVertex
100
AcDb2dVertex
 10
-0.8323594327895751
 20
0.3211736338481756
 30
0.0
 42
0.3830967713866657
  0
VERTEX
  5
191E2
330
1917D
100
AcDbEntity
  8
Clad
100
AcDbVertex
100
AcDb2dVertex
 10
-0.8591437622337583
 20
0.291346474029055
 30
0.0
  0
VERTEX
  5
191E3
330
1917D
100
AcDbEntity
  8
Clad
100
AcDbVertex
100
AcDb2dVertex
 10
-0.8591437622337583
 20
0.069999999999979
 30
0.0
 42
0.4142135623732334
  0
VERTEX
  5
191E4
330
1917D
100
AcDbEntity
  8
Clad
100
AcDbVertex
100
AcDb2dVertex
 10
-0.8441437622337719
 20
0.0549999999999642
 30
0.0
  0
VERTEX
  5
191E5
330
1917D
100
AcDbEntity
  8
Clad
100
AcDbVertex
100
AcDb2dVertex
 10
-0.781643762234511
 20
0.0549999999999642
 30
0.0
 42
-0.4142135623731712
  0
VERTEX
  5
191E6
330
1917D
100
AcDbEntity
  8
Clad
100
AcDbVertex
100
AcDb2dVertex
 10
-0.754143762234536
 20
0.0274999999999892
 30
0.0
 42
-0.4142135623728685
  0
VERTEX
  5
191E7
330
1917D
100
AcDbEntity
  8
Clad
100
AcDbVertex
100
AcDb2dVertex
 10
-0.781643762234511
 20
-0.0000000000000426
 30
0.0
  0
VERTEX
  5
191E8
330
1917D
100
AcDbEntity
  8
Clad
100
AcDbVertex
100
AcDb2dVertex
 10
-0.8841437622337355
 20
-0.0000000000000142
 30
0.0
 42
-0.4142135623730951
  0
VERTEX
  5
191E9
330
1917D
100
AcDbEntity
  8
Clad
100
AcDbVertex
100
AcDb2dVertex
 10
-0.9141437622337083
 20
0.0299999999999869
 30
0.0
  0
VERTEX
  5
191EA
330
1917D
100
AcDbEntity
  8
Clad
100
AcDbVertex
100
AcDb2dVertex
 10
-0.9141437622337651
 20
0.1720842423585367
 30
0.0
 42
0.4460304162158392
  0
VERTEX
  5
191EB
330
1917D
100
AcDbEntity
  8
Clad
100
AcDbVertex
100
AcDb2dVertex
 10
-0.9307515975114473
 20
0.1869978222681112
 30
0.0
  0
VERTEX
  5
191EC
330
1917D
100
AcDbEntity
  8
Clad
100
AcDbVertex
100
AcDb2dVertex
 10
-1.080201840545088
 20
0.1708855692430546
 30
0.0
 42
0.383096771390306
  0
VERTEX
  5
191ED
330
1917D
100
AcDbEntity
  8
Clad
100
AcDbVertex
100
AcDb2dVertex
 10
-1.093594005267378
 20
0.1559719893334517
 30
0.0
  0
VERTEX
  5
191EE
330
1917D
100
AcDbEntity
  8
Clad
100
AcDbVertex
100
AcDb2dVertex
 10
-1.093594005267378
 20
0.0649999999999835
 30
0.0
  0
VERTEX
  5
191EF
330
1917D
100
AcDbEntity
  8
Clad
100
AcDbVertex
100
AcDb2dVertex
 10
-1.108594005267422
 20
0.0649999999999835
 30
0.0
  0
VERTEX
  5
191F0
330
1917D
100
AcDbEntity
  8
Clad
100
AcDbVertex
100
AcDb2dVertex
 10
-1.148594005267385
 20
0.1049999999999471
 30
0.0
  0
VERTEX
  5
191F1
330
1917D
100
AcDbEntity
  8
Clad
100
AcDbVertex
100
AcDb2dVertex
 10
-1.148594005267385
 20
0.1918913723480529
 30
0.0
 42
-0.3830967713902295
  0
VERTEX
  5
191F2
330
1917D
100
AcDbEntity
  8
Clad
100
AcDbVertex
100
AcDb2dVertex
 10
-1.121809675822804
 20
0.2217185321672304
 30
0.0
  0
VERTEX
  5
191F3
330
1917D
100
AcDbEntity
  8
Clad
100
AcDbVertex
100
AcDb2dVertex
 10
-0.9441246519261756
 20
0.2408747811346217
 30
0.0
 42
0.6058422894127293
  0
VERTEX
  5
191F4
330
1917D
100
AcDbEntity
  8
Clad
100
AcDbVertex
100
AcDb2dVertex
 10
-0.9214575508968767
 20
0.2986307345044707
 30
0.0
 42
0.2454523169465992
  0
VERTEX
  5
191F5
330
1917D
100
AcDbEntity
  8
Clad
100
AcDbVertex
100
AcDb2dVertex
 10
-0.9473178357476275
 20
0.3087799512539817
 30
0.0
  0
VERTEX
  5
191F6
330
1917D
100
AcDbEntity
  8
Clad
100
AcDbVertex
100
AcDb2dVertex
 10
-1.14143111458951
 20
0.287852569667038
 30
0.0
 42
-0.4460304162156575
  0
SEQEND
  5
191F7
330
1917D
100
AcDbEntity
  8
Clad
  0
LWPOLYLINE
  5
191F8
330
13531
100
AcDbEntity
  8
Clad
100
AcDbPolyline
 90
       20
 70
     1
 43
0.0
 10
4.683749999999951
 20
1.64417568310688
 10
4.683749999999951
 20
5.997311917839599
 10
4.644092859999956
 20
5.997311917839599
 10
4.644092859999956
 20
1.654089968106873
 10
3.87518781144122
 20
1.654089968106887
 10
3.854954146427543
 20
2.488431981120839
 10
3.816250062499944
 20
2.487080404727613
 10
3.777545978572382
 20
2.488431981120839
 10
3.757312313558697
 20
1.654089968106887
 10
2.988407264999969
 20
1.654089968106873
 10
2.988407264999969
 20
5.997311917839596
 10
2.948750124999902
 20
5.997311917839596
 10
2.948750124999902
 20
1.64417568310688
 42
0.4142135623737599
 10
2.978492979999968
 20
1.614432828106885
 10
3.764759632308182
 20
1.614432828106885
 42
0.4040262258351921
 10
3.795722899450217
 20
1.644333707617313
 10
3.816006560192603
 20
2.477083369835803
 10
3.836777225549637
 20
1.644333707617313
 42
0.4040262258352255
 10
3.867740492691678
 20
1.614432828106885
 10
4.654007144999956
 20
1.614432828106885
 42
0.4142135623730601
1001
AcDbBlockRepETag
1070
     1
1071
      268
1005
191F8
  0
LWPOLYLINE
  5
191F9
330
13531
100
AcDbEntity
  8
0
100
AcDbPolyline
 90
        4
 70
     0
 43
0.0
 10
2.976250062499884
 20
1.56361227316281
 10
2.943173162954222
 20
1.654262559575421
 42
0.4545285631085552
 10
2.918365596360855
 20
1.615409185980382
 10
2.941250062499916
 20
1.563612273162782
1001
AcDbBlockRepETag
1070
     1
1071
      271
1005
191F9
  0
HATCH
  5
191FA
330
13531
100
AcDbEntity
  8
Hatch
 62
     2
100
AcDbHatch
 10
0.0
 20
0.0
 30
0.0
210
0.0
220
0.0
230
1.0
  2
NET
 70
     0
 71
     1
 91
        1
 92
        1
 93
       13
 72
     1
 10
4.644092859999956
 20
5.997311917839596
 11
3.821249999999928
 21
5.997311917839596
 72
     1
 10
3.821249999999928
 20
5.997311917839596
 11
3.758749999999928
 21
5.747311917839596
 72
     1
 10
3.758749999999928
 20
5.747311917839596
 11
3.633749999999928
 21
6.247311917839596
 72
     1
 10
3.633749999999928
 20
6.247311917839596
 11
3.571249999999928
 21
5.997311917839596
 72
     1
 10
3.571249999999928
 20
5.997311917839596
 11
2.988407264999969
 21
5.997311917839596
 72
     1
 10
2.988407264999969
 20
5.997311917839596
 11
2.988407264999969
 21
1.654089968106873
 72
     1
 10
2.988407264999969
 20
1.654089968106873
 11
3.757312313558697
 21
1.654089968106887
 72
     1
 10
3.757312313558697
 20
1.654089968106887
 11
3.777545978572382
 21
2.488431981120839
 72
     1
 10
3.777545978572382
 20
2.488431981120839
 11
3.816250062499948
 21
2.487080404727613
 72
     1
 10
3.816250062499948
 20
2.487080404727613
 11
3.854954146427543
 21
2.488431981120839
 72
     1
 10
3.854954146427543
 20
2.488431981120839
 11
3.87518781144122
 21
1.654089968106887
 72
     1
 10
3.87518781144122
 20
1.654089968106887
 11
4.644092859999956
 21
1.654089968106873
 72
     1
 10
4.644092859999956
 20
1.654089968106873
 11
4.644092859999956
 21
5.997311917839596
 97
        1
330
191FB
 75
     0
 76
     1
 52
0.0
 41
3.0
 77
     0
 78
     2
 53
0.0
 43
4.191863288017414
 44
-4.99003474146556
 45
0.0
 46
0.375
 79
     0
 53
90.0
 43
4.191863288017414
 44
-4.99003474146556
 45
-0.375
 46
0.0
 79
     0
 98
        1
 10
4.191863288017414
 20
-4.99003474146556
1001
ACAD
1010
0.0
1020
0.0
1030
0.0
1001
AcDbBlockRepETag
1070
     1
1071
      290
1005
191FA
  0
LWPOLYLINE
  5
191FB
102
{ACAD_REACTORS
330
191FA
102
}
330
13531
100
AcDbEntity
  8
Points
100
AcDbPolyline
 90
       13
 70
     1
 43
0.0
 10
4.644092859999956
 20
5.997311917839596
 10
3.821249999999928
 20
5.997311917839596
 10
3.758749999999928
 20
5.747311917839596
 10
3.633749999999928
 20
6.247311917839596
 10
3.571249999999928
 20
5.997311917839596
 10
2.988407264999969
 20
5.997311917839596
 10
2.988407264999969
 20
1.654089968106873
 10
3.757312313558697
 20
1.654089968106887
 10
3.777545978572382
 20
2.488431981120839
 10
3.816250062499948
 20
2.487080404727613
 10
3.854954146427543
 20
2.488431981120839
 10
3.87518781144122
 20
1.654089968106887
 10
4.644092859999956
 20
1.654089968106873
1001
AcDbBlockRepETag
1070
     1
1071
      289
1005
191FB
  0
LWPOLYLINE
  5
191FC
330
13531
100
AcDbEntity
  8
Clad
100
AcDbPolyline
 90
       14
 70
     1
 43
0.0
 10
4.211350634770061
 20
1.614432828106878
 10
4.211350634770061
 20
1.614432828106878
 10
3.421149490229792
 20
1.614432828106878
 10
3.28728460011799
 20
1.520716255221557
 10
3.062979360097378
 20
1.520716255221557
 10
3.062979360097378
 20
1.465619213622851
 10
3.28728460011799
 20
1.465619213622851
 10
3.428627628076183
 20
1.564571105865944
 10
4.20387249692367
 20
1.564571105865944
 10
4.203872496923677
 20
1.564571105865944
 10
4.345215524881863
 20
1.465619213622851
 10
4.569520764902476
 20
1.465619213622851
 10
4.569520764902476
 20
1.520716255221564
 10
4.345215524881863
 20
1.520716255221557
1001
AcDbBlockRepETag
1070
     1
1071
      261
1005
191FC
  0
LWPOLYLINE
  5
191FD
330
13531
100
AcDbEntity
  8
CS-Sealant
 62
     4
100
AcDbPolyline
 90
       16
 70
     1
 43
0.0
 10
4.656250062499919
 20
1.563612273162789
 10
4.573250062499935
 20
1.563612273162782
 10
4.573250062499914
 20
1.461921158094227
 10
4.103432131812295
 20
1.461921158094241
 10
4.10343213181231
 20
1.522334901325081
 42
1.0
 10
4.063432131812296
 20
1.522334901325081
 10
4.063432131812296
 20
1.461921158094241
 10
3.569067993187514
 20
1.461921158094234
 10
3.569067993187514
 20
1.522334901325081
 42
1.0
 10
3.529067993187501
 20
1.522334901325081
 10
3.529067993187501
 20
1.461921158094234
 10
3.059250062499918
 20
1.461921158094227
 10
3.059250062499918
 20
1.563612273162782
 10
2.976250062499884
 20
1.563612273162782
 10
2.976250062499913
 20
1.421921158094235
 10
4.656250062499919
 20
1.421921158094235
1001
AcDbBlockRepETag
1070
     1
1071
      262
1005
191FD
  0
LWPOLYLINE
  5
191FE
330
13531
100
AcDbEntity
  8
CS-Sealant
100
AcDbPolyline
 90
        6
 70
     1
 43
0.0
 10
3.885306751019774
 20
1.421921158094235
 10
3.747193373980065
 20
1.421921158094235
 42
-0.4086462562812116
 10
3.797184306152642
 20
1.372873366326111
 42
0.040168360348931
 10
3.839393006091908
 20
1.195918788838859
 42
1.0
 10
3.859773958472855
 20
1.195918788838817
 42
-0.0106508289181005
 10
3.835315818847197
 20
1.372873366326111
 42
-0.4086462562811913
1001
AcDbBlockRepETag
1070
     1
1071
      263
1005
191FE
  0
LWPOLYLINE
  5
191FF
330
13531
100
AcDbEntity
  8
CS-Sealant
100
AcDbPolyline
 90
       35
 70
     1
 43
0.0
 10
4.26777917378625
 20
1.421921158094235
 10
4.140250062499907
 20
1.421921158094235
 42
-0.4142135623730258
 10
4.170250062499908
 20
1.391921158094241
 42
0.0391961009387862
 10
4.191618714137431
 20
1.247021706150675
 42
0.3138719742649121
 10
4.232287802713029
 20
1.199157858644412
 42
0.019114678789019
 10
4.289783806727447
 20
1.185728312648386
 10
4.364542853201717
 20
1.185728312648386
 42
-0.1002014148175839
 10
4.4366160404423
 20
1.171645634787743
 42
0.0066773079899345
 10
4.457246436877325
 20
1.171921158094249
 42
0.0813527782737176
 10
4.65508620405402
 20
1.204369909133781
 42
0.3500832301005118
 10
4.690687123639227
 20
1.255584067291607
 10
4.678946205009905
 20
1.402864597787782
 10
4.802377727771526
 20
1.193313298398592
 42
0.9741693890849985
 10
4.819604541945961
 20
1.203460369365259
 10
4.691250062499923
 20
1.421921158094249
 10
4.691250062499923
 20
1.563612273162895
 10
4.714134528638942
 20
1.615409185980404
 42
0.4142771714724593
 10
4.694112529195235
 20
1.652813992332994
 10
4.689326962045248
 20
1.654262559575492
 10
4.656250062499919
 20
1.563612273162824
 10
4.656250062499919
 20
1.421921158094235
 10
4.556213934747601
 20
1.421921158094235
 10
4.556213934747601
 20
1.386921158094253
 10
4.630883520484216
 20
1.386921158094253
 42
-0.3949998603693156
 10
4.645850820430892
 20
1.372911073396636
 10
4.65572224339189
 20
1.253771277468025
 42
-0.359441731577663
 10
4.645083147888042
 20
1.237910017472017
 42
-0.0818174941078249
 10
4.457246436877666
 20
1.206921158094253
 42
-0.0069923855138162
 10
4.436620928199529
 20
1.206632700974395
 42
0.1587666006098033
 10
4.322331294244134
 20
1.215541756279037
 42
-0.0277269664212611
 10
4.242408846627872
 20
1.232662551898833
 42
-0.2771037283620084
 10
4.226618714137414
 20
1.247021706150718
 42
-0.0454456827459203
 10
4.205250062499912
 20
1.371921158094231
 42
-0.4142135623737194
 10
4.220250062499927
 20
1.386921158094253
 10
4.26777917378625
 20
1.386921158094246
1001
AcDbBlockRepETag
1070
     1
1071
      264
1005
191FF
  0
LWPOLYLINE
  5
19200
330
13531
100
AcDbEntity
  8
CS-Sealant
100
AcDbPolyline
 90
        4
 70
     1
 43
0.0
 10
4.573250062499928
 20
1.563612273162789
 10
4.371730757191725
 20
1.590939479500661
 42
0.9896252650799477
 10
4.366356009130255
 20
1.551304418306784
 10
4.573250062499921
 20
1.52324836443212
1001
AcDbBlockRepETag
1070
     1
1071
      265
1005
19200
  0
LWPOLYLINE
  5
19201
330
13531
100
AcDbEntity
  8
CS-Sealant
100
AcDbPolyline
 90
        4
 70
     1
 43
0.0
 10
3.059250062499932
 20
1.563612273162789
 10
3.260769367808135
 20
1.590939479500661
 42
-0.9896252650799477
 10
3.266144115869606
 20
1.551304418306784
 10
3.059250062499939
 20
1.52324836443212
1001
AcDbBlockRepETag
1070
     1
1071
      266
1005
19201
  0
LWPOLYLINE
  5
19202
330
13531
100
AcDbEntity
  8
CS-Sealant
100
AcDbPolyline
 90
       42
 70
     1
 43
0.0
 10
3.364720951213604
 20
1.386921158094246
 10
3.412250062499927
 20
1.386921158094246
 42
-0.4142135623730951
 10
3.42725006249992
 20
1.371921158094245
 42
0.0991205061632423
 10
3.455687711762484
 20
1.344937504820165
 42
-0.23029165269209
 10
3.47009771276731
 20
1.287428155278391
 42
-0.3693811827550662
 10
3.463693169376993
 20
1.279205997928364
 42
0.0289113833384793
 10
3.447455675043853
 20
1.280504947428902
 10
3.347042853201697
 20
1.280504947428902
 42
0.3020980753913707
 10
3.257136247679538
 20
1.220728312648382
 10
3.113164562988982
 20
1.220728312648382
 42
0.0280019083308238
 10
3.095883825802522
 20
1.218469057890004
 42
-0.1449152110876821
 10
3.041262798784549
 20
1.238357912741157
 42
-0.2242805583906763
 10
3.014549113010906
 20
1.26532081669864
 42
-0.1541289000555541
 10
2.986649304568954
 20
1.372911073396629
 42
-0.3949998603693874
 10
3.001616604515644
 20
1.386921158094253
 10
3.076286190252259
 20
1.386921158094253
 10
3.076286190252259
 20
1.421921158094249
 10
2.976250062499927
 20
1.421921158094249
 10
2.976250062499898
 20
1.563612273162767
 10
2.943173162954222
 20
1.654262559575421
 10
2.943173162954222
 20
1.654262559575421
 42
0.4545285631087379
 10
2.918365596360855
 20
1.615409185980382
 10
2.941250062499916
 20
1.563612273162782
 10
2.94125006249993
 20
1.421921158094257
 10
2.812895583053871
 20
1.203460369365259
 42
0.974169389102334
 10
2.830122397228633
 20
1.193313298399104
 10
2.953553919989962
 20
1.402864597787782
 42
0.1040856164577306
 10
2.976736701236232
 20
1.253274264919369
 42
0.1405157198270813
 10
3.02426971678585
 20
1.207492137198855
 42
0.1453667100247896
 10
3.098675129546391
 20
1.183320579706624
 42
-0.0332744390464501
 10
3.114542853201703
 20
1.185728312648386
 10
3.270808441058248
 20
1.185728312648386
 42
0.3453095826851964
 10
3.286346665189396
 20
1.197912085342501
 42
-0.345309582685267
 10
3.347042853201697
 20
1.245504947428898
 10
3.447042853201706
 20
1.245504947428905
 42
-0.0309467692009168
 10
3.45475735258543
 20
1.24502701204512
 42
-0.0174580901000916
 10
3.462089899858098
 20
1.244044032968545
 42
0.3884575609788547
 10
3.504936934916321
 20
1.283248462494505
 42
0.2734658513150654
 10
3.473588290620723
 20
1.373938132119548
 42
-0.3264510275282181
 10
3.46225006249991
 20
1.39192115809427
 42
-0.4142135623729217
 10
3.492250062499911
 20
1.421921158094249
 10
3.364720951213604
 20
1.421921158094249
1001
AcDbBlockRepETag
1070
     1
1071
      267
1005
19202
  0
POLYLINE
  5
19203
330
13531
100
AcDbEntity
  8
CS-Sealant
100
AcDb2dPolyline
 66
     1
 10
0.0
 20
0.0
 30
0.0
 70
     1
1001
AcDbBlockRepETag
1070
     1
1071
      335
1005
19203
  0
VERTEX
  5
19204
330
19203
100
AcDbEntity
  8
CS-Sealant
100
AcDbVertex
100
AcDb2dVertex
 10
3.083542853201704
 20
1.11580965624023
 30
0.0
 42
0.8295724434012374
  0
VERTEX
  5
19205
330
19203
100
AcDbEntity
  8
CS-Sealant
100
AcDbVertex
100
AcDb2dVertex
 10
3.071044944276961
 20
1.119961368607917
 30
0.0
  0
VERTEX
  5
19206
330
19203
100
AcDbEntity
  8
CS-Sealant
100
AcDbVertex
100
AcDb2dVertex
 10
3.030915857092237
 20
1.042721927854088
 30
0.0
 42
-1.0
  0
VERTEX
  5
19207
330
19203
100
AcDbEntity
  8
CS-Sealant
100
AcDbVertex
100
AcDb2dVertex
 10
3.057149427498215
 20
1.028168585153807
 30
0.0
 42
0.0931515760493975
  0
SEQEND
  5
19208
330
19203
100
AcDbEntity
  8
CS-Sealant
  0
HATCH
  5
19209
330
13531
100
AcDbEntity
  8
Hatch
 62
     2
100
AcDbHatch
 10
0.0
 20
0.0
 30
0.0
210
0.0
220
0.0
230
1.0
  2
WOOD
 70
     0
 71
     1
 91
        1
 92
        1
 93
       46
 72
     2
 10
4.594847431948222
 20
1.006178504740567
 40
0.125
 50
0.0
 51
90.0
 73
     1
 72
     1
 10
4.594847431948222
 20
1.131178504740567
 11
4.468847431948189
 21
1.13117850474056
 72
     1
 10
4.468847431948189
 20
1.13117850474056
 11
4.468847431948217
 21
1.114999999999966
 72
     2
 10
4.453847431948224
 20
1.114999999999966
 40
0.0149999999999935
 50
360.0
 51
450.0000000000814
 73
     0
 72
     2
 10
4.453847431948211
 20
1.114999999999966
 40
0.0149999999999953
 50
90.00000000003389
 51
180.0
 73
     0
 72
     1
 10
4.438847431948216
 20
1.114999999999966
 11
4.438847431948216
 21
1.131178504740567
 72
     1
 10
4.438847431948216
 20
1.131178504740567
 11
4.42858101141452
 21
1.131178504740567
 72
     2
 10
4.428581011414527
 20
1.101178504740587
 40
0.0299999999999798
 50
90.00000000001357
 51
180.0
 73
     1
 72
     1
 10
4.398581011414547
 20
1.101178504740587
 11
4.398581011414547
 21
0.7800387274855823
 72
     2
 10
4.368581011414518
 20
0.7800387274855823
 40
0.0300000000000296
 50
360.0
 51
450.0
 73
     0
 72
     1
 10
4.368581011414518
 20
0.7500387274855527
 11
3.32100282456396
 21
0.7500387274855669
 72
     2
 10
3.299619169575716
 20
0.7838431547006941
 40
0.0399999999999889
 50
57.68379630332855
 51
89.9999999999771
 73
     0
 72
     1
 10
3.299619169575732
 20
0.7438431547007056
 11
3.106494055125052
 21
0.7438431547006559
 72
     2
 10
3.124751909461245
 20
0.7200387274855942
 40
0.0299999999999816
 50
127.4879919427919
 51
180.0
 73
     1
 72
     1
 10
3.094751909461264
 20
0.7200387274855942
 11
3.094751909461264
 21
0.5851855677503011
 72
     2
 10
3.079751909461272
 20
0.5851855677503047
 40
0.0149999999999917
 50
0.0000000000135873
 51
89.05659175745809
 73
     0
 72
     2
 10
3.072885993513615
 20
0.5833939183969222
 40
0.0149999999999938
 50
61.69320891557013
 51
89.99999999987108
 73
     0
 72
     2
 10
3.072885993513645
 20
0.5833939183969115
 40
0.0149999999999845
 50
89.99999999998646
 51
118.2904079325296
 73
     0
 72
     1
 10
3.065776881530025
 20
0.5701855677503005
 11
2.984688224896627
 21
0.5701855677502934
 72
     2
 10
2.984688224896638
 20
0.6001855677502768
 40
0.0299999999999834
 50
90.00000000002035
 51
179.9999999999389
 73
     0
 72
     1
 10
2.954688224896655
 20
0.6001855677502448
 11
2.954688224896598
 21
0.6570387274855705
 72
     2
 10
2.924688224896614
 20
0.6570387274855385
 40
0.0299999999999834
 50
0.0000000000610666
 51
89.99999999997966
 73
     1
 72
     1
 10
2.924688224896625
 20
0.6870387274855219
 11
2.833485509177036
 21
0.6870387274855361
 72
     2
 10
2.833485509177027
 20
0.6270387274855409
 40
0.0599999999999934
 50
89.99999999999152
 51
180.0
 73
     1
 72
     1
 10
2.773485509177033
 20
0.6270387274855409
 11
2.773485509177033
 21
0.1781365201616225
 72
     2
 10
2.803485509177034
 20
0.1781365201616225
 40
0.0300000000000011
 50
180.0
 51
238.3367232684085
 73
     1
 72
     2
 10
3.158411909069018
 20
0.7536360609940509
 40
0.7061453030515129
 50
238.3367232684118
 51
259.0316110292719
 73
     1
 72
     1
 10
3.024055487831857
 20
0.0603904038896914
 11
3.169135914562174
 21
0.0603904038896914
 72
     2
 10
3.169135914562179
 20
0.030390403889669
 40
0.0300000000000242
 50
269.9999999999898
 51
360.0
 73
     0
 72
     1
 10
3.199135914562203
 20
0.030390403889669
 11
3.199135914562203
 21
0.029999999999994
 72
     2
 10
3.229135914562233
 20
0.029999999999994
 40
0.0300000000000296
 50
180.0
 51
270.0
 73
     1
 72
     1
 10
3.229135914562233
 20
-0.0000000000000355
 11
3.484413164184458
 21
-0.0000000000000213
 72
     2
 10
3.484413164184465
 20
0.0300000000000011
 40
0.0300000000000225
 50
269.9999999999864
 51
360.0
 73
     1
 72
     1
 10
3.514413164184487
 20
0.0300000000000011
 11
3.514413164184487
 21
0.0599999999999952
 72
     2
 10
3.54441316418446
 20
0.0599999999999952
 40
0.0299999999999727
 50
180.0
 51
270.0
 73
     0
 72
     1
 10
3.54441316418446
 20
0.0899999999999679
 11
3.957882702940834
 21
0.0899999999999821
 72
     2
 10
3.957882702940842
 20
0.0599999999999597
 40
0.0300000000000207
 50
269.999999999983
 51
360.0
 73
     0
 72
     1
 10
3.987882702940863
 20
0.0599999999999597
 11
3.987882702940863
 21
0.0299999999999656
 72
     2
 10
4.017882702940836
 20
0.0299999999999656
 40
0.0299999999999727
 50
180.0
 51
270.0
 73
     1
 72
     1
 10
4.017882702940836
 20
-0.0000000000000071
 11
4.329683834432456
 21
-0.0000000000000213
 72
     2
 10
4.329683834432454
 20
0.0149999999999793
 40
0.0150000000000021
 50
270.0000000000068
 51
347.7316120356634
 73
     1
 72
     2
 10
4.398662872614623
 20
-0.0000000000000071
 40
0.0555911305231504
 50
192.268387964313
 51
347.7316120356568
 73
     0
 72
     2
 10
4.467641910796823
 20
0.0150000000000183
 40
0.0150000000000409
 50
192.2683879643461
 51
269.9999999999593
 73
     1
 72
     1
 10
4.467641910796812
 20
-0.0000000000000213
 11
4.689847431948249
 21
-0.0000000000000213
 72
     2
 10
4.689847431948242
 20
0.0299999999999585
 40
0.0299999999999798
 50
270.0000000000135
 51
360.0
 73
     1
 72
     1
 10
4.719847431948222
 20
0.0299999999999585
 11
4.719847431948222
 21
1.006178504740567
 97
        1
330
1920C
 75
     0
 76
     1
 52
45.0
 41
0.12
 77
     0
 78
    12
 53
135.0
 43
1.301373331670431
 44
-4.69863303710742
 45
0.0000000000000001
 46
0.6788225099390856
 79
     2
 49
0.48
 49
-4.32
 53
135.0
 43
0.3679923805041891
 44
-3.595546458456404
 45
0.0000000000000001
 46
0.6788225099390856
 79
     2
 49
0.48
 49
-1.919999999999999
 53
108.43494882
 43
0.9619620767008871
 44
-5.038044292076961
 45
-0.0000000379127128
 46
0.6788224788223373
 79
     2
 49
1.073312639999999
 49
-9.659813639999999
 53
149.03624347
 43
2.489312724063831
 44
-6.225983684470364
 45
-0.0000000206043966
 46
0.6788225921567158
 79
     2
 49
0.49477272
 49
-3.463408679999999
 53
149.03624347
 43
1.725637400382359
 44
-5.632013988273662
 45
-0.0000000206043966
 46
0.6788225921567158
 79
     2
 49
0.49477272
 49
-3.463408679999999
 53
149.03624347
 43
3.422693675230073
 44
-5.971425243243206
 45
-0.0000000206043966
 46
0.6788225921567158
 79
     2
 49
0.49477272
 49
-3.463408679999999
 53
120.96375653
 43
0.6225508217313465
 44
-4.019810527168335
 45
0.0000000206043968
 46
0.6788225921567156
 79
     2
 49
0.49477272
 49
-19.29613428
 53
120.96375653
 43
-2.771561727964081
 44
2.089592062283436
 45
0.0000000206043968
 46
0.6788225921567156
 79
     2
 49
0.49477272
 49
-19.29613428
 53
120.96375653
 43
-6.165674277659509
 44
7.52017214179612
 45
0.0000000206043968
 46
0.6788225921567156
 79
     2
 49
0.49477272
 49
-19.29613428
 53
161.56505118
 43
-0.3956829431772828
 44
-3.001576762259706
 45
0.0000000379127129
 46
0.6788224788223373
 79
     2
 49
0.53665632
 49
-10.19646996
 53
161.56505118
 43
6.392542156213572
 44
-5.038044292076964
 45
0.0000000379127129
 46
0.6788224788223373
 79
     2
 49
0.53665632
 49
-10.19646996
 53
161.56505118
 43
2.998429606518145
 44
-3.680399272198791
 45
0.0000000379127129
 46
0.6788224788223373
 79
     2
 49
0.53665632
 49
-10.19646996
 98
        1
 10
0.7922564492161169
 20
-4.528927409622649
1001
ACAD
1010
0.0
1020
0.0
1030
0.0
1001
AcDbBlockRepETag
1070
     1
1071
      347
1005
19209
  0
HATCH
  5
1920A
330
13531
100
AcDbEntity
  8
Hatch
 62
     2
100
AcDbHatch
 10
0.0
 20
0.0
 30
0.0
210
0.0
220
0.0
230
1.0
  2
WOOD
 70
     0
 71
     1
 91
        1
 92
        1
 93
       26
 72
     2
 10
3.523277265345155
 20
1.201728312648384
 40
0.0159999999999987
 50
90.0
 51
166.2011357812689
 73
     0
 72
     2
 10
3.447042853201702
 20
1.183004947428905
 40
0.0624999999999999
 50
13.79886421872139
 51
89.99999999999674
 73
     1
 72
     1
 10
3.447042853201706
 20
1.245504947428905
 11
3.347042853201697
 21
1.245504947428898
 72
     2
 10
3.347042853201694
 20
1.183004947428905
 40
0.0624999999999941
 50
89.99999999999674
 51
166.201135781277
 73
     1
 72
     2
 10
3.270808441058246
 20
1.201728312648388
 40
0.0160000000000016
 50
13.7988642187419
 51
89.99999999999364
 73
     0
 72
     1
 10
3.270808441058248
 20
1.185728312648386
 11
3.114542853201703
 21
1.185728312648386
 72
     1
 10
3.114542853201703
 20
1.185728312648386
 11
3.083542853201704
 21
1.154728312648373
 72
     1
 10
3.083542853201704
 20
1.154728312648373
 11
3.083542853201697
 21
0.820989466713307
 72
     1
 10
3.083542853201697
 20
0.820989466713307
 11
3.114542853201703
 21
0.7899894667132941
 72
     1
 10
3.114542853201703
 20
0.7899894667132941
 11
3.255542853201687
 21
0.7899894667133296
 72
     1
 10
3.255542853201687
 20
0.7899894667133296
 11
3.2865428532017
 21
0.8209894667133283
 72
     1
 10
3.2865428532017
 20
0.8209894667133283
 11
3.286542853201693
 21
0.9717537188504792
 72
     2
 10
3.302542853201693
 20
0.9717537188504792
 40
0.016
 50
180.0
 51
270.0000000000445
 73
     0
 72
     1
 10
3.302542853201705
 20
0.9877537188504774
 11
3.388322618967526
 21
0.9877537188504774
 72
     2
 10
3.388322618967512
 20
0.971753718850465
 40
0.0160000000000125
 50
270.0000000000509
 51
360.0000000000254
 73
     0
 72
     1
 10
3.404322618967524
 20
0.9717537188504579
 11
3.404322618967496
 21
0.8289894667133381
 72
     1
 10
3.404322618967496
 20
0.8289894667133381
 11
3.435322618967495
 21
0.7979894667133323
 72
     1
 10
3.435322618967495
 20
0.7979894667133323
 11
4.192542853201684
 21
0.7979894667133252
 72
     1
 10
4.192542853201684
 20
0.7979894667133252
 11
4.223542853201697
 21
0.7556337088010566
 72
     1
 10
4.223542853201697
 20
0.7556337088010566
 11
4.364542853201688
 21
0.7556337088010281
 72
     1
 10
4.364542853201688
 20
0.7556337088010281
 11
4.395542853201694
 21
0.7866337088010411
 72
     1
 10
4.395542853201694
 20
0.7866337088010411
 11
4.395542853201702
 21
0.8763384009168007
 72
     1
 10
4.395542853201702
 20
0.8763384009168007
 11
4.395542853201709
 21
1.010741087385518
 72
     1
 10
4.395542853201709
 20
1.010741087385518
 11
4.395542853201716
 21
1.154728312648373
 72
     1
 10
4.395542853201716
 20
1.154728312648373
 11
4.364542853201717
 21
1.185728312648386
 72
     1
 10
4.364542853201717
 20
1.185728312648386
 11
3.523277265345155
 21
1.185728312648386
 97
        1
330
1920B
 75
     0
 76
     1
 52
135.0
 41
0.12
 77
     0
 78
    12
 53
225.0
 43
1.579806778336818
 44
-4.480917859011245
 45
-0.6788225099390856
 46
0.0000000000000001
 79
     2
 49
0.48
 49
-4.32
 53
225.0
 43
0.476720199685806
 44
-5.414298810177488
 45
-0.6788225099390856
 46
0.0000000000000001
 79
     2
 49
0.48
 49
-1.919999999999999
 53
198.43494882
 43
1.919218033306362
 44
-4.82032911398079
 45
-0.6788224788223373
 46
-0.0000000379127128
 79
     2
 49
1.073312639999999
 49
-9.659813639999999
 53
239.03624347
 43
3.107157425699762
 44
-3.292978466617846
 45
-0.6788225921567158
 46
-0.0000000206043966
 79
     2
 49
0.49477272
 49
-3.463408679999999
 53
239.03624347
 43
2.513187729503064
 44
-4.056653790299318
 45
-0.6788225921567158
 46
-0.0000000206043966
 79
     2
 49
0.49477272
 49
-3.463408679999999
 53
239.03624347
 43
2.852598984472605
 44
-2.359597515451604
 45
-0.6788225921567158
 46
-0.0000000206043966
 79
     2
 49
0.49477272
 49
-3.463408679999999
 53
210.96375653
 43
0.9009842683977336
 44
-5.15974036895033
 45
-0.6788225921567156
 46
0.0000000206043968
 79
     2
 49
0.49477272
 49
-19.29613428
 53
210.96375653
 43
-5.208418321054035
 44
-8.553852918645759
 45
-0.6788225921567156
 46
0.0000000206043968
 79
     2
 49
0.49477272
 49
-19.29613428
 53
210.96375653
 43
-10.63899840056672
 44
-11.94796546834119
 45
-0.6788225921567156
 46
0.0000000206043968
 79
     2
 49
0.49477272
 49
-19.29613428
 53
251.56505118
 43
-0.1172494965108921
 44
-6.17797413385896
 45
-0.6788224788223373
 46
0.0000000379127129
 79
     2
 49
0.53665632
 49
-10.19646996
 53
251.56505118
 43
1.919218033306362
 44
0.6102509655318969
 45
-0.6788224788223373
 46
0.0000000379127129
 79
     2
 49
0.53665632
 49
-10.19646996
 53
251.56505118
 43
0.5615730134281929
 44
-2.783861584163531
 45
-0.6788224788223373
 46
0.0000000379127129
 79
     2
 49
0.53665632
 49
-10.19646996
 98
        1
 10
1.410101150852048
 20
-4.99003474146556
1001
ACAD
1010
0.0
1020
0.0
1030
0.0
1001
AcDbBlockRepETag
1070
     1
1071
      348
1005
1920A
  0
LWPOLYLINE
  5
1920B
102
{ACAD_REACTORS
330
1920A
102
}
330
13531
100
AcDbEntity
  8
CS-Cross Section
 62
     3
100
AcDbPolyline
 90
       27
 70
     1
 43
0.0
 10
3.523277265345155
 20
1.185728312648386
 42
-0.3453095826852194
 10
3.507739041214007
 20
1.197912085342501
 42
0.3453095826852511
 10
3.447042853201706
 20
1.245504947428905
 10
3.347042853201697
 20
1.245504947428898
 42
0.345309582685267
 10
3.286346665189396
 20
1.197912085342501
 42
-0.3453095826851572
 10
3.270808441058248
 20
1.185728312648386
 10
3.114542853201703
 20
1.185728312648386
 10
3.083542853201704
 20
1.154728312648373
 10
3.083542853201697
 20
0.820989466713307
 10
3.114542853201703
 20
0.7899894667132941
 10
3.255542853201687
 20
0.7899894667133296
 10
3.2865428532017
 20
0.8209894667133283
 10
3.286542853201693
 20
0.9717537188504792
 42
-0.4142135623732902
 10
3.302542853201705
 20
0.9877537188504774
 10
3.388322618967526
 20
0.9877537188504774
 42
-0.414213562372965
 10
3.404322618967524
 20
0.9717537188504579
 10
3.404322618967496
 20
0.8289894667133381
 10
3.435322618967495
 20
0.7979894667133323
 10
4.192542853201684
 20
0.7979894667133252
 10
4.223542853201697
 20
0.7556337088010566
 10
4.364542853201688
 20
0.7556337088010281
 10
4.395542853201694
 20
0.7866337088010411
 10
4.395542853201702
 20
0.8763384009168007
 10
4.395542853201709
 20
1.010741087385518
 10
4.395542853201716
 20
1.154728312648373
 10
4.364542853201717
 20
1.185728312648386
 10
3.523277265345155
 20
1.185728312648386
1001
AcDbBlockRepETag
1070
     1
1071
      351
1005
1920B
  0
LWPOLYLINE
  5
1920C
102
{ACAD_REACTORS
330
19209
102
}
330
13531
100
AcDbEntity
  8
CS-Cross Section
 62
     3
100
AcDbPolyline
 90
       47
 70
     1
 43
0.0
 10
4.719847431948222
 20
1.006178504740567
 42
0.4142135623730951
 10
4.594847431948222
 20
1.131178504740567
 10
4.468847431948189
 20
1.13117850474056
 10
4.468847431948217
 20
1.114999999999966
 42
-0.4142135623735113
 10
4.453847431948203
 20
1.099999999999972
 42
-0.414213562372887
 10
4.438847431948216
 20
1.114999999999966
 10
4.438847431948216
 20
1.131178504740567
 10
4.42858101141452
 20
1.131178504740567
 42
0.4142135623730257
 10
4.398581011414547
 20
1.101178504740587
 10
4.398581011414547
 20
0.7800387274855823
 42
-0.4142135623730951
 10
4.368581011414518
 20
0.7500387274855527
 10
3.32100282456396
 20
0.7500387274855669
 42
-0.1419480588001132
 10
3.299619169575732
 20
0.7438431547007056
 10
3.106494055125052
 20
0.7438431547006559
 42
0.2332225414391097
 10
3.094751909461264
 20
0.7200387274855942
 10
3.094751909461264
 20
0.5851855677503011
 42
-0.4093990874478088
 10
3.079998882001588
 20
0.5701876010693141
 42
-0.1241435949537619
 10
3.072885993513649
 20
0.5683939183969287
 42
-0.1240710089124811
 10
3.065776881530025
 20
0.5701855677503005
 10
2.984688224896627
 20
0.5701855677502934
 42
-0.4142135623726789
 10
2.954688224896655
 20
0.6001855677502448
 10
2.954688224896598
 20
0.6570387274855705
 42
0.4142135623726789
 10
2.924688224896625
 20
0.6870387274855219
 10
2.833485509177036
 20
0.6870387274855361
 42
0.4142135623731471
 10
2.773485509177033
 20
0.6270387274855409
 10
2.773485509177033
 20
0.1781365201616225
 42
0.2601856804911446
 10
2.787737722497594
 20
0.1526020882176979
 42
0.0905447112873779
 10
3.024055487831857
 20
0.0603904038896914
 10
3.169135914562174
 20
0.0603904038896914
 42
-0.4142135623731298
 10
3.199135914562203
 20
0.030390403889669
 10
3.199135914562203
 20
0.029999999999994
 42
0.4142135623730951
 10
3.229135914562233
 20
-0.0000000000000355
 10
3.484413164184458
 20
-0.0000000000000213
 42
0.4142135623731645
 10
3.514413164184487
 20
0.0300000000000011
 10
3.514413164184487
 20
0.0599999999999952
 42
-0.4142135623730951
 10
3.54441316418446
 20
0.0899999999999679
 10
3.957882702940834
 20
0.0899999999999821
 42
-0.4142135623731991
 10
3.987882702940863
 20
0.0599999999999597
 10
3.987882702940863
 20
0.0299999999999656
 42
0.4142135623730951
 10
4.017882702940836
 20
-0.0000000000000071
 10
4.329683834432456
 20
-0.0000000000000213
 42
0.3528012035134846
 10
4.344341278860168
 20
0.011812630732301
 42
-0.8059133903308872
 10
4.452984466369072
 20
0.0118126307323294
 42
0.352801203513296
 10
4.467641910796812
 20
-0.0000000000000213
 10
4.689847431948249
 20
-0.0000000000000213
 42
0.4142135623730259
 10
4.719847431948222
 20
0.0299999999999585
 10
4.719847431948222
 20
1.006178504740567
1001
AcDbBlockRepETag
1070
     1
1071
      352
1005
1920C
  0
LWPOLYLINE
  5
1920D
330
13531
100
AcDbEntity
  8
CS-Sealant
 62
     4
100
AcDbPolyline
 90
       63
 70
     1
 43
0.0
 10
3.346485095648082
 20
0.9642787161316022
 42
0.4142135623733032
 10
3.331485095648092
 20
0.9792787161316027
 42
0.4246561154859591
 10
3.316488173605977
 20
0.9637521766062775
 42
-0.2750640401819717
 10
3.311564040909578
 20
0.9547867774939007
 10
3.288006461420385
 20
0.9408971813862194
 42
0.099218837929632
 10
3.286542863326429
 20
0.9395859863896376
 10
3.286542863326429
 20
0.9335941837316426
 42
0.3332008891791465
 10
3.292298906958441
 20
0.931907448411696
 10
3.30297914983341
 20
0.93590566091612
 42
-0.5234747446420279
 10
3.31648509564811
 20
0.9265403876182141
 10
3.31648509564811
 20
0.9129423491752817
 42
-0.2655016159078372
 10
3.311564040909578
 20
0.9043281565241372
 10
3.288006461420385
 20
0.8904385604164559
 42
0.099218837928918
 10
3.286542863326429
 20
0.8891273654198954
 10
3.286542863326429
 20
0.8831355627618755
 42
0.3332008891791532
 10
3.292298906958441
 20
0.8814488274419325
 10
3.30297914983341
 20
0.8854470399463743
 42
-0.5234747446419127
 10
3.31648509564811
 20
0.8760817666484577
 10
3.31648509564811
 20
0.8624837282055359
 42
-0.2655016159079533
 10
3.311564040909578
 20
0.8538695355543879
 10
3.288006461420385
 20
0.8399799394467066
 42
0.0992188379290243
 10
3.286542863326429
 20
0.8386687444501426
 10
3.286542863326429
 20
0.8326769417921262
 42
0.3332008891790882
 10
3.292298906958441
 20
0.8309902064721832
 10
3.30297914983341
 20
0.8349884189766072
 42
-0.5234747446420677
 10
3.31648509564811
 20
0.8256231456787013
 10
3.31648509564811
 20
0.7940387600808379
 42
-0.4142135623731991
 10
3.306485095648119
 20
0.7840387600808363
 10
2.966478630223681
 20
0.7840387600808221
 42
-0.3765585338788676
 10
2.943430811208505
 20
0.8231816355332242
 10
3.057149427498208
 20
1.0281685851538
 42
1.0
 10
3.030915857092244
 20
1.042721927854096
 10
2.889471537466215
 20
0.7877571686326519
 10
2.832214791156863
 20
0.7619813867687242
 42
0.8389790134436893
 10
2.835707619850913
 20
0.7493010968491838
 10
2.870765903907008
 20
0.7540387600807641
 10
3.054751919586029
 20
0.7540387600807641
 42
-0.4142135623733033
 10
3.06475191958602
 20
0.744038760080759
 10
3.06475191958602
 20
0.7018156083816969
 42
-0.4817884963732269
 10
3.052519940903286
 20
0.6920678767912279
 10
3.029147519795108
 20
0.7094061562168648
 42
0.1650964914509174
 10
3.025344946966635
 20
0.7114031165162445
 42
-0.0637700457537223
 10
3.02050717959794
 20
0.7103003789084177
 42
0.1035970245083395
 10
3.018620541852007
 20
0.7083145072406296
 10
3.018620541852007
 20
0.7012924478869138
 42
0.0129091862508308
 10
3.018809324881255
 20
0.7010037610231166
 10
3.059493637494389
 20
0.661404156235772
 42
-0.2758898452123079
 10
3.06475191958602
 20
0.6525998327934027
 10
3.06475191958602
 20
0.6399288412348092
 42
-0.4142135623730951
 10
3.054751919586022
 20
0.6299288412348112
 10
3.029530308174591
 20
0.6512450055214601
 42
0.5191486582726874
 10
3.018620541852007
 20
0.6505918567567904
 10
3.018620541852007
 20
0.6435695382621063
 42
0.0314555912741029
 10
3.019105923629163
 20
0.6428841409824422
 10
3.060333237286121
 20
0.5959692801694132
 42
-0.2071057922302216
 10
3.065255679461094
 20
0.5897347835470371
 42
0.3399842623097644
 10
3.079751919586003
 20
0.5785895237770405
 42
0.4142135623727483
 10
3.094751919585993
 20
0.5935895237770481
 10
3.094751919585993
 20
0.7192715446639291
 10
3.094751919585993
 20
0.744038760080759
 42
-0.4142135623733032
 10
3.104751919585984
 20
0.7540387600807641
 10
3.306485095648119
 20
0.754038760080821
 42
0.4142135623730691
 10
3.346485095648082
 20
0.7940387600808379
1001
AcDbBlockRepETag
1070
     1
1071
      353
1005
1920D
  0
CIRCLE
  5
1920E
330
13531
100
AcDbEntity
  8
CS-Weatherstrip
100
AcDbCircle
 10
0.4321590371072884
 20
0.1820902624192904
 30
0.0
 40
0.012673051252186
1001
AcDbBlockRepETag
1070
     1
1071
      354
1005
1920E
  0
CIRCLE
  5
1920F
330
13531
100
AcDbEntity
  8
CS-Weatherstrip
100
AcDbCircle
 10
0.3637244320699207
 20
0.0896511935059756
 30
0.0
 40
0.012673051252186
1001
AcDbBlockRepETag
1070
     1
1071
      355
1005
1920F
  0
LWPOLYLINE
  5
19210
330
13531
100
AcDbEntity
  8
CS-Weatherstrip
100
AcDbPolyline
 90
        2
 70
     1
 43
0.0
 10
0.3766866864544696
 20
-0.0000000000000142
 10
0.5111525468409948
 20
-0.0000000000000142
 42
3.701080865982808
1001
AcDbBlockRepETag
1070
     1
1071
      356
1005
19210
  0
CIRCLE
  5
19211
330
13531
100
AcDbEntity
  8
CS-Weatherstrip
100
AcDbCircle
 10
0.4440615959713253
 20
0.0926527347925337
 30
0.0
 40
0.0078669483201059
1001
AcDbBlockRepETag
1070
     1
1071
      357
1005
19211
  0
CIRCLE
  5
19212
330
13531
100
AcDbEntity
  8
CS-Weatherstrip
100
AcDbCircle
 10
0.5073725039037936
 20
0.1914356494718135
 30
0.0
 40
0.0078669483201059
1001
AcDbBlockRepETag
1070
     1
1071
      358
1005
19212
  0
CIRCLE
  5
19213
330
13531
100
AcDbEntity
  8
CS-Weatherstrip
100
AcDbCircle
 10
0.4335462071157945
 20
0.0263367527631715
 30
0.0
 40
0.012673051252186
1001
AcDbBlockRepETag
1070
     1
1071
      359
1005
19213
  0
LINE
  5
19214
330
13531
100
AcDbEntity
  8
0
100
AcDbLine
 10
4.683749999999951
 20
6.997311917839596
 30
0.0
 11
4.683749999999951
 21
2.503961321902668
 31
0.0
  0
ENDBLK
  5
13614
330
13531
100
AcDbEntity
  8
0
100
AcDbBlockEnd
  0
BLOCK
  5
13EAA
330
13EA7
100
AcDbEntity
  8
0
100
AcDbBlockBegin
  2
sill support
 70
     0
 10
0.0
 20
0.0
 30
0.0
  3
sill support
  1

  0
HATCH
  5
13EAB
330
13EA7
100
AcDbEntity
  8
0
 62
     9
100
AcDbHatch
 10
0.0
 20
0.0
 30
0.0
210
0.0
220
0.0
230
1.0
  2
STEEL
 70
     0
 71
     1
 91
        1
 92
        1
 93
       22
 72
     1
 10
1.124999991847207
 20
-1.9375
 11
1.124999991847209
 21
-0.375
 72
     2
 10
0.9999999918472077
 20
-0.375
 40
0.1250000000000009
 50
0.0000000000004071
 51
90.0000000000004
 73
     1
 72
     1
 10
0.9999999918472077
 20
-0.25
 11
0.1874999918472096
 21
-0.25
 72
     2
 10
0.1874999918472096
 20
-0.1875
 40
0.0625000000000009
 50
89.9999999999992
 51
179.9999999999992
 73
     0
 72
     1
 10
0.1249999918472078
 20
-0.1875
 11
0.1249999918472096
 21
-0.0200000000000031
 72
     2
 10
0.1449999918472065
 20
-0.0199999999999996
 40
0.0199999999999969
 50
179.9999999999923
 51
269.9999999999924
 73
     0
 72
     1
 10
0.1449999918472038
 20
-0.0000000000000036
 11
0.2929999918472159
 21
0.0
 72
     2
 10
0.2929999918472141
 20
-0.0199999999999996
 40
0.0199999999999987
 50
270.0000000000025
 51
360.0000000000026
 73
     0
 72
     1
 10
0.3129999918472137
 20
-0.0199999999999996
 11
0.3129999918472119
 21
-0.0419999999999981
 72
     2
 10
0.3329999918472097
 20
-0.0420000000000034
 40
0.0199999999999978
 50
179.9999999999847
 51
269.9999999999898
 73
     1
 72
     1
 10
0.3329999918472062
 20
-0.0620000000000012
 11
0.4169999918472112
 21
-0.0620000000000012
 72
     2
 10
0.4169999918472094
 20
-0.0420000000000016
 40
0.0199999999999987
 50
270.0000000000025
 51
360.0000000000076
 73
     1
 72
     1
 10
0.436999991847209
 20
-0.0419999999999998
 11
0.4369999918472143
 21
-0.0199999999999996
 72
     2
 10
0.4569999918472157
 20
-0.0199999999999996
 40
0.0200000000000005
 50
180.0000000000025
 51
270.0000000000025
 73
     0
 72
     1
 10
0.4569999918472157
 20
0.0
 11
1.22411164419889
 21
0.0
 72
     2
 10
1.22411164419889
 20
-0.0624999999999982
 40
0.0624999999999981
 50
270.0000000000002
 51
315.0000000000002
 73
     0
 72
     1
 10
1.268305818023048
 20
-0.0183058261758404
 11
1.356694165671369
 21
-0.1066941738241596
 72
     2
 10
1.312499991847211
 20
-0.150888347648312
 40
0.0624999999999955
 50
315.0000000000034
 51
360.000000000004
 73
     0
 72
     1
 10
1.374999991847206
 20
-0.1508883476483174
 11
1.374999991847209
 21
-1.98
 72
     2
 10
1.354999991847211
 20
-1.98
 40
0.0199999999999987
 50
359.9999999999974
 51
449.9999999999974
 73
     0
 72
     1
 10
1.354999991847211
 20
-2.0
 11
1.187499991847209
 21
-2.0
 72
     2
 10
1.187499991847207
 20
-1.9375
 40
0.0625000000000009
 50
89.9999999999992
 51
179.9999999999992
 73
     0
 97
        1
330
13EAC
 75
     0
 76
     1
 52
0.0
 41
2.5
 77
     0
 78
     2
 53
45.0
 43
-0.0000000081527904
 44
-4.375
 45
-0.2209708691207961
 46
0.2209708691207961
 79
     0
 53
45.0
 43
-0.0000000081527904
 44
-4.21875
 45
-0.2209708691207961
 46
0.2209708691207961
 79
     0
 98
        1
 10
-0.0000000081527904
 20
-4.375
  0
POLYLINE
  5
13EAC
102
{ACAD_REACTORS
330
13EAB
102
}
330
13EA7
100
AcDbEntity
  8
0
  6
Continuous
 62
     9
100
AcDb2dPolyline
 66
     1
 10
0.0
 20
0.0
 30
0.0
  0
VERTEX
  5
13EAD
330
13EAC
100
AcDbEntity
  8
0
  6
Continuous
 62
     9
100
AcDbVertex
100
AcDb2dVertex
 10
1.124999991847207
 20
-1.9375
 30
0.0
  0
VERTEX
  5
13EAE
330
13EAC
100
AcDbEntity
  8
0
  6
Continuous
 62
     9
100
AcDbVertex
100
AcDb2dVertex
 10
1.124999991847209
 20
-0.375
 30
0.0
 42
0.4142135623730951
  0
VERTEX
  5
13EAF
330
13EAC
100
AcDbEntity
  8
0
  6
Continuous
 62
     9
100
AcDbVertex
100
AcDb2dVertex
 10
0.9999999918472077
 20
-0.25
 30
0.0
  0
VERTEX
  5
13EB0
330
13EAC
100
AcDbEntity
  8
0
  6
Continuous
 62
     9
100
AcDbVertex
100
AcDb2dVertex
 10
0.1874999918472096
 20
-0.25
 30
0.0
 42
-0.4142135623730951
  0
VERTEX
  5
13EB1
330
13EAC
100
AcDbEntity
  8
0
  6
Continuous
 62
     9
100
AcDbVertex
100
AcDb2dVertex
 10
0.1249999918472078
 20
-0.1875
 30
0.0
  0
VERTEX
  5
13EB2
330
13EAC
100
AcDbEntity
  8
0
  6
Continuous
 62
     9
100
AcDbVertex
100
AcDb2dVertex
 10
0.1249999918472096
 20
-0.0200000000000031
 30
0.0
 42
-0.4142135623730951
  0
VERTEX
  5
13EB3
330
13EAC
100
AcDbEntity
  8
0
  6
Continuous
 62
     9
100
AcDbVertex
100
AcDb2dVertex
 10
0.1449999918472038
 20
-0.0000000000000036
 30
0.0
  0
VERTEX
  5
13EB4
330
13EAC
100
AcDbEntity
  8
0
  6
Continuous
 62
     9
100
AcDbVertex
100
AcDb2dVertex
 10
0.2929999918472159
 20
0.0
 30
0.0
 42
-0.4142135623730951
  0
VERTEX
  5
13EB5
330
13EAC
100
AcDbEntity
  8
0
  6
Continuous
 62
     9
100
AcDbVertex
100
AcDb2dVertex
 10
0.3129999918472137
 20
-0.0199999999999996
 30
0.0
  0
VERTEX
  5
13EB6
330
13EAC
100
AcDbEntity
  8
0
  6
Continuous
 62
     9
100
AcDbVertex
100
AcDb2dVertex
 10
0.3129999918472119
 20
-0.0419999999999981
 30
0.0
 42
0.4142135623731211
  0
VERTEX
  5
13EB7
330
13EAC
100
AcDbEntity
  8
0
  6
Continuous
 62
     9
100
AcDbVertex
100
AcDb2dVertex
 10
0.3329999918472062
 20
-0.0620000000000012
 30
0.0
  0
VERTEX
  5
13EB8
330
13EAC
100
AcDbEntity
  8
0
  6
Continuous
 62
     9
100
AcDbVertex
100
AcDb2dVertex
 10
0.4169999918472112
 20
-0.0620000000000012
 30
0.0
 42
0.4142135623731211
  0
VERTEX
  5
13EB9
330
13EAC
100
AcDbEntity
  8
0
  6
Continuous
 62
     9
100
AcDbVertex
100
AcDb2dVertex
 10
0.436999991847209
 20
-0.0419999999999998
 30
0.0
  0
VERTEX
  5
13EBA
330
13EAC
100
AcDbEntity
  8
0
  6
Continuous
 62
     9
100
AcDbVertex
100
AcDb2dVertex
 10
0.4369999918472143
 20
-0.0199999999999996
 30
0.0
 42
-0.4142135623730951
  0
VERTEX
  5
13EBB
330
13EAC
100
AcDbEntity
  8
0
  6
Continuous
 62
     9
100
AcDbVertex
100
AcDb2dVertex
 10
0.4569999918472157
 20
0.0
 30
0.0
  0
VERTEX
  5
13EBC
330
13EAC
100
AcDbEntity
  8
0
  6
Continuous
 62
     9
100
AcDbVertex
100
AcDb2dVertex
 10
1.22411164419889
 20
0.0
 30
0.0
 42
-0.198912367379658
  0
VERTEX
  5
13EBD
330
13EAC
100
AcDbEntity
  8
0
  6
Continuous
 62
     9
100
AcDbVertex
100
AcDb2dVertex
 10
1.268305818023048
 20
-0.0183058261758404
 30
0.0
  0
VERTEX
  5
13EBE
330
13EAC
100
AcDbEntity
  8
0
  6
Continuous
 62
     9
100
AcDbVertex
100
AcDb2dVertex
 10
1.356694165671369
 20
-0.1066941738241596
 30
0.0
 42
-0.198912367379661
  0
VERTEX
  5
13EBF
330
13EAC
100
AcDbEntity
  8
0
  6
Continuous
 62
     9
100
AcDbVertex
100
AcDb2dVertex
 10
1.374999991847206
 20
-0.1508883476483174
 30
0.0
  0
VERTEX
  5
13EC0
330
13EAC
100
AcDbEntity
  8
0
  6
Continuous
 62
     9
100
AcDbVertex
100
AcDb2dVertex
 10
1.374999991847209
 20
-1.98
 30
0.0
 42
-0.4142135623730951
  0
VERTEX
  5
13EC1
330
13EAC
100
AcDbEntity
  8
0
  6
Continuous
 62
     9
100
AcDbVertex
100
AcDb2dVertex
 10
1.354999991847211
 20
-2.0
 30
0.0
  0
VERTEX
  5
13EC2
330
13EAC
100
AcDbEntity
  8
0
  6
Continuous
 62
     9
100
AcDbVertex
100
AcDb2dVertex
 10
1.187499991847209
 20
-2.0
 30
0.0
 42
-0.4142135623730951
  0
VERTEX
  5
13EC3
330
13EAC
100
AcDbEntity
  8
0
  6
Continuous
 62
     9
100
AcDbVertex
100
AcDb2dVertex
 10
1.124999991847207
 20
-1.9375
 30
0.0
  0
SEQEND
  5
13EC4
330
13EAC
100
AcDbEntity
  8
0
  6
Continuous
 62
     9
  0
ENDBLK
  5
13EC5
330
13EA7
100
AcDbEntity
  8
0
100
AcDbBlockEnd
  0
BLOCK
  5
168A5
330
16826
100
AcDbEntity
  8
0
100
AcDbBlockBegin
  2
Lag screw.5x4
 70
     0
 10
0.0
 20
0.0
 30
0.0
  3
Lag screw.5x4
  1

  0
ARC
  5
16827
330
16826
100
AcDbEntity
  8
0
 62
     9
100
AcDbCircle
 10
0.2874999999999995
 20
-0.0300000000000011
 30
0.0
 40
0.03
100
AcDbArc
 50
90.0
 51
180.0
  0
ARC
  5
16828
330
16826
100
AcDbEntity
  8
0
 62
     9
100
AcDbCircle
 10
-0.2875000000000003
 20
-0.0300000000000029
 30
0.0
 40
0.03
100
AcDbArc
 50
0.0
 51
90.0
  0
LINE
  5
16829
330
16826
100
AcDbEntity
  8
0
 62
     9
100
AcDbLine
 10
0.4330000000000016
 20
0.3125
 30
0.0
 11
0.3835795026911315
 21
0.34375
 31
0.0
  0
ARC
  5
1682A
330
16826
100
AcDbEntity
  8
0
 62
     9
100
AcDbCircle
 10
-0.0000000000000027
 20
-0.421874999999945
 30
0.0
 40
0.7656249999999454
100
AcDbArc
 50
73.57357859652292
 51
106.4264214034771
  0
ARC
  5
1682B
330
16826
100
AcDbEntity
  8
0
 62
     9
100
AcDbCircle
 10
0.324753175473055
 20
0.140646999677319
 30
0.0
 40
0.2031030003226809
100
AcDbArc
 50
57.79398097792397
 51
122.206019022076
  0
ARC
  5
1682C
330
16826
100
AcDbEntity
  8
0
 62
     9
100
AcDbCircle
 10
-0.3247531754730533
 20
0.140646999677319
 30
0.0
 40
0.2031030003226809
100
AcDbArc
 50
57.79398097792397
 51
122.206019022076
  0
LINE
  5
1682D
330
16826
100
AcDbEntity
  8
0
 62
     9
100
AcDbLine
 10
-0.4329999999999999
 20
0.3125
 30
0.0
 11
-0.3835795026911297
 21
0.34375
 31
0.0
  0
LINE
  5
1682E
330
16826
100
AcDbEntity
  8
0
 62
     9
100
AcDbLine
 10
-0.2165063509461067
 20
0.3125
 30
0.0
 11
-0.2165063509461067
 21
0.0
 31
0.0
  0
LINE
  5
1682F
330
16826
100
AcDbEntity
  8
0
 62
     9
100
AcDbLine
 10
0.2165063509461067
 20
0.3125
 30
0.0
 11
0.2165063509461067
 21
0.0
 31
0.0
  0
LINE
  5
16830
330
16826
100
AcDbEntity
  8
0
 62
     9
100
AcDbLine
 10
0.4329999999999999
 20
0.3125
 30
0.0
 11
0.4329999999999999
 21
0.0
 31
0.0
  0
LINE
  5
16831
330
16826
100
AcDbEntity
  8
0
 62
     9
100
AcDbLine
 10
-0.4329999999999999
 20
0.3125
 30
0.0
 11
-0.4329999999999999
 21
0.0
 31
0.0
  0
LINE
  5
16832
330
16826
100
AcDbEntity
  8
0
 62
     9
100
AcDbLine
 10
0.3835795026911315
 20
0.34375
 30
0.0
 11
-0.3835795026911297
 21
0.34375
 31
0.0
  0
LINE
  5
16833
330
16826
100
AcDbEntity
  8
0
 62
     9
100
AcDbLine
 10
0.4329999999999999
 20
0.0
 30
0.0
 11
-0.4329999999999999
 21
0.0
 31
0.0
  0
LINE
  5
16834
330
16826
100
AcDbEntity
  8
0
 62
     9
100
AcDbLine
 10
0.0946102740300665
 20
-3.836130198461912
 30
0.0
 11
0.0000000000000009
 21
-4.0
 31
0.0
  0
LINE
  5
16835
330
16826
100
AcDbEntity
  8
0
 62
     9
100
AcDbLine
 10
-0.0731588745411802
 20
-3.873285112270119
 30
0.0
 11
0.0
 21
-4.0
 31
0.0
  0
LINE
  5
16836
330
16826
100
AcDbEntity
  8
0
 62
     9
100
AcDbLine
 10
-0.1345422182544924
 20
-3.766966042220199
 30
0.0
 11
-0.0832730130383439
 21
-3.855766910518244
 31
0.0
  0
LINE
  5
16837
330
16826
100
AcDbEntity
  8
0
 62
     9
100
AcDbLine
 10
0.1643506948183004
 20
-3.715336246315459
 30
0.0
 11
0.1022967279675999
 21
-3.822816869712066
 31
0.0
  0
LINE
  5
16838
330
16826
100
AcDbEntity
  8
0
  6
Continuous
 62
     9
100
AcDbLine
 10
-0.1492101747912669
 20
-3.863045779042053
 30
0.0
 11
-0.0731588745411802
 21
-3.873285112270119
 31
0.0
  0
LINE
  5
16839
330
16826
100
AcDbEntity
  8
0
  6
Continuous
 62
     9
100
AcDbLine
 10
0.1518587769273791
 20
-3.82981047958569
 30
0.0
 11
-0.149210174791266
 21
-3.863045779042053
 31
0.0
  0
LINE
  5
1683A
330
16826
100
AcDbEntity
  8
0
  6
Continuous
 62
     9
100
AcDbLine
 10
0.1022967279675999
 20
-3.822816869712066
 30
0.0
 11
0.1518587769273774
 21
-3.82981047958569
 31
0.0
  0
LINE
  5
1683B
330
16826
100
AcDbEntity
  8
0
  6
Continuous
 62
     9
100
AcDbLine
 10
0.1974999999982492
 20
-3.600340136041696
 30
0.0
 11
0.1975000000003284
 21
-3.657919965504579
 31
0.0
  0
LINE
  5
1683C
330
16826
100
AcDbEntity
  8
0
  6
Continuous
 62
     9
100
AcDbLine
 10
-0.2105935185045782
 20
-3.756726708992133
 30
0.0
 11
-0.1345422182544924
 21
-3.766966042220199
 31
0.0
  0
LINE
  5
1683D
330
16826
100
AcDbEntity
  8
0
  6
Continuous
 62
     9
100
AcDbLine
 10
0.2285913182656261
 20
-3.708244660333751
 30
0.0
 11
-0.2105935185045764
 21
-3.756726708992133
 31
0.0
  0
LINE
  5
1683E
330
16826
100
AcDbEntity
  8
0
  6
Continuous
 62
     9
100
AcDbLine
 10
0.172975943830175
 20
-3.70039687679896
 30
0.0
 11
0.2285913182656261
 21
-3.708244660333751
 31
0.0
  0
LINE
  5
1683F
330
16826
100
AcDbEntity
  8
0
  6
Continuous
 62
     9
100
AcDbLine
 10
0.1961242514480395
 20
-3.487396768190501
 30
0.0
 11
0.1961242514515407
 21
-3.58433554369269
 31
0.0
  0
LINE
  5
16840
330
16826
100
AcDbEntity
  8
0
  6
Continuous
 62
     9
100
AcDbLine
 10
-0.25887574855021
 20
-3.648961394042261
 30
0.0
 11
-0.1979351491956942
 21
-3.657166264989333
 31
0.0
  0
LINE
  5
16841
330
16826
100
AcDbEntity
  8
0
  6
Continuous
 62
     9
100
AcDbLine
 10
0.2533727543493711
 20
-3.592413774991024
 30
0.0
 11
-0.25887574855021
 21
-3.648961394042261
 31
0.0
  0
LINE
  5
16842
330
16826
100
AcDbEntity
  8
0
  6
Continuous
 62
     9
100
AcDbLine
 10
0.1961242514515407
 20
-3.58433554369269
 30
0.0
 11
0.2533727543493711
 21
-3.592413774991024
 31
0.0
  0
LINE
  5
16843
330
16826
100
AcDbEntity
  8
0
  6
Continuous
 62
     9
100
AcDbLine
 10
-0.1988757485502104
 20
-3.543944387238118
 30
0.0
 11
-0.1988757485502104
 21
-3.642337934678556
 31
0.0
  0
LINE
  5
16844
330
16826
100
AcDbEntity
  8
0
  6
Continuous
 62
     9
100
AcDbLine
 10
0.1974999999982492
 20
-3.374149659852074
 30
0.0
 11
0.1975000000017504
 21
-3.471088435354262
 31
0.0
  0
LINE
  5
16845
330
16826
100
AcDbEntity
  8
0
  6
Continuous
 62
     9
100
AcDbLine
 10
-0.2575000000000003
 20
-3.535714285703834
 30
0.0
 11
-0.1988757485502104
 21
-3.543607290082015
 31
0.0
  0
LINE
  5
16846
330
16826
100
AcDbEntity
  8
0
  6
Continuous
 62
     9
100
AcDbLine
 10
0.2547485028995808
 20
-3.479166666652597
 30
0.0
 11
-0.2575000000000003
 21
-3.535714285703834
 31
0.0
  0
LINE
  5
16847
330
16826
100
AcDbEntity
  8
0
  6
Continuous
 62
     9
100
AcDbLine
 10
0.1975000000017504
 20
-3.471088435354262
 30
0.0
 11
0.2547485028995808
 21
-3.479166666652597
 31
0.0
  0
LINE
  5
16848
330
16826
100
AcDbEntity
  8
0
  6
Continuous
 62
     9
100
AcDbLine
 10
-0.1975000000000007
 20
-3.430697278899691
 30
0.0
 11
-0.1975000000000007
 21
-3.529090826340128
 31
0.0
  0
LINE
  5
16849
330
16826
100
AcDbEntity
  8
0
  6
Continuous
 62
     9
100
AcDbLine
 10
0.1974999999982492
 20
-3.261054421757263
 30
0.0
 11
0.1975000000017504
 21
-3.357993197259451
 31
0.0
  0
LINE
  5
1684A
330
16826
100
AcDbEntity
  8
0
  6
Continuous
 62
     9
100
AcDbLine
 10
-0.2575000000000003
 20
-3.422619047609023
 30
0.0
 11
-0.1975000000000007
 21
-3.430697278903737
 31
0.0
  0
LINE
  5
1684B
330
16826
100
AcDbEntity
  8
0
  6
Continuous
 62
     9
100
AcDbLine
 10
0.2547485028995808
 20
-3.366071428557786
 30
0.0
 11
-0.2575000000000003
 21
-3.422619047609023
 31
0.0
  0
LINE
  5
1684C
330
16826
100
AcDbEntity
  8
0
  6
Continuous
 62
     9
100
AcDbLine
 10
0.1975000000017504
 20
-3.357993197259451
 30
0.0
 11
0.2547485028995808
 21
-3.366071428557786
 31
0.0
  0
LINE
  5
1684D
330
16826
100
AcDbEntity
  8
0
  6
Continuous
 62
     9
100
AcDbLine
 10
-0.1975000000000007
 20
-3.31760204080488
 30
0.0
 11
-0.1975000000000007
 21
-3.415995588245317
 31
0.0
  0
LINE
  5
1684E
330
16826
100
AcDbEntity
  8
0
  6
Continuous
 62
     9
100
AcDbLine
 10
0.1974999999982492
 20
-3.147959183662452
 30
0.0
 11
0.1975000000017504
 21
-3.24489795916464
 31
0.0
  0
LINE
  5
1684F
330
16826
100
AcDbEntity
  8
0
  6
Continuous
 62
     9
100
AcDbLine
 10
-0.2575000000000003
 20
-3.309523809514212
 30
0.0
 11
-0.1975000000000007
 21
-3.317602040808926
 31
0.0
  0
LINE
  5
16850
330
16826
100
AcDbEntity
  8
0
  6
Continuous
 62
     9
100
AcDbLine
 10
0.2547485028995808
 20
-3.252976190462975
 30
0.0
 11
-0.2575000000000003
 21
-3.309523809514212
 31
0.0
  0
LINE
  5
16851
330
16826
100
AcDbEntity
  8
0
  6
Continuous
 62
     9
100
AcDbLine
 10
0.1975000000017504
 20
-3.24489795916464
 30
0.0
 11
0.2547485028995808
 21
-3.252976190462975
 31
0.0
  0
LINE
  5
16852
330
16826
100
AcDbEntity
  8
0
  6
Continuous
 62
     9
100
AcDbLine
 10
-0.1975000000000007
 20
-3.204506802710069
 30
0.0
 11
-0.1975000000000007
 21
-3.302900350150506
 31
0.0
  0
LINE
  5
16853
330
16826
100
AcDbEntity
  8
0
  6
Continuous
 62
     9
100
AcDbLine
 10
0.1974999999982492
 20
-3.034863945567641
 30
0.0
 11
0.1975000000017504
 21
-3.13180272106983
 31
0.0
  0
LINE
  5
16854
330
16826
100
AcDbEntity
  8
0
  6
Continuous
 62
     9
100
AcDbLine
 10
-0.2575000000000003
 20
-3.196428571419401
 30
0.0
 11
-0.1975000000000007
 21
-3.204506802714115
 31
0.0
  0
LINE
  5
16855
330
16826
100
AcDbEntity
  8
0
  6
Continuous
 62
     9
100
AcDbLine
 10
0.2547485028995808
 20
-3.139880952368164
 30
0.0
 11
-0.2575000000000003
 21
-3.196428571419401
 31
0.0
  0
LINE
  5
16856
330
16826
100
AcDbEntity
  8
0
  6
Continuous
 62
     9
100
AcDbLine
 10
0.1975000000017504
 20
-3.13180272106983
 30
0.0
 11
0.2547485028995808
 21
-3.139880952368164
 31
0.0
  0
LINE
  5
16857
330
16826
100
AcDbEntity
  8
0
  6
Continuous
 62
     9
100
AcDbLine
 10
-0.1975000000000007
 20
-3.091411564615258
 30
0.0
 11
-0.1975000000000007
 21
-3.189805112055696
 31
0.0
  0
LINE
  5
16858
330
16826
100
AcDbEntity
  8
0
  6
Continuous
 62
     9
100
AcDbLine
 10
0.1974999999982492
 20
-2.92176870747283
 30
0.0
 11
0.1975000000017504
 21
-3.018707482975019
 31
0.0
  0
LINE
  5
16859
330
16826
100
AcDbEntity
  8
0
  6
Continuous
 62
     9
100
AcDbLine
 10
-0.2575000000000003
 20
-3.08333333332459
 30
0.0
 11
-0.1975000000000007
 21
-3.091411564619304
 31
0.0
  0
LINE
  5
1685A
330
16826
100
AcDbEntity
  8
0
  6
Continuous
 62
     9
100
AcDbLine
 10
0.2547485028995808
 20
-3.026785714273353
 30
0.0
 11
-0.2575000000000003
 21
-3.08333333332459
 31
0.0
  0
LINE
  5
1685B
330
16826
100
AcDbEntity
  8
0
  6
Continuous
 62
     9
100
AcDbLine
 10
0.1975000000017504
 20
-3.018707482975019
 30
0.0
 11
0.2547485028995808
 21
-3.026785714273353
 31
0.0
  0
LINE
  5
1685C
330
16826
100
AcDbEntity
  8
0
  6
Continuous
 62
     9
100
AcDbLine
 10
-0.1975000000000007
 20
-2.978316326520447
 30
0.0
 11
-0.1975000000000007
 21
-3.076709873960885
 31
0.0
  0
LINE
  5
1685D
330
16826
100
AcDbEntity
  8
0
  6
Continuous
 62
     9
100
AcDbLine
 10
0.1974999999982492
 20
-2.808673469378019
 30
0.0
 11
0.1975000000017504
 21
-2.905612244880208
 31
0.0
  0
LINE
  5
1685E
330
16826
100
AcDbEntity
  8
0
  6
Continuous
 62
     9
100
AcDbLine
 10
-0.2575000000000003
 20
-2.970238095229779
 30
0.0
 11
-0.1975000000000007
 21
-2.978316326524494
 31
0.0
  0
LINE
  5
1685F
330
16826
100
AcDbEntity
  8
0
  6
Continuous
 62
     9
100
AcDbLine
 10
0.2547485028995808
 20
-2.913690476178542
 30
0.0
 11
-0.2575000000000003
 21
-2.970238095229779
 31
0.0
  0
LINE
  5
16860
330
16826
100
AcDbEntity
  8
0
  6
Continuous
 62
     9
100
AcDbLine
 10
0.1975000000017504
 20
-2.905612244880208
 30
0.0
 11
0.2547485028995808
 21
-2.913690476178542
 31
0.0
  0
LINE
  5
16861
330
16826
100
AcDbEntity
  8
0
  6
Continuous
 62
     9
100
AcDbLine
 10
-0.1975000000000007
 20
-2.865221088425636
 30
0.0
 11
-0.1975000000000007
 21
-2.963614635866074
 31
0.0
  0
LINE
  5
16862
330
16826
100
AcDbEntity
  8
0
  6
Continuous
 62
     9
100
AcDbLine
 10
0.1974999999982492
 20
-2.695578231283208
 30
0.0
 11
0.1975000000017504
 21
-2.792517006785397
 31
0.0
  0
LINE
  5
16863
330
16826
100
AcDbEntity
  8
0
  6
Continuous
 62
     9
100
AcDbLine
 10
-0.2575000000000003
 20
-2.857142857134968
 30
0.0
 11
-0.1975000000000007
 21
-2.865221088429683
 31
0.0
  0
LINE
  5
16864
330
16826
100
AcDbEntity
  8
0
  6
Continuous
 62
     9
100
AcDbLine
 10
0.2547485028995808
 20
-2.800595238083731
 30
0.0
 11
-0.2575000000000003
 21
-2.857142857134968
 31
0.0
  0
LINE
  5
16865
330
16826
100
AcDbEntity
  8
0
  6
Continuous
 62
     9
100
AcDbLine
 10
0.1975000000017504
 20
-2.792517006785397
 30
0.0
 11
0.2547485028995808
 21
-2.800595238083731
 31
0.0
  0
LINE
  5
16866
330
16826
100
AcDbEntity
  8
0
  6
Continuous
 62
     9
100
AcDbLine
 10
-0.1975000000000007
 20
-2.752125850330825
 30
0.0
 11
-0.1975000000000007
 21
-2.850519397771263
 31
0.0
  0
LINE
  5
16867
330
16826
100
AcDbEntity
  8
0
  6
Continuous
 62
     9
100
AcDbLine
 10
0.1974999999982492
 20
-2.582482993188397
 30
0.0
 11
0.1975000000017504
 21
-2.679421768690586
 31
0.0
  0
LINE
  5
16868
330
16826
100
AcDbEntity
  8
0
  6
Continuous
 62
     9
100
AcDbLine
 10
-0.2575000000000003
 20
-2.744047619040157
 30
0.0
 11
-0.1975000000000007
 21
-2.752125850334872
 31
0.0
  0
LINE
  5
16869
330
16826
100
AcDbEntity
  8
0
  6
Continuous
 62
     9
100
AcDbLine
 10
0.2547485028995808
 20
-2.68749999998892
 30
0.0
 11
-0.2575000000000003
 21
-2.744047619040157
 31
0.0
  0
LINE
  5
1686A
330
16826
100
AcDbEntity
  8
0
  6
Continuous
 62
     9
100
AcDbLine
 10
0.1975000000017504
 20
-2.679421768690586
 30
0.0
 11
0.2547485028995808
 21
-2.68749999998892
 31
0.0
  0
LINE
  5
1686B
330
16826
100
AcDbEntity
  8
0
  6
Continuous
 62
     9
100
AcDbLine
 10
-0.1975000000000007
 20
-2.639367709400209
 30
0.0
 11
-0.1975000000000007
 21
-2.737424159676452
 31
0.0
  0
LINE
  5
1686C
330
16826
100
AcDbEntity
  8
0
  6
Continuous
 62
     9
100
AcDbLine
 10
0.1961242514480395
 20
-2.469539625337203
 30
0.0
 11
0.1961242514515407
 21
-2.566478400839391
 31
0.0
  0
LINE
  5
1686D
330
16826
100
AcDbEntity
  8
0
  6
Continuous
 62
     9
100
AcDbLine
 10
-0.25887574855021
 20
-2.631104251188963
 30
0.0
 11
-0.1975000000000007
 21
-2.639367709400209
 31
0.0
  0
LINE
  5
1686E
330
16826
100
AcDbEntity
  8
0
  6
Continuous
 62
     9
100
AcDbLine
 10
0.2533727543493711
 20
-2.574556632137726
 30
0.0
 11
-0.25887574855021
 21
-2.631104251188963
 31
0.0
  0
LINE
  5
1686F
330
16826
100
AcDbEntity
  8
0
  6
Continuous
 62
     9
100
AcDbLine
 10
0.1961242514515407
 20
-2.566478400839391
 30
0.0
 11
0.2533727543493711
 21
-2.574556632137726
 31
0.0
  0
LINE
  5
16870
330
16826
100
AcDbEntity
  8
0
  6
Continuous
 62
     9
100
AcDbLine
 10
-0.1988757485502104
 20
-2.525750147228718
 30
0.0
 11
-0.1988757485502104
 21
-2.624480791825257
 31
0.0
  0
LINE
  5
16871
330
16826
100
AcDbEntity
  8
0
  6
Continuous
 62
     9
100
AcDbLine
 10
0.1974999999982492
 20
-2.356292516998776
 30
0.0
 11
0.1975000000017504
 21
-2.453231292500964
 31
0.0
  0
LINE
  5
16872
330
16826
100
AcDbEntity
  8
0
  6
Continuous
 62
     9
100
AcDbLine
 10
-0.2575000000000003
 20
-2.517857142850536
 30
0.0
 11
-0.1988757485502104
 21
-2.525750147228718
 31
0.0
  0
LINE
  5
16873
330
16826
100
AcDbEntity
  8
0
  6
Continuous
 62
     9
100
AcDbLine
 10
0.2547485028995808
 20
-2.461309523799299
 30
0.0
 11
-0.2575000000000003
 21
-2.517857142850536
 31
0.0
  0
LINE
  5
16874
330
16826
100
AcDbEntity
  8
0
  6
Continuous
 62
     9
100
AcDbLine
 10
0.1975000000017504
 20
-2.453231292500964
 30
0.0
 11
0.2547485028995808
 21
-2.461309523799299
 31
0.0
  0
LINE
  5
16875
330
16826
100
AcDbEntity
  8
0
  6
Continuous
 62
     9
100
AcDbLine
 10
-0.1975000000000007
 20
-2.413177233210587
 30
0.0
 11
-0.1975000000000007
 21
-2.51123368348683
 31
0.0
  0
LINE
  5
16876
330
16826
100
AcDbEntity
  8
0
  6
Continuous
 62
     9
100
AcDbLine
 10
0.1961242514480395
 20
-2.243349149147581
 30
0.0
 11
0.1961242514515407
 21
-2.34028792464977
 31
0.0
  0
LINE
  5
16877
330
16826
100
AcDbEntity
  8
0
  6
Continuous
 62
     9
100
AcDbLine
 10
-0.25887574855021
 20
-2.404913774999341
 30
0.0
 11
-0.1975000000000007
 21
-2.413177233210587
 31
0.0
  0
LINE
  5
16878
330
16826
100
AcDbEntity
  8
0
  6
Continuous
 62
     9
100
AcDbLine
 10
0.2533727543493711
 20
-2.348366155948104
 30
0.0
 11
-0.25887574855021
 21
-2.404913774999341
 31
0.0
  0
LINE
  5
16879
330
16826
100
AcDbEntity
  8
0
  6
Continuous
 62
     9
100
AcDbLine
 10
0.1961242514515407
 20
-2.34028792464977
 30
0.0
 11
0.2533727543493711
 21
-2.348366155948104
 31
0.0
  0
LINE
  5
1687A
330
16826
100
AcDbEntity
  8
0
  6
Continuous
 62
     9
100
AcDbLine
 10
-0.1988757485502104
 20
-2.299559671039096
 30
0.0
 11
-0.1988757485502104
 21
-2.398290315635636
 31
0.0
  0
LINE
  5
1687B
330
16826
100
AcDbEntity
  8
0
  6
Continuous
 62
     9
100
AcDbLine
 10
0.1974999999982492
 20
-2.130102040809154
 30
0.0
 11
0.1975000000017504
 21
-2.227040816311342
 31
0.0
  0
LINE
  5
1687C
330
16826
100
AcDbEntity
  8
0
  6
Continuous
 62
     9
100
AcDbLine
 10
-0.2575000000000003
 20
-2.291666666660914
 30
0.0
 11
-0.1988757485502104
 21
-2.299559671039096
 31
0.0
  0
LINE
  5
1687D
330
16826
100
AcDbEntity
  8
0
  6
Continuous
 62
     9
100
AcDbLine
 10
0.2547485028995808
 20
-2.235119047609677
 30
0.0
 11
-0.2575000000000003
 21
-2.291666666660914
 31
0.0
  0
LINE
  5
1687E
330
16826
100
AcDbEntity
  8
0
  6
Continuous
 62
     9
100
AcDbLine
 10
0.1975000000017504
 20
-2.227040816311342
 30
0.0
 11
0.2547485028995808
 21
-2.235119047609677
 31
0.0
  0
LINE
  5
1687F
330
16826
100
AcDbEntity
  8
0
  6
Continuous
 62
     9
100
AcDbLine
 10
-0.1975000000000007
 20
-2.186649659856771
 30
0.0
 11
-0.1975000000000007
 21
-2.285043207297208
 31
0.0
  0
LINE
  5
16880
330
16826
100
AcDbEntity
  8
0
  6
Continuous
 62
     9
100
AcDbLine
 10
0.1974999999982492
 20
-2.017006802714343
 30
0.0
 11
0.1975000000017504
 21
-2.113945578216531
 31
0.0
  0
LINE
  5
16881
330
16826
100
AcDbEntity
  8
0
  6
Continuous
 62
     9
100
AcDbLine
 10
-0.2575000000000003
 20
-2.178571428566103
 30
0.0
 11
-0.1975000000000007
 21
-2.186649659860817
 31
0.0
  0
LINE
  5
16882
330
16826
100
AcDbEntity
  8
0
  6
Continuous
 62
     9
100
AcDbLine
 10
0.2547485028995808
 20
-2.122023809514866
 30
0.0
 11
-0.2575000000000003
 21
-2.178571428566103
 31
0.0
  0
LINE
  5
16883
330
16826
100
AcDbEntity
  8
0
  6
Continuous
 62
     9
100
AcDbLine
 10
0.1975000000017504
 20
-2.113945578216531
 30
0.0
 11
0.2547485028995808
 21
-2.122023809514866
 31
0.0
  0
LINE
  5
16884
330
16826
100
AcDbEntity
  8
0
  6
Continuous
 62
     9
100
AcDbLine
 10
-0.1975000000000007
 20
-2.073891518926155
 30
0.0
 11
-0.1975000000000007
 21
-2.171947969202397
 31
0.0
  0
LINE
  5
16885
330
16826
100
AcDbEntity
  8
0
  6
Continuous
 62
     9
100
AcDbLine
 10
0.1961242514480395
 20
-1.904063434863148
 30
0.0
 11
0.1961242514515407
 21
-2.001002210365337
 31
0.0
  0
LINE
  5
16886
330
16826
100
AcDbEntity
  8
0
  6
Continuous
 62
     9
100
AcDbLine
 10
-0.25887574855021
 20
-2.065628060714908
 30
0.0
 11
-0.1975000000000007
 21
-2.073891518926155
 31
0.0
  0
LINE
  5
16887
330
16826
100
AcDbEntity
  8
0
  6
Continuous
 62
     9
100
AcDbLine
 10
0.2533727543493711
 20
-2.009080441663671
 30
0.0
 11
-0.25887574855021
 21
-2.065628060714908
 31
0.0
  0
LINE
  5
16888
330
16826
100
AcDbEntity
  8
0
  6
Continuous
 62
     9
100
AcDbLine
 10
0.1961242514515407
 20
-2.001002210365337
 30
0.0
 11
0.2533727543493711
 21
-2.009080441663671
 31
0.0
  0
LINE
  5
16889
330
16826
100
AcDbEntity
  8
0
  6
Continuous
 62
     9
100
AcDbLine
 10
-0.1988757485502104
 20
-1.960273956754663
 30
0.0
 11
-0.1988757485502104
 21
-2.059004601351203
 31
0.0
  0
LINE
  5
1688A
330
16826
100
AcDbEntity
  8
0
  6
Continuous
 62
     9
100
AcDbLine
 10
0.1974999999982492
 20
-1.790816326524721
 30
0.0
 11
0.1975000000017504
 21
-1.887755102026909
 31
0.0
  0
LINE
  5
1688B
330
16826
100
AcDbEntity
  8
0
  6
Continuous
 62
     9
100
AcDbLine
 10
-0.2575000000000003
 20
-1.952380952376481
 30
0.0
 11
-0.1988757485502104
 21
-1.960273956754663
 31
0.0
  0
LINE
  5
1688C
330
16826
100
AcDbEntity
  8
0
  6
Continuous
 62
     9
100
AcDbLine
 10
0.2547485028995808
 20
-1.895833333325244
 30
0.0
 11
-0.2575000000000003
 21
-1.952380952376481
 31
0.0
  0
LINE
  5
1688D
330
16826
100
AcDbEntity
  8
0
  6
Continuous
 62
     9
100
AcDbLine
 10
0.1975000000017504
 20
-1.887755102026909
 30
0.0
 11
0.2547485028995808
 21
-1.895833333325244
 31
0.0
  0
LINE
  5
1688E
330
16826
100
AcDbEntity
  8
0
  6
Continuous
 62
     9
100
AcDbLine
 10
-0.1975000000000007
 20
-1.847701042736533
 30
0.0
 11
-0.1975000000000007
 21
-1.945757493012775
 31
0.0
  0
LINE
  5
1688F
330
16826
100
AcDbEntity
  8
0
  6
Continuous
 62
     9
100
AcDbLine
 10
0.1961242514480395
 20
-1.677872958673527
 30
0.0
 11
0.1961242514515407
 21
-1.774811734175715
 31
0.0
  0
LINE
  5
16890
330
16826
100
AcDbEntity
  8
0
  6
Continuous
 62
     9
100
AcDbLine
 10
-0.1988757485502104
 20
-1.734083480565042
 30
0.0
 11
-0.1988757485502104
 21
-1.832814125161581
 31
0.0
  0
LINE
  5
16891
330
16826
100
AcDbEntity
  8
0
  6
Continuous
 62
     9
100
AcDbLine
 10
0.1961242514515407
 20
-1.774811734175715
 30
0.0
 11
0.2533727543493711
 21
-1.782889965474049
 31
0.0
  0
LINE
  5
16892
330
16826
100
AcDbEntity
  8
0
  6
Continuous
 62
     9
100
AcDbLine
 10
0.2533727543493711
 20
-1.782889965474049
 30
0.0
 11
-0.25887574855021
 21
-1.839437584525287
 31
0.0
  0
LINE
  5
16893
330
16826
100
AcDbEntity
  8
0
  6
Continuous
 62
     9
100
AcDbLine
 10
-0.25887574855021
 20
-1.839437584525287
 30
0.0
 11
-0.1975000000000007
 21
-1.847701042736533
 31
0.0
  0
LINE
  5
16894
330
16826
100
AcDbEntity
  8
0
  6
Continuous
 62
     9
100
AcDbLine
 10
-0.2575000000000003
 20
-1.726190476186859
 30
0.0
 11
-0.1988757485502104
 21
-1.734083480565042
 31
0.0
  0
LINE
  5
16895
330
16826
100
AcDbEntity
  8
0
  6
Continuous
 62
     9
100
AcDbLine
 10
0.2547485028995808
 20
-1.669642857135622
 30
0.0
 11
-0.2575000000000003
 21
-1.726190476186859
 31
0.0
  0
LINE
  5
16896
330
16826
100
AcDbEntity
  8
0
  6
Continuous
 62
     9
100
AcDbLine
 10
0.1975000000017504
 20
-1.661564625837288
 30
0.0
 11
0.2547485028995808
 21
-1.669642857135622
 31
0.0
  0
LINE
  5
16897
330
16826
100
AcDbEntity
  8
0
  6
Continuous
 62
     9
100
AcDbLine
 10
0.1974999999982492
 20
-1.564625850335099
 30
0.0
 11
0.1975000000017504
 21
-1.661564625837288
 31
0.0
  0
LINE
  5
16898
330
16826
100
AcDbEntity
  8
0
  6
Continuous
 62
     9
100
AcDbLine
 10
-0.1975000000000007
 20
-1.621173469382716
 30
0.0
 11
-0.1975000000000007
 21
-1.719567016823154
 31
0.0
  0
LINE
  5
16899
330
16826
100
AcDbEntity
  8
0
  6
Continuous
 62
     9
100
AcDbLine
 10
-0.2575000000000003
 20
-1.613095238094336
 30
0.0
 11
-0.1975000000000007
 21
-1.621173469382716
 31
0.0
  0
LINE
  5
1689A
330
16826
100
AcDbEntity
  8
0
  6
Continuous
 62
     9
100
AcDbLine
 10
0.2547485028829328
 20
-1.556547619040385
 30
0.0
 11
-0.2575000000000003
 21
-1.613095238094336
 31
0.0
  0
LINE
  5
1689B
330
16826
100
AcDbEntity
  8
0
  6
Continuous
 62
     9
100
AcDbLine
 10
0.1975000000017504
 20
-1.548469387744761
 30
0.0
 11
0.2547485028995808
 21
-1.556547619043096
 31
0.0
  0
LINE
  5
1689C
330
16826
100
AcDbEntity
  8
0
  6
Continuous
 62
     9
100
AcDbLine
 10
0.1974999999999989
 20
-1.499999999998708
 30
0.0
 11
0.1975000000017504
 21
-1.548469387744761
 31
0.0
  0
LINE
  5
1689D
330
16826
100
AcDbEntity
  8
0
  6
Continuous
 62
     9
100
AcDbLine
 10
-0.1975000000000007
 20
-1.508078231290189
 30
0.0
 11
-0.1975000000000007
 21
-1.606471778730098
 31
0.0
  0
LINE
  5
1689E
330
16826
100
AcDbEntity
  8
0
  6
Continuous
 62
     9
100
AcDbLine
 10
-0.2575000000000003
 20
-1.50000000000181
 30
0.0
 11
-0.1975000000000007
 21
-1.508078231290189
 31
0.0
  0
LINE
  5
1689F
330
16826
100
AcDbEntity
  8
0
 62
     9
100
AcDbLine
 10
0.1974999999999998
 20
-3.65791996550515
 30
0.0
 11
0.172975943830175
 21
-3.70039687679896
 31
0.0
  0
LINE
  5
168A0
330
16826
100
AcDbEntity
  8
0
 62
     9
100
AcDbLine
 10
-0.1979351491956942
 20
-3.657166264989333
 30
0.0
 11
-0.1446563567516552
 21
-3.749447840468325
 31
0.0
  0
LINE
  5
168A1
330
16826
100
AcDbEntity
  8
0
 62
     9
100
AcDbLine
 10
-0.2575000000000003
 20
-1.5
 30
0.0
 11
0.2574999999999994
 21
-1.5
 31
0.0
  0
LINE
  5
168A2
330
16826
100
AcDbEntity
  8
0
 62
     9
100
AcDbLine
 10
0.2574999999999994
 20
-0.0300000000000011
 30
0.0
 11
0.2574999999999994
 21
-1.5
 31
0.0
  0
LINE
  5
168A3
330
16826
100
AcDbEntity
  8
0
 62
     9
100
AcDbLine
 10
-0.2575000000000003
 20
-0.0300000000000029
 30
0.0
 11
-0.2575000000000003
 21
-1.5
 31
0.0
  0
ENDBLK
  5
168A6
330
16826
100
AcDbEntity
  8
0
100
AcDbBlockEnd
  0
BLOCK
  5
16AD0
330
16A84
100
AcDbEntity
  8
0
100
AcDbBlockBegin
  2
2.5 WD
 70
     0
 10
0.0
 20
0.0
 30
0.0
  3
2.5 WD
  1

  0
LINE
  5
16A85
330
16A84
100
AcDbEntity
  8
0
  6
Continuous
 62
     9
100
AcDbLine
 10
-0.0749999999955
 20
-0.8749999999886284
 30
0.0
 11
-0.0749999999955
 21
-0.9285714285799997
 31
0.0
  0
LINE
  5
16A86
330
16A84
100
AcDbEntity
  8
0
  6
Continuous
 62
     9
100
AcDbLine
 10
0.1050000000193
 20
-0.875
 30
0.0
 11
-0.104999999998
 21
-0.9375000000040001
 31
0.0
  0
LINE
  5
16A87
330
16A84
100
AcDbEntity
  8
0
  6
Continuous
 62
     9
100
AcDbLine
 10
-0.104999999998
 20
-0.9375000000040001
 30
0.0
 11
-0.0749999999955
 21
-0.9464285714349999
 31
0.0
  0
LINE
  5
16A88
330
16A84
100
AcDbEntity
  8
0
  6
Continuous
 62
     9
100
AcDbLine
 10
-0.0749999999955
 20
-0.9464285714349999
 30
0.0
 11
-0.0749999999952
 21
-1.053571428571999
 31
0.0
  0
LINE
  5
16A89
330
16A84
100
AcDbEntity
  8
0
  6
Continuous
 62
     9
100
AcDbLine
 10
0.07500000000232
 20
-0.8839285714239998
 30
0.0
 11
0.07500000000596
 21
-0.9910714285579999
 31
0.0
  0
LINE
  5
16A8A
330
16A84
100
AcDbEntity
  8
0
  6
Continuous
 62
     9
100
AcDbLine
 10
0.07500000000596
 20
-0.9910714285579999
 30
0.0
 11
0.1050000000193
 21
-0.999999999993
 31
0.0
  0
LINE
  5
16A8B
330
16A84
100
AcDbEntity
  8
0
  6
Continuous
 62
     9
100
AcDbLine
 10
0.1050000000193
 20
-0.999999999993
 30
0.0
 11
-0.104999999997
 21
-1.062499999995999
 31
0.0
  0
LINE
  5
16A8C
330
16A84
100
AcDbEntity
  8
0
  6
Continuous
 62
     9
100
AcDbLine
 10
-0.104999999997
 20
-1.062499999995999
 30
0.0
 11
-0.0749999999955
 21
-1.071428571428
 31
0.0
  0
LINE
  5
16A8D
330
16A84
100
AcDbEntity
  8
0
  6
Continuous
 62
     9
100
AcDbLine
 10
-0.0749999999955
 20
-1.071428571428
 30
0.0
 11
-0.0749999999952
 21
-1.178571428564999
 31
0.0
  0
LINE
  5
16A8E
330
16A84
100
AcDbEntity
  8
0
  6
Continuous
 62
     9
100
AcDbLine
 10
0.07500000000255
 20
-1.008928571416999
 30
0.0
 11
0.07500000000618
 21
-1.116071428551
 31
0.0
  0
LINE
  5
16A8F
330
16A84
100
AcDbEntity
  8
0
  6
Continuous
 62
     9
100
AcDbLine
 10
0.07500000000618
 20
-1.116071428551
 30
0.0
 11
0.1050000000196
 21
-1.124999999984999
 31
0.0
  0
LINE
  5
16A90
330
16A84
100
AcDbEntity
  8
0
  6
Continuous
 62
     9
100
AcDbLine
 10
0.1050000000196
 20
-1.124999999984999
 30
0.0
 11
-0.104999999997
 21
-1.187499999988999
 31
0.0
  0
LINE
  5
16A91
330
16A84
100
AcDbEntity
  8
0
  6
Continuous
 62
     9
100
AcDbLine
 10
-0.104999999997
 20
-1.187499999988999
 30
0.0
 11
-0.074999999995
 21
-1.19642857142
 31
0.0
  0
LINE
  5
16A92
330
16A84
100
AcDbEntity
  8
0
  6
Continuous
 62
     9
100
AcDbLine
 10
-0.074999999995
 20
-1.19642857142
 30
0.0
 11
-0.074999999995
 21
-1.303571428558
 31
0.0
  0
LINE
  5
16A93
330
16A84
100
AcDbEntity
  8
0
  6
Continuous
 62
     9
100
AcDbLine
 10
0.07500000000255
 20
-1.133928571408999
 30
0.0
 11
0.07500000000641
 21
-1.241071428543
 31
0.0
  0
LINE
  5
16A94
330
16A84
100
AcDbEntity
  8
0
  6
Continuous
 62
     9
100
AcDbLine
 10
0.07500000000641
 20
-1.241071428543
 30
0.0
 11
0.1050000000198
 21
-1.249999999977999
 31
0.0
  0
LINE
  5
16A95
330
16A84
100
AcDbEntity
  8
0
  6
Continuous
 62
     9
100
AcDbLine
 10
0.1050000000198
 20
-1.249999999977999
 30
0.0
 11
-0.104999999997
 21
-1.312499999981999
 31
0.0
  0
LINE
  5
16A96
330
16A84
100
AcDbEntity
  8
0
  6
Continuous
 62
     9
100
AcDbLine
 10
-0.104999999997
 20
-1.312499999981999
 30
0.0
 11
-0.074999999995
 21
-1.321428571412999
 31
0.0
  0
LINE
  5
16A97
330
16A84
100
AcDbEntity
  8
0
  6
Continuous
 62
     9
100
AcDbLine
 10
-0.074999999995
 20
-1.321428571412999
 30
0.0
 11
-0.0749999999948
 21
-1.428571428551
 31
0.0
  0
LINE
  5
16A98
330
16A84
100
AcDbEntity
  8
0
  6
Continuous
 62
     9
100
AcDbLine
 10
0.07500000000255
 20
-1.258928571401999
 30
0.0
 11
0.07500000000641
 21
-1.366071428536
 31
0.0
  0
LINE
  5
16A99
330
16A84
100
AcDbEntity
  8
0
  6
Continuous
 62
     9
100
AcDbLine
 10
0.07500000000641
 20
-1.366071428536
 30
0.0
 11
0.1050000000198
 21
-1.374999999970999
 31
0.0
  0
LINE
  5
16A9A
330
16A84
100
AcDbEntity
  8
0
  6
Continuous
 62
     9
100
AcDbLine
 10
0.1050000000198
 20
-1.374999999970999
 30
0.0
 11
-0.104999999997
 21
-1.437499999974999
 31
0.0
  0
LINE
  5
16A9B
330
16A84
100
AcDbEntity
  8
0
  6
Continuous
 62
     9
100
AcDbLine
 10
-0.104999999997
 20
-1.437499999974999
 30
0.0
 11
-0.074999999995
 21
-1.446428571405999
 31
0.0
  0
LINE
  5
16A9C
330
16A84
100
AcDbEntity
  8
0
  6
Continuous
 62
     9
100
AcDbLine
 10
-0.074999999995
 20
-1.446428571405999
 30
0.0
 11
-0.0749999999948
 21
-1.553571428551
 31
0.0
  0
LINE
  5
16A9D
330
16A84
100
AcDbEntity
  8
0
  6
Continuous
 62
     9
100
AcDbLine
 10
0.07500000000277
 20
-1.383928571395
 30
0.0
 11
0.07500000000641
 21
-1.491071428531999
 31
0.0
  0
LINE
  5
16A9E
330
16A84
100
AcDbEntity
  8
0
  6
Continuous
 62
     9
100
AcDbLine
 10
0.07500000000641
 20
-1.491071428531999
 30
0.0
 11
0.1050000000198
 21
-1.499999999966999
 31
0.0
  0
LINE
  5
16A9F
330
16A84
100
AcDbEntity
  8
0
  6
Continuous
 62
     9
100
AcDbLine
 10
0.1050000000198
 20
-1.499999999966999
 30
0.0
 11
-0.104999999997
 21
-1.562499999977999
 31
0.0
  0
LINE
  5
16AA0
330
16A84
100
AcDbEntity
  8
0
  6
Continuous
 62
     9
100
AcDbLine
 10
-0.104999999997
 20
-1.562499999977999
 30
0.0
 11
-0.0749999999948
 21
-1.571428571405999
 31
0.0
  0
LINE
  5
16AA1
330
16A84
100
AcDbEntity
  8
0
  6
Continuous
 62
     9
100
AcDbLine
 10
-0.0749999999948
 20
-1.571428571405999
 30
0.0
 11
-0.0749999999948
 21
-1.678571428543
 31
0.0
  0
LINE
  5
16AA2
330
16A84
100
AcDbEntity
  8
0
  6
Continuous
 62
     9
100
AcDbLine
 10
0.075000000003
 20
-1.508928571390999
 30
0.0
 11
0.07500000000664
 21
-1.616071428529
 31
0.0
  0
LINE
  5
16AA3
330
16A84
100
AcDbEntity
  8
0
  6
Continuous
 62
     9
100
AcDbLine
 10
0.07500000000664
 20
-1.616071428529
 30
0.0
 11
0.10500000002
 21
-1.624999999963999
 31
0.0
  0
LINE
  5
16AA4
330
16A84
100
AcDbEntity
  8
0
  6
Continuous
 62
     9
100
AcDbLine
 10
0.10500000002
 20
-1.624999999963999
 30
0.0
 11
-0.104999999997
 21
-1.687499999971
 31
0.0
  0
LINE
  5
16AA5
330
16A84
100
AcDbEntity
  8
0
  6
Continuous
 62
     9
100
AcDbLine
 10
-0.104999999997
 20
-1.687499999971
 30
0.0
 11
-0.0749999999945
 21
-1.696428571398
 31
0.0
  0
LINE
  5
16AA6
330
16A84
100
AcDbEntity
  8
0
  6
Continuous
 62
     9
100
AcDbLine
 10
-0.0749999999945
 20
-1.696428571398
 30
0.0
 11
-0.0749999999945
 21
-1.803571428535999
 31
0.0
  0
LINE
  5
16AA7
330
16A84
100
AcDbEntity
  8
0
  6
Continuous
 62
     9
100
AcDbLine
 10
0.075000000003
 20
-1.633928571383999
 30
0.0
 11
0.07500000000687
 21
-1.741071428521999
 31
0.0
  0
LINE
  5
16AA8
330
16A84
100
AcDbEntity
  8
0
  6
Continuous
 62
     9
100
AcDbLine
 10
0.07500000000687
 20
-1.741071428521999
 30
0.0
 11
0.1050000000203
 21
-1.749999999955999
 31
0.0
  0
LINE
  5
16AA9
330
16A84
100
AcDbEntity
  8
0
  6
Continuous
 62
     9
100
AcDbLine
 10
0.1050000000203
 20
-1.749999999955999
 30
0.0
 11
-0.104999999997
 21
-1.812499999963999
 31
0.0
  0
LINE
  5
16AAA
330
16A84
100
AcDbEntity
  8
0
  6
Continuous
 62
     9
100
AcDbLine
 10
-0.104999999997
 20
-1.812499999963999
 30
0.0
 11
-0.0749999999945
 21
-1.821428571390999
 31
0.0
  0
LINE
  5
16AAB
330
16A84
100
AcDbEntity
  8
0
  6
Continuous
 62
     9
100
AcDbLine
 10
-0.0749999999945
 20
-1.821428571390999
 30
0.0
 11
-0.0749999999943
 21
-1.928571428529
 31
0.0
  0
LINE
  5
16AAC
330
16A84
100
AcDbEntity
  8
0
  6
Continuous
 62
     9
100
AcDbLine
 10
0.07500000000323
 20
-1.758928571376999
 30
0.0
 11
0.07500000000709
 21
-1.866071428514
 31
0.0
  0
LINE
  5
16AAD
330
16A84
100
AcDbEntity
  8
0
  6
Continuous
 62
     9
100
AcDbLine
 10
0.07500000000709
 20
-1.866071428514
 30
0.0
 11
0.1050000000205
 21
-1.874999999948999
 31
0.0
  0
LINE
  5
16AAE
330
16A84
100
AcDbEntity
  8
0
  6
Continuous
 62
     9
100
AcDbLine
 10
0.1050000000205
 20
-1.874999999948999
 30
0.0
 11
-0.104999999996
 21
-1.937499999955999
 31
0.0
  0
LINE
  5
16AAF
330
16A84
100
AcDbEntity
  8
0
  6
Continuous
 62
     9
100
AcDbLine
 10
-0.104999999996
 20
-1.937499999955999
 30
0.0
 11
-0.0749999999943
 21
-1.946428571383999
 31
0.0
  0
LINE
  5
16AB0
330
16A84
100
AcDbEntity
  8
0
  6
Continuous
 62
     9
100
AcDbLine
 10
-0.0749999999943
 20
-1.946428571383999
 30
0.0
 11
-0.0749999999941
 21
-2.053571428521999
 31
0.0
  0
LINE
  5
16AB1
330
16A84
100
AcDbEntity
  8
0
  6
Continuous
 62
     9
100
AcDbLine
 10
0.07500000000346
 20
-1.883928571369
 30
0.0
 11
0.07500000000709
 21
-1.991071428506999
 31
0.0
  0
LINE
  5
16AB2
330
16A84
100
AcDbEntity
  8
0
  6
Continuous
 62
     9
100
AcDbLine
 10
0.07500000000709
 20
-1.991071428506999
 30
0.0
 11
0.1050000000205
 21
-1.999999999941999
 31
0.0
  0
LINE
  5
16AB3
330
16A84
100
AcDbEntity
  8
0
  6
Continuous
 62
     9
100
AcDbLine
 10
0.1050000000205
 20
-1.999999999941999
 30
0.0
 11
-0.104999999996
 21
-2.062499999948999
 31
0.0
  0
LINE
  5
16AB4
330
16A84
100
AcDbEntity
  8
0
  6
Continuous
 62
     9
100
AcDbLine
 10
-0.104999999996
 20
-2.062499999948999
 30
0.0
 11
-0.0749999999943
 21
-2.071428571376999
 31
0.0
  0
LINE
  5
16AB5
330
16A84
100
AcDbEntity
  8
0
  6
Continuous
 62
     9
100
AcDbLine
 10
-0.0749999999943
 20
-2.071428571376999
 30
0.0
 11
-0.0749999999941
 21
-2.178571428514
 31
0.0
  0
LINE
  5
16AB6
330
16A84
100
AcDbEntity
  8
0
  6
Continuous
 62
     9
100
AcDbLine
 10
0.07500000000346
 20
-2.008928571361999
 30
0.0
 11
0.07500000000709
 21
-2.116071428499999
 31
0.0
  0
LINE
  5
16AB7
330
16A84
100
AcDbEntity
  8
0
  6
Continuous
 62
     9
100
AcDbLine
 10
0.07500000000709
 20
-2.116071428499999
 30
0.0
 11
0.1050000000205
 21
-2.124999999934999
 31
0.0
  0
LINE
  5
16AB8
330
16A84
100
AcDbEntity
  8
0
  6
Continuous
 62
     9
100
AcDbLine
 10
0.1050000000205
 20
-2.124999999934999
 30
0.0
 11
-0.104999999996
 21
-2.187499999941999
 31
0.0
  0
LINE
  5
16AB9
330
16A84
100
AcDbEntity
  8
0
  6
Continuous
 62
     9
100
AcDbLine
 10
-0.104999999996
 20
-2.187499999941999
 30
0.0
 11
-0.0749999999941
 21
-2.196428571369
 31
0.0
  0
LINE
  5
16ABA
330
16A84
100
AcDbEntity
  8
0
  6
Continuous
 62
     9
100
AcDbLine
 10
-0.0749999999941
 20
-2.196428571369
 30
0.0
 11
-0.0749999999941
 21
-2.303571428507
 31
0.0
  0
LINE
  5
16ABB
330
16A84
100
AcDbEntity
  8
0
  6
Continuous
 62
     9
100
AcDbLine
 10
0.07500000000346
 20
-2.133928571355
 30
0.0
 11
0.07500000000732
 21
-2.241071428491999
 31
0.0
  0
LINE
  5
16ABC
330
16A84
100
AcDbEntity
  8
0
  6
Continuous
 62
     9
100
AcDbLine
 10
0.07500000000732
 20
-2.241071428491999
 30
0.0
 11
0.1050000000207
 21
-2.249999999926999
 31
0.0
  0
LINE
  5
16ABD
330
16A84
100
AcDbEntity
  8
0
  6
Continuous
 62
     9
100
AcDbLine
 10
0.1050000000207
 20
-2.249999999926999
 30
0.0
 11
-0.104999999996
 21
-2.312499999934999
 31
0.0
  0
LINE
  5
16ABE
330
16A84
100
AcDbEntity
  8
0
  6
Continuous
 62
     9
100
AcDbLine
 10
-0.104999999996
 20
-2.312499999934999
 30
0.0
 11
-0.0749999999939
 21
-2.321428571361999
 31
0.0
  0
LINE
  5
16ABF
330
16A84
100
AcDbEntity
  8
0
  6
Continuous
 62
     9
100
AcDbLine
 10
-0.0749999999939
 20
-2.321428571361999
 30
0.0
 11
-0.0295866830534
 21
-2.428571428491999
 31
0.0
  0
LINE
  5
16AC0
330
16A84
100
AcDbEntity
  8
0
  6
Continuous
 62
     9
100
AcDbLine
 10
0.07500000000368
 20
-2.258928571346999
 30
0.0
 11
0.07500000000755
 21
-2.318933982824
 31
0.0
  0
LINE
  5
16AC1
330
16A84
100
AcDbEntity
  8
0
  6
Continuous
 62
     9
100
AcDbLine
 10
0.07500000000755
 20
-2.318933982824
 30
0.0
 11
0.05580877428247
 21
-2.365265700259999
 31
0.0
  0
LINE
  5
16AC2
330
16A84
100
AcDbEntity
  8
0
  6
Continuous
 62
     9
100
AcDbLine
 10
0.05580877428247
 20
-2.365265700259999
 30
0.0
 11
0.08547503072941
 21
-2.374999999912999
 31
0.0
  0
LINE
  5
16AC3
330
16A84
100
AcDbEntity
  8
0
  6
Continuous
 62
     9
100
AcDbLine
 10
0.08547503072941
 20
-2.374999999912999
 30
0.0
 11
-0.0595866830558
 21
-2.437499999919999
 31
0.0
  0
LINE
  5
16AC4
330
16A84
100
AcDbEntity
  8
0
  6
Continuous
 62
     9
100
AcDbLine
 10
-0.0595866830558
 20
-2.437499999919999
 30
0.0
 11
-0.0205878324345
 21
-2.450296575705999
 31
0.0
  0
LINE
  5
16AC5
330
16A84
100
AcDbEntity
  8
0
  6
Continuous
 62
     9
100
AcDbLine
 10
-0.0205878324345
 20
-2.450296575705999
 30
0.0
 11
0.0000000000032241
 21
-2.5
 31
0.0
  0
LINE
  5
16AC6
330
16A84
100
AcDbEntity
  8
0
  6
Continuous
 62
     9
100
AcDbLine
 10
0.04445631620854
 20
-2.3926729585
 30
0.0
 11
0.0000000000032241
 21
-2.5
 31
0.0
  0
LINE
  5
16AC7
330
16A84
100
AcDbEntity
  8
0
  6
Continuous
 62
     9
100
AcDbLine
 10
-0.1049999999975504
 20
-0.1150368407248568
 30
0.0
 11
0.1050000000012496
 21
-0.1150368407248568
 31
0.0
  0
POLYLINE
  5
16AC8
330
16A84
100
AcDbEntity
  8
0
  6
Continuous
 62
     9
100
AcDb2dPolyline
 66
     1
 10
0.0
 20
0.0
 30
0.0
 70
     1
  0
VERTEX
  5
16AC9
330
16AC8
100
AcDbEntity
  8
0
 62
     9
100
AcDbVertex
100
AcDb2dVertex
 10
-0.2049999999995502
 20
-0.0000000000002771
 30
0.0
  0
VERTEX
  5
16ACA
330
16AC8
100
AcDbEntity
  8
0
 62
     9
100
AcDbVertex
100
AcDb2dVertex
 10
-0.10499999999355
 20
-0.1150368407248568
 30
0.0
  0
VERTEX
  5
16ACB
330
16AC8
100
AcDbEntity
  8
0
  6
Continuous
 62
     9
100
AcDbVertex
100
AcDb2dVertex
 10
-0.1049999999885505
 20
-0.8749999999891571
 30
0.0
  0
VERTEX
  5
16ACC
330
16AC8
100
AcDbEntity
  8
0
  6
Continuous
 62
     9
100
AcDbVertex
100
AcDb2dVertex
 10
0.1050000000319495
 20
-0.8749999999854569
 30
0.0
  0
VERTEX
  5
16ACD
330
16AC8
100
AcDbEntity
  8
0
 62
     9
100
AcDbVertex
100
AcDb2dVertex
 10
0.1049999999976499
 20
-0.1150368407248568
 30
0.0
  0
VERTEX
  5
16ACE
330
16AC8
100
AcDbEntity
  8
0
 62
     9
100
AcDbVertex
100
AcDb2dVertex
 10
0.2049999999995502
 20
0.0000000000002771
 30
0.0
  0
SEQEND
  5
16ACF
330
16AC8
100
AcDbEntity
  8
0
  6
Continuous
 62
     9
  0
ENDBLK
  5
16AD1
330
16A84
100
AcDbEntity
  8
0
100
AcDbBlockEnd
  0
BLOCK
  5
16B03
330
16B01
100
AcDbEntity
  8
0
100
AcDbBlockBegin
  2
03AY
 70
     0
 10
0.0
 20
0.0
 30
0.0
  3
03AY
  1

  0
POLYLINE
  5
16B04
102
{ACAD_REACTORS
330
16B10
102
}
330
16B01
100
AcDbEntity
  8
CS-Cross Section
 62
     3
100
AcDb2dPolyline
 66
     1
 10
0.0
 20
0.0
 30
0.0
 70
     1
  0
VERTEX
  5
16B05
330
16B04
100
AcDbEntity
  8
CS-Cross Section
 62
     3
100
AcDbVertex
100
AcDb2dVertex
 10
0.6486369363310374
 20
2.329824243307291
 30
0.0
 42
0.4543042462927115
  0
VERTEX
  5
16B06
330
16B04
100
AcDbEntity
  8
CS-Cross Section
 62
     3
100
AcDbVertex
100
AcDb2dVertex
 10
0.5
 20
2.499999999999999
 30
0.0
  0
VERTEX
  5
16B07
330
16B04
100
AcDbEntity
  8
CS-Cross Section
 62
     3
100
AcDbVertex
100
AcDb2dVertex
 10
0.0
 20
2.499999999999998
 30
0.0
  0
VERTEX
  5
16B08
330
16B04
100
AcDbEntity
  8
CS-Cross Section
 62
     3
100
AcDbVertex
100
AcDb2dVertex
 10
0.0
 20
1.952999999999999
 30
0.0
 42
-0.4142135623730951
  0
VERTEX
  5
16B09
330
16B04
100
AcDbEntity
  8
CS-Cross Section
 62
     3
100
AcDbVertex
100
AcDb2dVertex
 10
0.0500000000000007
 20
1.903
 30
0.0
  0
VERTEX
  5
16B0A
330
16B04
100
AcDbEntity
  8
CS-Cross Section
 62
     3
100
AcDbVertex
100
AcDb2dVertex
 10
0.0500000000000007
 20
0.6199999999999997
 30
0.0
 42
-0.4142135623730977
  0
VERTEX
  5
16B0B
330
16B04
100
AcDbEntity
  8
CS-Cross Section
 62
     3
100
AcDbVertex
100
AcDb2dVertex
 10
0.0
 20
0.5699999999999994
 30
0.0
  0
VERTEX
  5
16B0C
330
16B04
100
AcDbEntity
  8
CS-Cross Section
 62
     3
100
AcDbVertex
100
AcDb2dVertex
 10
0.0
 20
0.0
 30
0.0
  0
VERTEX
  5
16B0D
330
16B04
100
AcDbEntity
  8
CS-Cross Section
 62
     3
100
AcDbVertex
100
AcDb2dVertex
 10
0.2459202991699394
 20
-0.0000000000000004
 30
0.0
 42
0.3752280549949386
  0
VERTEX
  5
16B0E
330
16B04
100
AcDbEntity
  8
CS-Cross Section
 62
     3
100
AcDbVertex
100
AcDb2dVertex
 10
0.344020677148424
 20
0.0856840005828121
 30
0.0
  0
SEQEND
  5
16B0F
330
16B04
100
AcDbEntity
  8
CS-Cross Section
 62
     3
  0
HATCH
  5
16B10
330
16B01
100
AcDbEntity
  8
Hatch
 62
     2
100
AcDbHatch
 10
0.0
 20
0.0
 30
0.0
210
0.0
220
0.0
230
1.0
  2
WOOD
 70
     0
 71
     1
 91
        1
 92
        1
 93
       10
 72
     2
 10
0.5000000000000007
 20
2.349999999999999
 40
0.15
 50
352.2700000000001
 51
450.0000000000002
 73
     1
 72
     1
 10
0.5
 20
2.499999999999999
 11
0.0
 21
2.499999999999998
 72
     1
 10
0.0
 20
2.499999999999998
 11
0.0
 21
1.952999999999999
 72
     2
 10
0.0000000000000005
 20
1.902999999999999
 40
0.0500000000000003
 50
269.9999999999995
 51
359.9999999999995
 73
     0
 72
     1
 10
0.0500000000000007
 20
1.903
 11
0.0500000000000007
 21
0.6199999999999997
 72
     2
 10
0.0000000000000004
 20
0.6199999999999997
 40
0.0500000000000003
 50
360.0
 51
450.0000000000005
 73
     0
 72
     1
 10
0.0
 20
0.5699999999999994
 11
0.0
 21
0.0
 72
     1
 10
0.0
 20
0.0
 11
0.2459202991699394
 21
-0.0000000000000004
 72
     2
 10
0.2459202991699402
 20
0.0989999999999992
 40
0.0989999999999996
 50
269.9999999999995
 51
352.2700000000003
 73
     1
 72
     1
 10
0.344020677148424
 20
0.0856840005828121
 11
0.6486369363310374
 21
2.329824243307291
 97
        1
330
16B04
 75
     0
 76
     1
 52
45.0
 41
0.14
 77
     0
 78
    12
 53
135.0
 43
-1.136375854870161
 44
-1.046314517825779
 45
0.0000000000000001
 46
0.7919595949289332
 79
     2
 49
0.5600000000000001
 49
-5.04
 53
135.0
 43
-2.225320297897444
 44
0.2406198239337371
 45
0.0000000000000001
 46
0.7919595949289332
 79
     2
 49
0.5600000000000001
 49
-2.24
 53
108.43494882
 43
-1.532355652334628
 44
-1.442294315290245
 45
-0.0000000442314982
 46
0.7919595586260602
 79
     2
 49
1.25219808
 49
-11.26978258
 53
149.03624347
 43
0.2495534362554719
 44
-2.828223606415879
 45
-0.0000000240384627
 46
0.7919596908495017
 79
     2
 49
0.5772348400000001
 49
-4.04064346
 53
149.03624347
 43
-0.6414011080395781
 44
-2.135258960853062
 45
-0.0000000240384627
 46
0.7919596908495017
 79
     2
 49
0.5772348400000001
 49
-4.04064346
 53
149.03624347
 43
1.338497879282755
 44
-2.531238758317529
 45
-0.0000000240384627
 46
0.7919596908495017
 79
     2
 49
0.5772348400000001
 49
-4.04064346
 53
120.96375653
 43
-1.928335449799094
 44
-0.2543549228968462
 45
0.0000000240384629
 46
0.7919596908495016
 79
     2
 49
0.5772348400000001
 49
-22.51215666
 53
120.96375653
 43
-5.888133424443759
 44
6.873281431463553
 45
0.0000000240384629
 46
0.7919596908495016
 79
     2
 49
0.5772348400000001
 49
-22.51215666
 53
120.96375653
 43
-9.847931399088427
 44
13.20895819089502
 45
0.0000000240384629
 46
0.7919596908495016
 79
     2
 49
0.5772348400000001
 49
-22.51215666
 53
161.56505118
 43
-3.116274842192494
 44
0.9335844694965537
 45
0.0000000442314984
 46
0.7919595586260602
 79
     2
 49
0.6260990400000001
 49
-11.89588162
 53
161.56505118
 43
4.803321107096838
 44
-1.442294315290246
 45
0.0000000442314984
 46
0.7919595586260602
 79
     2
 49
0.6260990400000001
 49
-11.89588162
 53
161.56505118
 43
0.8435231324521721
 44
0.1416248745676205
 45
0.0000000442314984
 46
0.7919595586260602
 79
     2
 49
0.6260990400000001
 49
-11.89588162
 98
        1
 10
-3.522568875023281
 20
-0.848324619093546
  0
POINT
  5
16B11
330
16B01
100
AcDbEntity
  8
Points
100
AcDbPoint
 10
0.0
 20
0.0
 30
0.0
  0
ENDBLK
  5
16B12
330
16B01
100
AcDbEntity
  8
0
100
AcDbBlockEnd
  0
BLOCK
  5
16BAC
330
16BA9
100
AcDbEntity
  8
0
100
AcDbBlockBegin
  2
I Drive Info Block
 70
     2
 10
0.0
 20
0.0
 30
0.0
  3
I Drive Info Block
  1

  0
ATTDEF
  5
16BAD
330
16BA9
100
AcDbEntity
  8
Symbol TXT
100
AcDbText
 10
0.776155080219013
 20
0.5084508926471281
 30
0.0
 40
0.0625
  1
X
 11
0.776155080219013
 21
0.4899481641341677
 31
0.0
100
AcDbAttributeDefinition
  3
Drawing Name:
  2
DRAWINGNAME
 70
     0
 74
     1
  0
ATTDEF
  5
16BAE
330
16BA9
100
AcDbEntity
  8
Symbol TXT
 62
   255
100
AcDbText
 10
0.401155080219013
 20
0.3877612374747135
 30
0.0
 40
0.0625
  1
X
 11
0.401155080219013
 21
0.369258508961753
 31
0.0
100
AcDbAttributeDefinition
  3
Perl Project #
  2
PERL#
 70
     0
 74
     1
  0
MTEXT
  5
16BAF
330
16BA9
100
AcDbEntity
  8
Symbol TXT
 62
     5
100
AcDbMText
 10
1.354772872737127
 20
0.1989877158112616
 30
0.0
 40
0.0625
 41
0.35
 71
     1
 72
     5
  1
PAGE #
 73
     1
 44
1.0
1001
ACAD
1000
MTEXTBEGIN
1070
    73
1070
     1
1070
    44
1040
1.0
1070
    74
1070
     0
1000
MTEXTEND
  0
MTEXT
  5
16BB0
330
16BA9
100
AcDbEntity
  8
Symbol TXT
 62
     5
100
AcDbMText
 10
0.8845456750601785
 20
0.316832543397469
 30
0.0
 40
0.0625
 41
0.15
 71
     1
 72
     5
  1
SF:
 73
     1
 44
1.0
1001
ACAD
1000
MTEXTBEGIN
1070
    73
1070
     1
1070
    44
1040
1.0
1070
    74
1070
     0
1000
MTEXTEND
  0
MTEXT
  5
16BB1
330
16BA9
100
AcDbEntity
  8
Symbol TXT
 62
     5
100
AcDbMText
 10
0.0261550802190129
 20
0.3189877158112626
 30
0.0
 40
0.0625
 41
0.325
 71
     1
 72
     5
  1
SCALE:
 73
     1
 44
1.0
1001
ACAD
1000
MTEXTBEGIN
1070
    73
1070
     1
1070
    44
1040
1.0
1070
    74
1070
     0
1000
MTEXTEND
  0
MTEXT
  5
16BB2
330
16BA9
100
AcDbEntity
  8
Symbol TXT
 62
     5
100
AcDbMText
 10
0.0261550802190129
 20
0.1032980606388492
 30
0.0
 40
0.0625
 41
0.9375
 71
     1
 72
     5
  1
I:-PerlDrawings-01Installation-CladWood\\
 73
     1
 44
1.0
1001
ACAD
1000
MTEXTBEGIN
1070
    73
1070
     1
1070
    44
1040
1.0
1070
    74
1070
     0
1000
MTEXTEND
  0
MTEXT
  5
16BB3
330
16BA9
100
AcDbEntity
  8
Symbol TXT
 62
     5
100
AcDbMText
 10
0.0261550802190129
 20
0.5730825433974687
 30
0.0
 40
0.0625
 41
0.75
 71
     1
 72
     5
  1
DRAWING NAME:
 73
     1
 44
1.0
1001
ACAD
1000
MTEXTBEGIN
1070
    73
1070
     1
1070
    44
1040
1.0
1070
    74
1070
     0
1000
MTEXTEND
  0
ATTDEF
  5
16BB4
330
16BA9
100
AcDbEntity
  8
Symbol TXT
100
AcDbText
 10
1.604772872737127
 20
0.3856060650609216
 30
0.0
 40
0.0625
  1
X
 11
1.604772872737127
 21
0.3671033365479612
 31
0.0
100
AcDbAttributeDefinition
  3
Revision #
  2
REV#
 70
     0
 74
     1
  0
ATTDEF
  5
16BB5
330
16BA9
100
AcDbEntity
  8
Symbol TXT
100
AcDbText
 10
0.3511550802190131
 20
0.254356065060922
 30
0.0
 40
0.0625
  1
X" = 1'-0"
 11
0.3511550802190131
 21
0.2358533365479616
 31
0.0
100
AcDbAttributeDefinition
  3
Drawing Scale:
  2
X"_=_1'-0"
 70
     0
 74
     1
  0
LINE
  5
16BB6
330
16BA9
100
AcDbEntity
  8
Symbol TXT
 62
     5
100
AcDbLine
 10
0.0
 20
0.3426628581173254
 30
0.0
 11
2.000115753055638
 21
0.3426628581173254
 31
0.0
  0
LWPOLYLINE
  5
16BB7
330
16BA9
100
AcDbEntity
  8
Symbol TXT
 62
     5
100
AcDbPolyline
 90
        4
 70
     1
 43
0.0
 10
0.0
 20
0.0
 10
2.000115753055638
 20
0.0
 10
2.000115753055638
 20
0.6239128581173255
 10
0.0
 20
0.6239128581173255
  0
ATTDEF
  5
16BB8
330
16BA9
100
AcDbEntity
  8
Symbol TXT
 62
   255
100
AcDbText
 10
1.034545675060178
 20
0.2522008926471284
 30
0.0
 40
0.0625
  1
2
 11
1.034545675060178
 21
0.233698164134168
 31
0.0
100
AcDbAttributeDefinition
  3
Scale Factor:
  2
SF
 70
     0
 74
     1
  0
MTEXT
  5
16BB9
330
16BA9
100
AcDbEntity
  8
Symbol TXT
 62
     5
100
AcDbMText
 10
0.0261550802190129
 20
0.1989877158112616
 30
0.0
 40
0.0625
 41
0.5625
 71
     1
 72
     5
  1
ENG. DWG #:
 73
     1
 44
1.0
1001
ACAD
1000
MTEXTBEGIN
1070
    73
1070
     1
1070
    44
1040
1.0
1070
    74
1070
     0
1000
MTEXTEND
  0
ATTDEF
  5
16BBA
330
16BA9
100
AcDbEntity
  8
Symbol TXT
100
AcDbText
 10
1.629772872737127
 20
0.2543325433974695
 30
0.0
 40
0.0625
  1
X
 11
1.629772872737127
 21
0.235829814884509
 31
0.0
100
AcDbAttributeDefinition
  3
Date
  2
DATE
 70
     0
 74
     1
  0
ATTDEF
  5
16BBB
330
16BA9
100
AcDbEntity
  8
Symbol TXT
100
AcDbText
 10
0.588655080219013
 20
0.134356065060921
 30
0.0
 40
0.0625
  1
08
 11
0.588655080219013
 21
0.1158533365479606
 31
0.0
100
AcDbAttributeDefinition
  3
Engineering Drawing Used:
  2
08
 70
     0
 74
     1
  0
MTEXT
  5
16BBC
330
16BA9
100
AcDbEntity
  8
Symbol TXT
 62
     5
100
AcDbMText
 10
1.354772872737127
 20
0.316832543397469
 30
0.0
 40
0.0625
 41
0.275
 71
     1
 72
     5
  1
DATE:
 73
     1
 44
1.0
1001
ACAD
1000
MTEXTBEGIN
1070
    73
1070
     1
1070
    44
1040
1.0
1070
    74
1070
     0
1000
MTEXTEND
  0
ATTDEF
  5
16BBD
330
16BA9
100
AcDbEntity
  8
Symbol TXT
 62
   255
100
AcDbText
 10
1.704772872737128
 20
0.134356065060921
 30
0.0
 40
0.0625
  1
X
 11
1.704772872737128
 21
0.1158533365479606
 31
0.0
100
AcDbAttributeDefinition
  3
Page #
  2
PAGE#
 70
     0
 74
     1
  0
MTEXT
  5
16BBE
330
16BA9
100
AcDbEntity
  8
Symbol TXT
 62
     5
100
AcDbMText
 10
1.354772872737127
 20
0.4502377158112623
 30
0.0
 40
0.0625
 41
0.25
 71
     1
 72
     5
  1
Rev.#
 73
     1
 44
1.0
1001
ACAD
1000
MTEXTBEGIN
1070
    73
1070
     1
1070
    44
1040
1.0
1070
    74
1070
     0
1000
MTEXTEND
  0
ATTDEF
  5
16BBF
330
16BA9
100
AcDbEntity
  8
Symbol TXT
 62
   255
100
AcDbText
 10
1.37281276228923
 20
0.0348294385378929
 30
0.0
 40
0.0625
  1
X
 11
1.37281276228923
 21
0.0163267100249325
 31
0.0
100
AcDbAttributeDefinition
  3
I: Folder Location
  2
I:\DriveLocation
 70
     0
 74
     1
  0
MTEXT
  5
16BC0
330
16BA9
100
AcDbEntity
  8
Symbol TXT
 62
     5
100
AcDbMText
 10
0.0261550802190129
 20
0.4523928882250559
 30
0.0
 40
0.0625
 41
0.375
 71
     1
 72
     5
  1
PERL #:
 73
     1
 44
1.0
1001
ACAD
1000
MTEXTBEGIN
1070
    73
1070
     1
1070
    44
1040
1.0
1070
    74
1070
     0
1000
MTEXTEND
  0
ENDBLK
  5
16BC1
330
16BA9
100
AcDbEntity
  8
0
100
AcDbBlockEnd
  0
BLOCK
  5
17744
330
17743
100
AcDbEntity
  8
0
100
AcDbBlockBegin
  2
SPIFDH1
 70
     0
 10
0.0
 20
0.0
 30
0.0
  3
SPIFDH1
  1

  0
LWPOLYLINE
  5
1794A
330
17743
100
AcDbEntity
  8
Clad
100
AcDbPolyline
 90
       30
 70
     1
 43
0.0
 10
4.625000000000003
 20
1.512
 10
4.675
 20
1.512
 10
4.675
 20
0.0450000000000017
 42
-0.4142135623730951
 10
4.580000000000001
 20
-0.0499999999999972
 10
2.534761552590623
 20
-0.0499999999999972
 42
0.4142135623730951
 10
2.484761552590626
 20
-0.0999999999999943
 42
0.4142135623730951
 10
2.534761552590623
 20
-0.1499999999999915
 10
2.727500000000024
 20
-0.1499999999999915
 42
-0.4142135623730376
 10
2.827500000000004
 20
-0.2499999999999858
 10
2.827500000000004
 20
-0.5799999999999983
 42
-0.4142135623730951
 10
2.732500000000005
 20
-0.6749999999999972
 10
1.047500000000006
 20
-0.6749999999999972
 42
-0.4142135623730951
 10
0.9525000000000076
 20
-0.5799999999999983
 10
0.9525000000000076
 20
-0.1200000000000045
 42
-0.4142135623730951
 10
1.047500000000006
 20
-0.0250000000000057
 10
1.452500000000007
 20
-0.0250000000000057
 10
1.452500000000007
 20
-0.0749999999999886
 10
1.047500000000006
 20
-0.0749999999999886
 42
0.4142135623731346
 10
1.002500000000004
 20
-0.1200000000000045
 10
1.002500000000004
 20
-0.5799999999999983
 42
0.4142135623731336
 10
1.047500000000006
 20
-0.625
 10
2.732500000000005
 20
-0.625
 42
0.4142135623731336
 10
2.777500000000006
 20
-0.5799999999999983
 10
2.777500000000021
 20
-0.2499999999999858
 42
0.4142135623730951
 10
2.727500000000024
 20
-0.1999999999999886
 10
2.534761552590623
 20
-0.1999999999999886
 42
-0.4142135623730381
 10
2.434761552590643
 20
-0.0999999999999943
 42
-0.4142135623730376
 10
2.534761552590623
 20
0.0
 10
4.580000000000001
 20
0.0
 42
0.4142135623731344
 10
4.625000000000003
 20
0.0450000000000017
  0
LWPOLYLINE
  5
1794B
330
17743
100
AcDbEntity
  8
Clad
100
AcDbPolyline
 90
        8
 70
     1
 43
0.0
 10
1.765
 20
0.0
 10
0.0450000000000017
 20
0.0
 42
-0.4142135623731369
 10
0.0
 20
0.0450000000000017
 10
-0.0000000000000071
 20
1.537499999999994
 10
-0.0250000000000057
 20
1.537499999999994
 10
-0.0250000000000057
 20
0.0450000000000017
 42
0.4142135623731316
 10
0.0450000000000017
 20
-0.0250000000000057
 10
1.765
 20
-0.0250000000000057
  0
POINT
  5
1794C
330
17743
100
AcDbEntity
  8
Points
100
AcDbPoint
 10
0.0
 20
0.0
 30
0.0
  0
LWPOLYLINE
  5
1794D
330
17743
100
AcDbEntity
  8
Clad
100
AcDbPolyline
 90
        4
 70
     1
 43
0.0
 10
0.9525000000000076
 20
0.0
 10
4.580000000000001
 20
0.0
 10
4.580000000000001
 20
0.0499999999999972
 10
0.9525000000000076
 20
0.0499999999999972
  0
LWPOLYLINE
  5
1794E
330
17743
100
AcDbEntity
  8
Clad
100
AcDbPolyline
 90
       20
 70
     1
 43
0.0
 10
4.675000000000014
 20
-0.2047428549999779
 10
4.675000000000014
 20
-6.0
 10
4.635342860000012
 20
-6.0
 10
4.635342860000012
 20
-0.2146571399999715
 10
3.866437811441276
 20
-0.2146571399999857
 10
3.846204146427599
 20
-1.048999153013937
 10
3.8075000625
 20
-1.047647576620704
 10
3.768795978572445
 20
-1.048999153013937
 10
3.748562313558753
 20
-0.2146571399999857
 10
2.979657265000032
 20
-0.2146571399999715
 10
2.979657265000032
 20
-6.0
 10
2.940000124999958
 20
-6.0
 10
2.940000124999958
 20
-0.2047428549999779
 42
-0.4142135623737599
 10
2.969742980000024
 20
-0.1749999999999829
 10
3.756009632308238
 20
-0.1749999999999829
 42
-0.4040262258351921
 10
3.78697289945028
 20
-0.2049008795104115
 10
3.807256560192659
 20
-1.037650541728901
 10
3.828027225549693
 20
-0.2049008795104115
 42
-0.4040262258352255
 10
3.858990492691734
 20
-0.1749999999999829
 10
4.645257145000019
 20
-0.1749999999999829
 42
-0.4142135623730601
  0
HATCH
  5
1794F
330
17743
100
AcDbEntity
  8
Hatch
 62
     2
100
AcDbHatch
 10
0.0
 20
0.0
 30
0.0
210
0.0
220
0.0
230
1.0
  2
NET
 70
     0
 71
     1
 91
        1
 92
        1
 93
       13
 72
     1
 10
4.635342860000012
 20
-6.0
 11
3.812499999999991
 21
-6.0
 72
     1
 10
3.812499999999991
 20
-6.0
 11
3.749999999999991
 21
-6.25
 72
     1
 10
3.749999999999991
 20
-6.25
 11
3.624999999999991
 21
-5.75
 72
     1
 10
3.624999999999991
 20
-5.75
 11
3.562499999999991
 21
-6.0
 72
     1
 10
3.562499999999991
 20
-6.0
 11
2.979657265000032
 21
-6.0
 72
     1
 10
2.979657265000032
 20
-6.0
 11
2.979657265000032
 21
-0.2146571399999715
 72
     1
 10
2.979657265000032
 20
-0.2146571399999715
 11
3.748562313558753
 21
-0.2146571399999857
 72
     1
 10
3.748562313558753
 20
-0.2146571399999857
 11
3.768795978572445
 21
-1.048999153013937
 72
     1
 10
3.768795978572445
 20
-1.048999153013937
 11
3.807500062500007
 21
-1.047647576620711
 72
     1
 10
3.807500062500007
 20
-1.047647576620711
 11
3.846204146427599
 21
-1.048999153013937
 72
     1
 10
3.846204146427599
 20
-1.048999153013937
 11
3.866437811441276
 21
-0.2146571399999857
 72
     1
 10
3.866437811441276
 20
-0.2146571399999857
 11
4.635342860000012
 21
-0.2146571399999715
 72
     1
 10
4.635342860000012
 20
-0.2146571399999715
 11
4.635342860000012
 21
-6.0
 97
        1
330
17950
 75
     0
 76
     1
 52
0.0
 41
3.0
 77
     0
 78
     2
 53
0.0
 43
2.500781581429365
 44
6.429467569572459
 45
0.0
 46
-0.375
 79
     0
 53
270.0
 43
2.500781581429365
 44
6.429467569572459
 45
-0.375
 46
0.0
 79
     0
 98
        1
 10
2.500781581429365
 20
6.429467569572459
1001
ACAD
1010
0.0
1020
0.0
1030
0.0
  0
LWPOLYLINE
  5
17950
102
{ACAD_REACTORS
330
1794F
102
}
330
17743
100
AcDbEntity
  8
Points
100
AcDbPolyline
 90
       13
 70
     1
 43
0.0
 10
4.635342860000012
 20
-6.0
 10
3.812499999999991
 20
-6.0
 10
3.749999999999991
 20
-6.25
 10
3.624999999999991
 20
-5.75
 10
3.562499999999991
 20
-6.0
 10
2.979657265000032
 20
-6.0
 10
2.979657265000032
 20
-0.2146571399999715
 10
3.748562313558753
 20
-0.2146571399999857
 10
3.768795978572445
 20
-1.048999153013937
 10
3.807500062500007
 20
-1.047647576620711
 10
3.846204146427599
 20
-1.048999153013937
 10
3.866437811441276
 20
-0.2146571399999857
 10
4.635342860000012
 20
-0.2146571399999715
  0
POLYLINE
  5
17951
330
17743
100
AcDbEntity
  8
CS-Sealant
100
AcDb2dPolyline
 66
     1
 10
0.0
 20
0.0
 30
0.0
 70
     1
  0
VERTEX
  5
1878F
330
17951
100
AcDbEntity
  8
CS-Sealant
100
AcDbVertex
100
AcDb2dVertex
 10
2.698051146254559
 20
-0.0800006600011898
 30
0.0
  0
VERTEX
  5
18790
330
17951
100
AcDbEntity
  8
CS-Sealant
100
AcDbVertex
100
AcDb2dVertex
 10
2.673050596253577
 20
-0.0800006600011898
 30
0.0
 42
0.0582219336589616
  0
VERTEX
  5
18791
330
17951
100
AcDbEntity
  8
CS-Sealant
100
AcDbVertex
100
AcDb2dVertex
 10
2.728580462430873
 20
-0.1472158365681153
 30
0.0
 42
0.8463011807844029
  0
VERTEX
  5
18792
330
17951
100
AcDbEntity
  8
CS-Sealant
100
AcDbVertex
100
AcDb2dVertex
 10
2.743183341879745
 20
-0.1336582368063901
 30
0.0
 42
-0.0407304801418053
  0
VERTEX
  5
18793
330
17951
100
AcDbEntity
  8
CS-Sealant
100
AcDbVertex
100
AcDb2dVertex
 10
2.698051146254559
 20
-0.0800006600011898
 30
0.0
  0
SEQEND
  5
18794
330
17951
100
AcDbEntity
  8
CS-Sealant
  0
POLYLINE
  5
17958
330
17743
100
AcDbEntity
  8
CS-Sealant
 62
     4
100
AcDb2dPolyline
 66
     1
 10
0.0
 20
0.0
 30
0.0
 70
     1
  0
VERTEX
  5
18796
330
17958
100
AcDbEntity
  8
CS-Sealant
 62
     4
100
AcDbVertex
100
AcDb2dVertex
 10
2.89919522133491
 20
-0.1192369540198399
 30
0.0
  0
VERTEX
  5
18797
330
17958
100
AcDbEntity
  8
CS-Sealant
 62
     4
100
AcDbVertex
100
AcDb2dVertex
 10
2.881219369476045
 20
-0.2928603478408007
 30
0.0
 42
-0.4142135623735114
  0
VERTEX
  5
18798
330
17958
100
AcDbEntity
  8
CS-Sealant
 62
     4
100
AcDbVertex
100
AcDb2dVertex
 10
2.876219259475849
 20
-0.2978604578410113
 30
0.0
  0
VERTEX
  5
18799
330
17958
100
AcDbEntity
  8
CS-Sealant
 62
     4
100
AcDbVertex
100
AcDb2dVertex
 10
2.856218819475035
 20
-0.2978604578410113
 30
0.0
 42
-0.4142135623729911
  0
VERTEX
  5
1879A
330
17958
100
AcDbEntity
  8
CS-Sealant
 62
     4
100
AcDbVertex
100
AcDb2dVertex
 10
2.851218709474839
 20
-0.2928603478408149
 30
0.0
  0
VERTEX
  5
1879B
330
17958
100
AcDbEntity
  8
CS-Sealant
 62
     4
100
AcDbVertex
100
AcDb2dVertex
 10
2.869194561333703
 20
-0.1192369540198399
 30
0.0
 42
0.291473419586125
  0
VERTEX
  5
1879C
330
17958
100
AcDbEntity
  8
CS-Sealant
 62
     4
100
AcDbVertex
100
AcDb2dVertex
 10
2.857646672520093
 20
-0.1011103995029572
 30
0.0
  0
VERTEX
  5
1879D
330
17958
100
AcDbEntity
  8
CS-Sealant
 62
     4
100
AcDbVertex
100
AcDb2dVertex
 10
2.842792561831107
 20
-0.0941838139335971
 30
0.0
  0
VERTEX
  5
1879E
330
17958
100
AcDbEntity
  8
CS-Sealant
 62
     4
100
AcDbVertex
100
AcDb2dVertex
 10
2.721283845779741
 20
-0.0963047564616204
 30
0.0
  0
VERTEX
  5
1879F
330
17958
100
AcDbEntity
  8
CS-Sealant
 62
     4
100
AcDbVertex
100
AcDb2dVertex
 10
2.711870630102797
 20
-0.0800006600011898
 30
0.0
  0
VERTEX
  5
187A0
330
17958
100
AcDbEntity
  8
CS-Sealant
 62
     4
100
AcDbVertex
100
AcDb2dVertex
 10
2.550390922487849
 20
-0.0800006600011898
 30
0.0
  0
VERTEX
  5
187A1
330
17958
100
AcDbEntity
  8
CS-Sealant
 62
     4
100
AcDbVertex
100
AcDb2dVertex
 10
2.506332038373166
 20
-0.113890920451027
 30
0.0
 42
-1.0
  0
VERTEX
  5
187A2
330
17958
100
AcDbEntity
  8
CS-Sealant
 62
     4
100
AcDbVertex
100
AcDb2dVertex
 10
2.488040716264485
 20
-0.0901113675531207
 30
0.0
  0
VERTEX
  5
187A3
330
17958
100
AcDbEntity
  8
CS-Sealant
 62
     4
100
AcDbVertex
100
AcDb2dVertex
 10
2.540187323320537
 20
-0.0499999999999972
 30
0.0
  0
VERTEX
  5
187A4
330
17958
100
AcDbEntity
  8
CS-Sealant
 62
     4
100
AcDbVertex
100
AcDb2dVertex
 10
2.72919148132809
 20
-0.0499999999999972
 30
0.0
  0
VERTEX
  5
187A5
330
17958
100
AcDbEntity
  8
CS-Sealant
 62
     4
100
AcDbVertex
100
AcDb2dVertex
 10
2.738429271555393
 20
-0.0660002519984317
 30
0.0
  0
VERTEX
  5
187A6
330
17958
100
AcDbEntity
  8
CS-Sealant
 62
     4
100
AcDbVertex
100
AcDb2dVertex
 10
2.849184143898913
 20
-0.0636054145306986
 30
0.0
  0
VERTEX
  5
187A7
330
17958
100
AcDbEntity
  8
CS-Sealant
 62
     4
100
AcDbVertex
100
AcDb2dVertex
 10
2.870325499300879
 20
-0.073920567727626
 30
0.0
 42
-0.291473419586106
  0
SEQEND
  5
187A8
330
17958
100
AcDbEntity
  8
CS-Sealant
 62
     4
  0
POLYLINE
  5
1796C
330
17743
100
AcDbEntity
  8
CS-Sealant
100
AcDb2dPolyline
 66
     1
 10
0.0
 20
0.0
 30
0.0
 70
     1
  0
VERTEX
  5
187AA
330
1796C
100
AcDbEntity
  8
CS-Sealant
100
AcDbVertex
100
AcDb2dVertex
 10
2.580391582489045
 20
-0.0800006600011898
 30
0.0
  0
VERTEX
  5
187AB
330
1796C
100
AcDbEntity
  8
CS-Sealant
100
AcDbVertex
100
AcDb2dVertex
 10
2.55539103248806
 20
-0.0800006600011898
 30
0.0
 42
0.0200060303623288
  0
VERTEX
  5
187AC
330
1796C
100
AcDbEntity
  8
CS-Sealant
100
AcDbVertex
100
AcDb2dVertex
 10
2.618587461610236
 20
-0.1470172013098505
 30
0.0
 42
0.9071647986108388
  0
VERTEX
  5
187AD
330
1796C
100
AcDbEntity
  8
CS-Sealant
100
AcDbVertex
100
AcDb2dVertex
 10
2.631696292148571
 20
-0.1373845790204484
 30
0.0
 42
-0.0669701791912106
  0
VERTEX
  5
187AE
330
1796C
100
AcDbEntity
  8
CS-Sealant
100
AcDbVertex
100
AcDb2dVertex
 10
2.580391582489045
 20
-0.0800006600011898
 30
0.0
  0
SEQEND
  5
187AF
330
1796C
100
AcDbEntity
  8
CS-Sealant
  0
LWPOLYLINE
  5
17973
330
17743
100
AcDbEntity
  8
CS-Sealant
100
AcDbPolyline
 90
       25
 70
     1
 43
0.0
 10
2.869194561333703
 20
-0.1192369540198399
 42
0.291473419586125
 10
2.857646672520093
 20
-0.1011103995029572
 10
2.842792561831107
 20
-0.0941838139336042
 10
2.799792739514234
 20
-0.0949343786240391
 10
2.800351636788303
 20
-0.1814971605167486
 42
-0.1909313252295837
 10
2.827500000000004
 20
-0.2499999999999858
 10
2.827500000000004
 20
-0.5799999999999983
 42
-0.1843830227092362
 10
2.803333329965756
 20
-0.6433059188857016
 42
0.604079822716526
 10
2.940000124999958
 20
-0.6918625637605942
 10
2.940000124999958
 20
-0.2047428549999779
 42
-0.4142135623737599
 10
2.969742980000024
 20
-0.1749999999999829
 10
2.993455829217094
 20
-0.1675845502315809
 10
3.004537611263376
 20
-0.1383495017624696
 42
1.430647030394532
 10
2.946585602815954
 20
-0.1341194169082343
 10
2.880577171437199
 20
-0.4100403108800279
 42
-5.360889268423788
 10
2.874375577371726
 20
-0.4072490477138331
 10
2.939123458609966
 20
-0.129890301882746
 42
0.9297307254500786
 10
2.881194825334194
 20
-0.062913251940941
 10
2.849184143898913
 20
-0.0636054145306986
 10
2.870325499300879
 20
-0.073920567727626
 42
-0.2914734195860637
 10
2.89919522133491
 20
-0.1192369540198399
 10
2.881219369476045
 20
-0.2928603478408007
 42
-0.4142135623735114
 10
2.876219259475849
 20
-0.2978604578410113
 10
2.856218819475035
 20
-0.2978604578410113
 42
-0.4142135623730958
 10
2.851218709474839
 20
-0.2928603478408149
  0
ENDBLK
  5
17745
330
17743
100
AcDbEntity
  8
0
100
AcDbBlockEnd
  0
ENDSEC
  0
SECTION
  2
ENTITIES
  0
INSERT
  5
CCAF
330
1F
100
AcDbEntity
  8
BORDER
100
AcDbBlockReference
  2
Border
 10
0.0
 20
0.0
 30
0.0
 41
4.0
 42
4.0
 43
4.0
  0
INSERT
  5
E981
330
1F
100
AcDbEntity
  8
0
100
AcDbBlockReference
  2
ESSblock
 10
9.928750000000071
 20
17.78125
 30
0.0
  0
TEXT
  5
E985
330
1F
100
AcDbEntity
  8
TXT
  6
Continuous
100
AcDbText
 10
11.23141712141882
 20
12.40625
 30
0.0
 40
0.28
  1
SILL
 72
     1
 11
11.63375
 21
12.40625
 31
0.0
100
AcDbText
  0
TEXT
  5
E9AC
330
1F
100
AcDbEntity
  8
TXT
  6
Continuous
100
AcDbText
 10
11.09036664392905
 20
24.14125
 30
0.0
 40
0.28
  1
HEAD
 72
     1
 11
11.63375
 21
24.28125
 31
0.0
100
AcDbText
 73
     2
  0
TEXT
  5
E9D5
330
1F
100
AcDbEntity
  8
TXT
  6
Continuous
100
AcDbText
 10
24.00869830951196
 20
20.95592297924369
 30
0.0
 40
0.28
  1
JAMB
 72
     1
 11
24.53030813215861
 21
20.95592297924369
 31
0.0
100
AcDbText
  0
DIMENSION
  5
EA58
330
1F
100
AcDbEntity
  8
Dim
100
AcDbDimension
  2
*D2
 10
27.40027474936908
 20
13.75499999999977
 30
0.0
 11
25.55652474936907
 21
13.48512960436538
 31
0.0
 70
   160
  1
ROUGH OPENING
 71
     5
 42
6.404999999999777
  3
3 inch Scale
100
AcDbAlignedDimension
 13
20.9952747493693
 23
18.59917297924373
 33
0.0
 14
27.40027474936908
 24
16.70287367283419
 34
0.0
 50
180.0
100
AcDbRotatedDimension
1001
ACAD
1000
DSTYLE
1002
{
1070
    76
1070
     1
1070
   344
1005
F24B
1070
   173
1070
     1
1070
   343
1005
0
1002
}
  0
DIMENSION
  5
EA72
330
1F
100
AcDbEntity
  8
Dim
100
AcDbDimension
  2
*D3
 10
27.40027474936908
 20
14.75499999999977
 30
0.0
 11
26.55652474936907
 21
14.48999999999976
 31
0.0
 70
   160
  1
FRAME
 71
     5
 42
6.004999999999768
  3
3 inch Scale
100
AcDbAlignedDimension
 13
21.39527474936931
 23
18.59917297924373
 33
0.0
 14
27.40027474936908
 24
16.70287367283419
 34
0.0
 50
180.0
100
AcDbRotatedDimension
1001
ACAD
1000
DSTYLE
1002
{
1070
    76
1070
     1
1070
   344
1005
F24B
1070
   173
1070
     1
1070
   343
1005
0
1002
}
  0
DIMENSION
  5
EA8C
330
1F
100
AcDbEntity
  8
Dim
100
AcDbDimension
  2
*D4
 10
5.092827020756033
 20
24.78125
 30
0.0
 11
4.827827020756028
 21
25.59375
 31
0.0
 70
   160
  1
FRAME
 71
     5
 42
6.000000000000003
  3
3 inch Scale
100
AcDbAlignedDimension
 13
8.96875
 23
30.78125
 33
0.0
 14
5.687038510378016
 24
24.78125
 34
0.0
 50
90.0
100
AcDbRotatedDimension
1001
ACAD
1000
DSTYLE
1002
{
1070
    76
1070
     1
1070
   344
1005
F24B
1070
   173
1070
     1
1070
   343
1005
0
1002
}
  0
DIMENSION
  5
EAA6
330
1F
100
AcDbEntity
  8
Dim
100
AcDbDimension
  2
*D5
 10
5.09282702075604
 20
23.78125
 30
0.0
 11
4.827827020756037
 21
18.5625
 31
0.0
 70
   160
  1
FRAME
 71
     5
 42
6.042499999999996
  3
3 inch Scale
100
AcDbAlignedDimension
 13
8.937000000000001
 23
17.73875
 33
0.0
 14
6.978200693590453
 24
23.78125
 34
0.0
 50
90.0
100
AcDbRotatedDimension
1001
ACAD
1000
DSTYLE
1002
{
1070
   343
1005
F24B
1070
   173
1070
     1
1070
   344
1005
0
1002
}
  0
DIMENSION
  5
F1B4
330
1F
100
AcDbEntity
  8
Dim
100
AcDbDimension
  2
*D6
 10
4.092827020756033
 20
24.78125
 30
0.0
 11
3.82295662512165
 21
26.59375
 31
0.0
 70
   160
  1
ROUGH OPENING
 71
     5
 42
6.500000000000003
  3
3 inch Scale
100
AcDbAlignedDimension
 13
8.96875
 23
31.28125
 33
0.0
 14
5.687038510378016
 24
24.78125
 34
0.0
 50
90.0
100
AcDbRotatedDimension
1001
ACAD
1000
DSTYLE
1002
{
1070
    76
1070
     1
1070
   344
1005
F24B
1070
   173
1070
     1
1070
   343
1005
0
1002
}
  0
DIMENSION
  5
F1EA
330
1F
100
AcDbEntity
  8
Dim
100
AcDbDimension
  2
*D7
 10
5.092827020756034
 20
31.28125000000001
 30
0.0
 11
5.092827020756034
 21
32.6234710062938
 31
0.0
 70
   160
 71
     5
 42
0.5
  3
3 inch Scale
100
AcDbAlignedDimension
 13
8.96875
 23
30.78125
 33
0.0
 14
8.96875
 24
31.28125
 34
0.0
 50
90.0
100
AcDbRotatedDimension
  0
DIMENSION
  5
F2A3
330
1F
100
AcDbEntity
  8
Dim
100
AcDbDimension
  2
*D9
 10
20.9952747493693
 20
14.75499999999977
 30
0.0
 11
19.68316576616211
 21
14.75499999999977
 31
0.0
 70
   160
 71
     5
 42
0.4000000000000093
  3
3 inch Scale
100
AcDbAlignedDimension
 13
21.39527474936931
 23
18.59917297924373
 33
0.0
 14
20.9952747493693
 24
18.59917297924373
 34
0.0
 50
180.0
100
AcDbRotatedDimension
  0
DIMENSION
  5
F32F
330
1F
100
AcDbEntity
  8
Dim
100
AcDbDimension
  2
*D10
 10
4.092827020756038
 20
23.78125
 30
0.0
 11
3.822956625121658
 21
19.5625
 31
0.0
 70
   160
  1
ROUGH OPENING
 71
     5
 42
6.042499999999996
  3
3 inch Scale
100
AcDbAlignedDimension
 13
8.937000000000001
 23
17.73875
 33
0.0
 14
6.717827020756033
 24
23.78125
 34
0.0
 50
90.0
100
AcDbRotatedDimension
1001
ACAD
1000
DSTYLE
1002
{
1070
   173
1070
     1
1070
   343
1005
F24B
1002
}
  0
INSERT
  5
FADC
330
1F
100
AcDbEntity
  8
0
100
AcDbBlockReference
  2
Td--2xwsid-fH-wdDr
 10
9.937500000000008
 20
30.78125
 30
0.0
  0
POLYLINE
  5
10663
330
1F
100
AcDbEntity
  8
Wall
100
AcDb2dPolyline
 66
     1
 10
0.0
 20
0.0
 30
0.0
  0
VERTEX
  5
10664
330
10663
100
AcDbEntity
  8
Wall
100
AcDbVertex
100
AcDb2dVertex
 10
6.968250000000001
 20
35.28125
 30
0.0
  0
VERTEX
  5
10665
330
10663
100
AcDbEntity
  8
Wall
100
AcDbVertex
100
AcDb2dVertex
 10
8.343250000000001
 20
35.28125000000001
 30
0.0
  0
VERTEX
  5
10666
330
10663
100
AcDbEntity
  8
Wall
100
AcDbVertex
100
AcDb2dVertex
 10
8.405750000000001
 20
35.53125000000001
 30
0.0
  0
VERTEX
  5
10667
330
10663
100
AcDbEntity
  8
Wall
100
AcDbVertex
100
AcDb2dVertex
 10
8.530750000000001
 20
35.03125000000001
 30
0.0
  0
VERTEX
  5
10668
330
10663
100
AcDbEntity
  8
Wall
100
AcDbVertex
100
AcDb2dVertex
 10
8.593250000000001
 20
35.28125000000001
 30
0.0
  0
VERTEX
  5
10669
330
10663
100
AcDbEntity
  8
Wall
100
AcDbVertex
100
AcDb2dVertex
 10
13.5
 20
35.28125
 30
0.0
  0
VERTEX
  5
1066A
330
10663
100
AcDbEntity
  8
Wall
100
AcDbVertex
100
AcDb2dVertex
 10
13.5625
 20
35.53125
 30
0.0
  0
VERTEX
  5
1066B
330
10663
100
AcDbEntity
  8
Wall
100
AcDbVertex
100
AcDb2dVertex
 10
13.6875
 20
35.03125
 30
0.0
  0
VERTEX
  5
1066C
330
10663
100
AcDbEntity
  8
Wall
100
AcDbVertex
100
AcDb2dVertex
 10
13.75
 20
35.28125
 30
0.0
  0
VERTEX
  5
1066D
330
10663
100
AcDbEntity
  8
Wall
100
AcDbVertex
100
AcDb2dVertex
 10
15.9375
 20
35.28125
 30
0.0
  0
SEQEND
  5
1066E
330
10663
100
AcDbEntity
  8
Wall
  0
POLYLINE
  5
1066F
330
1F
100
AcDbEntity
  8
Wall
100
AcDb2dPolyline
 66
     1
 10
0.0
 20
0.0
 30
0.0
  0
VERTEX
  5
10670
330
1066F
100
AcDbEntity
  8
Wall
100
AcDbVertex
100
AcDb2dVertex
 10
17.11902474936907
 20
16.63042297924373
 30
0.0
  0
VERTEX
  5
10671
330
1066F
100
AcDbEntity
  8
Wall
100
AcDbVertex
100
AcDb2dVertex
 10
17.11902474936907
 20
18.00542297924373
 30
0.0
  0
VERTEX
  5
10672
330
1066F
100
AcDbEntity
  8
Wall
100
AcDbVertex
100
AcDb2dVertex
 10
16.86902474936907
 20
18.06792297924374
 30
0.0
  0
VERTEX
  5
10673
330
1066F
100
AcDbEntity
  8
Wall
100
AcDbVertex
100
AcDb2dVertex
 10
17.36902474936907
 20
18.19292297924373
 30
0.0
  0
VERTEX
  5
10674
330
1066F
100
AcDbEntity
  8
Wall
100
AcDbVertex
100
AcDb2dVertex
 10
17.11902474936907
 20
18.25542297924373
 30
0.0
  0
VERTEX
  5
10675
330
1066F
100
AcDbEntity
  8
Wall
100
AcDbVertex
100
AcDb2dVertex
 10
17.11902474936907
 20
23.16217297924374
 30
0.0
  0
VERTEX
  5
10676
330
1066F
100
AcDbEntity
  8
Wall
100
AcDbVertex
100
AcDb2dVertex
 10
16.86902474936907
 20
23.22467297924374
 30
0.0
  0
VERTEX
  5
10677
330
1066F
100
AcDbEntity
  8
Wall
100
AcDbVertex
100
AcDb2dVertex
 10
17.36902474936907
 20
23.34967297924374
 30
0.0
  0
VERTEX
  5
10678
330
1066F
100
AcDbEntity
  8
Wall
100
AcDbVertex
100
AcDb2dVertex
 10
17.11902474936907
 20
23.41217297924374
 30
0.0
  0
VERTEX
  5
10679
330
1066F
100
AcDbEntity
  8
Wall
100
AcDbVertex
100
AcDb2dVertex
 10
17.11902474936907
 20
25.59967297924374
 30
0.0
  0
SEQEND
  5
1067A
330
1066F
100
AcDbEntity
  8
Wall
  0
POLYLINE
  5
106FC
330
1F
100
AcDbEntity
  8
Wall
100
AcDb2dPolyline
 66
     1
 10
0.0
 20
0.0
 30
0.0
  0
VERTEX
  5
106FD
330
106FC
100
AcDbEntity
  8
Wall
100
AcDbVertex
100
AcDb2dVertex
 10
3.842827020756033
 20
24.78125
 30
0.0
  0
VERTEX
  5
106FE
330
106FC
100
AcDbEntity
  8
Wall
100
AcDbVertex
100
AcDb2dVertex
 10
8.343250000000001
 20
24.78125
 30
0.0
  0
VERTEX
  5
106FF
330
106FC
100
AcDbEntity
  8
Wall
100
AcDbVertex
100
AcDb2dVertex
 10
8.405750000000001
 20
25.03125
 30
0.0
  0
VERTEX
  5
10700
330
106FC
100
AcDbEntity
  8
Wall
100
AcDbVertex
100
AcDb2dVertex
 10
8.530750000000001
 20
24.53125
 30
0.0
  0
VERTEX
  5
10701
330
106FC
100
AcDbEntity
  8
Wall
100
AcDbVertex
100
AcDb2dVertex
 10
8.593250000000001
 20
24.78125
 30
0.0
  0
VERTEX
  5
10702
330
106FC
100
AcDbEntity
  8
Wall
100
AcDbVertex
100
AcDb2dVertex
 10
13.5
 20
24.78125
 30
0.0
  0
VERTEX
  5
10703
330
106FC
100
AcDbEntity
  8
Wall
100
AcDbVertex
100
AcDb2dVertex
 10
13.5625
 20
25.03125
 30
0.0
  0
VERTEX
  5
10704
330
106FC
100
AcDbEntity
  8
Wall
100
AcDbVertex
100
AcDb2dVertex
 10
13.6875
 20
24.53125
 30
0.0
  0
VERTEX
  5
10705
330
106FC
100
AcDbEntity
  8
Wall
100
AcDbVertex
100
AcDb2dVertex
 10
13.75
 20
24.78125
 30
0.0
  0
VERTEX
  5
10706
330
106FC
100
AcDbEntity
  8
Wall
100
AcDbVertex
100
AcDb2dVertex
 10
15.61902474936907
 20
24.78125
 30
0.0
  0
SEQEND
  5
10707
330
106FC
100
AcDbEntity
  8
Wall
  0
INSERT
  5
10BCC
330
1F
100
AcDbEntity
  8
0
100
AcDbBlockReference
  2
Td--2xwsid-fJ-ESDr
 10
21.39527474936931
 20
19.59342297924374
 30
0.0
 50
90.0
  0
POLYLINE
  5
126C9
330
1F
100
AcDbEntity
  8
0
 62
     9
100
AcDb2dPolyline
 66
     1
 10
0.0
 20
0.0
 30
0.0
  0
VERTEX
  5
126CA
330
126C9
100
AcDbEntity
  8
0
 62
     9
100
AcDbVertex
100
AcDb2dVertex
 10
5.342827020756026
 20
23.78125
 30
0.0
  0
VERTEX
  5
126CB
330
126C9
100
AcDbEntity
  8
0
 62
     9
100
AcDbVertex
100
AcDb2dVertex
 10
8.343250000000001
 20
23.78125
 30
0.0
  0
VERTEX
  5
126CC
330
126C9
100
AcDbEntity
  8
0
 62
     9
100
AcDbVertex
100
AcDb2dVertex
 10
8.405750000000001
 20
24.03125
 30
0.0
  0
VERTEX
  5
126CD
330
126C9
100
AcDbEntity
  8
0
 62
     9
100
AcDbVertex
100
AcDb2dVertex
 10
8.530750000000001
 20
23.53125
 30
0.0
  0
VERTEX
  5
126CE
330
126C9
100
AcDbEntity
  8
0
 62
     9
100
AcDbVertex
100
AcDb2dVertex
 10
8.593250000000001
 20
23.78125
 30
0.0
  0
VERTEX
  5
126CF
330
126C9
100
AcDbEntity
  8
0
 62
     9
100
AcDbVertex
100
AcDb2dVertex
 10
13.5
 20
23.78125
 30
0.0
  0
VERTEX
  5
126D0
330
126C9
100
AcDbEntity
  8
0
 62
     9
100
AcDbVertex
100
AcDb2dVertex
 10
13.5625
 20
24.03125
 30
0.0
  0
VERTEX
  5
126D1
330
126C9
100
AcDbEntity
  8
0
 62
     9
100
AcDbVertex
100
AcDb2dVertex
 10
13.6875
 20
23.53125
 30
0.0
  0
VERTEX
  5
126D2
330
126C9
100
AcDbEntity
  8
0
 62
     9
100
AcDbVertex
100
AcDb2dVertex
 10
13.75
 20
23.78125
 30
0.0
  0
VERTEX
  5
126D3
330
126C9
100
AcDbEntity
  8
0
 62
     9
100
AcDbVertex
100
AcDb2dVertex
 10
15.61902474936907
 20
23.78125
 30
0.0
  0
SEQEND
  5
126D4
330
126C9
100
AcDbEntity
  8
0
 62
     9
  0
POLYLINE
  5
12733
330
1F
100
AcDbEntity
  8
0
 62
     9
100
AcDb2dPolyline
 66
     1
 10
0.0
 20
0.0
 30
0.0
  0
VERTEX
  5
12734
330
12733
100
AcDbEntity
  8
0
 62
     9
100
AcDbVertex
100
AcDb2dVertex
 10
27.39527474936931
 20
13.50499999999977
 30
0.0
  0
VERTEX
  5
12735
330
12733
100
AcDbEntity
  8
0
 62
     9
100
AcDbVertex
100
AcDb2dVertex
 10
27.39527474936931
 20
18.00542297924373
 30
0.0
  0
VERTEX
  5
12736
330
12733
100
AcDbEntity
  8
0
 62
     9
100
AcDbVertex
100
AcDb2dVertex
 10
27.14527474936931
 20
18.06792297924373
 30
0.0
  0
VERTEX
  5
12737
330
12733
100
AcDbEntity
  8
0
 62
     9
100
AcDbVertex
100
AcDb2dVertex
 10
27.64527474936931
 20
18.19292297924373
 30
0.0
  0
VERTEX
  5
12738
330
12733
100
AcDbEntity
  8
0
 62
     9
100
AcDbVertex
100
AcDb2dVertex
 10
27.39527474936931
 20
18.25542297924373
 30
0.0
  0
VERTEX
  5
12739
330
12733
100
AcDbEntity
  8
0
 62
     9
100
AcDbVertex
100
AcDb2dVertex
 10
27.39527474936931
 20
23.16217297924374
 30
0.0
  0
VERTEX
  5
1273A
330
12733
100
AcDbEntity
  8
0
 62
     9
100
AcDbVertex
100
AcDb2dVertex
 10
27.14527474936931
 20
23.22467297924374
 30
0.0
  0
VERTEX
  5
1273B
330
12733
100
AcDbEntity
  8
0
 62
     9
100
AcDbVertex
100
AcDb2dVertex
 10
27.64527474936931
 20
23.34967297924373
 30
0.0
  0
VERTEX
  5
1273C
330
12733
100
AcDbEntity
  8
0
 62
     9
100
AcDbVertex
100
AcDb2dVertex
 10
27.39527474936931
 20
23.41217297924373
 30
0.0
  0
VERTEX
  5
1273D
330
12733
100
AcDbEntity
  8
0
 62
     9
100
AcDbVertex
100
AcDb2dVertex
 10
27.39527474936931
 20
25.59967297924373
 30
0.0
  0
SEQEND
  5
1273E
330
12733
100
AcDbEntity
  8
0
 62
     9
  0
INSERT
  5
1352E
330
1F
100
AcDbEntity
  8
0
100
AcDbBlockReference
  2
SPIFDHJ
 10
21.39527474936931
 20
19.59342297924374
 30
0.0
 50
90.0
  0
INSERT
  5
13615
330
1F
100
AcDbEntity
  8
0
100
AcDbBlockReference
  2
SPIFDS
 10
9.928750000000071
 20
17.7839380821604
 30
0.0
  0
POLYLINE
  5
13CCF
330
1F
100
AcDbEntity
  8
0
 62
     9
100
AcDb2dPolyline
 66
     1
 10
0.0
 20
0.0
 30
0.0
  0
VERTEX
  5
13CD0
330
13CCF
100
AcDbEntity
  8
0
 62
     9
100
AcDbVertex
100
AcDb2dVertex
 10
7.11944773676582
 20
13.40625
 30
0.0
  0
VERTEX
  5
13CD1
330
13CCF
100
AcDbEntity
  8
0
 62
     9
100
AcDbVertex
100
AcDb2dVertex
 10
8.264772103190695
 20
13.40625
 30
0.0
  0
VERTEX
  5
13CD2
330
13CCF
100
AcDbEntity
  8
0
 62
     9
100
AcDbVertex
100
AcDb2dVertex
 10
8.327272103190695
 20
13.65625
 30
0.0
  0
VERTEX
  5
13CD3
330
13CCF
100
AcDbEntity
  8
0
 62
     9
100
AcDbVertex
100
AcDb2dVertex
 10
8.452272103190695
 20
13.15625
 30
0.0
  0
VERTEX
  5
13CD4
330
13CCF
100
AcDbEntity
  8
0
 62
     9
100
AcDbVertex
100
AcDb2dVertex
 10
8.514772103190695
 20
13.40625
 30
0.0
  0
VERTEX
  5
13CD5
330
13CCF
100
AcDbEntity
  8
0
 62
     9
100
AcDbVertex
100
AcDb2dVertex
 10
13.65119773676582
 20
13.40625
 30
0.0
  0
VERTEX
  5
13CD6
330
13CCF
100
AcDbEntity
  8
0
 62
     9
100
AcDbVertex
100
AcDb2dVertex
 10
13.71369773676582
 20
13.65625
 30
0.0
  0
VERTEX
  5
13CD7
330
13CCF
100
AcDbEntity
  8
0
 62
     9
100
AcDbVertex
100
AcDb2dVertex
 10
13.83869773676582
 20
13.15625
 30
0.0
  0
VERTEX
  5
13CD8
330
13CCF
100
AcDbEntity
  8
0
 62
     9
100
AcDbVertex
100
AcDb2dVertex
 10
13.90119773676582
 20
13.40625
 30
0.0
  0
VERTEX
  5
13CD9
330
13CCF
100
AcDbEntity
  8
0
 62
     9
100
AcDbVertex
100
AcDb2dVertex
 10
16.08869773676582
 20
13.40625
 30
0.0
  0
SEQEND
  5
13CDA
330
13CCF
100
AcDbEntity
  8
0
 62
     9
  0
POLYLINE
  5
13CDB
330
1F
100
AcDbEntity
  8
0
 62
     9
100
AcDb2dPolyline
 66
     1
 10
0.0
 20
0.0
 30
0.0
  0
VERTEX
  5
13CDC
330
13CDB
100
AcDbEntity
  8
0
 62
     9
100
AcDbVertex
100
AcDb2dVertex
 10
15.61902474936907
 20
12.43017681667015
 30
0.0
  0
VERTEX
  5
13CDD
330
13CDB
100
AcDbEntity
  8
0
 62
     9
100
AcDbVertex
100
AcDb2dVertex
 10
15.61902474936907
 20
13.93017681667015
 30
0.0
  0
VERTEX
  5
13CDE
330
13CDB
100
AcDbEntity
  8
0
 62
     9
100
AcDbVertex
100
AcDb2dVertex
 10
15.36902474936907
 20
13.99267681667015
 30
0.0
  0
VERTEX
  5
13CDF
330
13CDB
100
AcDbEntity
  8
0
 62
     9
100
AcDbVertex
100
AcDb2dVertex
 10
15.86902474936907
 20
14.11767681667015
 30
0.0
  0
VERTEX
  5
13CE0
330
13CDB
100
AcDbEntity
  8
0
 62
     9
100
AcDbVertex
100
AcDb2dVertex
 10
15.61902474936907
 20
14.18017681667015
 30
0.0
  0
VERTEX
  5
13CE1
330
13CDB
100
AcDbEntity
  8
0
 62
     9
100
AcDbVertex
100
AcDb2dVertex
 10
15.61902474936907
 20
17.18017681667015
 30
0.0
  0
VERTEX
  5
13CE2
330
13CDB
100
AcDbEntity
  8
0
 62
     9
100
AcDbVertex
100
AcDb2dVertex
 10
15.36902474936907
 20
17.24267681667015
 30
0.0
  0
VERTEX
  5
13CE3
330
13CDB
100
AcDbEntity
  8
0
 62
     9
100
AcDbVertex
100
AcDb2dVertex
 10
15.86902474936907
 20
17.36767681667015
 30
0.0
  0
VERTEX
  5
13CE4
330
13CDB
100
AcDbEntity
  8
0
 62
     9
100
AcDbVertex
100
AcDb2dVertex
 10
15.61902474936907
 20
17.43017681667015
 30
0.0
  0
VERTEX
  5
13CE5
330
13CDB
100
AcDbEntity
  8
0
 62
     9
100
AcDbVertex
100
AcDb2dVertex
 10
15.61902474936907
 20
18.93017681667015
 30
0.0
  0
SEQEND
  5
13CE6
330
13CDB
100
AcDbEntity
  8
0
 62
     9
  0
INSERT
  5
16AD2
330
1F
100
AcDbEntity
  8
0
100
AcDbBlockReference
  2
2.5 WD
 10
11.93417542150404
 20
18.46637243493191
 30
0.0
 42
1.25
  0
INSERT
  5
16B1C
330
1F
100
AcDbEntity
  8
0
100
AcDbBlockReference
  2
03AY
 10
14.6125
 20
30.9375
 30
0.0
  0
INSERT
  5
16B1D
330
1F
100
AcDbEntity
  8
0
100
AcDbBlockReference
  2
03AY
 10
9.912500000000003
 20
30.9375
 30
0.0
 41
-1.0
  0
INSERT
  5
16B1E
330
1F
100
AcDbEntity
  8
0
100
AcDbBlockReference
  2
03AY
 10
21.23902474936929
 20
19.56842297924374
 30
0.0
 41
-1.0
 50
90.0
  0
INSERT
  5
16B1F
330
1F
100
AcDbEntity
  8
0
100
AcDbBlockReference
  2
03AY
 10
21.23902474936929
 20
24.26842297924375
 30
0.0
 50
90.0
  0
INSERT
  5
16BE9
330
1F
100
AcDbEntity
  8
0
100
AcDbBlockReference
 66
     1
  2
I Drive Info Block
 10
0.0
 20
0.0
 30
0.0
 41
4.0
 42
4.0
 43
4.0
  0
ATTRIB
  5
16BEA
330
16BE9
100
AcDbEntity
  8
Symbol TXT
100
AcDbText
 10
3.104620320876051
 20
2.033803570588512
 30
0.0
 40
0.25
  1
E-15_ECESFIRE
 11
3.104620320876051
 21
1.95979265653667
 31
0.0
100
AcDbAttribute
  2
DRAWINGNAME
 70
     0
 74
     1
  0
ATTRIB
  5
16BEB
330
16BE9
100
AcDbEntity
  8
Symbol TXT
 62
   255
100
AcDbText
 10
1.604620320876051
 20
1.551044949898853
 30
0.0
 40
0.25
  1
240 - 107476
 11
1.604620320876051
 21
1.477034035847012
 31
0.0
100
AcDbAttribute
  2
PERL#
 70
     0
 74
     1
  0
ATTRIB
  5
16BEC
330
16BE9
100
AcDbEntity
  8
Symbol TXT
100
AcDbText
 10
6.41909149094851
 20
1.542424260243686
 30
0.0
 40
0.25
  1
5
 11
6.41909149094851
 21
1.468413346191844
 31
0.0
100
AcDbAttribute
  2
REV#
 70
     0
 74
     1
  0
ATTRIB
  5
16BED
330
16BE9
100
AcDbEntity
  8
Symbol TXT
100
AcDbText
 10
1.404620320876052
 20
1.017424260243688
 30
0.0
 40
0.25
  1
3" = 1'-0"
 11
1.404620320876052
 21
0.9434133461918463
 31
0.0
100
AcDbAttribute
  2
X"_=_1'-0"
 70
     0
 74
     1
  0
ATTRIB
  5
16BEE
330
16BE9
100
AcDbEntity
  8
Symbol TXT
 62
   255
100
AcDbText
 10
4.138182700240715
 20
1.008803570588513
 30
0.0
 40
0.25
  1
4
 11
4.138182700240715
 21
0.9347926565366719
 31
0.0
100
AcDbAttribute
  2
SF
 70
     0
 74
     1
  0
ATTRIB
  5
16BEF
330
16BE9
100
AcDbEntity
  8
Symbol TXT
100
AcDbText
 10
6.519091490948511
 20
1.017330173589877
 30
0.0
 40
0.25
  1
3/15/11
 11
6.519091490948511
 21
0.9433192595380361
 31
0.0
100
AcDbAttribute
  2
DATE
 70
     0
 74
     1
  0
ATTRIB
  5
16BF0
330
16BE9
100
AcDbEntity
  8
Symbol TXT
100
AcDbText
 10
2.354620320876051
 20
0.5374242602436842
 30
0.0
 40
0.25
  1
404305, 4004304
 11
2.354620320876051
 21
0.4634133461918424
 31
0.0
100
AcDbAttribute
  2
08
 70
     0
 74
     1
  0
ATTRIB
  5
16BF1
330
16BE9
100
AcDbEntity
  8
Symbol TXT
 62
   255
100
AcDbText
 10
6.819091490948512
 20
0.5374242602436842
 30
0.0
 40
0.25
  1
F-15
 11
6.819091490948512
 21
0.4634133461918424
 31
0.0
100
AcDbAttribute
  2
PAGE#
 70
     0
 74
     1
  0
ATTRIB
  5
16BF2
330
16BE9
100
AcDbEntity
  8
Symbol TXT
 62
   255
100
AcDbText
 10
6.607062090812547
 20
0.1393177541515716
 30
0.0
 40
0.25
  1
Install Details\Standard
 11
6.607062090812547
 21
0.0653068400997299
 31
0.0
100
AcDbAttribute
  2
I:\DriveLocation
 70
     0
 74
     1
  0
SEQEND
  5
16BF3
330
16BE9
100
AcDbEntity
  8
0
  0
INSERT
  5
176AD
102
{ACAD_XDICTIONARY
360
176AE
102
}
330
1F
100
AcDbEntity
  8
0
100
AcDbBlockReference
  2
SPIFDH1
 10
9.937500000000008
 20
30.78125
 30
0.0
  0
VIEWPORT
  5
CBD9
102
{ACAD_XDICTIONARY
360
193A3
102
}
330
CBD2
100
AcDbEntity
 67
     1
  8
0
100
AcDbViewport
 10
3.968749891115924
 20
5.218749628292292
 30
0.0
 40
17.62601621246861
 41
11.63799974576694
 68
     1
 69
     1
 12
3.968749891115924
 22
5.218749628292292
 13
0.0
 23
0.0
 14
0.5
 24
0.5
 15
0.5
 25
0.5
 16
0.0
 26
0.0
 36
1.0
 17
0.0
 27
0.0
 37
0.0
 42
50.0
 43
0.0
 44
0.0
 45
11.63799974576694
 50
0.0
 51
0.0
 72
  5000
 90
    32800
  1

281
     0
 71
     1
 74
     0
110
0.0
120
0.0
130
0.0
111
1.0
121
0.0
131
0.0
112
0.0
122
1.0
132
0.0
 79
     0
146
0.0
  0
VIEWPORT
  5
D915
102
{ACAD_XDICTIONARY
360
193A5
102
}
330
CBD2
100
AcDbEntity
 67
     1
  8
Defpoints
100
AcDbViewport
 10
3.968749882715535
 20
5.218749625349884
 30
0.0
 40
7.928490862866247
 41
10.43240584937289
 68
     2
 69
     2
 12
3.6875
 22
4.3125
 13
0.0
 23
0.0
 14
0.125
 24
0.125
 15
0.5
 25
0.5
 16
0.0
 26
0.0
 36
1.0
 17
0.0
 27
0.0
 37
0.0
 42
50.0
 43
0.0
 44
0.0
 45
9.704115760475342
 50
0.0
 51
0.0
 72
  5000
 90
    32768
  1

281
     0
 71
     1
 74
     0
110
0.0
120
0.0
130
0.0
111
1.0
121
0.0
131
0.0
112
0.0
122
1.0
132
0.0
 79
     0
146
0.0
  0
ENDSEC
  0
SECTION
  2
OBJECTS
  0
DICTIONARY
  5
C
330
0
100
AcDbDictionary
281
     1
  3
ACAD_COLOR
350
A6AD
  3
ACAD_GROUP
350
D
  3
ACAD_LAYOUT
350
1A
  3
ACAD_MATERIAL
350
A6AC
  3
ACAD_MLEADERSTYLE
350
16BA2
  3
ACAD_MLINESTYLE
350
17
  3
ACAD_PLOTSETTINGS
350
19
  3
ACAD_PLOTSTYLENAME
350
E
  3
ACAD_SCALELIST
350
16B80
  3
ACAD_TABLESTYLE
350
16B7E
  3
ACAD_VISUALSTYLE
350
16B6D
  3
AcadDim
350
15D
  3
ACDB_RECOMPOSE_DATA
350
16C23
  3
AcDbVariableDictionary
350
79D9
  3
ADE_QUERY_LIBRARY
350
1012
  3
AEC_PROPERTY_SET_DEFS
350
16BE7
  3
AMAcad
350
1B9
  3
ASE_INDEX_DICTIONARY
350
E0A6
  3
AVAT_FILE_STORE
350
FD6
  3
DWGPROPS
350
19392
1001
ADE
1000
ADE02C004
1000
[Query]
1000
CaseSensitiveMatch=0
1000
SaveCurrQueryInSession=1
1000
MkSelSetWithQryObj=0
1000
ShowBlockAsInsPt=0
1000
CreateAssociativeHatchObjects=0
1000
ReferenceBoundaryForAreaLocation=1
1000
ShowImageAsBoundary=1
1000
DefaultJoinOperator=2
1000
ColorForAdd=red
1000
ColorForRemove=red
1000
BlockLocnForQuery=1
1000
TextLocnForQuery=1
1000
[Save Back]
1000
RedefineBlockDefinitions=1
1000
RedefineLayerDefinitions=1
1000
RedefineTextStyleDefinitions=1
1000
RemoveUnusedGroups=1
1000
EraseSavedBackObjects=1
1000
RemoveLockAfterSave=1
1000
CreateHistoryFileOfChanges=0
1000
CreateBackupFileOfSourceDwg=1
1000
DontAddObjectsToSaveSet=0
1000
MarkObjectsForEditingWithoutPrompting=0
1000
[Coordinate Transformation]
1000
RestoreLastActiveDwgsOnStartup=1
1000
ActivateDwgsOnAttach=1
1000
AdjustSizesAndScalesForChangesInUnits=1
1000
AdjustRotationsForMapDistortions=1
1000
AdjustSizesAndScalesForMapDistortions=1
1000
AdjustElevations=1
1000
AdjustZeroRotationObjects=1
1000
ReconnectDbOnWSOpen=1
1000
NoOfSQLConditionsInHistory=10
  0
DICTIONARY
  5
16C24
330
8
100
AcDbDictionary
280
     1
281
     1
  0
DICTIONARY
  5
E8F4
330
2
100
AcDbDictionary
280
     1
281
     1
  3
ACAD_LAYERFILTERS
360
F1A9
  3
ACAD_LAYERSTATES
360
E8F5
  0
DICTIONARY
  5
16C00
330
10
100
AcDbDictionary
280
     1
281
     1
  3
ADSK_XREC_LAYER_RECONCILED
360
16C01
  0
DICTIONARY
  5
16C02
330
5F
100
AcDbDictionary
280
     1
281
     1
  3
ADSK_XREC_LAYER_RECONCILED
360
16C03
  0
DICTIONARY
  5
16C04
330
F16
100
AcDbDictionary
280
     1
281
     1
  3
ADSK_XREC_LAYER_RECONCILED
360
16C05
  0
DICTIONARY
  5
16C06
330
E0E6
100
AcDbDictionary
280
     1
281
     1
  3
ADSK_XREC_LAYER_RECONCILED
360
16C07
  0
DICTIONARY
  5
16C08
330
FA0B
100
AcDbDictionary
280
     1
281
     1
  3
ADSK_XREC_LAYER_RECONCILED
360
16C09
  0
DICTIONARY
  5
16C0A
330
1341C
100
AcDbDictionary
280
     1
281
     1
  3
ADSK_XREC_LAYER_RECONCILED
360
16C0B
  0
DICTIONARY
  5
16C0E
330
134A7
100
AcDbDictionary
280
     1
281
     1
  3
ADSK_XREC_LAYER_RECONCILED
360
16C0F
  0
DICTIONARY
  5
16C10
330
1352F
100
AcDbDictionary
280
     1
281
     1
  3
ADSK_XREC_LAYER_RECONCILED
360
16C11
  0
DICTIONARY
  5
16C12
330
13F05
100
AcDbDictionary
280
     1
281
     1
  3
ADSK_XREC_LAYER_RECONCILED
360
16C13
  0
DICTIONARY
  5
16C14
330
13F06
100
AcDbDictionary
280
     1
281
     1
  3
ADSK_XREC_LAYER_RECONCILED
360
16C15
  0
DICTIONARY
  5
16C16
330
13F09
100
AcDbDictionary
280
     1
281
     1
  3
ADSK_XREC_LAYER_RECONCILED
360
16C17
  0
DICTIONARY
  5
16C18
330
13FEF
100
AcDbDictionary
280
     1
281
     1
  3
ADSK_XREC_LAYER_RECONCILED
360
16C19
  0
DICTIONARY
  5
172FD
330
172FC
100
AcDbDictionary
280
     1
281
     1
  0
DICTIONARY
  5
D9A1
330
1F
100
AcDbDictionary
280
     1
281
     1
  0
DICTIONARY
  5
E143
330
CBE8
100
AcDbDictionary
280
     1
281
     1
  3
ACAD_SORTENTS
360
FFBA
  0
DICTIONARY
  5
E785
330
E784
100
AcDbDictionary
280
     1
281
     1
  3
ACAD_SORTENTS
360
1934B
  0
DICTIONARY
  5
FAD9
330
FA0D
100
AcDbDictionary
280
     1
281
     1
  3
ACAD_SORTENTS
360
16799
  0
DICTIONARY
  5
10BC9
330
109D0
100
AcDbDictionary
280
     1
281
     1
  3
ACAD_SORTENTS
360
15B5C
  0
DICTIONARY
  5
113B8
330
10DC7
100
AcDbDictionary
280
     1
281
     1
  3
ACAD_SORTENTS
360
11569
  0
DICTIONARY
  5
1352A
330
134A9
100
AcDbDictionary
280
     1
281
     1
  3
ACAD_SORTENTS
360
188FB
  0
DICTIONARY
  5
13611
330
13531
100
AcDbDictionary
280
     1
281
     1
  3
ACAD_SORTENTS
360
19215
  0
DICTIONARY
  5
13EA8
330
13EA7
100
AcDbDictionary
280
     1
281
     1
  3
ACAD_SORTENTS
360
13EA9
  0
DICTIONARY
  5
168A4
330
16826
100
AcDbDictionary
280
     1
281
     1
  0
DICTIONARY
  5
16B02
330
16B01
100
AcDbDictionary
280
     1
281
     1
  0
DICTIONARY
  5
16BAA
330
16BA9
100
AcDbDictionary
280
     1
281
     1
  3
ACAD_SORTENTS
360
16BAB
  0
DICTIONARY
  5
17974
330
17743
100
AcDbDictionary
280
     1
281
     1
  3
ACAD_SORTENTS
360
187B1
  0
DICTIONARY
  5
176AE
330
176AD
100
AcDbDictionary
280
     1
281
     1
  0
DICTIONARY
  5
193A3
330
CBD9
100
AcDbDictionary
280
     1
281
     1
  3
ACAD_XREC_ROUNDTRIP
360
193A4
  0
DICTIONARY
  5
193A5
330
D915
100
AcDbDictionary
280
     1
281
     1
  3
ACAD_XREC_ROUNDTRIP
360
193A6
  0
DICTIONARY
  5
A6AD
102
{ACAD_REACTORS
330
C
102
}
330
C
100
AcDbDictionary
281
     1
  0
DICTIONARY
  5
D
102
{ACAD_REACTORS
330
C
102
}
330
C
100
AcDbDictionary
281
     1
  3
*A1
350
FF5E
  3
*A10
350
FF6F
  3
*A11
350
FF60
  3
*A12
350
FF5F
  3
*A13
350
FF62
  3
*A14
350
FF63
  3
*A15
350
FF64
  3
*A16
350
FF65
  3
*A17
350
FF66
  3
*A18
350
FF61
  3
*A19
350
FF68
  3
*A2
350
FF67
  3
*A20
350
FF6A
  3
*A21
350
FF6B
  3
*A22
350
FF6C
  3
*A23
350
FF6D
  3
*A3
350
FF6E
  3
*A4
350
FF69
  3
*A5
350
FF70
  3
*A6
350
FF71
  3
*A7
350
FF72
  3
*A8
350
1012D
  3
*A9
350
1012E
  0
DICTIONARY
  5
1A
102
{ACAD_REACTORS
330
C
102
}
330
C
100
AcDbDictionary
281
     1
  3
Layout1
350
CBD3
  3
Model
350
22
  0
DICTIONARY
  5
A6AC
102
{ACAD_REACTORS
330
C
102
}
330
C
100
AcDbDictionary
281
     1
  3
ByBlock
350
16B5D
  3
ByLayer
350
16B55
  3
Global
350
16B65
  0
DICTIONARY
  5
16BA2
102
{ACAD_REACTORS
330
C
102
}
330
C
100
AcDbDictionary
281
     1
  0
DICTIONARY
  5
17
102
{ACAD_REACTORS
330
C
102
}
330
C
100
AcDbDictionary
281
     1
  3
Standard
350
18
  0
DICTIONARY
  5
19
102
{ACAD_REACTORS
330
C
102
}
330
C
100
AcDbDictionary
281
     1
  3
22x17 Xerox8830
350
CBD1
  3
22x34 Xerox8830
350
CBD0
  3
8.5x11(row 1)
350
B30E
  3
8.5x11(row 2)
350
BF67
  3
8.5x11(row 3)
350
BF68
  3
8.5x11(row 4)
350
BF69
  0
ACDBDICTIONARYWDFLT
  5
E
102
{ACAD_REACTORS
330
C
102
}
330
C
100
AcDbDictionary
281
     1
  3
Normal
350
F
100
AcDbDictionaryWithDefault
340
F
  0
DICTIONARY
  5
16B80
102
{ACAD_REACTORS
330
C
102
}
330
C
100
AcDbDictionary
281
     1
  3
*A1
350
16BCA
  3
A0
350
16B81
  3
A1
350
16B82
  3
A2
350
16B83
  3
A3
350
16B84
  3
A4
350
16B85
  3
A5
350
16B86
  3
A6
350
16B87
  3
A7
350
16B88
  3
A8
350
16B89
  3
A9
350
16B8A
  3
B0
350
16B8B
  3
B1
350
16B8C
  3
B2
350
16B8D
  3
B3
350
16B8E
  3
B4
350
16B8F
  3
B5
350
16B90
  3
B6
350
16B91
  3
B7
350
16B92
  3
B8
350
16B93
  3
B9
350
16B94
  3
C0
350
16B95
  3
C1
350
16B96
  3
C2
350
16B97
  3
C3
350
16B98
  3
C4
350
16B99
  3
C5
350
16B9A
  3
C6
350
16B9B
  3
C7
350
16B9C
  3
C8
350
16B9D
  3
C9
350
16B9E
  3
D0
350
16B9F
  3
D1
350
16BA0
  3
D2
350
16BA1
  0
DICTIONARY
  5
16B7E
102
{ACAD_REACTORS
330
C
102
}
330
C
100
AcDbDictionary
281
     1
  3
Standard
350
16B7F
  0
DICTIONARY
  5
16B6D
102
{ACAD_REACTORS
330
C
102
}
330
C
100
AcDbDictionary
281
     1
  3
2dWireframe
350
16B73
  3
3D Hidden
350
16B75
  3
3dWireframe
350
16B74
  3
Basic
350
16B72
  3
Brighten
350
16B79
  3
ColorChange
350
16B7D
  3
Conceptual
350
16B76
  3
Dim
350
16B78
  3
Facepattern
350
16B7C
  3
Flat
350
16B6E
  3
FlatWithEdges
350
16B6F
  3
Gouraud
350
16B70
  3
GouraudWithEdges
350
16B71
  3
Linepattern
350
16B7B
  3
Realistic
350
16B77
  3
Thicken
350
16B7A
  0
XRECORD
  5
15D
102
{ACAD_REACTORS
330
C
102
}
330
C
100
AcDbXrecord
280
     1
 90
   990106
  3

 60
     0
 61
     0
 62
     1
 63
     3
 64
     0
 65
     0
 66
     0
 67
     3
 68
     0
 69
     0
 70
     0
 71
     0
 72
     0
 40
0.0
170
     2
340
0
  0
XRECORD
  5
16C23
102
{ACAD_REACTORS
330
C
102
}
330
C
100
AcDbXrecord
280
     1
 90
        1
330
16B7F
  0
DICTIONARY
  5
79D9
102
{ACAD_REACTORS
330
C
102
}
330
C
100
AcDbDictionary
281
     1
  3
CANNOSCALE
350
16C32
  3
CMLEADERSTYLE
350
16C31
  3
CTABLESTYLE
350
16C30
  3
DIMASSOC
350
79DA
  3
INDEXCTL
350
1935C
  3
PROJECTNAME
350
14198
  3
SORTENTS
350
1935B
  0
DICTIONARY
  5
1012
102
{ACAD_REACTORS
330
C
102
}
330
C
100
AcDbDictionary
281
     1
  3
_CurrQry
350
1047
  0
DICTIONARY
  5
16BE7
102
{ACAD_REACTORS
330
C
102
}
330
C
100
AcDbDictionary
281
     1
  0
DICTIONARY
  5
1B9
102
{ACAD_REACTORS
330
C
102
}
330
C
100
AcDbDictionary
281
     1
  3
AM_LOADER
350
1BA
  0
DICTIONARY
  5
E0A6
102
{ACAD_REACTORS
330
C
102
}
330
C
100
AcDbDictionary
281
     1
  3
ASEBlockHierarchyIndexRecord
350
E0A7
1001
DCO15
1040
1527930735.345
  0
DICTIONARY
  5
FD6
102
{ACAD_REACTORS
330
C
102
}
330
C
100
AcDbDictionary
281
     1
  0
XRECORD
  5
19392
102
{ACAD_REACTORS
330
C
102
}
330
C
100
AcDbXrecord
280
     1
  1
DWGPROPS COOKIE
  2

  3

  4

  6

  7

  8
rohwertl
  9

300
=
301
=
302
=
303
=
304
=
305
=
306
=
307
=
308
=
309
=
 40
2.783888437499999
 41
2453439.481697118
 42
2455636.42139184
  1

 90
        0
  0
DICTIONARY
  5
F1A9
102
{ACAD_REACTORS
330
E8F4
102
}
330
E8F4
100
AcDbDictionary
281
     1
  0
DICTIONARY
  5
E8F5
102
{ACAD_REACTORS
330
E8F4
102
}
330
E8F4
100
AcDbDictionary
281
     1
  0
XRECORD
  5
16C01
102
{ACAD_REACTORS
330
16C00
102
}
330
16C00
100
AcDbXrecord
280
     1
290
     1
  0
XRECORD
  5
16C03
102
{ACAD_REACTORS
330
16C02
102
}
330
16C02
100
AcDbXrecord
280
     1
290
     1
  0
XRECORD
  5
16C05
102
{ACAD_REACTORS
330
16C04
102
}
330
16C04
100
AcDbXrecord
280
     1
290
     1
  0
XRECORD
  5
16C07
102
{ACAD_REACTORS
330
16C06
102
}
330
16C06
100
AcDbXrecord
280
     1
290
     1
  0
XRECORD
  5
16C09
102
{ACAD_REACTORS
330
16C08
102
}
330
16C08
100
AcDbXrecord
280
     1
290
     1
  0
XRECORD
  5
16C0B
102
{ACAD_REACTORS
330
16C0A
102
}
330
16C0A
100
AcDbXrecord
280
     1
290
     1
  0
XRECORD
  5
16C0F
102
{ACAD_REACTORS
330
16C0E
102
}
330
16C0E
100
AcDbXrecord
280
     1
290
     1
  0
XRECORD
  5
16C11
102
{ACAD_REACTORS
330
16C10
102
}
330
16C10
100
AcDbXrecord
280
     1
290
     1
  0
XRECORD
  5
16C13
102
{ACAD_REACTORS
330
16C12
102
}
330
16C12
100
AcDbXrecord
280
     1
290
     1
  0
XRECORD
  5
16C15
102
{ACAD_REACTORS
330
16C14
102
}
330
16C14
100
AcDbXrecord
280
     1
290
     1
  0
XRECORD
  5
16C17
102
{ACAD_REACTORS
330
16C16
102
}
330
16C16
100
AcDbXrecord
280
     1
290
     1
  0
XRECORD
  5
16C19
102
{ACAD_REACTORS
330
16C18
102
}
330
16C18
100
AcDbXrecord
280
     1
290
     1
  0
SORTENTSTABLE
  5
FFBA
102
{ACAD_REACTORS
330
E143
102
}
330
E143
100
AcDbSortentsTable
330
CBE8
  0
SORTENTSTABLE
  5
1934B
102
{ACAD_REACTORS
330
E785
102
}
330
E785
100
AcDbSortentsTable
330
E784
331
13FA6
  5
14362
331
14363
  5
168F3
331
E801
  5
E802
331
132A2
  5
132A3
331
E7F6
  5
E7F7
331
13F8F
  5
13F90
331
E7E7
  5
E7E8
331
14362
  5
14363
331
E7F5
  5
E7F6
331
E800
  5
E801
331
E7E6
  5
E7E7
331
13FA5
  5
13FA6
331
13F91
  5
13FA3
331
13FA4
  5
13FA5
331
E7FF
  5
E800
331
E7F4
  5
E7F5
331
E7E5
  5
E7E6
331
168F3
  5
1931C
331
E7F3
  5
E7F4
331
E7FE
  5
E7FF
331
E7EF
  5
E7F0
331
13FA3
  5
13FA4
331
13F90
  5
13F91
331
E7FD
  5
E7FE
331
E7EE
  5
E7EF
331
E7F2
  5
E7F3
331
E7FC
  5
E7FD
331
E7ED
  5
E7EE
331
E7F1
  5
E7F2
331
E7FB
  5
E7FC
331
E7EC
  5
E7ED
331
E7F0
  5
E7F1
331
E7FA
  5
E7FB
331
E7EB
  5
E7EC
331
E7F9
  5
E7FA
331
E7EA
  5
E7EB
331
1931C
  5
E7E5
331
E7E9
  5
E7EA
331
132A4
  5
13F8F
331
E7F8
  5
E7F9
331
E802
  5
132A2
331
132A3
  5
132A4
331
E7F7
  5
E7F8
331
E7E8
  5
E7E9
  0
SORTENTSTABLE
  5
16799
102
{ACAD_REACTORS
330
FAD9
102
}
330
FAD9
100
AcDbSortentsTable
330
FA0D
  0
SORTENTSTABLE
  5
15B5C
102
{ACAD_REACTORS
330
10BC9
102
}
330
10BC9
100
AcDbSortentsTable
330
109D0
  0
SORTENTSTABLE
  5
11569
102
{ACAD_REACTORS
330
113B8
102
}
330
113B8
100
AcDbSortentsTable
330
10DC7
  0
SORTENTSTABLE
  5
188FB
102
{ACAD_REACTORS
330
1352A
102
}
330
1352A
100
AcDbSortentsTable
330
134A9
  0
SORTENTSTABLE
  5
19215
102
{ACAD_REACTORS
330
13611
102
}
330
13611
100
AcDbSortentsTable
330
13531
  0
SORTENTSTABLE
  5
13EA9
102
{ACAD_REACTORS
330
13EA8
102
}
330
13EA8
100
AcDbSortentsTable
330
13EA7
  0
SORTENTSTABLE
  5
16BAB
102
{ACAD_REACTORS
330
16BAA
102
}
330
16BAA
100
AcDbSortentsTable
330
16BA9
  0
SORTENTSTABLE
  5
187B1
102
{ACAD_REACTORS
330
17974
102
}
330
17974
100
AcDbSortentsTable
330
17743
  0
XRECORD
  5
193A4
102
{ACAD_REACTORS
330
193A3
102
}
330
193A3
100
AcDbXrecord
280
     1
102
SHADEPLOT
 70
     0
  0
XRECORD
  5
193A6
102
{ACAD_REACTORS
330
193A5
102
}
330
193A5
100
AcDbXrecord
280
     1
102
SHADEPLOT
 70
     0
  0
GROUP
  5
FF5E
102
{ACAD_REACTORS
330
D
102
}
330
D
100
AcDbGroup
300

 70
     1
 71
     1
  0
GROUP
  5
FF6F
102
{ACAD_REACTORS
330
D
102
}
330
D
100
AcDbGroup
300

 70
     3
 71
     1
  0
GROUP
  5
FF60
102
{ACAD_REACTORS
330
D
102
}
330
D
100
AcDbGroup
300

 70
     3
 71
     1
  0
GROUP
  5
FF5F
102
{ACAD_REACTORS
330
D
102
}
330
D
100
AcDbGroup
300

 70
     1
 71
     1
  0
GROUP
  5
FF62
102
{ACAD_REACTORS
330
D
102
}
330
D
100
AcDbGroup
300

 70
     1
 71
     1
  0
GROUP
  5
FF63
102
{ACAD_REACTORS
330
D
102
}
330
D
100
AcDbGroup
300

 70
     3
 71
     1
  0
GROUP
  5
FF64
102
{ACAD_REACTORS
330
D
102
}
330
D
100
AcDbGroup
300

 70
     1
 71
     1
  0
GROUP
  5
FF65
102
{ACAD_REACTORS
330
D
102
}
330
D
100
AcDbGroup
300

 70
     3
 71
     1
  0
GROUP
  5
FF66
102
{ACAD_REACTORS
330
D
102
}
330
D
100
AcDbGroup
300

 70
     1
 71
     1
  0
GROUP
  5
FF61
102
{ACAD_REACTORS
330
D
102
}
330
D
100
AcDbGroup
300

 70
     1
 71
     1
  0
GROUP
  5
FF68
102
{ACAD_REACTORS
330
D
102
}
330
D
100
AcDbGroup
300

 70
     1
 71
     1
  0
GROUP
  5
FF67
102
{ACAD_REACTORS
330
D
102
}
330
D
100
AcDbGroup
300

 70
     3
 71
     1
  0
GROUP
  5
FF6A
102
{ACAD_REACTORS
330
D
102
}
330
D
100
AcDbGroup
300

 70
     1
 71
     1
  0
GROUP
  5
FF6B
102
{ACAD_REACTORS
330
D
102
}
330
D
100
AcDbGroup
300

 70
     1
 71
     1
  0
GROUP
  5
FF6C
102
{ACAD_REACTORS
330
D
102
}
330
D
100
AcDbGroup
300

 70
     3
 71
     1
  0
GROUP
  5
FF6D
102
{ACAD_REACTORS
330
D
102
}
330
D
100
AcDbGroup
300

 70
     1
 71
     1
  0
GROUP
  5
FF6E
102
{ACAD_REACTORS
330
D
102
}
330
D
100
AcDbGroup
300

 70
     1
 71
     1
  0
GROUP
  5
FF69
102
{ACAD_REACTORS
330
D
102
}
330
D
100
AcDbGroup
300

 70
     1
 71
     1
  0
GROUP
  5
FF70
102
{ACAD_REACTORS
330
D
102
}
330
D
100
AcDbGroup
300

 70
     1
 71
     1
  0
GROUP
  5
FF71
102
{ACAD_REACTORS
330
D
102
}
330
D
100
AcDbGroup
300

 70
     1
 71
     1
  0
GROUP
  5
FF72
102
{ACAD_REACTORS
330
D
102
}
330
D
100
AcDbGroup
300

 70
     1
 71
     1
  0
GROUP
  5
1012D
102
{ACAD_REACTORS
330
D
102
}
330
D
100
AcDbGroup
300

 70
     1
 71
     1
  0
GROUP
  5
1012E
102
{ACAD_REACTORS
330
D
102
}
330
D
100
AcDbGroup
300

 70
     1
 71
     1
  0
LAYOUT
  5
CBD3
102
{ACAD_XDICTIONARY
360
193A1
102
}
102
{ACAD_REACTORS
330
1A
102
}
330
1A
100
AcDbPlotSettings
  1

  2
pdfFactory Pro
  4
Letter
  6

 40
7.143749713897705
 41
7.143756389617919
 42
7.14373779296875
 43
7.14373779296875
 44
215.8999938964844
 45
279.3999938964844
 46
0.0
 47
0.0
 48
0.0
 49
0.0
140
0.0
141
0.0
142
1.0
143
1.0
 70
   688
 72
     0
 73
     0
 74
     5
  7
PellaCAD 2000.ctb
 75
    16
147
1.0
148
0.0
149
0.0
100
AcDbLayout
  1
Layout1
 70
     1
 71
     1
 10
-0.2812499887361301
 20
-0.2812502515597606
 11
8.218749770967978
 21
10.71874950814434
 12
0.0
 22
0.0
 32
0.0
 14
0.0045044512824113
 24
0.0025467006634372
 34
0.0
 15
7.932995314148659
 25
10.43495255003633
 35
0.0
146
0.0
 13
0.0
 23
0.0
 33
0.0
 16
1.0
 26
0.0
 36
0.0
 17
0.0
 27
1.0
 37
0.0
 76
     0
330
CBD2
331
CBD9
  0
LAYOUT
  5
22
102
{ACAD_XDICTIONARY
360
19393
102
}
102
{ACAD_REACTORS
330
1A
102
}
330
1A
100
AcDbPlotSettings
  1

  2
pdfFactory Pro
  4
D size sheet
  6

 40
3.174999952316284
 41
3.174999952316284
 42
3.17498779296875
 43
3.17498779296875
 44
558.7999877929687
 45
863.6000366210938
 46
0.0
 47
0.0
 48
0.0
 49
0.0
140
0.0
141
0.0
142
1.0
143
1.0
 70
 11956
 72
     0
 73
     0
 74
     1
  7
PellaCAD 2000.ctb
 75
    16
147
1.0
148
120.2389910741592
149
15.246356212616
100
AcDbLayout
  1
Model
 70
     1
 71
     0
 10
0.0
 20
0.0
 11
12.0
 21
9.0
 12
0.0
 22
0.0
 32
0.0
 14
0.0
 24
0.0
 34
0.0
 15
0.0
 25
0.0
 35
0.0
146
0.0
 13
0.0
 23
0.0
 33
0.0
 16
1.0
 26
0.0
 36
0.0
 17
0.0
 27
1.0
 37
0.0
 76
     0
330
1F
331
16B3B
  0
MATERIAL
  5
16B5D
102
{ACAD_XDICTIONARY
360
16B5E
102
}
102
{ACAD_REACTORS
330
A6AC
102
}
330
A6AC
100
AcDbMaterial
  1
ByBlock
 72
     0
 43
0.0208333333333333
 43
0.0
 43
0.0
 43
0.0
 43
0.0
 43
0.0208333333333333
 43
0.0
 43
0.0
 43
0.0
 43
0.0
 43
1.0
 43
0.0
 43
0.0
 43
0.0
 43
0.0
 43
1.0
 77
     0
 47
0.0208333333333333
 47
0.0
 47
0.0
 47
0.0
 47
0.0
 47
0.0208333333333333
 47
0.0
 47
0.0
 47
0.0
 47
0.0
 47
1.0
 47
0.0
 47
0.0
 47
0.0
 47
0.0
 47
1.0
171
     0
 49
0.0208333333333333
 49
0.0
 49
0.0
 49
0.0
 49
0.0
 49
0.0208333333333333
 49
0.0
 49
0.0
 49
0.0
 49
0.0
 49
1.0
 49
0.0
 49
0.0
 49
0.0
 49
0.0
 49
1.0
175
     0
142
0.0208333333333333
142
0.0
142
0.0
142
0.0
142
0.0
142
0.0208333333333333
142
0.0
142
0.0
142
0.0
142
0.0
142
1.0
142
0.0
142
0.0
142
0.0
142
0.0
142
1.0
179
     0
144
0.0208333333333333
144
0.0
144
0.0
144
0.0
144
0.0
144
0.0208333333333333
144
0.0
144
0.0
144
0.0
144
0.0
144
1.0
144
0.0
144
0.0
144
0.0
144
0.0
144
1.0
147
0.0208333333333333
147
0.0
147
0.0
147
0.0
147
0.0
147
0.0208333333333333
147
0.0
147
0.0
147
0.0
147
0.0
147
1.0
147
0.0
147
0.0
147
0.0
147
0.0
147
1.0
  0
MATERIAL
  5
16B55
102
{ACAD_XDICTIONARY
360
16B56
102
}
102
{ACAD_REACTORS
330
A6AC
102
}
330
A6AC
100
AcDbMaterial
  1
ByLayer
 72
     0
 43
0.0208333333333333
 43
0.0
 43
0.0
 43
0.0
 43
0.0
 43
0.0208333333333333
 43
0.0
 43
0.0
 43
0.0
 43
0.0
 43
1.0
 43
0.0
 43
0.0
 43
0.0
 43
0.0
 43
1.0
 77
     0
 47
0.0208333333333333
 47
0.0
 47
0.0
 47
0.0
 47
0.0
 47
0.0208333333333333
 47
0.0
 47
0.0
 47
0.0
 47
0.0
 47
1.0
 47
0.0
 47
0.0
 47
0.0
 47
0.0
 47
1.0
171
     0
 49
0.0208333333333333
 49
0.0
 49
0.0
 49
0.0
 49
0.0
 49
0.0208333333333333
 49
0.0
 49
0.0
 49
0.0
 49
0.0
 49
1.0
 49
0.0
 49
0.0
 49
0.0
 49
0.0
 49
1.0
175
     0
142
0.0208333333333333
142
0.0
142
0.0
142
0.0
142
0.0
142
0.0208333333333333
142
0.0
142
0.0
142
0.0
142
0.0
142
1.0
142
0.0
142
0.0
142
0.0
142
0.0
142
1.0
179
     0
144
0.0208333333333333
144
0.0
144
0.0
144
0.0
144
0.0
144
0.0208333333333333
144
0.0
144
0.0
144
0.0
144
0.0
144
1.0
144
0.0
144
0.0
144
0.0
144
0.0
144
1.0
147
0.0208333333333333
147
0.0
147
0.0
147
0.0
147
0.0
147
0.0208333333333333
147
0.0
147
0.0
147
0.0
147
0.0
147
1.0
147
0.0
147
0.0
147
0.0
147
0.0
147
1.0
  0
MATERIAL
  5
16B65
102
{ACAD_XDICTIONARY
360
16B66
102
}
102
{ACAD_REACTORS
330
A6AC
102
}
330
A6AC
100
AcDbMaterial
  1
Global
 72
     0
 43
0.0208333333333333
 43
0.0
 43
0.0
 43
0.0
 43
0.0
 43
0.0208333333333333
 43
0.0
 43
0.0
 43
0.0
 43
0.0
 43
1.0
 43
0.0
 43
0.0
 43
0.0
 43
0.0
 43
1.0
 77
     0
 47
0.0208333333333333
 47
0.0
 47
0.0
 47
0.0
 47
0.0
 47
0.0208333333333333
 47
0.0
 47
0.0
 47
0.0
 47
0.0
 47
1.0
 47
0.0
 47
0.0
 47
0.0
 47
0.0
 47
1.0
171
     0
 49
0.0208333333333333
 49
0.0
 49
0.0
 49
0.0
 49
0.0
 49
0.0208333333333333
 49
0.0
 49
0.0
 49
0.0
 49
0.0
 49
1.0
 49
0.0
 49
0.0
 49
0.0
 49
0.0
 49
1.0
175
     0
142
0.0208333333333333
142
0.0
142
0.0
142
0.0
142
0.0
142
0.0208333333333333
142
0.0
142
0.0
142
0.0
142
0.0
142
1.0
142
0.0
142
0.0
142
0.0
142
0.0
142
1.0
179
     0
144
0.0208333333333333
144
0.0
144
0.0
144
0.0
144
0.0
144
0.0208333333333333
144
0.0
144
0.0
144
0.0
144
0.0
144
1.0
144
0.0
144
0.0
144
0.0
144
0.0
144
1.0
147
0.0208333333333333
147
0.0
147
0.0
147
0.0
147
0.0
147
0.0208333333333333
147
0.0
147
0.0
147
0.0
147
0.0
147
1.0
147
0.0
147
0.0
147
0.0
147
0.0
147
1.0
  0
MLINESTYLE
  5
18
102
{ACAD_REACTORS
330
17
102
}
330
17
100
AcDbMlineStyle
  2
STANDARD
 70
     0
  3

 62
   256
 51
90.0
 52
90.0
 71
     2
 49
0.5
 62
   256
  6
BYLAYER
 49
-0.5
 62
   256
  6
BYLAYER
  0
PLOTSETTINGS
  5
CBD1
102
{ACAD_XDICTIONARY
360
1939F
102
}
102
{ACAD_REACTORS
330
19
102
}
330
19
100
AcDbPlotSettings
  1
22x17 Xerox8830
  2
Xes 8830 for 2004.pc3
  4
ANSI_C_(22.00_x_17.00_Inches)
  6

 40
6.793749809265136
 41
6.793749809265136
 42
6.79376220703125
 43
6.79376220703125
 44
558.7999877929687
 45
431.7999877929687
 46
0.0
 47
35.81399999999999
 48
0.0
 49
0.0
140
0.0
141
0.0
142
1.0
143
1.49524349949159
 70
   692
 72
     0
 73
     0
 74
     1
  7
PellaCAD 2000.ctb
 75
     0
147
0.6687873917124656
148
-21.59157886640523
149
-6.230335335960706
  0
PLOTSETTINGS
  5
CBD0
102
{ACAD_XDICTIONARY
360
1939D
102
}
102
{ACAD_REACTORS
330
19
102
}
330
19
100
AcDbPlotSettings
  1
22x34 Xerox8830
  2
Xes 8830 for 2004.pc3
  4
ANSI_D_(22.00_x_34.00_Inches)
  6

 40
6.793749809265136
 41
6.793749809265136
 42
6.79376220703125
 43
6.79376220703125
 44
558.7999877929687
 45
863.5999755859375
 46
13.462
 47
17.272
 48
0.0
 49
0.0
140
0.0
141
0.0
142
1.0
143
1.0
 70
   692
 72
     0
 73
     1
 74
     1
  7
PellaCAD 2000.ctb
 75
    16
147
1.0
148
-21.59157886640523
149
-6.230335335960706
  0
PLOTSETTINGS
  5
B30E
102
{ACAD_XDICTIONARY
360
19395
102
}
102
{ACAD_REACTORS
330
19
102
}
330
19
100
AcDbPlotSettings
  1
8.5x11(row 1)
  2
\\pelsprnt02\PECSP13
  4
Letter
  6

 40
7.143749713897705
 41
5.027085304260253
 42
7.14373779296875
 43
5.027069091796875
 44
215.8999938964844
 45
279.3999938964844
 46
2.285999999999999
 47
3.556
 48
0.0
 49
0.0
140
0.0
141
0.0
142
1.0
143
1.0
 70
   692
 72
     0
 73
     0
 74
     1
  7
PellaCAD 2000.ctb
 75
    16
147
1.0
148
-4.158432903504825
149
-3.617288020760524
  0
PLOTSETTINGS
  5
BF67
102
{ACAD_XDICTIONARY
360
19397
102
}
102
{ACAD_REACTORS
330
19
102
}
330
19
100
AcDbPlotSettings
  1
8.5x11(row 2)
  2
\\pelsprnt01\PEASP5
  4
User144
  6

 40
6.349999904632568
 41
4.233341693878173
 42
6.349990844726562
 43
4.23333740234375
 44
215.8999938964844
 45
279.3999938964844
 46
3.047999999999999
 47
4.318
 48
0.0
 49
0.0
140
0.0
141
0.0
142
1.0
143
1.0
 70
   692
 72
     0
 73
     0
 74
     1
  7
PellaCAD 2000.ctb
 75
    16
147
1.0
148
-4.158432903504825
149
-3.617288020760524
  0
PLOTSETTINGS
  5
BF68
102
{ACAD_XDICTIONARY
360
19399
102
}
102
{ACAD_REACTORS
330
19
102
}
330
19
100
AcDbPlotSettings
  1
8.5x11(row 3)
  2
\\pelsprnt01\peslp0
  4
Letter
  6

 40
5.365749835968017
 41
5.408084392547607
 42
5.4080810546875
 43
5.365753173828125
 44
215.8999938964844
 45
279.3999938964844
 46
4.064
 47
3.302
 48
0.0
 49
0.0
140
0.0
141
0.0
142
1.0
143
1.0
 70
   692
 72
     0
 73
     0
 74
     1
  7
PellaCAD 2000.ctb
 75
    16
147
1.0
148
-4.158432903504825
149
-3.617288020760524
  0
PLOTSETTINGS
  5
BF69
102
{ACAD_XDICTIONARY
360
1939B
102
}
102
{ACAD_REACTORS
330
19
102
}
330
19
100
AcDbPlotSettings
  1
8.5x11(row 4)
  2
\\pelsprnt02\PEASP6
  4
Letter
  6

 40
7.143749713897705
 41
5.027085304260253
 42
7.14373779296875
 43
5.027069091796875
 44
215.8999938964844
 45
279.3999938964844
 46
2.285999999999999
 47
3.556
 48
0.0
 49
0.0
140
0.0
141
0.0
142
1.0
143
1.0
 70
   692
 72
     0
 73
     0
 74
     1
  7
PellaCAD 2000.ctb
 75
    16
147
1.0
148
-4.158432903504825
149
-3.617288020760524
  0
ACDBPLACEHOLDER
  5
F
102
{ACAD_REACTORS
330
E
102
}
330
E
  0
SCALE
  5
16BCA
102
{ACAD_REACTORS
330
16B80
102
}
330
16B80
100
AcDbScale
 70
     0
300
1" = 1'
140
1.0
141
1.0
290
     0
  0
SCALE
  5
16B81
102
{ACAD_REACTORS
330
16B80
102
}
330
16B80
100
AcDbScale
 70
     0
300
1:1
140
1.0
141
1.0
290
     1
  0
SCALE
  5
16B82
102
{ACAD_REACTORS
330
16B80
102
}
330
16B80
100
AcDbScale
 70
     0
300
1:2
140
1.0
141
2.0
290
     0
  0
SCALE
  5
16B83
102
{ACAD_REACTORS
330
16B80
102
}
330
16B80
100
AcDbScale
 70
     0
300
1:4
140
1.0
141
4.0
290
     0
  0
SCALE
  5
16B84
102
{ACAD_REACTORS
330
16B80
102
}
330
16B80
100
AcDbScale
 70
     0
300
1:5
140
1.0
141
5.0
290
     0
  0
SCALE
  5
16B85
102
{ACAD_REACTORS
330
16B80
102
}
330
16B80
100
AcDbScale
 70
     0
300
1:8
140
1.0
141
8.0
290
     0
  0
SCALE
  5
16B86
102
{ACAD_REACTORS
330
16B80
102
}
330
16B80
100
AcDbScale
 70
     0
300
1:10
140
1.0
141
10.0
290
     0
  0
SCALE
  5
16B87
102
{ACAD_REACTORS
330
16B80
102
}
330
16B80
100
AcDbScale
 70
     0
300
1:16
140
1.0
141
16.0
290
     0
  0
SCALE
  5
16B88
102
{ACAD_REACTORS
330
16B80
102
}
330
16B80
100
AcDbScale
 70
     0
300
1:20
140
1.0
141
20.0
290
     0
  0
SCALE
  5
16B89
102
{ACAD_REACTORS
330
16B80
102
}
330
16B80
100
AcDbScale
 70
     0
300
1:30
140
1.0
141
30.0
290
     0
  0
SCALE
  5
16B8A
102
{ACAD_REACTORS
330
16B80
102
}
330
16B80
100
AcDbScale
 70
     0
300
1:40
140
1.0
141
40.0
290
     0
  0
SCALE
  5
16B8B
102
{ACAD_REACTORS
330
16B80
102
}
330
16B80
100
AcDbScale
 70
     0
300
1:50
140
1.0
141
50.0
290
     0
  0
SCALE
  5
16B8C
102
{ACAD_REACTORS
330
16B80
102
}
330
16B80
100
AcDbScale
 70
     0
300
1:100
140
1.0
141
100.0
290
     0
  0
SCALE
  5
16B8D
102
{ACAD_REACTORS
330
16B80
102
}
330
16B80
100
AcDbScale
 70
     0
300
2:1
140
2.0
141
1.0
290
     0
  0
SCALE
  5
16B8E
102
{ACAD_REACTORS
330
16B80
102
}
330
16B80
100
AcDbScale
 70
     0
300
4:1
140
4.0
141
1.0
290
     0
  0
SCALE
  5
16B8F
102
{ACAD_REACTORS
330
16B80
102
}
330
16B80
100
AcDbScale
 70
     0
300
8:1
140
8.0
141
1.0
290
     0
  0
SCALE
  5
16B90
102
{ACAD_REACTORS
330
16B80
102
}
330
16B80
100
AcDbScale
 70
     0
300
10:1
140
10.0
141
1.0
290
     0
  0
SCALE
  5
16B91
102
{ACAD_REACTORS
330
16B80
102
}
330
16B80
100
AcDbScale
 70
     0
300
100:1
140
100.0
141
1.0
290
     0
  0
SCALE
  5
16B92
102
{ACAD_REACTORS
330
16B80
102
}
330
16B80
100
AcDbScale
 70
     0
300
1/128" = 1'-0"
140
0.0078125
141
12.0
290
     0
  0
SCALE
  5
16B93
102
{ACAD_REACTORS
330
16B80
102
}
330
16B80
100
AcDbScale
 70
     0
300
1/64" = 1'-0"
140
0.015625
141
12.0
290
     0
  0
SCALE
  5
16B94
102
{ACAD_REACTORS
330
16B80
102
}
330
16B80
100
AcDbScale
 70
     0
300
1/32" = 1'-0"
140
0.03125
141
12.0
290
     0
  0
SCALE
  5
16B95
102
{ACAD_REACTORS
330
16B80
102
}
330
16B80
100
AcDbScale
 70
     0
300
1/16" = 1'-0"
140
0.0625
141
12.0
290
     0
  0
SCALE
  5
16B96
102
{ACAD_REACTORS
330
16B80
102
}
330
16B80
100
AcDbScale
 70
     0
300
3/32" = 1'-0"
140
0.09375
141
12.0
290
     0
  0
SCALE
  5
16B97
102
{ACAD_REACTORS
330
16B80
102
}
330
16B80
100
AcDbScale
 70
     0
300
1/8" = 1'-0"
140
0.125
141
12.0
290
     0
  0
SCALE
  5
16B98
102
{ACAD_REACTORS
330
16B80
102
}
330
16B80
100
AcDbScale
 70
     0
300
3/16" = 1'-0"
140
0.1875
141
12.0
290
     0
  0
SCALE
  5
16B99
102
{ACAD_REACTORS
330
16B80
102
}
330
16B80
100
AcDbScale
 70
     0
300
1/4" = 1'-0"
140
0.25
141
12.0
290
     0
  0
SCALE
  5
16B9A
102
{ACAD_REACTORS
330
16B80
102
}
330
16B80
100
AcDbScale
 70
     0
300
3/8" = 1'-0"
140
0.375
141
12.0
290
     0
  0
SCALE
  5
16B9B
102
{ACAD_REACTORS
330
16B80
102
}
330
16B80
100
AcDbScale
 70
     0
300
1/2" = 1'-0"
140
0.5
141
12.0
290
     0
  0
SCALE
  5
16B9C
102
{ACAD_REACTORS
330
16B80
102
}
330
16B80
100
AcDbScale
 70
     0
300
3/4" = 1'-0"
140
0.75
141
12.0
290
     0
  0
SCALE
  5
16B9D
102
{ACAD_REACTORS
330
16B80
102
}
330
16B80
100
AcDbScale
 70
     0
300
1" = 1'-0"
140
1.0
141
12.0
290
     0
  0
SCALE
  5
16B9E
102
{ACAD_REACTORS
330
16B80
102
}
330
16B80
100
AcDbScale
 70
     0
300
1-1/2" = 1'-0"
140
1.5
141
12.0
290
     0
  0
SCALE
  5
16B9F
102
{ACAD_REACTORS
330
16B80
102
}
330
16B80
100
AcDbScale
 70
     0
300
3" = 1'-0"
140
3.0
141
12.0
290
     0
  0
SCALE
  5
16BA0
102
{ACAD_REACTORS
330
16B80
102
}
330
16B80
100
AcDbScale
 70
     0
300
6" = 1'-0"
140
6.0
141
12.0
290
     0
  0
SCALE
  5
16BA1
102
{ACAD_REACTORS
330
16B80
102
}
330
16B80
100
AcDbScale
 70
     0
300
1'-0" = 1'-0"
140
12.0
141
12.0
290
     0
  0
TABLESTYLE
  5
16B7F
102
{ACAD_XDICTIONARY
360
16C21
102
}
102
{ACAD_REACTORS
330
16B7E
102
}
330
16B7E
100
AcDbTableStyle
  3
Standard
 70
     0
 71
     0
 40
0.06
 41
0.06
280
     0
281
     0
  7
Standard
140
0.18
170
     2
 62
     0
 63
     7
283
     0
274
    -2
284
     1
 64
     0
275
    -2
285
     1
 65
     0
276
    -2
286
     1
 66
     0
277
    -2
287
     1
 67
     0
278
    -2
288
     1
 68
     0
279
    -2
289
     1
 69
     0
  7
Standard
140
0.25
170
     5
 62
     0
 63
     7
283
     0
274
    -2
284
     1
 64
     0
275
    -2
285
     1
 65
     0
276
    -2
286
     1
 66
     0
277
    -2
287
     1
 67
     0
278
    -2
288
     1
 68
     0
279
    -2
289
     1
 69
     0
  7
Standard
140
0.18
170
     5
 62
     0
 63
     7
283
     0
274
    -2
284
     1
 64
     0
275
    -2
285
     1
 65
     0
276
    -2
286
     1
 66
     0
277
    -2
287
     1
 67
     0
278
    -2
288
     1
 68
     0
279
    -2
289
     1
 69
     0
  0
VISUALSTYLE
  5
16B73
102
{ACAD_REACTORS
330
16B6D
102
}
330
16B6D
100
AcDbVisualStyle
  2
2dWireframe
 70
     4
 71
     0
 72
     2
 73
     0
 90
        0
 40
-0.6
 41
-30.0
 62
     5
 63
     7
 74
     1
 91
        4
 64
     7
 65
   257
 75
     1
175
     1
 42
1.0
 92
        0
 66
   257
 43
1.0
 76
     1
 77
     6
 78
     2
 67
     7
 79
     5
170
     0
171
     0
290
     0
174
     0
 93
        1
 44
0.0
173
     0
291
     0
 45
0.0
1001
ACAD
1000
AcDbSavedByObjectVersion
1070
     0
  0
VISUALSTYLE
  5
16B75
102
{ACAD_REACTORS
330
16B6D
102
}
330
16B6D
100
AcDbVisualStyle
  2
3D Hidden
 70
     6
 71
     1
 72
     2
 73
     2
 90
        0
 40
-0.6
 41
-30.0
 62
     5
 63
     7
 74
     2
 91
        2
 64
     7
 65
   257
 75
     2
175
     1
 42
40.0
 92
        0
 66
   257
 43
1.0
 76
     1
 77
     6
 78
     2
 67
     7
 79
     3
170
     0
171
     0
290
     0
174
     0
 93
        1
 44
0.0
173
     0
291
     0
 45
0.0
1001
ACAD
1000
AcDbSavedByObjectVersion
1070
     0
  0
VISUALSTYLE
  5
16B74
102
{ACAD_REACTORS
330
16B6D
102
}
330
16B6D
100
AcDbVisualStyle
  2
3dWireframe
 70
     5
 71
     0
 72
     2
 73
     0
 90
        0
 40
-0.6
 41
-30.0
 62
     5
 63
     7
 74
     1
 91
        4
 64
     7
 65
   257
 75
     1
175
     1
 42
1.0
 92
        0
 66
   257
 43
1.0
 76
     1
 77
     6
 78
     2
 67
     7
 79
     5
170
     0
171
     0
290
     0
174
     0
 93
        1
 44
0.0
173
     0
291
     0
 45
0.0
1001
ACAD
1000
AcDbSavedByObjectVersion
1070
     0
  0
VISUALSTYLE
  5
16B72
102
{ACAD_REACTORS
330
16B6D
102
}
330
16B6D
100
AcDbVisualStyle
  2
Basic
 70
     7
 71
     1
 72
     0
 73
     1
 90
        0
 40
-0.6
 41
-30.0
 62
     5
 63
     7
 74
     0
 91
        4
 64
     7
 65
   257
 75
     1
175
     1
 42
1.0
 92
        8
 66
     7
 43
1.0
 76
     1
 77
     6
 78
     2
 67
     7
 79
     5
170
     0
171
     0
290
     0
174
     0
 93
        1
 44
0.0
173
     0
291
     1
 45
0.0
1001
ACAD
1000
AcDbSavedByObjectVersion
1070
     0
  0
VISUALSTYLE
  5
16B79
102
{ACAD_REACTORS
330
16B6D
102
}
330
16B6D
100
AcDbVisualStyle
  2
Brighten
 70
    12
 71
     2
 72
     2
 73
     0
 90
        0
 40
-0.6
 41
-30.0
 62
     5
 63
     7
 74
     1
 91
        4
 64
     7
 65
   257
 75
     1
175
     1
 42
1.0
 92
        8
 66
     7
 43
1.0
 76
     1
 77
     6
 78
     2
 67
     7
 79
     5
170
     0
171
     0
290
     0
174
     0
 93
        1
 44
50.0
173
     0
291
     1
 45
0.0
1001
ACAD
1000
AcDbSavedByObjectVersion
1070
     0
  0
VISUALSTYLE
  5
16B7D
102
{ACAD_REACTORS
330
16B6D
102
}
330
16B6D
100
AcDbVisualStyle
  2
ColorChange
 70
    16
 71
     2
 72
     2
 73
     3
 90
        0
 40
-0.6
 41
-30.0
 62
     5
 63
     8
 74
     1
 91
        4
 64
     7
 65
   257
 75
     1
175
     1
 42
1.0
 92
        8
 66
     8
 43
1.0
 76
     1
 77
     6
 78
     2
 67
     7
 79
     5
170
     0
171
     0
290
     0
174
     0
 93
        1
 44
0.0
173
     0
291
     1
 45
0.0
1001
ACAD
1000
AcDbSavedByObjectVersion
1070
     0
  0
VISUALSTYLE
  5
16B76
102
{ACAD_REACTORS
330
16B6D
102
}
330
16B6D
100
AcDbVisualStyle
  2
Conceptual
 70
     9
 71
     3
 72
     2
 73
     0
 90
        0
 40
-0.6
 41
-30.0
 62
     5
 63
     7
 74
     2
 91
        2
 64
     7
 65
   257
 75
     1
175
     1
 42
40.0
 92
        8
 66
     7
 43
1.0
 76
     1
 77
     6
 78
     2
 67
     7
 79
     3
170
     0
171
     0
290
     0
174
     0
 93
        1
 44
0.0
173
     0
291
     0
 45
0.0
1001
ACAD
1000
AcDbSavedByObjectVersion
1070
     0
  0
VISUALSTYLE
  5
16B78
102
{ACAD_REACTORS
330
16B6D
102
}
330
16B6D
100
AcDbVisualStyle
  2
Dim
 70
    11
 71
     2
 72
     2
 73
     0
 90
        0
 40
-0.6
 41
-30.0
 62
     5
 63
     7
 74
     1
 91
        4
 64
     7
 65
   257
 75
     1
175
     1
 42
1.0
 92
        8
 66
     7
 43
1.0
 76
     1
 77
     6
 78
     2
 67
     7
 79
     5
170
     0
171
     0
290
     0
174
     0
 93
        1
 44
-50.0
173
     0
291
     1
 45
0.0
1001
ACAD
1000
AcDbSavedByObjectVersion
1070
     0
  0
VISUALSTYLE
  5
16B7C
102
{ACAD_REACTORS
330
16B6D
102
}
330
16B6D
100
AcDbVisualStyle
  2
Facepattern
 70
    15
 71
     2
 72
     2
 73
     0
 90
        0
 40
-0.6
 41
-30.0
 62
     5
 63
     7
 74
     1
 91
        4
 64
     7
 65
   257
 75
     1
175
     1
 42
1.0
 92
        8
 66
     7
 43
1.0
 76
     1
 77
     6
 78
     2
 67
     7
 79
     5
170
     0
171
     0
290
     0
174
     0
 93
        1
 44
0.0
173
     0
291
     1
 45
0.0
1001
ACAD
1000
AcDbSavedByObjectVersion
1070
     0
  0
VISUALSTYLE
  5
16B6E
102
{ACAD_REACTORS
330
16B6D
102
}
330
16B6D
100
AcDbVisualStyle
  2
Flat
 70
     0
 71
     2
 72
     1
 73
     1
 90
        2
 40
-0.6
 41
30.0
 62
     5
 63
     7
 74
     0
 91
        4
 64
     7
 65
   257
 75
     1
175
     1
 42
1.0
 92
        8
 66
     7
 43
1.0
 76
     1
 77
     6
 78
     2
 67
     7
 79
     5
170
     0
171
     0
290
     0
174
     0
 93
       13
 44
0.0
173
     0
291
     1
 45
0.0
1001
ACAD
1000
AcDbSavedByObjectVersion
1070
     0
  0
VISUALSTYLE
  5
16B6F
102
{ACAD_REACTORS
330
16B6D
102
}
330
16B6D
100
AcDbVisualStyle
  2
FlatWithEdges
 70
     1
 71
     2
 72
     1
 73
     1
 90
        2
 40
-0.6
 41
30.0
 62
     5
 63
     7
 74
     1
 91
        4
 64
     7
 65
   257
 75
     1
175
     1
 42
1.0
 92
        0
 66
   257
 43
1.0
 76
     1
 77
     6
 78
     2
 67
     7
 79
     5
170
     0
171
     0
290
     0
174
     0
 93
       13
 44
0.0
173
     0
291
     1
 45
0.0
1001
ACAD
1000
AcDbSavedByObjectVersion
1070
     0
  0
VISUALSTYLE
  5
16B70
102
{ACAD_REACTORS
330
16B6D
102
}
330
16B6D
100
AcDbVisualStyle
  2
Gouraud
 70
     2
 71
     2
 72
     2
 73
     1
 90
        2
 40
-0.6
 41
30.0
 62
     5
 63
     7
 74
     0
 91
        4
 64
     7
 65
   257
 75
     1
175
     1
 42
1.0
 92
        0
 66
     7
 43
1.0
 76
     1
 77
     6
 78
     2
 67
     7
 79
     5
170
     0
171
     0
290
     0
174
     0
 93
       13
 44
0.0
173
     0
291
     1
 45
0.0
1001
ACAD
1000
AcDbSavedByObjectVersion
1070
     0
  0
VISUALSTYLE
  5
16B71
102
{ACAD_REACTORS
330
16B6D
102
}
330
16B6D
100
AcDbVisualStyle
  2
GouraudWithEdges
 70
     3
 71
     2
 72
     2
 73
     1
 90
        2
 40
-0.6
 41
30.0
 62
     5
 63
     7
 74
     1
 91
        4
 64
     7
 65
   257
 75
     1
175
     1
 42
1.0
 92
        0
 66
   257
 43
1.0
 76
     1
 77
     6
 78
     2
 67
     7
 79
     5
170
     0
171
     0
290
     0
174
     0
 93
       13
 44
0.0
173
     0
291
     1
 45
0.0
1001
ACAD
1000
AcDbSavedByObjectVersion
1070
     0
  0
VISUALSTYLE
  5
16B7B
102
{ACAD_REACTORS
330
16B6D
102
}
330
16B6D
100
AcDbVisualStyle
  2
Linepattern
 70
    14
 71
     2
 72
     2
 73
     0
 90
        0
 40
-0.6
 41
-30.0
 62
     5
 63
     7
 74
     1
 91
        4
 64
     7
 65
   257
 75
     7
175
     7
 42
1.0
 92
        8
 66
     7
 43
1.0
 76
     1
 77
     6
 78
     2
 67
     7
 79
     5
170
     0
171
     0
290
     0
174
     0
 93
        1
 44
0.0
173
     0
291
     1
 45
0.0
1001
ACAD
1000
AcDbSavedByObjectVersion
1070
     0
  0
VISUALSTYLE
  5
16B77
102
{ACAD_REACTORS
330
16B6D
102
}
330
16B6D
100
AcDbVisualStyle
  2
Realistic
 70
     8
 71
     2
 72
     2
 73
     0
 90
        0
 40
-0.6
 41
-30.0
 62
     5
 63
     7
 74
     1
 91
        0
 64
     7
 65
   257
 75
     1
175
     1
 42
1.0
 92
        8
 66
     8
 43
1.0
 76
     1
 77
     6
 78
     2
 67
     7
 79
     5
170
     0
171
     0
290
     0
174
     0
 93
       13
 44
0.0
173
     0
291
     0
 45
0.0
1001
ACAD
1000
AcDbSavedByObjectVersion
1070
     0
  0
VISUALSTYLE
  5
16B7A
102
{ACAD_REACTORS
330
16B6D
102
}
330
16B6D
100
AcDbVisualStyle
  2
Thicken
 70
    13
 71
     2
 72
     2
 73
     0
 90
        0
 40
-0.6
 41
-30.0
 62
     5
 63
     7
 74
     1
 91
        4
 64
     7
 65
   257
 75
     1
175
     1
 42
1.0
 92
       12
 66
     7
 43
1.0
 76
     1
 77
     6
 78
     2
 67
     7
 79
     5
170
     0
171
     0
290
     0
174
     0
 93
        1
 44
0.0
173
     0
291
     1
 45
0.0
1001
ACAD
1000
AcDbSavedByObjectVersion
1070
     0
  0
DICTIONARYVAR
  5
16C32
102
{ACAD_REACTORS
330
79D9
102
}
330
79D9
100
DictionaryVariables
280
     0
  1
1:1
  0
DICTIONARYVAR
  5
16C31
102
{ACAD_REACTORS
330
79D9
102
}
330
79D9
100
DictionaryVariables
280
     0
  1
STANDARD
  0
DICTIONARYVAR
  5
16C30
102
{ACAD_REACTORS
330
79D9
102
}
330
79D9
100
DictionaryVariables
280
     0
  1
STANDARD
  0
DICTIONARYVAR
  5
79DA
102
{ACAD_REACTORS
330
79D9
102
}
330
79D9
100
DictionaryVariables
280
     0
  1
2
  0
DICTIONARYVAR
  5
1935C
102
{ACAD_REACTORS
330
79D9
102
}
330
79D9
100
DictionaryVariables
280
     0
  1
0
  0
DICTIONARYVAR
  5
14198
102
{ACAD_REACTORS
330
79D9
102
}
330
79D9
100
DictionaryVariables
280
     0
  1

  0
DICTIONARYVAR
  5
1935B
102
{ACAD_REACTORS
330
79D9
102
}
330
79D9
100
DictionaryVariables
280
     0
  1
127
  0
XRECORD
  5
1047
102
{ACAD_REACTORS
330
1012
102
}
330
1012
100
AcDbXrecord
280
     1
1000
ADE02C001
1070
     1
1070
     0
1002
{
1002
}
1002
{
1002
}
1002
{
1002
}
1000

  0
ACAD_PROXY_OBJECT
  5
1BA
102
{ACAD_REACTORS
330
1B9
102
}
330
1B9
100
AcDbProxyObject
 90
      499
 91
      504
 95
       23
 70
     0
 93
       51
310
4050289602645F
 94
        0
1001
ACAD
1000
AcRTDxfName
1000
AMLOADER
1000
AcRTDxfName
1000
AMLOADER
1000
AcRTDxfName
1000
AMLOADER
1000
AcRTDxfName
1000
AMLOADER
1000
AcRTDxfName
1000
AMLOADER
1000
AcRTDxfName
1000
AMLOADER
1000
AcRTDxfName
1000
AMLOADER
  0
XRECORD
  5
E0A7
102
{ACAD_REACTORS
330
E0A6
102
}
330
E0A6
100
AcDbXrecord
280
     1
330
CCAF
330
0
  0
DICTIONARY
  5
193A1
330
CBD3
100
AcDbDictionary
280
     1
281
     1
  3
ACAD_XREC_ROUNDTRIP
360
193A2
  0
DICTIONARY
  5
19393
330
22
100
AcDbDictionary
280
     1
281
     1
  3
ACAD_XREC_ROUNDTRIP
360
19394
  0
DICTIONARY
  5
16B5E
330
16B5D
100
AcDbDictionary
280
     1
281
     1
  3
ACAD_XREC_ROUNDTRIP
360
193A8
  3
BUMPTILE
360
16B60
  3
DIFFUSETILE
360
16B5F
  3
OPACITYTILE
360
16B63
  3
REFLECTIONTILE
360
16B62
  3
REFRACTIONTILE
360
16B64
  3
SPECULARTILE
360
16B61
  0
DICTIONARY
  5
16B56
330
16B55
100
AcDbDictionary
280
     1
281
     1
  3
ACAD_XREC_ROUNDTRIP
360
193A7
  3
BUMPTILE
360
16B58
  3
DIFFUSETILE
360
16B57
  3
OPACITYTILE
360
16B5B
  3
REFLECTIONTILE
360
16B5A
  3
REFRACTIONTILE
360
16B5C
  3
SPECULARTILE
360
16B59
  0
DICTIONARY
  5
16B66
330
16B65
100
AcDbDictionary
280
     1
281
     1
  3
ACAD_XREC_ROUNDTRIP
360
193A9
  3
BUMPTILE
360
16B68
  3
DIFFUSETILE
360
16B67
  3
OPACITYTILE
360
16B6B
  3
REFLECTIONTILE
360
16B6A
  3
REFRACTIONTILE
360
16B6C
  3
SPECULARTILE
360
16B69
  0
DICTIONARY
  5
1939F
330
CBD1
100
AcDbDictionary
280
     1
281
     1
  3
ACAD_XREC_ROUNDTRIP
360
193A0
  0
DICTIONARY
  5
1939D
330
CBD0
100
AcDbDictionary
280
     1
281
     1
  3
ACAD_XREC_ROUNDTRIP
360
1939E
  0
DICTIONARY
  5
19395
330
B30E
100
AcDbDictionary
280
     1
281
     1
  3
ACAD_XREC_ROUNDTRIP
360
19396
  0
DICTIONARY
  5
19397
330
BF67
100
AcDbDictionary
280
     1
281
     1
  3
ACAD_XREC_ROUNDTRIP
360
19398
  0
DICTIONARY
  5
19399
330
BF68
100
AcDbDictionary
280
     1
281
     1
  3
ACAD_XREC_ROUNDTRIP
360
1939A
  0
DICTIONARY
  5
1939B
330
BF69
100
AcDbDictionary
280
     1
281
     1
  3
ACAD_XREC_ROUNDTRIP
360
1939C
  0
DICTIONARY
  5
16C21
330
16B7F
100
AcDbDictionary
280
     1
281
     1
  3
ACAD_ROUNDTRIP_2008_TABLESTYLE_CELLSTYLEMAP
360
19391
  3
ACAD_XREC_ROUNDTRIP
360
193AA
  0
XRECORD
  5
193A2
102
{ACAD_REACTORS
330
193A1
102
}
330
193A1
100
AcDbXrecord
280
     1
102
SHADEPLOT
 70
     1
102
SHADEPLOTRESLEVEL
 70
     2
102
SHADEPLOTCUSTOMDPI
 70
   150
  0
XRECORD
  5
19394
102
{ACAD_REACTORS
330
19393
102
}
330
19393
100
AcDbXrecord
280
     1
102
SHADEPLOT
 70
     0
102
SHADEPLOTRESLEVEL
 70
     2
102
SHADEPLOTCUSTOMDPI
 70
   300
  0
XRECORD
  5
193A8
102
{ACAD_REACTORS
330
16B5E
102
}
330
16B5E
100
AcDbXrecord
280
     1
102
MATERIAL
148
0.0
149
0.0
149
0.0
 93
        0
 94
      127
282
     0
 72
     0
 77
     0
171
     0
175
     0
179
     0
273
     0
  0
XRECORD
  5
16B60
102
{ACAD_REACTORS
330
16B5E
102
}
330
16B5E
100
AcDbXrecord
280
     1
270
     1
271
     1
  0
XRECORD
  5
16B5F
102
{ACAD_REACTORS
330
16B5E
102
}
330
16B5E
100
AcDbXrecord
280
     1
270
     1
271
     1
  0
XRECORD
  5
16B63
102
{ACAD_REACTORS
330
16B5E
102
}
330
16B5E
100
AcDbXrecord
280
     1
270
     1
271
     1
  0
XRECORD
  5
16B62
102
{ACAD_REACTORS
330
16B5E
102
}
330
16B5E
100
AcDbXrecord
280
     1
270
     1
271
     1
  0
XRECORD
  5
16B64
102
{ACAD_REACTORS
330
16B5E
102
}
330
16B5E
100
AcDbXrecord
280
     1
270
     1
271
     1
  0
XRECORD
  5
16B61
102
{ACAD_REACTORS
330
16B5E
102
}
330
16B5E
100
AcDbXrecord
280
     1
270
     1
271
     1
  0
XRECORD
  5
193A7
102
{ACAD_REACTORS
330
16B56
102
}
330
16B56
100
AcDbXrecord
280
     1
102
MATERIAL
148
0.0
149
0.0
149
0.0
 93
        0
 94
      127
282
     0
 72
     0
 77
     0
171
     0
175
     0
179
     0
273
     0
  0
XRECORD
  5
16B58
102
{ACAD_REACTORS
330
16B56
102
}
330
16B56
100
AcDbXrecord
280
     1
270
     1
271
     1
  0
XRECORD
  5
16B57
102
{ACAD_REACTORS
330
16B56
102
}
330
16B56
100
AcDbXrecord
280
     1
270
     1
271
     1
  0
XRECORD
  5
16B5B
102
{ACAD_REACTORS
330
16B56
102
}
330
16B56
100
AcDbXrecord
280
     1
270
     1
271
     1
  0
XRECORD
  5
16B5A
102
{ACAD_REACTORS
330
16B56
102
}
330
16B56
100
AcDbXrecord
280
     1
270
     1
271
     1
  0
XRECORD
  5
16B5C
102
{ACAD_REACTORS
330
16B56
102
}
330
16B56
100
AcDbXrecord
280
     1
270
     1
271
     1
  0
XRECORD
  5
16B59
102
{ACAD_REACTORS
330
16B56
102
}
330
16B56
100
AcDbXrecord
280
     1
270
     1
271
     1
  0
XRECORD
  5
193A9
102
{ACAD_REACTORS
330
16B66
102
}
330
16B66
100
AcDbXrecord
280
     1
102
MATERIAL
148
0.0
149
0.0
149
0.0
 93
        0
 94
      127
282
     0
 72
     0
 77
     0
171
     0
175
     0
179
     0
273
     0
  0
XRECORD
  5
16B68
102
{ACAD_REACTORS
330
16B66
102
}
330
16B66
100
AcDbXrecord
280
     1
270
     1
271
     1
  0
XRECORD
  5
16B67
102
{ACAD_REACTORS
330
16B66
102
}
330
16B66
100
AcDbXrecord
280
     1
270
     1
271
     1
  0
XRECORD
  5
16B6B
102
{ACAD_REACTORS
330
16B66
102
}
330
16B66
100
AcDbXrecord
280
     1
270
     1
271
     1
  0
XRECORD
  5
16B6A
102
{ACAD_REACTORS
330
16B66
102
}
330
16B66
100
AcDbXrecord
280
     1
270
     1
271
     1
  0
XRECORD
  5
16B6C
102
{ACAD_REACTORS
330
16B66
102
}
330
16B66
100
AcDbXrecord
280
     1
270
     1
271
     1
  0
XRECORD
  5
16B69
102
{ACAD_REACTORS
330
16B66
102
}
330
16B66
100
AcDbXrecord
280
     1
270
     1
271
     1
  0
XRECORD
  5
193A0
102
{ACAD_REACTORS
330
1939F
102
}
330
1939F
100
AcDbXrecord
280
     1
102
SHADEPLOT
 70
     1
102
SHADEPLOTRESLEVEL
 70
     2
102
SHADEPLOTCUSTOMDPI
 70
   200
  0
XRECORD
  5
1939E
102
{ACAD_REACTORS
330
1939D
102
}
330
1939D
100
AcDbXrecord
280
     1
102
SHADEPLOT
 70
     1
102
SHADEPLOTRESLEVEL
 70
     2
102
SHADEPLOTCUSTOMDPI
 70
   200
  0
XRECORD
  5
19396
102
{ACAD_REACTORS
330
19395
102
}
330
19395
100
AcDbXrecord
280
     1
102
SHADEPLOT
 70
     1
102
SHADEPLOTRESLEVEL
 70
     2
102
SHADEPLOTCUSTOMDPI
 70
   300
  0
XRECORD
  5
19398
102
{ACAD_REACTORS
330
19397
102
}
330
19397
100
AcDbXrecord
280
     1
102
SHADEPLOT
 70
     1
102
SHADEPLOTRESLEVEL
 70
     2
102
SHADEPLOTCUSTOMDPI
 70
   300
  0
XRECORD
  5
1939A
102
{ACAD_REACTORS
330
19399
102
}
330
19399
100
AcDbXrecord
280
     1
102
SHADEPLOT
 70
     1
102
SHADEPLOTRESLEVEL
 70
     2
102
SHADEPLOTCUSTOMDPI
 70
   300
  0
XRECORD
  5
1939C
102
{ACAD_REACTORS
330
1939B
102
}
330
1939B
100
AcDbXrecord
280
     1
102
SHADEPLOT
 70
     1
102
SHADEPLOTRESLEVEL
 70
     2
102
SHADEPLOTCUSTOMDPI
 70
   300
  0
CELLSTYLEMAP
  5
19391
102
{ACAD_REACTORS
330
16C21
102
}
330
16C21
100
AcDbCellStyleMap
 90
        3
300
CELLSTYLE
  1
TABLEFORMAT_BEGIN
 90
        5
170
     1
 91
        0
 92
    32768
 62
   257
 93
        1
300
CONTENTFORMAT
  1
CONTENTFORMAT_BEGIN
 90
        0
 91
        0
 92
      512
 93
        0
300

 40
0.0
140
1.0
 94
        5
 62
     0
340
11
144
0.25
309
CONTENTFORMAT_END
171
     0
 94
        0
309
TABLEFORMAT_END
  1
CELLSTYLE_BEGIN
 90
        1
 91
        1
300
_TITLE
309
CELLSTYLE_END
300
CELLSTYLE
  1
TABLEFORMAT_BEGIN
 90
        5
170
     1
 91
        0
 92
        0
 62
   257
 93
        1
300
CONTENTFORMAT
  1
CONTENTFORMAT_BEGIN
 90
        0
 91
        0
 92
      512
 93
        0
300

 40
0.0
140
1.0
 94
        5
 62
     0
340
11
144
0.18
309
CONTENTFORMAT_END
171
     0
 94
        0
309
TABLEFORMAT_END
  1
CELLSTYLE_BEGIN
 90
        2
 91
        1
300
_HEADER
309
CELLSTYLE_END
300
CELLSTYLE
  1
TABLEFORMAT_BEGIN
 90
        5
170
     1
 91
        0
 92
        0
 62
   257
 93
        1
300
CONTENTFORMAT
  1
CONTENTFORMAT_BEGIN
 90
        0
 91
        0
 92
      512
 93
        0
300

 40
0.0
140
1.0
 94
        2
 62
     0
340
11
144
0.18
309
CONTENTFORMAT_END
171
     0
 94
        0
309
TABLEFORMAT_END
  1
CELLSTYLE_BEGIN
 90
        3
 91
        2
300
_DATA
309
CELLSTYLE_END
  0
XRECORD
  5
193AA
102
{ACAD_REACTORS
330
16C21
102
}
330
16C21
100
AcDbXrecord
280
     1
102
ACAD_ROUNDTRIP_PRE2007_TABLESTYLE
 90
      512
 91
        0
  1

 92
      512
 93
        0
  2

 94
      512
 95
        0
  3

  0
ENDSEC
  0
EOF
