  0
SECTION
  2
HEADER
  9
$ACADVER
  1
AC1015
  9
$ACADMAINTVER
 70
    18
  9
$DWGCODEPAGE
  3
ANSI_1252
  9
$INSBASE
 10
0.0
 20
0.0
 30
0.0
  9
$EXTMIN
 10
6.438270645027834
 20
2.341552817427498
 30
-0.0015258207003583
  9
$EXTMAX
 10
27.47754675822514
 20
15.73915105946263
 30
0.0000000349246037
  9
$LIMMIN
 10
0.0
 20
0.0
  9
$LIMMAX
 10
12.0
 20
9.0
  9
$ORTHOMODE
 70
     1
  9
$REGENMODE
 70
     1
  9
$FILLMODE
 70
     1
  9
$QTEXTMODE
 70
     0
  9
$MIRRTEXT
 70
     0
  9
$LTSCALE
 40
0.5
  9
$ATTMODE
 70
     1
  9
$TEXTSIZE
 40
1.0
  9
$TRACEWID
 40
0.05
  9
$TEXTSTYLE
  7
ARCHQUIK
  9
$CLAYER
  8
0
  9
$CELTYPE
  6
ByLayer
  9
$CECOLOR
 62
   256
  9
$CELTSCALE
 40
1.0
  9
$DISPSILH
 70
     0
  9
$DIMSCALE
 40
1.0
  9
$DIMASZ
 40
0.0833333333333333
  9
$DIMEXO
 40
0.0625
  9
$DIMDLI
 40
0.0625
  9
$DIMRND
 40
0.0
  9
$DIMDLE
 40
0.0
  9
$DIMEXE
 40
0.0625
  9
$DIMTP
 40
0.0
  9
$DIMTM
 40
0.0
  9
$DIMTXT
 40
0.08
  9
$DIMCEN
 40
0.09
  9
$DIMTSZ
 40
0.0
  9
$DIMTOL
 70
     0
  9
$DIMLIM
 70
     0
  9
$DIMTIH
 70
     0
  9
$DIMTOH
 70
     0
  9
$DIMSE1
 70
     0
  9
$DIMSE2
 70
     0
  9
$DIMTAD
 70
     1
  9
$DIMZIN
 70
     2
  9
$DIMBLK
  1

  9
$DIMASO
 70
     1
  9
$DIMSHO
 70
     1
  9
$DIMPOST
  1

  9
$DIMAPOST
  1

  9
$DIMALT
 70
     0
  9
$DIMALTD
 70
     2
  9
$DIMALTF
 40
25.4
  9
$DIMLFAC
 40
1.0
  9
$DIMTOFL
 70
     0
  9
$DIMTVP
 40
0.0
  9
$DIMTIX
 70
     0
  9
$DIMSOXD
 70
     0
  9
$DIMSAH
 70
     0
  9
$DIMBLK1
  1

  9
$DIMBLK2
  1

  9
$DIMSTYLE
  2
Standard
  9
$DIMCLRD
 70
     0
  9
$DIMCLRE
 70
     0
  9
$DIMCLRT
 70
     7
  9
$DIMTFAC
 40
0.75
  9
$DIMGAP
 40
0.0625
  9
$DIMJUST
 70
     0
  9
$DIMSD1
 70
     0
  9
$DIMSD2
 70
     0
  9
$DIMTOLJ
 70
     1
  9
$DIMTZIN
 70
     0
  9
$DIMALTZ
 70
     0
  9
$DIMALTTZ
 70
     0
  9
$DIMUPT
 70
     0
  9
$DIMDEC
 70
     4
  9
$DIMTDEC
 70
     4
  9
$DIMALTU
 70
     2
  9
$DIMALTTD
 70
     2
  9
$DIMTXSTY
  7
Standard
  9
$DIMAUNIT
 70
     0
  9
$DIMADEC
 70
     3
  9
$DIMALTRND
 40
0.0
  9
$DIMAZIN
 70
     0
  9
$DIMDSEP
 70
    46
  9
$DIMATFIT
 70
     3
  9
$DIMFRAC
 70
     1
  9
$DIMLDRBLK
  1

  9
$DIMLUNIT
 70
     5
  9
$DIMLWD
 70
    -2
  9
$DIMLWE
 70
    -2
  9
$DIMTMOVE
 70
     0
  9
$LUNITS
 70
     2
  9
$LUPREC
 70
     4
  9
$SKETCHINC
 40
0.1
  9
$FILLETRAD
 40
0.0
  9
$AUNITS
 70
     0
  9
$AUPREC
 70
     3
  9
$MENU
  1
.
  9
$ELEVATION
 40
0.0
  9
$PELEVATION
 40
0.0
  9
$THICKNESS
 40
0.0
  9
$LIMCHECK
 70
     0
  9
$CHAMFERA
 40
0.5
  9
$CHAMFERB
 40
0.5
  9
$CHAMFERC
 40
1.0
  9
$CHAMFERD
 40
0.0
  9
$SKPOLY
 70
     0
  9
$TDCREATE
 40
2453612.619895336
  9
$TDUCREATE
 40
2453612.869895336
  9
$TDUPDATE
 40
2454074.712665312
  9
$TDUUPDATE
 40
2454074.962665313
  9
$TDINDWG
 40
2.2593194329
  9
$TDUSRTIMER
 40
2.2593193171
  9
$USRTIMER
 70
     1
  9
$ANGBASE
 50
0.0
  9
$ANGDIR
 70
     0
  9
$PDMODE
 70
    33
  9
$PDSIZE
 40
0.016
  9
$PLINEWID
 40
0.0
  9
$SPLFRAME
 70
     0
  9
$SPLINETYPE
 70
     6
  9
$SPLINESEGS
 70
     8
  9
$HANDSEED
  5
FBA2
  9
$SURFTAB1
 70
     6
  9
$SURFTAB2
 70
     6
  9
$SURFTYPE
 70
     6
  9
$SURFU
 70
     6
  9
$SURFV
 70
     6
  9
$UCSBASE
  2

  9
$UCSNAME
  2

  9
$UCSORG
 10
0.0
 20
0.0
 30
0.0
  9
$UCSXDIR
 10
1.0
 20
0.0
 30
0.0
  9
$UCSYDIR
 10
0.0
 20
1.0
 30
0.0
  9
$UCSORTHOREF
  2

  9
$UCSORTHOVIEW
 70
     0
  9
$UCSORGTOP
 10
0.0
 20
0.0
 30
0.0
  9
$UCSORGBOTTOM
 10
0.0
 20
0.0
 30
0.0
  9
$UCSORGLEFT
 10
0.0
 20
0.0
 30
0.0
  9
$UCSORGRIGHT
 10
0.0
 20
0.0
 30
0.0
  9
$UCSORGFRONT
 10
0.0
 20
0.0
 30
0.0
  9
$UCSORGBACK
 10
0.0
 20
0.0
 30
0.0
  9
$PUCSBASE
  2

  9
$PUCSNAME
  2

  9
$PUCSORG
 10
0.0
 20
0.0
 30
0.0
  9
$PUCSXDIR
 10
1.0
 20
0.0
 30
0.0
  9
$PUCSYDIR
 10
0.0
 20
1.0
 30
0.0
  9
$PUCSORTHOREF
  2

  9
$PUCSORTHOVIEW
 70
     0
  9
$PUCSORGTOP
 10
0.0
 20
0.0
 30
0.0
  9
$PUCSORGBOTTOM
 10
0.0
 20
0.0
 30
0.0
  9
$PUCSORGLEFT
 10
0.0
 20
0.0
 30
0.0
  9
$PUCSORGRIGHT
 10
0.0
 20
0.0
 30
0.0
  9
$PUCSORGFRONT
 10
0.0
 20
0.0
 30
0.0
  9
$PUCSORGBACK
 10
0.0
 20
0.0
 30
0.0
  9
$USERI1
 70
     0
  9
$USERI2
 70
     0
  9
$USERI3
 70
     0
  9
$USERI4
 70
     0
  9
$USERI5
 70
     0
  9
$USERR1
 40
1.0
  9
$USERR2
 40
0.0
  9
$USERR3
 40
22.0
  9
$USERR4
 40
0.0
  9
$USERR5
 40
0.0
  9
$WORLDVIEW
 70
     1
  9
$SHADEDGE
 70
     3
  9
$SHADEDIF
 70
    70
  9
$TILEMODE
 70
     1
  9
$MAXACTVP
 70
    64
  9
$PINSBASE
 10
0.0
 20
0.0
 30
0.0
  9
$PLIMCHECK
 70
     0
  9
$PEXTMIN
 10
0.0045044512824113
 20
0.0025467006634372
 30
0.0
  9
$PEXTMAX
 10
7.932995314148659
 20
10.43495255003633
 30
0.0
  9
$PLIMMIN
 10
-0.2812499887361301
 20
-0.2812502515597606
  9
$PLIMMAX
 10
8.218749770967978
 20
10.71874950814434
  9
$UNITMODE
 70
     0
  9
$VISRETAIN
 70
     1
  9
$PLINEGEN
 70
     0
  9
$PSLTSCALE
 70
     1
  9
$TREEDEPTH
 70
  3020
  9
$CMLSTYLE
  2
Standard
  9
$CMLJUST
 70
     0
  9
$CMLSCALE
 40
1.0
  9
$PROXYGRAPHICS
 70
     1
  9
$MEASUREMENT
 70
     0
  9
$CELWEIGHT
370
    -1
  9
$ENDCAPS
280
     0
  9
$JOINSTYLE
280
     0
  9
$LWDISPLAY
290
     0
  9
$INSUNITS
 70
     1
  9
$HYPERLINKBASE
  1

  9
$STYLESHEET
  1

  9
$XEDIT
290
     1
  9
$CEPSNTYPE
380
     0
  9
$PSTYLEMODE
290
     1
  9
$FINGERPRINTGUID
  2
{FDEAD576-A652-11D2-9A35-0060089B3A3F}
  9
$VERSIONGUID
  2
{6374C8E6-FE42-4CEA-91CB-FD681CD27925}
  9
$EXTNAMES
290
     1
  9
$PSVPSCALE
 40
0.0
  9
$OLESTARTUP
290
     0
  0
ENDSEC
  0
SECTION
  2
CLASSES
  0
CLASS
  1
ACDBDICTIONARYWDFLT
  2
AcDbDictionaryWithDefault
  3
ObjectDBX Classes
 90
        0
280
     0
281
     0
  0
CLASS
  1
ACDBPLACEHOLDER
  2
AcDbPlaceHolder
  3
ObjectDBX Classes
 90
        0
280
     0
281
     0
  0
CLASS
  1
LAYOUT
  2
AcDbLayout
  3
ObjectDBX Classes
 90
        0
280
     0
281
     0
  0
CLASS
  1
PLOTSETTINGS
  2
AcDbPlotSettings
  3
ObjectDBX Classes
 90
        0
280
     0
281
     0
  0
CLASS
  1
AMLOADER
  2
AMLoader
  3
AMAcad
 90
        0
280
     0
281
     0
  0
CLASS
  1
DICTIONARYVAR
  2
AcDbDictionaryVar
  3
ObjectDBX Classes
 90
        0
280
     0
281
     0
  0
CLASS
  1
SORTENTSTABLE
  2
AcDbSortentsTable
  3
ObjectDBX Classes
 90
        0
280
     0
281
     0
  0
CLASS
  1
DIMASSOC
  2
AcDbDimAssoc
  3
"AcDbDimAssoc|Product Desc:     AcDim ARX App For Dimension|Company:          Autodesk, Inc.|WEB Address:      www.autodesk.com"
 90
    32768
280
     0
281
     0
  0
ENDSEC
  0
SECTION
  2
TABLES
  0
TABLE
  2
VPORT
  5
8
330
0
100
AcDbSymbolTable
 70
     3
  0
VPORT
  5
FB8A
330
8
100
AcDbSymbolTableRecord
100
AcDbViewportTableRecord
  2
*Active
 70
     0
 10
0.0
 20
0.0
 11
1.0
 21
1.0
 12
16.95790870162649
 22
9.040351938445063
 13
0.0
 23
0.0
 14
0.125
 24
0.125
 15
0.5
 25
0.5
 16
0.0
 26
0.0
 36
1.0
 17
0.0
 27
0.0
 37
0.0
 40
14.18021167077842
 41
1.491825613079019
 42
50.0
 43
0.0
 44
0.0
 50
0.0
 51
0.0
 71
     0
 72
  5000
 73
     1
 74
     0
 75
     0
 76
     0
 77
     0
 78
     0
281
     0
 65
     1
110
0.0
120
0.0
130
0.0
111
1.0
121
0.0
131
0.0
112
0.0
122
1.0
132
0.0
 79
     0
146
0.0
  0
ENDTAB
  0
TABLE
  2
LTYPE
  5
5
330
0
100
AcDbSymbolTable
 70
     1
  0
LTYPE
  5
14
330
5
100
AcDbSymbolTableRecord
100
AcDbLinetypeTableRecord
  2
ByBlock
 70
     0
  3

 72
    65
 73
     0
 40
0.0
  0
LTYPE
  5
15
330
5
100
AcDbSymbolTableRecord
100
AcDbLinetypeTableRecord
  2
ByLayer
 70
     0
  3

 72
    65
 73
     0
 40
0.0
  0
LTYPE
  5
16
330
5
100
AcDbSymbolTableRecord
100
AcDbLinetypeTableRecord
  2
Continuous
 70
     0
  3
Solid line
 72
    65
 73
     0
 40
0.0
  0
ENDTAB
  0
TABLE
  2
LAYER
  5
2
102
{ACAD_XDICTIONARY
360
F159
102
}
330
0
100
AcDbSymbolTable
 70
     7
  0
LAYER
  5
10
330
2
100
AcDbSymbolTableRecord
100
AcDbLayerTableRecord
  2
0
 70
     0
 62
     7
  6
Continuous
370
    -3
390
F
  0
LAYER
  5
F49B
330
2
100
AcDbSymbolTableRecord
100
AcDbLayerTableRecord
  2
Pel_CS-Sealant
 70
     0
 62
    40
  6
Continuous
370
    -3
390
F
  0
LAYER
  5
F49D
330
2
100
AcDbSymbolTableRecord
100
AcDbLayerTableRecord
  2
Pel_Clad
 70
     0
 62
    63
  6
Continuous
370
    -3
390
F
  0
LAYER
  5
FAD7
330
2
100
AcDbSymbolTableRecord
100
AcDbLayerTableRecord
  2
Defpoints
 70
     0
 62
     7
  6
Continuous
290
     0
370
    -3
390
F
  0
ENDTAB
  0
TABLE
  2
STYLE
  5
3
330
0
100
AcDbSymbolTable
 70
     3
  0
STYLE
  5
11
330
3
100
AcDbSymbolTableRecord
100
AcDbTextStyleTableRecord
  2
Standard
 70
     0
 40
0.0
 41
1.0
 50
0.0
 71
     0
 42
0.2
  3
ARIAL.TTF
  4

1001
ACAD
1000
Arial
1071
       34
  0
STYLE
  5
CC4C
330
3
100
AcDbSymbolTableRecord
100
AcDbTextStyleTableRecord
  2
Arial
 70
     0
 40
0.0
 41
1.0
 50
0.0
 71
     0
 42
0.2
  3
ARIAL.TTF
  4

1001
ACAD
1000
Arial
1071
       34
  0
STYLE
  5
F4A2
330
3
100
AcDbSymbolTableRecord
100
AcDbTextStyleTableRecord
  2
ARCHQUIK
 70
     0
 40
0.0
 41
1.0
 50
0.0
 71
     0
 42
1.0
  3
archquik.shx
  4

  0
ENDTAB
  0
TABLE
  2
VIEW
  5
6
330
0
100
AcDbSymbolTable
 70
     1
  0
VIEW
  5
D380
330
6
100
AcDbSymbolTableRecord
100
AcDbViewTableRecord
  2
org
 70
     0
 40
27.15590980939017
 10
6.083222462400622
 20
8.786030387711486
 41
41.12824514700171
 11
0.0
 21
0.0
 31
1.0
 12
0.0
 22
0.0
 32
0.0
 42
50.0
 43
0.0
 44
0.0
 50
0.0
 71
     0
281
     0
 72
     1
110
0.0
120
0.0
130
0.0
111
1.0
121
0.0
131
0.0
112
0.0
122
1.0
132
0.0
 79
     0
146
0.0
  0
ENDTAB
  0
TABLE
  2
UCS
  5
7
330
0
100
AcDbSymbolTable
 70
     0
  0
ENDTAB
  0
TABLE
  2
APPID
  5
9
330
0
100
AcDbSymbolTable
 70
    14
  0
APPID
  5
12
330
9
100
AcDbSymbolTableRecord
100
AcDbRegAppTableRecord
  2
ACAD
 70
     0
  0
APPID
  5
1B8
330
9
100
AcDbSymbolTableRecord
100
AcDbRegAppTableRecord
  2
AMAcad
 70
     0
  0
APPID
  5
FBF
330
9
100
AcDbSymbolTableRecord
100
AcDbRegAppTableRecord
  2
ADE
 70
     0
  0
APPID
  5
1010
330
9
100
AcDbSymbolTableRecord
100
AcDbRegAppTableRecord
  2
DCO15
 70
     0
  0
APPID
  5
2B00
330
9
100
AcDbSymbolTableRecord
100
AcDbRegAppTableRecord
  2
ADCADD_ZZ
 70
     0
  0
APPID
  5
2B01
330
9
100
AcDbSymbolTableRecord
100
AcDbRegAppTableRecord
  2
SDSK_PMN
 70
     0
  0
APPID
  5
D27F
330
9
100
AcDbSymbolTableRecord
100
AcDbRegAppTableRecord
  2
GENIUS_GENODEF_13
 70
     0
  0
APPID
  5
D280
330
9
100
AcDbSymbolTableRecord
100
AcDbRegAppTableRecord
  2
GENIUS_GENOBJ-N-FIL_13
 70
     0
  0
APPID
  5
D281
330
9
100
AcDbSymbolTableRecord
100
AcDbRegAppTableRecord
  2
GENIUS_GENDTOL_13
 70
     0
  0
APPID
  5
D282
330
9
100
AcDbSymbolTableRecord
100
AcDbRegAppTableRecord
  2
AVE_RENDER
 70
     0
  0
APPID
  5
D283
330
9
100
AcDbSymbolTableRecord
100
AcDbRegAppTableRecord
  2
AVE_ENTITY_MATERIAL
 70
     0
  0
APPID
  5
D284
330
9
100
AcDbSymbolTableRecord
100
AcDbRegAppTableRecord
  2
AVE_FINISH
 70
     0
  0
APPID
  5
D285
330
9
100
AcDbSymbolTableRecord
100
AcDbRegAppTableRecord
  2
AVE_MATERIAL
 70
     0
  0
APPID
  5
D286
330
9
100
AcDbSymbolTableRecord
100
AcDbRegAppTableRecord
  2
AVE_GLOBAL
 70
     0
  0
ENDTAB
  0
TABLE
  2
DIMSTYLE
  5
A
330
0
100
AcDbSymbolTable
 70
     2
100
AcDbDimStyleTable
 71
     2
340
F4A7
340
CC50
  0
DIMSTYLE
105
CC50
102
{ACAD_REACTORS
330
E3CF
330
E6DC
330
E82C
330
E94D
330
E94F
330
EAE9
330
EC97
330
ED35
330
EECF
102
}
330
A
100
AcDbSymbolTableRecord
100
AcDbDimStyleTableRecord
  2
3 inch Scale
 70
     0
  3
"\X
 41
0.5
 42
0.5
 43
0.2
 44
0.25
 73
     0
 74
     0
 77
     1
 78
    10
140
0.28
146
0.75
147
0.125
170
     1
171
     0
176
   256
177
   256
178
   255
179
     3
274
     0
276
     2
277
     5
279
     2
340
CC4C
371
    -1
372
    -1
  0
DIMSTYLE
105
F4A7
330
A
100
AcDbSymbolTableRecord
100
AcDbDimStyleTableRecord
  2
Standard
 70
     0
 41
0.125
 43
0.0625
 44
0.0625
 73
     0
 74
     0
 77
     1
 78
     2
140
0.09375
146
0.75
147
0.0625
178
     7
179
     3
276
     1
277
     5
279
     2
340
11
  0
ENDTAB
  0
TABLE
  2
BLOCK_RECORD
  5
1
330
0
100
AcDbSymbolTable
 70
    24
  0
BLOCK_RECORD
  5
1F
102
{ACAD_XDICTIONARY
360
D9A1
102
}
330
1
100
AcDbSymbolTableRecord
100
AcDbBlockTableRecord
  2
*Model_Space
340
22
  0
BLOCK_RECORD
  5
CBD2
330
1
100
AcDbSymbolTableRecord
100
AcDbBlockTableRecord
  2
*Paper_Space
340
CBD3
  0
BLOCK_RECORD
  5
E213
102
{ACAD_XDICTIONARY
360
E5E0
102
}
330
1
100
AcDbSymbolTableRecord
100
AcDbBlockTableRecord
  2
0a6m
340
0
102
{BLKREFS
331
E21E
102
}
  0
BLOCK_RECORD
  5
E220
102
{ACAD_XDICTIONARY
360
E5DA
102
}
330
1
100
AcDbSymbolTableRecord
100
AcDbBlockTableRecord
  2
0a6n
340
0
102
{BLKREFS
331
E22A
102
}
  0
BLOCK_RECORD
  5
E22B
102
{ACAD_XDICTIONARY
360
E5D4
102
}
330
1
100
AcDbSymbolTableRecord
100
AcDbBlockTableRecord
  2
0a6p
340
0
102
{BLKREFS
331
E235
102
}
  0
BLOCK_RECORD
  5
E236
102
{ACAD_XDICTIONARY
360
E560
102
}
330
1
100
AcDbSymbolTableRecord
100
AcDbBlockTableRecord
  2
0a6t
340
0
102
{BLKREFS
331
E5BF
102
}
  0
BLOCK_RECORD
  5
E2A3
102
{ACAD_XDICTIONARY
360
E55A
102
}
330
1
100
AcDbSymbolTableRecord
100
AcDbBlockTableRecord
  2
0a6u
340
0
102
{BLKREFS
331
E2AD
102
}
  0
BLOCK_RECORD
  5
E2AE
102
{ACAD_XDICTIONARY
360
E554
102
}
330
1
100
AcDbSymbolTableRecord
100
AcDbBlockTableRecord
  2
0a6v
340
0
102
{BLKREFS
331
E2B8
102
}
  0
BLOCK_RECORD
  5
E2B9
102
{ACAD_XDICTIONARY
360
E54E
102
}
330
1
100
AcDbSymbolTableRecord
100
AcDbBlockTableRecord
  2
0a6w
340
0
102
{BLKREFS
331
E2C3
102
}
  0
BLOCK_RECORD
  5
E3D0
330
1
100
AcDbSymbolTableRecord
100
AcDbBlockTableRecord
  2
*D7
340
0
  0
BLOCK_RECORD
  5
E5C0
102
{ACAD_XDICTIONARY
360
E5CE
102
}
330
1
100
AcDbSymbolTableRecord
100
AcDbBlockTableRecord
  2
Oa6s
340
0
310
2800000020000000200000000100080000000000000400000000000000000000000000000000000000000000000080000080000000808000800000008000800080800000C0C0C000C0DCC000F0CAA6000020400000206000002080000020A0000020C0000020E00000400000004020000040400000406000004080000040A0
310
000040C0000040E00000600000006020000060400000606000006080000060A0000060C0000060E00000800000008020000080400000806000008080000080A0000080C0000080E00000A0000000A0200000A0400000A0600000A0800000A0A00000A0C00000A0E00000C0000000C0200000C0400000C0600000C0800000C0
310
A00000C0C00000C0E00000E0000000E0200000E0400000E0600000E0800000E0A00000E0C00000E0E00040000000400020004000400040006000400080004000A0004000C0004000E00040200000402020004020400040206000402080004020A0004020C0004020E000404000004040200040404000404060004040800040
310
40A0004040C0004040E00040600000406020004060400040606000406080004060A0004060C0004060E00040800000408020004080400040806000408080004080A0004080C0004080E00040A0000040A0200040A0400040A0600040A0800040A0A00040A0C00040A0E00040C0000040C0200040C0400040C0600040C08000
310
40C0A00040C0C00040C0E00040E0000040E0200040E0400040E0600040E0800040E0A00040E0C00040E0E00080000000800020008000400080006000800080008000A0008000C0008000E00080200000802020008020400080206000802080008020A0008020C0008020E00080400000804020008040400080406000804080
310
008040A0008040C0008040E00080600000806020008060400080606000806080008060A0008060C0008060E00080800000808020008080400080806000808080008080A0008080C0008080E00080A0000080A0200080A0400080A0600080A0800080A0A00080A0C00080A0E00080C0000080C0200080C0400080C0600080C0
310
800080C0A00080C0C00080C0E00080E0000080E0200080E0400080E0600080E0800080E0A00080E0C00080E0E000C0000000C0002000C0004000C0006000C0008000C000A000C000C000C000E000C0200000C0202000C0204000C0206000C0208000C020A000C020C000C020E000C0400000C0402000C0404000C0406000C0
310
408000C040A000C040C000C040E000C0600000C0602000C0604000C0606000C0608000C060A000C060C000C060E000C0800000C0802000C0804000C0806000C0808000C080A000C080C000C080E000C0A00000C0A02000C0A04000C0A06000C0A08000C0A0A000C0A0C000C0A0E000C0C00000C0C02000C0C04000C0C06000
310
C0C08000C0C0A000F0FBFF00A4A0A000808080000000FF0000FF000000FFFF00FF000000FF00FF00FFFF0000FFFFFF0000000000000000000000000000000000000000000000000000000000000000000000000000000000000000000000000000000000000000000000000000000000000000000000000000000000000000
310
00000000000000000000000000000000000000000000000000000000000000000000000000000000000000000000000000000000000000000000000000000000000000000000000000000000000000000000000000000000000000000000000000000000000000000000000000000000000000000000000000000000000000
310
00000000000000000000000000000000000000000000000000000000000000000000000000000000000000000000000000000000000000000000000000000000000000000000000000000000000000000000000000000000000000000000000000000000000000000000000000000000000000000000000000000000000000
310
0000000000000000000000000000000000000000000000000000000000000000000000000000000000000000000000000000000000000000000000000000000000000000000000000000000000000000000000000000000000000000000000000000000000000000000000000000000000000000FBFBFBFBFBFBFBFBFBFBFB
310
FBFBFBFBFBFBFBFBFBFBFBFBFBFBFBFBFBFBFB0000FBFB0000000000000000000000000000000000000000000000000000FBFB000000FB0000000000000000000000000000000000000000000000000000FB00000000FB0000000000000000000000000000000000000000000000000000FB00000000000000000000000000
310
00000000000000000000000000000000000000000000000000000000000000000000000000000000000000000000000000000000000000000000000000000000000000000000000000000000000000000000000000000000000000000000000000000000000000000000000000000000000000000000000000000000000000
310
00000000000000000000000000000000000000000000000000000000000000000000000000000000000000000000000000000000000000000000000000000000000000000000000000000000000000000000000000000000000000000000000000000000000000000000000000000000000000000000000000000000000000
310
00000000000000000000000000000000000000000000000000000000000000000000000000000000000000000000000000000000000000000000000000000000000000000000000000000000000000000000000000000000000000000000000000000000000000000000000000000000000000000000000000000000000000
310
0000000000000000000000000000000000000000000000000000000000000000000000000000000000000000000000000000000000000000
102
{BLKREFS
331
E5C4
102
}
1001
ACAD
1000
DesignCenter Data
1002
{
1070
     1
1070
     1
1002
}
  0
BLOCK_RECORD
  5
E61F
102
{ACAD_XDICTIONARY
360
F7CE
102
}
330
1
100
AcDbSymbolTableRecord
100
AcDbBlockTableRecord
  2
0a6l
340
0
310
2800000020000000200000000100080000000000000400000000000000000000000000000000000000000000000080000080000000808000800000008000800080800000C0C0C000C0DCC000F0CAA6000020400000206000002080000020A0000020C0000020E00000400000004020000040400000406000004080000040A0
310
000040C0000040E00000600000006020000060400000606000006080000060A0000060C0000060E00000800000008020000080400000806000008080000080A0000080C0000080E00000A0000000A0200000A0400000A0600000A0800000A0A00000A0C00000A0E00000C0000000C0200000C0400000C0600000C0800000C0
310
A00000C0C00000C0E00000E0000000E0200000E0400000E0600000E0800000E0A00000E0C00000E0E00040000000400020004000400040006000400080004000A0004000C0004000E00040200000402020004020400040206000402080004020A0004020C0004020E000404000004040200040404000404060004040800040
310
40A0004040C0004040E00040600000406020004060400040606000406080004060A0004060C0004060E00040800000408020004080400040806000408080004080A0004080C0004080E00040A0000040A0200040A0400040A0600040A0800040A0A00040A0C00040A0E00040C0000040C0200040C0400040C0600040C08000
310
40C0A00040C0C00040C0E00040E0000040E0200040E0400040E0600040E0800040E0A00040E0C00040E0E00080000000800020008000400080006000800080008000A0008000C0008000E00080200000802020008020400080206000802080008020A0008020C0008020E00080400000804020008040400080406000804080
310
008040A0008040C0008040E00080600000806020008060400080606000806080008060A0008060C0008060E00080800000808020008080400080806000808080008080A0008080C0008080E00080A0000080A0200080A0400080A0600080A0800080A0A00080A0C00080A0E00080C0000080C0200080C0400080C0600080C0
310
800080C0A00080C0C00080C0E00080E0000080E0200080E0400080E0600080E0800080E0A00080E0C00080E0E000C0000000C0002000C0004000C0006000C0008000C000A000C000C000C000E000C0200000C0202000C0204000C0206000C0208000C020A000C020C000C020E000C0400000C0402000C0404000C0406000C0
310
408000C040A000C040C000C040E000C0600000C0602000C0604000C0606000C0608000C060A000C060C000C060E000C0800000C0802000C0804000C0806000C0808000C080A000C080C000C080E000C0A00000C0A02000C0A04000C0A06000C0A08000C0A0A000C0A0C000C0A0E000C0C00000C0C02000C0C04000C0C06000
310
C0C08000C0C0A000F0FBFF00A4A0A000808080000000FF0000FF000000FFFF00FF000000FF00FF00FFFF0000FFFFFF0000000000000000000000000000000000000000000000000000000000000000000000000000000000000000000000000000000000000000000000000000000000000000FBFBFBFBFBFBFBFBFBFBFBFB
310
FBFBFBFBFBFBFBFBFBFBFBFBFBFB00000000FBFB0000000000000000000000000000000000000000000000000000FBFB0000FB00000000000000000000000000000000000000000000000000000000FB0000FB00000000000000000000000000000000000000000000000000000000FB0000FB00000000FBFBFBFBFBFBFBFB
310
FBFBFBFBFBFBFBFBFBFBFBFB00000000FB0000FB000000FB0000000000000000000000000000000000000000FB000000FB0000FB000000FB0000000000000000000000000000000000000000FB000000FB0000FB000000FB0000000000000000000000000000000000000000FB000000FB0000FB000000FB00000000000000
310
00000000000000000000000000FB000000FB0000FB000000FB0000000000000000000000000000000000000000FB000000FB0000FB000000FB0000000000000000000000000000000000000000FB000000FB0000FB000000FB0000000000000000000000000000000000000000FB000000FB0000FB000000FB000000000000
310
0000000000000000000000000000FB000000FB0000FB000000FB0000000000000000000000000000000000000000FB000000FB0000FB000000FB0000000000000000000000000000000000000000FB000000FB0000FB000000FB0000000000000000000000000000000000000000FB000000FB0000FB000000FB0000000000
310
000000000000000000000000000000FB000000FB0000FB000000FB0000000000000000000000000000000000000000FB000000FB0000FB000000FB0000000000000000000000000000000000000000FB000000FB0000FB000000FB0000000000000000000000000000000000000000FB000000FB0000FB000000FBFBFB0000
310
0000000000000000000000000000FBFBFB000000FB0000FB0000000000FB00000000000000000000000000000000FB0000000000FB0000FB00000000FB000000000000000000000000000000000000FB00000000FB0000FB00000000FB000000000000000000000000000000000000FB00000000FB0000FB000000FB000000
310
0000000000000000000000000000000000FB000000FB0000FB000000FB0000000000000000000000000000000000000000FB000000FB0000FBFBFBFB00000000000000000000000000000000000000000000FBFBFBFB0000000000000000000000000000000000000000000000000000000000000000000000000000000000
310
0000000000000000000000000000000000000000000000000000000000000000000000000000000000000000000000000000000000000000
102
{BLKREFS
331
E637
102
}
1001
ACAD
1000
DesignCenter Data
1002
{
1070
     1
1070
     1
1002
}
  0
BLOCK_RECORD
  5
E6DD
330
1
100
AcDbSymbolTableRecord
100
AcDbBlockTableRecord
  2
*D10
340
0
  0
BLOCK_RECORD
  5
E82F
330
1
100
AcDbSymbolTableRecord
100
AcDbBlockTableRecord
  2
*D11
340
0
  0
BLOCK_RECORD
  5
E85A
102
{ACAD_XDICTIONARY
360
ED33
102
}
330
1
100
AcDbSymbolTableRecord
100
AcDbBlockTableRecord
  2
4994
340
0
102
{BLKREFS
331
E877
102
}
  0
BLOCK_RECORD
  5
E8D4
102
{ACAD_XDICTIONARY
360
EAE6
102
}
330
1
100
AcDbSymbolTableRecord
100
AcDbBlockTableRecord
  2
72AL
340
0
102
{BLKREFS
331
E94A
102
}
  0
BLOCK_RECORD
  5
E953
330
1
100
AcDbSymbolTableRecord
100
AcDbBlockTableRecord
  2
*D14
340
0
  0
BLOCK_RECORD
  5
E96A
330
1
100
AcDbSymbolTableRecord
100
AcDbBlockTableRecord
  2
*D15
340
0
  0
BLOCK_RECORD
  5
EAEC
330
1
100
AcDbSymbolTableRecord
100
AcDbBlockTableRecord
  2
*D16
340
0
  0
BLOCK_RECORD
  5
EC49
102
{ACAD_XDICTIONARY
360
F981
102
}
330
1
100
AcDbSymbolTableRecord
100
AcDbBlockTableRecord
  2
M-100
340
0
102
{BLKREFS
331
EC5E
102
}
  0
BLOCK_RECORD
  5
EC99
330
1
100
AcDbSymbolTableRecord
100
AcDbBlockTableRecord
  2
*D18
340
0
  0
BLOCK_RECORD
  5
ED37
330
1
100
AcDbSymbolTableRecord
100
AcDbBlockTableRecord
  2
*D19
340
0
  0
BLOCK_RECORD
  5
EED0
330
1
100
AcDbSymbolTableRecord
100
AcDbBlockTableRecord
  2
*D20
340
0
  0
BLOCK_RECORD
  5
EFC0
102
{ACAD_XDICTIONARY
360
EFC1
102
}
330
1
100
AcDbSymbolTableRecord
100
AcDbBlockTableRecord
  2
A$C7ECA1300
340
0
102
{BLKREFS
331
F05E
102
}
  0
BLOCK_RECORD
  5
F985
330
1
100
AcDbSymbolTableRecord
100
AcDbBlockTableRecord
  2
1AAF
340
0
310
2800000020000000200000000100080000000000000400000000000000000000000000000000000000000000000080000080000000808000800000008000800080800000C0C0C000C0DCC000F0CAA6000020400000206000002080000020A0000020C0000020E00000400000004020000040400000406000004080000040A0
310
000040C0000040E00000600000006020000060400000606000006080000060A0000060C0000060E00000800000008020000080400000806000008080000080A0000080C0000080E00000A0000000A0200000A0400000A0600000A0800000A0A00000A0C00000A0E00000C0000000C0200000C0400000C0600000C0800000C0
310
A00000C0C00000C0E00000E0000000E0200000E0400000E0600000E0800000E0A00000E0C00000E0E00040000000400020004000400040006000400080004000A0004000C0004000E00040200000402020004020400040206000402080004020A0004020C0004020E000404000004040200040404000404060004040800040
310
40A0004040C0004040E00040600000406020004060400040606000406080004060A0004060C0004060E00040800000408020004080400040806000408080004080A0004080C0004080E00040A0000040A0200040A0400040A0600040A0800040A0A00040A0C00040A0E00040C0000040C0200040C0400040C0600040C08000
310
40C0A00040C0C00040C0E00040E0000040E0200040E0400040E0600040E0800040E0A00040E0C00040E0E00080000000800020008000400080006000800080008000A0008000C0008000E00080200000802020008020400080206000802080008020A0008020C0008020E00080400000804020008040400080406000804080
310
008040A0008040C0008040E00080600000806020008060400080606000806080008060A0008060C0008060E00080800000808020008080400080806000808080008080A0008080C0008080E00080A0000080A0200080A0400080A0600080A0800080A0A00080A0C00080A0E00080C0000080C0200080C0400080C0600080C0
310
800080C0A00080C0C00080C0E00080E0000080E0200080E0400080E0600080E0800080E0A00080E0C00080E0E000C0000000C0002000C0004000C0006000C0008000C000A000C000C000C000E000C0200000C0202000C0204000C0206000C0208000C020A000C020C000C020E000C0400000C0402000C0404000C0406000C0
310
408000C040A000C040C000C040E000C0600000C0602000C0604000C0606000C0608000C060A000C060C000C060E000C0800000C0802000C0804000C0806000C0808000C080A000C080C000C080E000C0A00000C0A02000C0A04000C0A06000C0A08000C0A0A000C0A0C000C0A0E000C0C00000C0C02000C0C04000C0C06000
310
C0C08000C0C0A000F0FBFF00A4A0A000808080000000FF0000FF000000FFFF00FF000000FF00FF00FFFF0000FFFFFF0000000000000000000000000000000000000000000000000000000000000000000000000000000000000000000000000000000000000000000000000000000000000000000000000000000000000000
310
00000000000000000000000000000000000000000000000000000000000000000000000000000000000000000000000000000000000000000000000000000000000000000000000000000000000000000000000000000000000000000000000000000000000000000000000000000000000000000000000000000000000000
310
00000000000000000000000000000000000000000000000000000000000000000000000000000000000000000000000000000000000000000000000000000000000000000000000000000000000000000000000000000000000000000000000000000000000000000000000000000000000000000000000000000000000000
310
00000000000000000000000000B6B6000000000000000000000000000000000000000000000000000000000000B6B60000000000000000000000000000000000000000000000000000000000B6B60000000000000000000000000000000000000000000000000000000000B6B6000000000000000000B6B6B6000000000000
310
000000000000000000000000B6B60000B6B6000000B6B6B6B6B6B6B600000000000000000000000000000000B6B60000B6B600000000B6B637B6B6B6B600000000000000B6B6B6B6B6B60000B600B60000B600000000B6B637B6B6B6B6B6B6B6B6B6B6B6B6B6B6B6B6B6B60000B6B6B600B6B600000037373700003700B6B6
310
B6B6B6B6000000000000B6B6000000B6B600B6B6000000373737373737B6B6B6B6B6B6B6B6B6B6B6B6B6B6B6B6B6B6B6B6B6B6B6000000000000000000000000000000000000000000000000000000000000000000000000000000000000000000000000000000000000000000000000000000000000000000000000000000
310
00000000000000000000000000000000000000000000000000000000000000000000000000000000000000000000000000000000000000000000000000000000000000000000000000000000000000000000000000000000000000000000000000000000000000000000000000000000000000000000000000000000000000
310
00000000000000000000000000000000000000000000000000000000000000000000000000000000000000000000000000000000000000000000000000000000000000000000000000000000000000000000000000000000000000000000000000000000000000000000000000000000000000000000000000000000000000
310
0000000000000000000000000000000000000000000000000000000000000000000000000000000000000000000000000000000000000000
102
{BLKREFS
331
F9AE
102
}
1001
ACAD
1000
DesignCenter Data
1002
{
1070
     1
1070
     1
1002
}
  0
BLOCK_RECORD
  5
F9AF
102
{ACAD_XDICTIONARY
360
F9C2
102
}
330
1
100
AcDbSymbolTableRecord
100
AcDbBlockTableRecord
  2
72HF
340
0
310
2800000020000000200000000100080000000000000400000000000000000000000000000000000000000000000080000080000000808000800000008000800080800000C0C0C000C0DCC000F0CAA6000020400000206000002080000020A0000020C0000020E00000400000004020000040400000406000004080000040A0
310
000040C0000040E00000600000006020000060400000606000006080000060A0000060C0000060E00000800000008020000080400000806000008080000080A0000080C0000080E00000A0000000A0200000A0400000A0600000A0800000A0A00000A0C00000A0E00000C0000000C0200000C0400000C0600000C0800000C0
310
A00000C0C00000C0E00000E0000000E0200000E0400000E0600000E0800000E0A00000E0C00000E0E00040000000400020004000400040006000400080004000A0004000C0004000E00040200000402020004020400040206000402080004020A0004020C0004020E000404000004040200040404000404060004040800040
310
40A0004040C0004040E00040600000406020004060400040606000406080004060A0004060C0004060E00040800000408020004080400040806000408080004080A0004080C0004080E00040A0000040A0200040A0400040A0600040A0800040A0A00040A0C00040A0E00040C0000040C0200040C0400040C0600040C08000
310
40C0A00040C0C00040C0E00040E0000040E0200040E0400040E0600040E0800040E0A00040E0C00040E0E00080000000800020008000400080006000800080008000A0008000C0008000E00080200000802020008020400080206000802080008020A0008020C0008020E00080400000804020008040400080406000804080
310
008040A0008040C0008040E00080600000806020008060400080606000806080008060A0008060C0008060E00080800000808020008080400080806000808080008080A0008080C0008080E00080A0000080A0200080A0400080A0600080A0800080A0A00080A0C00080A0E00080C0000080C0200080C0400080C0600080C0
310
800080C0A00080C0C00080C0E00080E0000080E0200080E0400080E0600080E0800080E0A00080E0C00080E0E000C0000000C0002000C0004000C0006000C0008000C000A000C000C000C000E000C0200000C0202000C0204000C0206000C0208000C020A000C020C000C020E000C0400000C0402000C0404000C0406000C0
310
408000C040A000C040C000C040E000C0600000C0602000C0604000C0606000C0608000C060A000C060C000C060E000C0800000C0802000C0804000C0806000C0808000C080A000C080C000C080E000C0A00000C0A02000C0A04000C0A06000C0A08000C0A0A000C0A0C000C0A0E000C0C00000C0C02000C0C04000C0C06000
310
C0C08000C0C0A000F0FBFF00A4A0A000808080000000FF0000FF000000FFFF00FF000000FF00FF00FFFF0000FFFFFF0000000000000000000000000000000000000000000000000000000000000000000000000000000000000000000000000000000000000000000000000000000000000000000000000000000000000000
310
00000000000000000000000000000000000000000000000000000000000000000000000000000000000000000000000000000000000000000000000000000000000000000000000000000000000000000000000000000000000000000000000000000000000000000000000000000000000000000000000000000000000000
310
00000000000000000000000000000000000000000000000000000000000000000000000000000000000000000000000000000000000000000000000000000000000000000000000000000000000000000000000000000000000000000000000000000000000000000000000000000000000000000000000000000000000000
310
000000000000000000000000000000000000000000000000000000000000000000000000000000000000000000000000000000000000000000000000000000000000000000000000000000000000000000000000000000000000000000000000000000000000000000000000000000000000000000FBFBFBFBFBFBFBFBFBFB
310
FBFBFBFBFBFBFBFBFBFBFBFBFBFBFBFBFBFB00000000FBFBFBFBFBFBFBFBFBFBFBFBFBFBFBFBFBFBFBFBFBFBFBFBFBFBFBFB00000000000000000000FBFBFBFBFBFBFBFBFBFBFBFBFBFBFBFB00000000000000000000000000000000FBFBFBFBFBFBFBFBFBFBFBFBFBFBFBFB00000000000000000000000000000000000000
310
00000000000000000000000000000000000000000000000000000000000000000000000000000000000000000000000000000000000000000000000000000000000000000000000000000000000000000000000000000000000000000000000000000000000000000000000000000000000000000000000000000000000000
310
00000000000000000000000000000000000000000000000000000000000000000000000000000000000000000000000000000000000000000000000000000000000000000000000000000000000000000000000000000000000000000000000000000000000000000000000000000000000000000000000000000000000000
310
00000000000000000000000000000000000000000000000000000000000000000000000000000000000000000000000000000000000000000000000000000000000000000000000000000000000000000000000000000000000000000000000000000000000000000000000000000000000000000000000000000000000000
310
0000000000000000000000000000000000000000000000000000000000000000000000000000000000000000000000000000000000000000
102
{BLKREFS
331
F9BD
102
}
1001
ACAD
1000
DesignCenter Data
1002
{
1070
     1
1070
     1
1002
}
  0
ENDTAB
  0
ENDSEC
  0
SECTION
  2
BLOCKS
  0
BLOCK
  5
20
330
1F
100
AcDbEntity
  8
0
100
AcDbBlockBegin
  2
*Model_Space
 70
     0
 10
0.0
 20
0.0
 30
0.0
  3
*Model_Space
  1

  0
ENDBLK
  5
21
330
1F
100
AcDbEntity
  8
0
100
AcDbBlockEnd
  0
BLOCK
  5
CBD4
330
CBD2
100
AcDbEntity
 67
     1
  8
0
100
AcDbBlockBegin
  2
*Paper_Space
 70
     0
 10
0.0
 20
0.0
 30
0.0
  3
*Paper_Space
  1

  0
ENDBLK
  5
CBD5
330
CBD2
100
AcDbEntity
 67
     1
  8
0
100
AcDbBlockEnd
  0
BLOCK
  5
E214
330
E213
100
AcDbEntity
  8
0
100
AcDbBlockBegin
  2
0a6m
 70
     0
 10
0.0
 20
0.0
 30
0.0
  3
0a6m
  1

  0
LWPOLYLINE
  5
E215
330
E213
100
AcDbEntity
  8
Pel_Clad
100
AcDbPolyline
 90
       18
 70
     1
 43
0.0
 10
0.2817428816540612
 20
-0.127850372155148
 10
-0.016257118345937
 20
-0.1803958124062692
 42
-0.466307658155002
 10
-0.033861841010939
 20
-0.1656236961110871
 10
-0.0338618410109426
 20
0.6656236961110889
 42
-0.4663076581550023
 10
-0.016257118345937
 20
0.680395812406271
 10
0.2817428816540612
 20
0.6278503721551499
 42
-0.6998758543118296
 10
0.2866497225418669
 20
0.6000945578893529
 10
0.2441381589890597
 20
0.5755000000000017
 10
0.2041381589890605
 20
0.5755000000000017
 10
0.2071381589890606
 20
0.5932801468906313
 10
0.0307428816540636
 20
0.6243833935543446
 42
0.4663076581550023
 10
0.013138158989058
 20
0.6096112772591589
 10
0.013138158989058
 20
-0.1096112772591589
 42
0.466307658155002
 10
0.0307428816540636
 20
-0.1243833935543392
 10
0.2071381589890606
 20
-0.0932801468906277
 10
0.2041381589890605
 20
-0.0754999999999981
 10
0.2441381589890597
 20
-0.0754999999999981
 10
0.2866497225418669
 20
-0.1000945578893457
 42
-0.6998758543118387
  0
ENDBLK
  5
E216
330
E213
100
AcDbEntity
  8
0
100
AcDbBlockEnd
  0
BLOCK
  5
E221
330
E220
100
AcDbEntity
  8
0
100
AcDbBlockBegin
  2
0a6n
 70
     0
 10
0.0
 20
0.0
 30
0.0
  3
0a6n
  1

  0
LWPOLYLINE
  5
E222
330
E220
100
AcDbEntity
  8
Pel_Clad
100
AcDbPolyline
 90
       18
 70
     1
 43
0.0
 10
0.2817428816540612
 20
-0.127850372155148
 10
-0.016257118345937
 20
-0.1803958124062692
 42
-0.466307658155002
 10
-0.033861841010939
 20
-0.1656236961110871
 10
-0.033861841010939
 20
1.165576303888911
 42
-0.4663076581550023
 10
-0.0162571183459335
 20
1.180348420184094
 10
0.2817428816540648
 20
1.127802979932972
 42
-0.6998758543118296
 10
0.2866497225418705
 20
1.100047165667177
 10
0.2441381589890632
 20
1.075452607777826
 10
0.2041381589890641
 20
1.075452607777826
 10
0.2071381589890642
 20
1.093232754668456
 10
0.0307428816540671
 20
1.124336001332167
 42
0.4663076581550023
 10
0.0131381589890616
 20
1.109563885036982
 10
0.013138158989058
 20
-0.1096112772591589
 42
0.466307658155002
 10
0.0307428816540636
 20
-0.1243833935543392
 10
0.2071381589890606
 20
-0.0932801468906277
 10
0.2041381589890605
 20
-0.0754999999999981
 10
0.2441381589890597
 20
-0.0754999999999981
 10
0.2866497225418669
 20
-0.1000945578893457
 42
-0.6998758543118387
  0
ENDBLK
  5
E223
330
E220
100
AcDbEntity
  8
0
100
AcDbBlockEnd
  0
BLOCK
  5
E22C
330
E22B
100
AcDbEntity
  8
0
100
AcDbBlockBegin
  2
0a6p
 70
     0
 10
0.0
 20
0.0
 30
0.0
  3
0a6p
  1

  0
LWPOLYLINE
  5
E22D
330
E22B
100
AcDbEntity
  8
Pel_Clad
100
AcDbPolyline
 90
       18
 70
     1
 43
0.0
 10
0.2817428816540612
 20
-0.127850372155148
 10
-0.016257118345937
 20
-0.1803958124062692
 42
-0.466307658155002
 10
-0.033861841010939
 20
-0.1656236961110871
 10
-0.033861841010939
 20
1.665576303888913
 42
-0.4663076581550023
 10
-0.0162571183459335
 20
1.680348420184095
 10
0.2817428816540648
 20
1.627802979932974
 42
-0.6998758543118296
 10
0.2866497225418705
 20
1.600047165667177
 10
0.2441381589890632
 20
1.575452607777826
 10
0.2041381589890641
 20
1.575452607777826
 10
0.2071381589890642
 20
1.593232754668456
 10
0.0307428816540671
 20
1.624336001332169
 42
0.4663076581550023
 10
0.0131381589890616
 20
1.609563885036983
 10
0.013138158989058
 20
-0.1096112772591589
 42
0.466307658155002
 10
0.0307428816540636
 20
-0.1243833935543392
 10
0.2071381589890606
 20
-0.0932801468906277
 10
0.2041381589890605
 20
-0.0754999999999981
 10
0.2441381589890597
 20
-0.0754999999999981
 10
0.2866497225418669
 20
-0.1000945578893457
 42
-0.6998758543118387
  0
ENDBLK
  5
E22E
330
E22B
100
AcDbEntity
  8
0
100
AcDbBlockEnd
  0
BLOCK
  5
E237
330
E236
100
AcDbEntity
  8
0
100
AcDbBlockBegin
  2
0a6t
 70
     0
 10
0.0
 20
0.0
 30
0.0
  3
0a6t
  1

  0
LWPOLYLINE
  5
E238
330
E236
100
AcDbEntity
  8
Pel_Clad
100
AcDbPolyline
 90
       18
 70
     1
 43
0.0
 10
0.2817428816540612
 20
-0.127850372155148
 10
-0.0162571183459361
 20
-0.1803958124062692
 42
-0.466307658155002
 10
-0.0338618410109382
 20
-0.1656236961110871
 10
-0.033861841010939
 20
2.665576303888913
 42
-0.4663076581550023
 10
-0.0162571183459335
 20
2.680348420184095
 10
0.2817428816540648
 20
2.627802979932974
 42
-0.6998758543118296
 10
0.2866497225418705
 20
2.600047165667177
 10
0.2441381589890632
 20
2.575452607777826
 10
0.2041381589890641
 20
2.575452607777826
 10
0.2071381589890642
 20
2.593232754668456
 10
0.0307428816540671
 20
2.624336001332169
 42
0.4663076581550023
 10
0.0131381589890616
 20
2.609563885036983
 10
0.013138158989058
 20
-0.1096112772591589
 42
0.466307658155002
 10
0.0307428816540636
 20
-0.1243833935543392
 10
0.2071381589890606
 20
-0.0932801468906277
 10
0.2041381589890605
 20
-0.0754999999999981
 10
0.2441381589890597
 20
-0.0754999999999981
 10
0.2866497225418669
 20
-0.1000945578893457
 42
-0.6998758543118387
  0
ENDBLK
  5
E239
330
E236
100
AcDbEntity
  8
0
100
AcDbBlockEnd
  0
BLOCK
  5
E2A4
330
E2A3
100
AcDbEntity
  8
0
100
AcDbBlockBegin
  2
0a6u
 70
     0
 10
0.0
 20
0.0
 30
0.0
  3
0a6u
  1

  0
LWPOLYLINE
  5
E2A5
330
E2A3
100
AcDbEntity
  8
Pel_Clad
100
AcDbPolyline
 90
       18
 70
     1
 43
0.0
 10
0.2817428816540612
 20
-0.127850372155148
 10
-0.016257118345937
 20
-0.1803958124062692
 42
-0.466307658155002
 10
-0.033861841010939
 20
-0.1656236961110871
 10
-0.033861841010939
 20
3.165576303888912
 42
-0.4663076581550023
 10
-0.0162571183459335
 20
3.180348420184095
 10
0.2817428816540648
 20
3.127802979932974
 42
-0.6998758543118296
 10
0.2866497225418705
 20
3.100047165667177
 10
0.2441381589890632
 20
3.075452607777826
 10
0.2041381589890641
 20
3.075452607777826
 10
0.2071381589890642
 20
3.093232754668456
 10
0.0307428816540671
 20
3.124336001332168
 42
0.4663076581550023
 10
0.0131381589890616
 20
3.109563885036982
 10
0.013138158989058
 20
-0.1096112772591589
 42
0.466307658155002
 10
0.0307428816540636
 20
-0.1243833935543392
 10
0.2071381589890606
 20
-0.0932801468906277
 10
0.2041381589890605
 20
-0.0754999999999981
 10
0.2441381589890597
 20
-0.0754999999999981
 10
0.2866497225418669
 20
-0.1000945578893457
 42
-0.6998758543118387
  0
ENDBLK
  5
E2A6
330
E2A3
100
AcDbEntity
  8
0
100
AcDbBlockEnd
  0
BLOCK
  5
E2AF
330
E2AE
100
AcDbEntity
  8
0
100
AcDbBlockBegin
  2
0a6v
 70
     0
 10
0.0
 20
0.0
 30
0.0
  3
0a6v
  1

  0
LWPOLYLINE
  5
E2B0
330
E2AE
100
AcDbEntity
  8
Pel_Clad
100
AcDbPolyline
 90
       18
 70
     1
 43
0.0
 10
0.2817428816540612
 20
-0.127850372155148
 10
-0.016257118345937
 20
-0.1803958124062692
 42
-0.466307658155002
 10
-0.033861841010939
 20
-0.1656236961110871
 10
-0.033861841010939
 20
3.665576303888911
 42
-0.4663076581550023
 10
-0.0162571183459335
 20
3.680348420184093
 10
0.2817428816540648
 20
3.627802979932972
 42
-0.6998758543118296
 10
0.2866497225418705
 20
3.600047165667175
 10
0.2441381589890632
 20
3.575452607777823
 10
0.2041381589890641
 20
3.575452607777823
 10
0.2071381589890642
 20
3.593232754668453
 10
0.0307428816540671
 20
3.624336001332166
 42
0.4663076581550023
 10
0.0131381589890616
 20
3.609563885036981
 10
0.013138158989058
 20
-0.1096112772591589
 42
0.466307658155002
 10
0.0307428816540636
 20
-0.1243833935543392
 10
0.2071381589890606
 20
-0.0932801468906277
 10
0.2041381589890605
 20
-0.0754999999999981
 10
0.2441381589890597
 20
-0.0754999999999981
 10
0.2866497225418669
 20
-0.1000945578893457
 42
-0.6998758543118387
  0
ENDBLK
  5
E2B1
330
E2AE
100
AcDbEntity
  8
0
100
AcDbBlockEnd
  0
BLOCK
  5
E2BA
330
E2B9
100
AcDbEntity
  8
0
100
AcDbBlockBegin
  2
0a6w
 70
     0
 10
0.0
 20
0.0
 30
0.0
  3
0a6w
  1

  0
LWPOLYLINE
  5
E2BB
330
E2B9
100
AcDbEntity
  8
Pel_Clad
100
AcDbPolyline
 90
       18
 70
     1
 43
0.0
 10
0.2817428816540612
 20
-0.127850372155148
 10
-0.016257118345937
 20
-0.1803958124062692
 42
-0.466307658155002
 10
-0.033861841010939
 20
-0.1656236961110871
 10
-0.033861841010939
 20
4.165576303888913
 42
-0.4663076581550023
 10
-0.0162571183459335
 20
4.180348420184095
 10
0.2817428816540648
 20
4.127802979932974
 42
-0.6998758543118296
 10
0.2866497225418705
 20
4.100047165667177
 10
0.2441381589890632
 20
4.075452607777826
 10
0.2041381589890641
 20
4.075452607777826
 10
0.2071381589890642
 20
4.093232754668456
 10
0.0307428816540671
 20
4.124336001332169
 42
0.4663076581550023
 10
0.0131381589890616
 20
4.109563885036983
 10
0.013138158989058
 20
-0.1096112772591589
 42
0.466307658155002
 10
0.0307428816540636
 20
-0.1243833935543392
 10
0.2071381589890606
 20
-0.0932801468906277
 10
0.2041381589890605
 20
-0.0754999999999981
 10
0.2441381589890597
 20
-0.0754999999999981
 10
0.2866497225418669
 20
-0.1000945578893457
 42
-0.6998758543118387
  0
ENDBLK
  5
E2BC
330
E2B9
100
AcDbEntity
  8
0
100
AcDbBlockEnd
  0
BLOCK
  5
E3DB
330
E3D0
100
AcDbEntity
  8
0
100
AcDbBlockBegin
  2
*D7
 70
     1
 10
0.0
 20
0.0
 30
0.0
  3
*D7
  1

  0
LINE
  5
FB80
330
E3D0
100
AcDbEntity
  8
0
100
AcDbLine
 10
23.5025
 20
8.43064868910277
 30
0.0
 11
23.5025
 21
8.981670954499374
 31
0.0
  0
LINE
  5
FB81
330
E3D0
100
AcDbEntity
  8
0
100
AcDbLine
 10
25.48750000000002
 20
8.415648689102811
 30
0.0
 11
25.48750000000002
 21
8.981670954499374
 31
0.0
  0
LINE
  5
FB82
330
E3D0
100
AcDbEntity
  8
0
100
AcDbLine
 10
23.75250000000001
 20
8.731670954499374
 30
0.0
 11
24.00607776261939
 21
8.731670954499374
 31
0.0
  0
LINE
  5
FB83
330
E3D0
100
AcDbEntity
  8
0
100
AcDbLine
 10
25.23750000000002
 20
8.731670954499374
 30
0.0
 11
24.98392223738064
 21
8.731670954499374
 31
0.0
  0
MTEXT
  5
FB84
330
E3D0
100
AcDbEntity
  8
0
 62
   255
100
AcDbMText
 10
24.49500000000001
 20
8.731670954499374
 30
0.0
 40
0.28
 41
0.0
 71
     5
 72
     1
  1
\A1;2"\P [50]
  7
Arial
 73
     1
 44
1.0
1001
ACAD
1000
MTEXTBEGIN
1070
    73
1070
     1
1070
    44
1040
1.0
1070
    74
1070
     0
1000
MTEXTEND
  0
SOLID
  5
FB85
330
E3D0
100
AcDbEntity
  8
0
100
AcDbTrace
 10
23.75250000000001
 20
8.77333762116604
 30
0.0
 11
23.75250000000001
 21
8.690004287832708
 31
0.0
 12
23.5025
 22
8.731670954499374
 32
0.0
 13
23.5025
 23
8.731670954499374
 33
0.0
  0
SOLID
  5
FB86
330
E3D0
100
AcDbEntity
  8
0
100
AcDbTrace
 10
25.23750000000002
 20
8.77333762116604
 30
0.0
 11
25.23750000000002
 21
8.690004287832708
 31
0.0
 12
25.48750000000002
 22
8.731670954499374
 32
0.0
 13
25.48750000000002
 23
8.731670954499374
 33
0.0
  0
POINT
  5
FB87
330
E3D0
100
AcDbEntity
  8
Defpoints
 62
     0
100
AcDbPoint
 10
23.5025
 20
7.93064868910277
 30
0.0
  0
POINT
  5
FB88
330
E3D0
100
AcDbEntity
  8
Defpoints
 62
     0
100
AcDbPoint
 10
25.48750000000002
 20
7.915648689102811
 30
0.0
  0
POINT
  5
FB89
330
E3D0
100
AcDbEntity
  8
Defpoints
 62
     0
100
AcDbPoint
 10
25.48750000000002
 20
8.731670954499374
 30
0.0
  0
ENDBLK
  5
E3DC
330
E3D0
100
AcDbEntity
  8
0
100
AcDbBlockEnd
  0
BLOCK
  5
E5C1
330
E5C0
100
AcDbEntity
  8
0
100
AcDbBlockBegin
  2
Oa6s
 70
     0
 10
0.0
 20
0.0
 30
0.0
  3
Oa6s
  1

  0
LWPOLYLINE
  5
E5C3
330
E5C0
100
AcDbEntity
  8
Pel_Clad
100
AcDbPolyline
 90
       18
 70
     1
 43
0.0
 10
-2.127355959696376
 20
0.2081381589890512
 10
-2.139289971059965
 20
0.0291359885428335
 42
0.4338489677913949
 10
-2.12432319665191
 20
0.013138158989058
 10
0.1096112772591589
 20
0.013138158989058
 42
0.4338489677913949
 10
0.1245780516672141
 20
0.0291359885428335
 10
0.1126440403036248
 20
0.2081381589890512
 10
0.0926440403036253
 20
0.2081381589890512
 10
0.0926440403036253
 20
0.2481381589890574
 10
0.1287320403036247
 20
0.2890591589890548
 42
-0.6667905143186901
 10
0.1550799742545479
 20
0.2781720838166279
 10
0.1748150568481819
 20
-0.0178640891876612
 42
-0.4338474250199224
 10
0.1598482772580674
 20
-0.0338618410109461
 10
-2.174560196650819
 20
-0.0338618410109461
 42
-0.4338474250199225
 10
-2.189526976240933
 20
-0.0178640891876612
 10
-2.169660959696375
 20
0.280136158989059
 42
-0.7549226728402764
 10
-2.143443959696376
 20
0.2890591589890548
 10
-2.107355959696376
 20
0.2481381589890574
 10
-2.107355959696376
 20
0.2081381589890512
  0
ENDBLK
  5
E5C2
330
E5C0
100
AcDbEntity
  8
0
100
AcDbBlockEnd
  0
BLOCK
  5
E620
330
E61F
100
AcDbEntity
  8
0
 62
     2
100
AcDbBlockBegin
  2
0a6l
 70
     0
 10
0.0
 20
0.0
 30
0.0
  3
0a6l
  1

  0
POLYLINE
  5
E622
330
E61F
100
AcDbEntity
  8
Pel_Clad
100
AcDb2dPolyline
 66
     1
 10
0.0
 20
0.0
 30
0.0
 70
     1
  0
VERTEX
  5
F7BA
330
E622
100
AcDbEntity
  8
Pel_Clad
100
AcDbVertex
100
AcDb2dVertex
 10
-5.420865293011452
 20
1.151778160683472
 30
0.0
 42
0.7067984704372369
  0
VERTEX
  5
F7BB
330
E622
100
AcDbEntity
  8
Pel_Clad
100
AcDbVertex
100
AcDb2dVertex
 10
-5.447524203190511
 20
1.161215841194946
 30
0.0
  0
VERTEX
  5
F7BC
330
E622
100
AcDbEntity
  8
Pel_Clad
100
AcDbVertex
100
AcDb2dVertex
 10
-5.480812293011453
 20
1.119778160683472
 30
0.0
  0
VERTEX
  5
F7BD
330
E622
100
AcDbEntity
  8
Pel_Clad
100
AcDbVertex
100
AcDb2dVertex
 10
-5.487865293011452
 20
1.079778160683471
 30
0.0
  0
VERTEX
  5
F7BE
330
E622
100
AcDbEntity
  8
Pel_Clad
100
AcDbVertex
100
AcDb2dVertex
 10
-5.467865293011453
 20
1.079778160683471
 30
0.0
  0
VERTEX
  5
F7BF
330
E622
100
AcDbEntity
  8
Pel_Clad
100
AcDbVertex
100
AcDb2dVertex
 10
-5.467865293011453
 20
0.9007781606834708
 30
0.0
 42
-0.4142135623731013
  0
VERTEX
  5
F7C0
330
E622
100
AcDbEntity
  8
Pel_Clad
100
AcDbVertex
100
AcDb2dVertex
 10
-5.482865293011453
 20
0.8857781606834702
 30
0.0
  0
VERTEX
  5
F7C1
330
E622
100
AcDbEntity
  8
Pel_Clad
100
AcDbVertex
100
AcDb2dVertex
 10
-5.702865293011452
 20
0.8857781606834702
 30
0.0
 42
-0.4142135623731131
  0
VERTEX
  5
F7C2
330
E622
100
AcDbEntity
  8
Pel_Clad
100
AcDbVertex
100
AcDb2dVertex
 10
-5.717865293011453
 20
0.9007781606834708
 30
0.0
  0
VERTEX
  5
F7C3
330
E622
100
AcDbEntity
  8
Pel_Clad
100
AcDbVertex
100
AcDb2dVertex
 10
-5.717865293011453
 20
1.079778160683471
 30
0.0
  0
VERTEX
  5
F7C4
330
E622
100
AcDbEntity
  8
Pel_Clad
100
AcDbVertex
100
AcDb2dVertex
 10
-5.697865293011453
 20
1.079778160683471
 30
0.0
  0
VERTEX
  5
F7C5
330
E622
100
AcDbEntity
  8
Pel_Clad
100
AcDbVertex
100
AcDb2dVertex
 10
-5.704918293011452
 20
1.119778160683472
 30
0.0
  0
VERTEX
  5
F7C6
330
E622
100
AcDbEntity
  8
Pel_Clad
100
AcDbVertex
100
AcDb2dVertex
 10
-5.738206382832418
 20
1.161215841194973
 30
0.0
 42
0.7067984704364183
  0
VERTEX
  5
F7C7
330
E622
100
AcDbEntity
  8
Pel_Clad
100
AcDbVertex
100
AcDb2dVertex
 10
-5.764865293011453
 20
1.151778160683472
 30
0.0
  0
VERTEX
  5
F7C8
330
E622
100
AcDbEntity
  8
Pel_Clad
100
AcDbVertex
100
AcDb2dVertex
 10
-5.764865293011453
 20
0.8537781606834702
 30
0.0
 42
0.4142135623730784
  0
VERTEX
  5
F7C9
330
E622
100
AcDbEntity
  8
Pel_Clad
100
AcDbVertex
100
AcDb2dVertex
 10
-5.749865293011453
 20
0.8387781606834714
 30
0.0
  0
VERTEX
  5
F7CA
330
E622
100
AcDbEntity
  8
Pel_Clad
100
AcDbVertex
100
AcDb2dVertex
 10
-5.435865293011453
 20
0.8387781606834714
 30
0.0
 42
-0.000037088246627
  0
VERTEX
  5
F7CB
330
E622
100
AcDbEntity
  8
Pel_Clad
100
AcDbVertex
100
AcDb2dVertex
 10
-5.435867518306242
 20
0.838778160848534
 30
0.0
 42
0.4142570146243613
  0
VERTEX
  5
F7CC
330
E622
100
AcDbEntity
  8
Pel_Clad
100
AcDbVertex
100
AcDb2dVertex
 10
-5.420865293011452
 20
0.8537781606834702
 30
0.0
  0
SEQEND
  5
F7CD
330
E622
100
AcDbEntity
  8
Pel_Clad
  0
ENDBLK
  5
E621
330
E61F
100
AcDbEntity
  8
0
 62
     2
100
AcDbBlockEnd
  0
BLOCK
  5
E6E9
330
E6DD
100
AcDbEntity
  8
0
100
AcDbBlockBegin
  2
*D10
 70
     1
 10
0.0
 20
0.0
 30
0.0
  3
*D10
  1

  0
LINE
  5
FB6C
330
E6DD
100
AcDbEntity
  8
0
100
AcDbLine
 10
23.21691618676076
 20
10.91845411679921
 30
0.0
 11
22.69865244920209
 21
10.91845411679921
 31
0.0
  0
LINE
  5
FB6D
330
E6DD
100
AcDbEntity
  8
0
100
AcDbLine
 10
23.14886614946196
 20
11.29416756159218
 30
0.0
 11
22.69865244920209
 21
11.29416756159218
 31
0.0
  0
LINE
  5
FB6E
330
E6DD
100
AcDbEntity
  8
0
100
AcDbLine
 10
22.94865244920209
 20
10.66845411679921
 30
0.0
 11
22.94865244920209
 21
10.41845411679921
 31
0.0
  0
LINE
  5
FB6F
330
E6DD
100
AcDbEntity
  8
0
100
AcDbLine
 10
22.94865244920209
 20
11.54416756159218
 30
0.0
 11
22.94865244920209
 21
11.79416756159218
 31
0.0
  0
MTEXT
  5
FB70
330
E6DD
100
AcDbEntity
  8
0
 62
   255
100
AcDbMText
 10
22.25018720795496
 20
11.1063108391957
 30
0.0
 40
0.28
 41
0.0
 71
     5
 72
     1
  1
\A1;3/8"\P [10]
  7
Arial
 11
0.0000000000000001
 21
1.0
 31
0.0
 73
     1
 44
1.0
1001
ACAD
1000
MTEXTBEGIN
1070
    73
1070
     1
1070
    44
1040
1.0
1070
    74
1070
     0
1000
MTEXTEND
  0
SOLID
  5
FB71
330
E6DD
100
AcDbEntity
  8
0
100
AcDbTrace
 10
22.90698578253542
 20
10.66845411679921
 30
0.0
 11
22.99031911586876
 21
10.66845411679921
 31
0.0
 12
22.94865244920209
 22
10.91845411679921
 32
0.0
 13
22.94865244920209
 23
10.91845411679921
 33
0.0
  0
SOLID
  5
FB72
330
E6DD
100
AcDbEntity
  8
0
100
AcDbTrace
 10
22.90698578253542
 20
11.54416756159218
 30
0.0
 11
22.99031911586876
 21
11.54416756159218
 31
0.0
 12
22.94865244920209
 22
11.29416756159218
 32
0.0
 13
22.94865244920209
 23
11.29416756159218
 33
0.0
  0
POINT
  5
FB73
330
E6DD
100
AcDbEntity
  8
Defpoints
 62
     0
100
AcDbPoint
 10
23.71691618676076
 20
10.91845411679921
 30
0.0
  0
POINT
  5
FB74
330
E6DD
100
AcDbEntity
  8
Defpoints
 62
     0
100
AcDbPoint
 10
23.64886614946196
 20
11.29416756159218
 30
0.0
  0
POINT
  5
FB75
330
E6DD
100
AcDbEntity
  8
Defpoints
 62
     0
100
AcDbPoint
 10
22.94865244920209
 20
11.29416756159218
 30
0.0
  0
ENDBLK
  5
E6EA
330
E6DD
100
AcDbEntity
  8
0
100
AcDbBlockEnd
  0
BLOCK
  5
E83A
330
E82F
100
AcDbEntity
  8
0
100
AcDbBlockBegin
  2
*D11
 70
     1
 10
0.0
 20
0.0
 30
0.0
  3
*D11
  1

  0
LINE
  5
FB58
330
E82F
100
AcDbEntity
  8
0
100
AcDbLine
 10
23.87613795322762
 20
11.72864868910279
 30
0.0
 11
23.87613795322762
 21
12.30967095449937
 31
0.0
  0
LINE
  5
FB59
330
E82F
100
AcDbEntity
  8
0
100
AcDbLine
 10
25.14845221976563
 20
11.74364868910281
 30
0.0
 11
25.14845221976563
 21
12.30967095449937
 31
0.0
  0
LINE
  5
FB5A
330
E82F
100
AcDbEntity
  8
0
100
AcDbLine
 10
23.62613795322762
 20
12.05967095449937
 30
0.0
 11
23.37613795322762
 21
12.05967095449937
 31
0.0
  0
LINE
  5
FB5B
330
E82F
100
AcDbEntity
  8
0
100
AcDbLine
 10
25.39845221976563
 20
12.05967095449937
 30
0.0
 11
25.64845221976563
 21
12.05967095449937
 31
0.0
  0
MTEXT
  5
FB5C
330
E82F
100
AcDbEntity
  8
0
 62
   255
100
AcDbMText
 10
24.51229508649662
 20
12.05967095449937
 30
0.0
 40
0.28
 41
0.0
 71
     5
 72
     1
  1
\A1;1 1/4"\P [32]
  7
Arial
 73
     1
 44
1.0
1001
ACAD
1000
MTEXTBEGIN
1070
    73
1070
     1
1070
    44
1040
1.0
1070
    74
1070
     0
1000
MTEXTEND
  0
SOLID
  5
FB5D
330
E82F
100
AcDbEntity
  8
0
100
AcDbTrace
 10
23.62613795322762
 20
12.10133762116603
 30
0.0
 11
23.62613795322762
 21
12.0180042878327
 31
0.0
 12
23.87613795322762
 22
12.05967095449937
 32
0.0
 13
23.87613795322762
 23
12.05967095449937
 33
0.0
  0
SOLID
  5
FB5E
330
E82F
100
AcDbEntity
  8
0
100
AcDbTrace
 10
25.39845221976563
 20
12.10133762116603
 30
0.0
 11
25.39845221976563
 21
12.0180042878327
 31
0.0
 12
25.14845221976563
 22
12.05967095449937
 32
0.0
 13
25.14845221976563
 23
12.05967095449937
 33
0.0
  0
POINT
  5
FB5F
330
E82F
100
AcDbEntity
  8
Defpoints
 62
     0
100
AcDbPoint
 10
23.87613795322762
 20
11.22864868910279
 30
0.0
  0
POINT
  5
FB60
330
E82F
100
AcDbEntity
  8
Defpoints
 62
     0
100
AcDbPoint
 10
25.14845221976563
 20
11.2436486891028
 30
0.0
  0
POINT
  5
FB61
330
E82F
100
AcDbEntity
  8
Defpoints
 62
     0
100
AcDbPoint
 10
25.14845221976563
 20
12.05967095449937
 30
0.0
  0
ENDBLK
  5
E83B
330
E82F
100
AcDbEntity
  8
0
100
AcDbBlockEnd
  0
BLOCK
  5
E875
330
E85A
100
AcDbEntity
  8
0
100
AcDbBlockBegin
  2
4994
 70
     0
 10
0.0
 20
0.0
 30
0.0
  3
4994
  1

  0
POLYLINE
  5
E85C
330
E85A
100
AcDbEntity
  8
0
  6
Continuous
 62
     2
100
AcDb2dPolyline
 66
     1
 10
0.0
 20
0.0
 30
0.0
 70
     1
  0
VERTEX
  5
F940
330
E85C
100
AcDbEntity
  8
0
100
AcDbVertex
100
AcDb2dVertex
 10
5.525625114441
 20
-5.212499885549999
 30
0.0
  0
VERTEX
  5
F941
330
E85C
100
AcDbEntity
  8
0
  6
Continuous
 62
     2
100
AcDbVertex
100
AcDb2dVertex
 10
5.480000381469997
 20
-5.316500930779999
 30
0.0
  0
VERTEX
  5
F942
330
E85C
100
AcDbEntity
  8
0
  6
Continuous
 62
     2
100
AcDbVertex
100
AcDb2dVertex
 10
5.525625114441
 20
-5.336516647329999
 30
0.0
  0
SEQEND
  5
F943
330
E85C
100
AcDbEntity
  8
0
  6
Continuous
 62
     2
  0
POLYLINE
  5
E861
330
E85A
100
AcDbEntity
  8
0
  6
Continuous
 62
     2
100
AcDb2dPolyline
 66
     1
 10
0.0
 20
0.0
 30
0.0
 70
     1
  0
VERTEX
  5
F945
330
E861
100
AcDbEntity
  8
0
  6
Continuous
 62
     2
100
AcDbVertex
100
AcDb2dVertex
 10
0.2775001144409011
 20
0.0356251144409008
 30
0.0
  0
VERTEX
  5
F946
330
E861
100
AcDbEntity
  8
0
  6
Continuous
 62
     2
100
AcDbVertex
100
AcDb2dVertex
 10
0.1735001420975006
 20
-0.0100000059604586
 30
0.0
  0
VERTEX
  5
F947
330
E861
100
AcDbEntity
  8
0
100
AcDbVertex
100
AcDb2dVertex
 10
0.1534842169285007
 20
0.0356251442432001
 30
0.0
  0
SEQEND
  5
F948
330
E861
100
AcDbEntity
  8
0
  6
Continuous
 62
     2
  0
POLYLINE
  5
ED8C
330
E85A
100
AcDbEntity
  8
Pel_Clad
100
AcDb2dPolyline
 66
     1
 10
0.0
 20
0.0
 30
0.0
  0
VERTEX
  5
F94A
330
ED8C
100
AcDbEntity
  8
Pel_Clad
100
AcDbVertex
100
AcDb2dVertex
 10
0.0050001079216599
 20
-5.54500007629
 30
0.0
  0
VERTEX
  5
F94B
330
ED8C
100
AcDbEntity
  8
Pel_Clad
100
AcDbVertex
100
AcDb2dVertex
 10
5.525625114441
 20
-5.54500007629
 30
0.0
 42
0.4142135623730951
  0
VERTEX
  5
F94C
330
ED8C
100
AcDbEntity
  8
Pel_Clad
100
AcDbVertex
100
AcDb2dVertex
 10
5.575625305181
 20
-5.494999885549999
 30
0.0
  0
VERTEX
  5
F94D
330
ED8C
100
AcDbEntity
  8
Pel_Clad
100
AcDbVertex
100
AcDb2dVertex
 10
5.575625305175998
 20
-5.212499885549999
 30
0.0
  0
VERTEX
  5
F94E
330
ED8C
100
AcDbEntity
  8
Pel_Clad
100
AcDbVertex
100
AcDb2dVertex
 10
5.525625114441
 20
-5.212499885549999
 30
0.0
  0
VERTEX
  5
F94F
330
ED8C
100
AcDbEntity
  8
Pel_Clad
100
AcDbVertex
100
AcDb2dVertex
 10
5.525625114441
 20
-5.494999885549999
 30
0.0
  0
VERTEX
  5
F950
330
ED8C
100
AcDbEntity
  8
Pel_Clad
100
AcDbVertex
100
AcDb2dVertex
 10
0.0050001069903374
 20
-5.494999885549999
 30
0.0
  0
VERTEX
  5
F951
330
ED8C
100
AcDbEntity
  8
Pel_Clad
100
AcDbVertex
100
AcDb2dVertex
 10
0.0050001069903374
 20
0.0356251144409008
 30
0.0
  0
VERTEX
  5
F952
330
ED8C
100
AcDbEntity
  8
Pel_Clad
100
AcDbVertex
100
AcDb2dVertex
 10
0.2775001144409011
 20
0.0356251144409008
 30
0.0
  0
VERTEX
  5
F953
330
ED8C
100
AcDbEntity
  8
Pel_Clad
100
AcDbVertex
100
AcDb2dVertex
 10
0.2775001144409011
 20
0.0856251263618013
 30
0.0
  0
VERTEX
  5
F954
330
ED8C
100
AcDbEntity
  8
Pel_Clad
100
AcDbVertex
100
AcDb2dVertex
 10
0.0050001069903374
 20
0.0856251263618013
 30
0.0
 42
0.4294610504329731
  0
VERTEX
  5
F955
330
ED8C
100
AcDbEntity
  8
Pel_Clad
100
AcDbVertex
100
AcDb2dVertex
 10
-0.0449998974800003
 20
0.0356251144409008
 30
0.0
  0
VERTEX
  5
F956
330
ED8C
100
AcDbEntity
  8
Pel_Clad
100
AcDbVertex
100
AcDb2dVertex
 10
-0.0449998974800003
 20
-5.494999885549999
 30
0.0
  0
VERTEX
  5
F957
330
ED8C
100
AcDbEntity
  8
Pel_Clad
100
AcDbVertex
100
AcDb2dVertex
 10
-0.0449998974799986
 20
-5.494999885549999
 30
0.0
 42
0.4142135678286382
  0
VERTEX
  5
F958
330
ED8C
100
AcDbEntity
  8
Pel_Clad
100
AcDbVertex
100
AcDb2dVertex
 10
0.0050001079216564
 20
-5.544999890020336
 30
0.0
  0
SEQEND
  5
F959
330
ED8C
100
AcDbEntity
  8
Pel_Clad
  0
ENDBLK
  5
E876
330
E85A
100
AcDbEntity
  8
0
100
AcDbBlockEnd
  0
BLOCK
  5
E948
330
E8D4
100
AcDbEntity
  8
0
100
AcDbBlockBegin
  2
72AL
 70
     0
 10
0.0
 20
0.0
 30
0.0
  3
72AL
  1

  0
POLYLINE
  5
E8D5
330
E8D4
100
AcDbEntity
  8
Pel_Clad
100
AcDb2dPolyline
 66
     1
 10
0.0
 20
0.0
 30
0.0
 70
     1
  0
VERTEX
  5
FA3A
330
E8D5
100
AcDbEntity
  8
Pel_Clad
100
AcDbVertex
100
AcDb2dVertex
 10
-0.0736999999999988
 20
1.179699999999999
 30
0.0
  0
VERTEX
  5
FA3B
330
E8D5
100
AcDbEntity
  8
Pel_Clad
100
AcDbVertex
100
AcDb2dVertex
 10
-0.0620000000000012
 20
1.167999999999999
 30
0.0
  0
VERTEX
  5
FA3C
330
E8D5
100
AcDbEntity
  8
Pel_Clad
100
AcDbVertex
100
AcDb2dVertex
 10
-0.0820000000000008
 20
1.147999999999999
 30
0.0
  0
VERTEX
  5
FA3D
330
E8D5
100
AcDbEntity
  8
Pel_Clad
100
AcDbVertex
100
AcDb2dVertex
 10
-0.0620000000000012
 20
1.127999999999999
 30
0.0
  0
VERTEX
  5
FA3E
330
E8D5
100
AcDbEntity
  8
Pel_Clad
100
AcDbVertex
100
AcDb2dVertex
 10
-0.0820000000000008
 20
1.107999999999999
 30
0.0
  0
VERTEX
  5
FA3F
330
E8D5
100
AcDbEntity
  8
Pel_Clad
100
AcDbVertex
100
AcDb2dVertex
 10
-0.0620000000000012
 20
1.088
 30
0.0
  0
VERTEX
  5
FA40
330
E8D5
100
AcDbEntity
  8
Pel_Clad
100
AcDbVertex
100
AcDb2dVertex
 10
-0.0820000000000008
 20
1.067999999999999
 30
0.0
  0
VERTEX
  5
FA41
330
E8D5
100
AcDbEntity
  8
Pel_Clad
100
AcDbVertex
100
AcDb2dVertex
 10
-0.0620000000000012
 20
1.047999999999999
 30
0.0
  0
VERTEX
  5
FA42
330
E8D5
100
AcDbEntity
  8
Pel_Clad
100
AcDbVertex
100
AcDb2dVertex
 10
-0.0820000000000008
 20
1.027999999999999
 30
0.0
  0
VERTEX
  5
FA43
330
E8D5
100
AcDbEntity
  8
Pel_Clad
100
AcDbVertex
100
AcDb2dVertex
 10
-0.0620000000000012
 20
1.008
 30
0.0
  0
VERTEX
  5
FA44
330
E8D5
100
AcDbEntity
  8
Pel_Clad
100
AcDbVertex
100
AcDb2dVertex
 10
-0.0820000000000008
 20
0.9879999999999995
 30
0.0
  0
VERTEX
  5
FA45
330
E8D5
100
AcDbEntity
  8
Pel_Clad
100
AcDbVertex
100
AcDb2dVertex
 10
-0.0620000000000012
 20
0.967999999999999
 30
0.0
  0
VERTEX
  5
FA46
330
E8D5
100
AcDbEntity
  8
Pel_Clad
100
AcDbVertex
100
AcDb2dVertex
 10
-0.0820000000000008
 20
0.9479999999999995
 30
0.0
  0
VERTEX
  5
FA47
330
E8D5
100
AcDbEntity
  8
Pel_Clad
100
AcDbVertex
100
AcDb2dVertex
 10
-0.0620000000000012
 20
0.9279999999999999
 30
0.0
  0
VERTEX
  5
FA48
330
E8D5
100
AcDbEntity
  8
Pel_Clad
100
AcDbVertex
100
AcDb2dVertex
 10
-0.0820000000000008
 20
0.9079999999999994
 30
0.0
  0
VERTEX
  5
FA49
330
E8D5
100
AcDbEntity
  8
Pel_Clad
100
AcDbVertex
100
AcDb2dVertex
 10
-0.0620000000000012
 20
0.8879999999999999
 30
0.0
  0
VERTEX
  5
FA4A
330
E8D5
100
AcDbEntity
  8
Pel_Clad
100
AcDbVertex
100
AcDb2dVertex
 10
-0.0820000000000008
 20
0.8679999999999994
 30
0.0
  0
VERTEX
  5
FA4B
330
E8D5
100
AcDbEntity
  8
Pel_Clad
100
AcDbVertex
100
AcDb2dVertex
 10
-0.0620000000000012
 20
0.8479999999999998
 30
0.0
  0
VERTEX
  5
FA4C
330
E8D5
100
AcDbEntity
  8
Pel_Clad
100
AcDbVertex
100
AcDb2dVertex
 10
-0.0820000000000008
 20
0.8279999999999994
 30
0.0
  0
VERTEX
  5
FA4D
330
E8D5
100
AcDbEntity
  8
Pel_Clad
100
AcDbVertex
100
AcDb2dVertex
 10
-0.0620000000000012
 20
0.8079999999999998
 30
0.0
  0
VERTEX
  5
FA4E
330
E8D5
100
AcDbEntity
  8
Pel_Clad
100
AcDbVertex
100
AcDb2dVertex
 10
-0.0820000000000008
 20
0.7879999999999994
 30
0.0
  0
VERTEX
  5
FA4F
330
E8D5
100
AcDbEntity
  8
Pel_Clad
100
AcDbVertex
100
AcDb2dVertex
 10
-0.0620000000000012
 20
0.7679999999999998
 30
0.0
  0
VERTEX
  5
FA50
330
E8D5
100
AcDbEntity
  8
Pel_Clad
100
AcDbVertex
100
AcDb2dVertex
 10
-0.0820000000000008
 20
0.7479999999999994
 30
0.0
  0
VERTEX
  5
FA51
330
E8D5
100
AcDbEntity
  8
Pel_Clad
100
AcDbVertex
100
AcDb2dVertex
 10
-0.0620000000000012
 20
0.7279999999999998
 30
0.0
  0
VERTEX
  5
FA52
330
E8D5
100
AcDbEntity
  8
Pel_Clad
100
AcDbVertex
100
AcDb2dVertex
 10
-0.0820000000000008
 20
0.7079999999999993
 30
0.0
  0
VERTEX
  5
FA53
330
E8D5
100
AcDbEntity
  8
Pel_Clad
100
AcDbVertex
100
AcDb2dVertex
 10
-0.0620000000000012
 20
0.6879999999999998
 30
0.0
  0
VERTEX
  5
FA54
330
E8D5
100
AcDbEntity
  8
Pel_Clad
100
AcDbVertex
100
AcDb2dVertex
 10
-0.0820000000000008
 20
0.6679999999999993
 30
0.0
  0
VERTEX
  5
FA55
330
E8D5
100
AcDbEntity
  8
Pel_Clad
100
AcDbVertex
100
AcDb2dVertex
 10
-0.0620000000000012
 20
0.6479999999999997
 30
0.0
  0
VERTEX
  5
FA56
330
E8D5
100
AcDbEntity
  8
Pel_Clad
100
AcDbVertex
100
AcDb2dVertex
 10
-0.0820000000000008
 20
0.6279999999999993
 30
0.0
  0
VERTEX
  5
FA57
330
E8D5
100
AcDbEntity
  8
Pel_Clad
100
AcDbVertex
100
AcDb2dVertex
 10
-0.0620000000000012
 20
0.6079999999999997
 30
0.0
  0
VERTEX
  5
FA58
330
E8D5
100
AcDbEntity
  8
Pel_Clad
100
AcDbVertex
100
AcDb2dVertex
 10
-0.0820000000000008
 20
0.5879999999999992
 30
0.0
  0
VERTEX
  5
FA59
330
E8D5
100
AcDbEntity
  8
Pel_Clad
100
AcDbVertex
100
AcDb2dVertex
 10
-0.0620000000000012
 20
0.5679999999999997
 30
0.0
  0
VERTEX
  5
FA5A
330
E8D5
100
AcDbEntity
  8
Pel_Clad
100
AcDbVertex
100
AcDb2dVertex
 10
-0.0820000000000008
 20
0.5479999999999992
 30
0.0
  0
VERTEX
  5
FA5B
330
E8D5
100
AcDbEntity
  8
Pel_Clad
100
AcDbVertex
100
AcDb2dVertex
 10
-0.0620000000000012
 20
0.5279999999999996
 30
0.0
  0
VERTEX
  5
FA5C
330
E8D5
100
AcDbEntity
  8
Pel_Clad
100
AcDbVertex
100
AcDb2dVertex
 10
-0.0619999997619871
 20
0.479003841469674
 30
0.0
 42
0.4142498576911322
  0
VERTEX
  5
FA5D
330
E8D5
100
AcDbEntity
  8
Pel_Clad
100
AcDbVertex
100
AcDb2dVertex
 10
-0.0309999999999988
 20
0.4479999999999995
 30
0.0
  0
VERTEX
  5
FA5E
330
E8D5
100
AcDbEntity
  8
Pel_Clad
100
AcDbVertex
100
AcDb2dVertex
 10
0.3509999999999991
 20
0.4479999999999995
 30
0.0
  0
VERTEX
  5
FA5F
330
E8D5
100
AcDbEntity
  8
Pel_Clad
100
AcDbVertex
100
AcDb2dVertex
 10
0.3506999999999998
 20
0.4480000000000004
 30
0.0
 42
-0.1167038167992098
  0
VERTEX
  5
FA60
330
E8D5
100
AcDbEntity
  8
Pel_Clad
100
AcDbVertex
100
AcDb2dVertex
 10
0.3645931570447765
 20
0.4447124554547078
 30
0.0
  0
VERTEX
  5
FA61
330
E8D5
100
AcDbEntity
  8
Pel_Clad
100
AcDbVertex
100
AcDb2dVertex
 10
1.101406842955224
 20
0.0752875445452919
 30
0.0
 42
0.1167038167992099
  0
VERTEX
  5
FA62
330
E8D5
100
AcDbEntity
  8
Pel_Clad
100
AcDbVertex
100
AcDb2dVertex
 10
1.115300000000001
 20
0.0720000000000001
 30
0.0
  0
VERTEX
  5
FA63
330
E8D5
100
AcDbEntity
  8
Pel_Clad
100
AcDbVertex
100
AcDb2dVertex
 10
1.847999999999998
 20
0.0720000000000001
 30
0.0
  0
VERTEX
  5
FA64
330
E8D5
100
AcDbEntity
  8
Pel_Clad
100
AcDbVertex
100
AcDb2dVertex
 10
1.858
 20
0.0620000000000003
 30
0.0
  0
VERTEX
  5
FA65
330
E8D5
100
AcDbEntity
  8
Pel_Clad
100
AcDbVertex
100
AcDb2dVertex
 10
1.867999999999998
 20
0.0720000000000001
 30
0.0
  0
VERTEX
  5
FA66
330
E8D5
100
AcDbEntity
  8
Pel_Clad
100
AcDbVertex
100
AcDb2dVertex
 10
2.847999999999998
 20
0.0720000000000001
 30
0.0
  0
VERTEX
  5
FA67
330
E8D5
100
AcDbEntity
  8
Pel_Clad
100
AcDbVertex
100
AcDb2dVertex
 10
2.858
 20
0.0620000000000003
 30
0.0
  0
VERTEX
  5
FA68
330
E8D5
100
AcDbEntity
  8
Pel_Clad
100
AcDbVertex
100
AcDb2dVertex
 10
2.868000000000002
 20
0.0720000000000001
 30
0.0
  0
VERTEX
  5
FA69
330
E8D5
100
AcDbEntity
  8
Pel_Clad
100
AcDbVertex
100
AcDb2dVertex
 10
3.167000000000001
 20
0.0720000000000001
 30
0.0
 42
0.4142498576911322
  0
VERTEX
  5
FA6A
330
E8D5
100
AcDbEntity
  8
Pel_Clad
100
AcDbVertex
100
AcDb2dVertex
 10
3.197999999761986
 20
0.1030038414696737
 30
0.0
  0
VERTEX
  5
FA6B
330
E8D5
100
AcDbEntity
  8
Pel_Clad
100
AcDbVertex
100
AcDb2dVertex
 10
3.198000000238014
 20
0.4170038414696738
 30
0.0
 42
-0.4141772679865412
  0
VERTEX
  5
FA6C
330
E8D5
100
AcDbEntity
  8
Pel_Clad
100
AcDbVertex
100
AcDb2dVertex
 10
3.228999999999999
 20
0.4479999999999995
 30
0.0
  0
VERTEX
  5
FA6D
330
E8D5
100
AcDbEntity
  8
Pel_Clad
100
AcDbVertex
100
AcDb2dVertex
 10
3.807999999999999
 20
0.4479999999999995
 30
0.0
  0
VERTEX
  5
FA6E
330
E8D5
100
AcDbEntity
  8
Pel_Clad
100
AcDbVertex
100
AcDb2dVertex
 10
3.817
 20
0.4480000000000004
 30
0.0
 42
-0.4141772679865412
  0
VERTEX
  5
FA6F
330
E8D5
100
AcDbEntity
  8
Pel_Clad
100
AcDbVertex
100
AcDb2dVertex
 10
3.847999999761984
 20
0.4170038414696738
 30
0.0
 42
-0.4142498576911322
  0
VERTEX
  5
FA70
330
E8D5
100
AcDbEntity
  8
Pel_Clad
100
AcDbVertex
100
AcDb2dVertex
 10
3.817
 20
0.3860000000000001
 30
0.0
  0
VERTEX
  5
FA71
330
E8D5
100
AcDbEntity
  8
Pel_Clad
100
AcDbVertex
100
AcDb2dVertex
 10
3.318999999999999
 20
0.3860000000000001
 30
0.0
 42
0.4141772679865412
  0
VERTEX
  5
FA72
330
E8D5
100
AcDbEntity
  8
Pel_Clad
100
AcDbVertex
100
AcDb2dVertex
 10
3.288000000238014
 20
0.3550038414696734
 30
0.0
  0
VERTEX
  5
FA73
330
E8D5
100
AcDbEntity
  8
Pel_Clad
100
AcDbVertex
100
AcDb2dVertex
 10
3.288000000238014
 20
0.277003841469674
 30
0.0
 42
0.4142498576911322
  0
VERTEX
  5
FA74
330
E8D5
100
AcDbEntity
  8
Pel_Clad
100
AcDbVertex
100
AcDb2dVertex
 10
3.318999999999999
 20
0.2460000000000004
 30
0.0
  0
VERTEX
  5
FA75
330
E8D5
100
AcDbEntity
  8
Pel_Clad
100
AcDbVertex
100
AcDb2dVertex
 10
3.817
 20
0.2459999999999995
 30
0.0
 42
-0.4141772679865412
  0
VERTEX
  5
FA76
330
E8D5
100
AcDbEntity
  8
Pel_Clad
100
AcDbVertex
100
AcDb2dVertex
 10
3.847999999761984
 20
0.2150038414696738
 30
0.0
 42
-0.4142498576911322
  0
VERTEX
  5
FA77
330
E8D5
100
AcDbEntity
  8
Pel_Clad
100
AcDbVertex
100
AcDb2dVertex
 10
3.817
 20
0.1840000000000001
 30
0.0
  0
VERTEX
  5
FA78
330
E8D5
100
AcDbEntity
  8
Pel_Clad
100
AcDbVertex
100
AcDb2dVertex
 10
3.318999999999999
 20
0.1840000000000001
 30
0.0
 42
0.4141772679865412
  0
VERTEX
  5
FA79
330
E8D5
100
AcDbEntity
  8
Pel_Clad
100
AcDbVertex
100
AcDb2dVertex
 10
3.288000000238014
 20
0.1530038414696735
 30
0.0
  0
VERTEX
  5
FA7A
330
E8D5
100
AcDbEntity
  8
Pel_Clad
100
AcDbVertex
100
AcDb2dVertex
 10
3.287999999761986
 20
0.0410038414696734
 30
0.0
 42
-0.4142498576911322
  0
VERTEX
  5
FA7B
330
E8D5
100
AcDbEntity
  8
Pel_Clad
100
AcDbVertex
100
AcDb2dVertex
 10
3.256999999999997
 20
0.0099999999999998
 30
0.0
  0
VERTEX
  5
FA7C
330
E8D5
100
AcDbEntity
  8
Pel_Clad
100
AcDbVertex
100
AcDb2dVertex
 10
1.100699999999999
 20
0.0099999999999998
 30
0.0
 42
-0.1167038167992099
  0
VERTEX
  5
FA7D
330
E8D5
100
AcDbEntity
  8
Pel_Clad
100
AcDbVertex
100
AcDb2dVertex
 10
1.086806842955223
 20
0.0132875445452925
 30
0.0
  0
VERTEX
  5
FA7E
330
E8D5
100
AcDbEntity
  8
Pel_Clad
100
AcDbVertex
100
AcDb2dVertex
 10
0.3498931570447752
 20
0.3827124554547074
 30
0.0
 42
0.1167038167992098
  0
VERTEX
  5
FA7F
330
E8D5
100
AcDbEntity
  8
Pel_Clad
100
AcDbVertex
100
AcDb2dVertex
 10
0.3359999999999985
 20
0.3860000000000001
 30
0.0
  0
VERTEX
  5
FA80
330
E8D5
100
AcDbEntity
  8
Pel_Clad
100
AcDbVertex
100
AcDb2dVertex
 10
-0.0309999999999988
 20
0.3860000000000001
 30
0.0
 42
0.4141772679865412
  0
VERTEX
  5
FA81
330
E8D5
100
AcDbEntity
  8
Pel_Clad
100
AcDbVertex
100
AcDb2dVertex
 10
-0.0619999997619871
 20
0.3550038414696734
 30
0.0
  0
VERTEX
  5
FA82
330
E8D5
100
AcDbEntity
  8
Pel_Clad
100
AcDbVertex
100
AcDb2dVertex
 10
-0.0620000000000012
 20
-0.0299999999999994
 30
0.0
  0
VERTEX
  5
FA83
330
E8D5
100
AcDbEntity
  8
Pel_Clad
100
AcDbVertex
100
AcDb2dVertex
 10
-0.0820000000000008
 20
-0.0499999999999998
 30
0.0
  0
VERTEX
  5
FA84
330
E8D5
100
AcDbEntity
  8
Pel_Clad
100
AcDbVertex
100
AcDb2dVertex
 10
-0.0620000000000012
 20
-0.0699999999999994
 30
0.0
  0
VERTEX
  5
FA85
330
E8D5
100
AcDbEntity
  8
Pel_Clad
100
AcDbVertex
100
AcDb2dVertex
 10
-0.0820000000000008
 20
-0.0899999999999999
 30
0.0
  0
VERTEX
  5
FA86
330
E8D5
100
AcDbEntity
  8
Pel_Clad
100
AcDbVertex
100
AcDb2dVertex
 10
-0.0620000000000012
 20
-0.1099999999999994
 30
0.0
  0
VERTEX
  5
FA87
330
E8D5
100
AcDbEntity
  8
Pel_Clad
100
AcDbVertex
100
AcDb2dVertex
 10
-0.0820000000000008
 20
-0.1299999999999999
 30
0.0
  0
VERTEX
  5
FA88
330
E8D5
100
AcDbEntity
  8
Pel_Clad
100
AcDbVertex
100
AcDb2dVertex
 10
-0.0620000000000012
 20
-0.1499999999999995
 30
0.0
  0
VERTEX
  5
FA89
330
E8D5
100
AcDbEntity
  8
Pel_Clad
100
AcDbVertex
100
AcDb2dVertex
 10
-0.0820000000000008
 20
-0.1699999999999999
 30
0.0
  0
VERTEX
  5
FA8A
330
E8D5
100
AcDbEntity
  8
Pel_Clad
100
AcDbVertex
100
AcDb2dVertex
 10
-0.0620000000000012
 20
-0.1899999999999995
 30
0.0
  0
VERTEX
  5
FA8B
330
E8D5
100
AcDbEntity
  8
Pel_Clad
100
AcDbVertex
100
AcDb2dVertex
 10
-0.0820000000000008
 20
-0.21
 30
0.0
  0
VERTEX
  5
FA8C
330
E8D5
100
AcDbEntity
  8
Pel_Clad
100
AcDbVertex
100
AcDb2dVertex
 10
-0.0620000000000012
 20
-0.2299999999999995
 30
0.0
  0
VERTEX
  5
FA8D
330
E8D5
100
AcDbEntity
  8
Pel_Clad
100
AcDbVertex
100
AcDb2dVertex
 10
-0.0820000000000008
 20
-0.25
 30
0.0
  0
VERTEX
  5
FA8E
330
E8D5
100
AcDbEntity
  8
Pel_Clad
100
AcDbVertex
100
AcDb2dVertex
 10
-0.0620000000000012
 20
-0.2699999999999996
 30
0.0
  0
VERTEX
  5
FA8F
330
E8D5
100
AcDbEntity
  8
Pel_Clad
100
AcDbVertex
100
AcDb2dVertex
 10
-0.0820000000000008
 20
-0.29
 30
0.0
  0
VERTEX
  5
FA90
330
E8D5
100
AcDbEntity
  8
Pel_Clad
100
AcDbVertex
100
AcDb2dVertex
 10
-0.0620000000000012
 20
-0.3099999999999996
 30
0.0
  0
VERTEX
  5
FA91
330
E8D5
100
AcDbEntity
  8
Pel_Clad
100
AcDbVertex
100
AcDb2dVertex
 10
-0.0820000000000008
 20
-0.3300000000000001
 30
0.0
  0
VERTEX
  5
FA92
330
E8D5
100
AcDbEntity
  8
Pel_Clad
100
AcDbVertex
100
AcDb2dVertex
 10
-0.0620000000000012
 20
-0.3499999999999996
 30
0.0
  0
VERTEX
  5
FA93
330
E8D5
100
AcDbEntity
  8
Pel_Clad
100
AcDbVertex
100
AcDb2dVertex
 10
-0.0820000000000008
 20
-0.3700000000000001
 30
0.0
  0
VERTEX
  5
FA94
330
E8D5
100
AcDbEntity
  8
Pel_Clad
100
AcDbVertex
100
AcDb2dVertex
 10
-0.0620000000000012
 20
-0.3899999999999997
 30
0.0
  0
VERTEX
  5
FA95
330
E8D5
100
AcDbEntity
  8
Pel_Clad
100
AcDbVertex
100
AcDb2dVertex
 10
-0.0820000000000008
 20
-0.4100000000000002
 30
0.0
  0
VERTEX
  5
FA96
330
E8D5
100
AcDbEntity
  8
Pel_Clad
100
AcDbVertex
100
AcDb2dVertex
 10
-0.0620000000000012
 20
-0.4299999999999998
 30
0.0
  0
VERTEX
  5
FA97
330
E8D5
100
AcDbEntity
  8
Pel_Clad
100
AcDbVertex
100
AcDb2dVertex
 10
-0.0820000000000008
 20
-0.4500000000000002
 30
0.0
  0
VERTEX
  5
FA98
330
E8D5
100
AcDbEntity
  8
Pel_Clad
100
AcDbVertex
100
AcDb2dVertex
 10
-0.0620000000000012
 20
-0.4699999999999998
 30
0.0
  0
VERTEX
  5
FA99
330
E8D5
100
AcDbEntity
  8
Pel_Clad
100
AcDbVertex
100
AcDb2dVertex
 10
-0.0820000000000008
 20
-0.4899999999999994
 30
0.0
  0
VERTEX
  5
FA9A
330
E8D5
100
AcDbEntity
  8
Pel_Clad
100
AcDbVertex
100
AcDb2dVertex
 10
-0.0620000000000012
 20
-0.5099999999999998
 30
0.0
  0
VERTEX
  5
FA9B
330
E8D5
100
AcDbEntity
  8
Pel_Clad
100
AcDbVertex
100
AcDb2dVertex
 10
-0.0820000000000008
 20
-0.5300000000000003
 30
0.0
  0
VERTEX
  5
FA9C
330
E8D5
100
AcDbEntity
  8
Pel_Clad
100
AcDbVertex
100
AcDb2dVertex
 10
-0.0620000000000012
 20
-0.5499999999999999
 30
0.0
  0
VERTEX
  5
FA9D
330
E8D5
100
AcDbEntity
  8
Pel_Clad
100
AcDbVertex
100
AcDb2dVertex
 10
-0.0820000000000008
 20
-0.5699999999999994
 30
0.0
  0
VERTEX
  5
FA9E
330
E8D5
100
AcDbEntity
  8
Pel_Clad
100
AcDbVertex
100
AcDb2dVertex
 10
-0.0620000000000012
 20
-0.5899999999999999
 30
0.0
  0
VERTEX
  5
FA9F
330
E8D5
100
AcDbEntity
  8
Pel_Clad
100
AcDbVertex
100
AcDb2dVertex
 10
-0.0820000000000008
 20
-0.6099999999999995
 30
0.0
  0
VERTEX
  5
FAA0
330
E8D5
100
AcDbEntity
  8
Pel_Clad
100
AcDbVertex
100
AcDb2dVertex
 10
-0.0620000000000012
 20
-0.6299999999999999
 30
0.0
  0
VERTEX
  5
FAA1
330
E8D5
100
AcDbEntity
  8
Pel_Clad
100
AcDbVertex
100
AcDb2dVertex
 10
-0.0820000000000008
 20
-0.6499999999999995
 30
0.0
  0
VERTEX
  5
FAA2
330
E8D5
100
AcDbEntity
  8
Pel_Clad
100
AcDbVertex
100
AcDb2dVertex
 10
-0.0620000000000012
 20
-0.67
 30
0.0
  0
VERTEX
  5
FAA3
330
E8D5
100
AcDbEntity
  8
Pel_Clad
100
AcDbVertex
100
AcDb2dVertex
 10
-0.0736999999999988
 20
-0.6817000000000002
 30
0.0
  0
VERTEX
  5
FAA4
330
E8D5
100
AcDbEntity
  8
Pel_Clad
100
AcDbVertex
100
AcDb2dVertex
 10
-0.0620000000000012
 20
-0.71
 30
0.0
 42
-0.4142135623730951
  0
VERTEX
  5
FAA5
330
E8D5
100
AcDbEntity
  8
Pel_Clad
100
AcDbVertex
100
AcDb2dVertex
 10
-0.1020000000000003
 20
-0.75
 30
0.0
 42
-0.4142135623730951
  0
VERTEX
  5
FAA6
330
E8D5
100
AcDbEntity
  8
Pel_Clad
100
AcDbVertex
100
AcDb2dVertex
 10
-0.1419999999999995
 20
-0.71
 30
0.0
  0
VERTEX
  5
FAA7
330
E8D5
100
AcDbEntity
  8
Pel_Clad
100
AcDbVertex
100
AcDb2dVertex
 10
-0.1419999999999995
 20
1.207999999999999
 30
0.0
 42
-0.4142135623730951
  0
VERTEX
  5
FAA8
330
E8D5
100
AcDbEntity
  8
Pel_Clad
100
AcDbVertex
100
AcDb2dVertex
 10
-0.1020000000000003
 20
1.247999999999999
 30
0.0
 42
-0.4142135623730951
  0
VERTEX
  5
FAA9
330
E8D5
100
AcDbEntity
  8
Pel_Clad
100
AcDbVertex
100
AcDb2dVertex
 10
-0.0620000000000012
 20
1.207999999999999
 30
0.0
 42
-0.1989110065911306
  0
VERTEX
  5
FAAA
330
E8D5
100
AcDbEntity
  8
Pel_Clad
100
AcDbVertex
100
AcDb2dVertex
 10
-0.0737155806568275
 20
1.179715876849023
 30
0.0
 42
0.9906235101854539
  0
SEQEND
  5
FAAB
330
E8D5
100
AcDbEntity
  8
Pel_Clad
  0
ENDBLK
  5
E949
330
E8D4
100
AcDbEntity
  8
0
100
AcDbBlockEnd
  0
BLOCK
  5
E95E
330
E953
100
AcDbEntity
  8
0
100
AcDbBlockBegin
  2
*D14
 70
     1
 10
0.0
 20
0.0
 30
0.0
  3
*D14
  1

  0
LINE
  5
FB44
330
E953
100
AcDbEntity
  8
0
100
AcDbLine
 10
22.5
 20
5.513733823601022
 30
0.0
 11
22.5
 21
6.155648689102777
 31
0.0
  0
LINE
  5
FB45
330
E953
100
AcDbEntity
  8
0
100
AcDbLine
 10
26.49
 20
5.072648689102774
 30
0.0
 11
26.49
 21
6.155648689102777
 31
0.0
  0
LINE
  5
FB46
330
E953
100
AcDbEntity
  8
0
100
AcDbLine
 10
22.75
 20
5.905648689102777
 30
0.0
 11
23.89730559345157
 21
5.905648689102777
 31
0.0
  0
LINE
  5
FB47
330
E953
100
AcDbEntity
  8
0
100
AcDbLine
 10
26.24
 20
5.905648689102777
 30
0.0
 11
25.09269440654844
 21
5.905648689102777
 31
0.0
  0
MTEXT
  5
FB48
330
E953
100
AcDbEntity
  8
0
 62
   255
100
AcDbMText
 10
24.495
 20
5.905648689102777
 30
0.0
 40
0.28
 41
0.0
 71
     5
 72
     1
  1
\A1;4"\P [101]
  7
Arial
 73
     1
 44
1.0
1001
ACAD
1000
MTEXTBEGIN
1070
    73
1070
     1
1070
    44
1040
1.0
1070
    74
1070
     0
1000
MTEXTEND
  0
SOLID
  5
FB49
330
E953
100
AcDbEntity
  8
0
100
AcDbTrace
 10
22.75
 20
5.947315355769444
 30
0.0
 11
22.75
 21
5.86398202243611
 31
0.0
 12
22.5
 22
5.905648689102777
 32
0.0
 13
22.5
 23
5.905648689102777
 33
0.0
  0
SOLID
  5
FB4A
330
E953
100
AcDbEntity
  8
0
100
AcDbTrace
 10
26.24
 20
5.947315355769444
 30
0.0
 11
26.24
 21
5.86398202243611
 31
0.0
 12
26.49
 22
5.905648689102777
 32
0.0
 13
26.49
 23
5.905648689102777
 33
0.0
  0
POINT
  5
FB4B
330
E953
100
AcDbEntity
  8
Defpoints
 62
     0
100
AcDbPoint
 10
22.5
 20
5.013733823601022
 30
0.0
  0
POINT
  5
FB4C
330
E953
100
AcDbEntity
  8
Defpoints
 62
     0
100
AcDbPoint
 10
26.49
 20
4.572648689102774
 30
0.0
  0
POINT
  5
FB4D
330
E953
100
AcDbEntity
  8
Defpoints
 62
     0
100
AcDbPoint
 10
26.49
 20
5.905648689102777
 30
0.0
  0
ENDBLK
  5
E95F
330
E953
100
AcDbEntity
  8
0
100
AcDbBlockEnd
  0
BLOCK
  5
E975
330
E96A
100
AcDbEntity
  8
0
100
AcDbBlockBegin
  2
*D15
 70
     1
 10
0.0
 20
0.0
 30
0.0
  3
*D15
  1

  0
LINE
  5
FB30
330
E96A
100
AcDbEntity
  8
0
100
AcDbLine
 10
22.04
 20
3.405648689102775
 30
0.0
 11
21.54978629974013
 21
3.405648689102775
 31
0.0
  0
LINE
  5
FB31
330
E96A
100
AcDbEntity
  8
0
100
AcDbLine
 10
22.04
 20
5.403648689102773
 30
0.0
 11
21.54978629974013
 21
5.403648689102774
 31
0.0
  0
LINE
  5
FB32
330
E96A
100
AcDbEntity
  8
0
100
AcDbLine
 10
21.79978629974013
 20
3.655648689102775
 30
0.0
 11
21.79978629974013
 21
3.946388601815034
 31
0.0
  0
LINE
  5
FB33
330
E96A
100
AcDbEntity
  8
0
100
AcDbLine
 10
21.79978629974013
 20
5.153648689102774
 30
0.0
 11
21.79978629974013
 21
4.92423307657629
 31
0.0
  0
MTEXT
  5
FB34
330
E96A
100
AcDbEntity
  8
0
 62
   255
100
AcDbMText
 10
21.79978629974013
 20
4.435310839195665
 30
0.0
 40
0.28
 41
0.0
 71
     5
 72
     1
  1
\A1;2"\P [51]
  7
Arial
 11
0.0000000000000001
 21
1.0
 31
0.0
 73
     1
 44
1.0
1001
ACAD
1000
MTEXTBEGIN
1070
    73
1070
     1
1070
    44
1040
1.0
1070
    74
1070
     0
1000
MTEXTEND
  0
SOLID
  5
FB35
330
E96A
100
AcDbEntity
  8
0
100
AcDbTrace
 10
21.75811963307346
 20
3.655648689102775
 30
0.0
 11
21.8414529664068
 21
3.655648689102775
 31
0.0
 12
21.79978629974013
 22
3.405648689102775
 32
0.0
 13
21.79978629974013
 23
3.405648689102775
 33
0.0
  0
SOLID
  5
FB36
330
E96A
100
AcDbEntity
  8
0
100
AcDbTrace
 10
21.75811963307346
 20
5.153648689102774
 30
0.0
 11
21.8414529664068
 21
5.153648689102774
 31
0.0
 12
21.79978629974013
 22
5.403648689102774
 32
0.0
 13
21.79978629974013
 23
5.403648689102774
 33
0.0
  0
POINT
  5
FB37
330
E96A
100
AcDbEntity
  8
Defpoints
 62
     0
100
AcDbPoint
 10
22.54
 20
3.405648689102775
 30
0.0
  0
POINT
  5
FB38
330
E96A
100
AcDbEntity
  8
Defpoints
 62
     0
100
AcDbPoint
 10
22.54
 20
5.403648689102773
 30
0.0
  0
POINT
  5
FB39
330
E96A
100
AcDbEntity
  8
Defpoints
 62
     0
100
AcDbPoint
 10
21.79978629974013
 20
5.403648689102774
 30
0.0
  0
ENDBLK
  5
E976
330
E96A
100
AcDbEntity
  8
0
100
AcDbBlockEnd
  0
BLOCK
  5
EAF7
330
EAEC
100
AcDbEntity
  8
0
100
AcDbBlockBegin
  2
*D16
 70
     1
 10
0.0
 20
0.0
 30
0.0
  3
*D16
  1

  0
LINE
  5
FB1D
330
EAEC
100
AcDbEntity
  8
0
100
AcDbLine
 10
23.04
 20
3.405648689102775
 30
0.0
 11
27.30570529543451
 21
3.405648689102773
 31
0.0
  0
LINE
  5
FB1E
330
EAEC
100
AcDbEntity
  8
0
100
AcDbLine
 10
26.399
 20
4.165648689102773
 30
0.0
 11
27.30570529543451
 21
4.165648689102773
 31
0.0
  0
LINE
  5
FB1F
330
EAEC
100
AcDbEntity
  8
0
100
AcDbLine
 10
27.05570529543451
 20
3.655648689102773
 30
0.0
 11
27.05570529543451
 21
3.915648689102773
 31
0.0
  0
MTEXT
  5
FB20
330
EAEC
100
AcDbEntity
  8
0
 62
   255
100
AcDbMText
 10
27.05570529543451
 20
3.785648689102774
 30
0.0
 40
0.28
 41
0.0
 71
     5
 72
     1
  1
\A1;3/4"\P [19]
  7
Arial
 11
0.0000000000000001
 21
1.0
 31
0.0
 73
     1
 44
1.0
1001
ACAD
1000
MTEXTBEGIN
1070
    73
1070
     1
1070
    44
1040
1.0
1070
    74
1070
     0
1000
MTEXTEND
  0
SOLID
  5
FB21
330
EAEC
100
AcDbEntity
  8
0
100
AcDbTrace
 10
27.01403862876784
 20
3.655648689102773
 30
0.0
 11
27.09737196210118
 21
3.655648689102773
 31
0.0
 12
27.05570529543451
 22
3.405648689102773
 32
0.0
 13
27.05570529543451
 23
3.405648689102773
 33
0.0
  0
SOLID
  5
FB22
330
EAEC
100
AcDbEntity
  8
0
100
AcDbTrace
 10
27.01403862876784
 20
3.915648689102773
 30
0.0
 11
27.09737196210118
 21
3.915648689102773
 31
0.0
 12
27.05570529543451
 22
4.165648689102773
 32
0.0
 13
27.05570529543451
 23
4.165648689102773
 33
0.0
  0
POINT
  5
FB23
330
EAEC
100
AcDbEntity
  8
Defpoints
 62
     0
100
AcDbPoint
 10
22.54
 20
3.405648689102775
 30
0.0
  0
POINT
  5
FB24
330
EAEC
100
AcDbEntity
  8
Defpoints
 62
     0
100
AcDbPoint
 10
25.899
 20
4.165648689102773
 30
0.0
  0
POINT
  5
FB25
330
EAEC
100
AcDbEntity
  8
Defpoints
 62
     0
100
AcDbPoint
 10
27.05570529543451
 20
4.165648689102773
 30
0.0
  0
ENDBLK
  5
EAF8
330
EAEC
100
AcDbEntity
  8
0
100
AcDbBlockEnd
  0
BLOCK
  5
EC5C
330
EC49
100
AcDbEntity
  8
0
100
AcDbBlockBegin
  2
M-100
 70
     0
 10
0.0
 20
0.0
 30
0.0
  3
M-100
  1

  0
POLYLINE
  5
EC4A
330
EC49
100
AcDbEntity
  8
Pel_Clad
100
AcDb2dPolyline
 66
     1
 10
0.0
 20
0.0
 30
0.0
 70
     1
  0
VERTEX
  5
F970
330
EC4A
100
AcDbEntity
  8
Pel_Clad
100
AcDbVertex
100
AcDb2dVertex
 10
0.0050000950694367
 20
-0.1903826624037386
 30
0.0
  0
VERTEX
  5
F971
330
EC4A
100
AcDbEntity
  8
Pel_Clad
100
AcDbVertex
100
AcDb2dVertex
 10
0.3175001144409002
 20
-0.1903826624037386
 30
0.0
  0
VERTEX
  5
F972
330
EC4A
100
AcDbEntity
  8
Pel_Clad
100
AcDbVertex
100
AcDb2dVertex
 10
0.3175001144408998
 20
-0.1403826504828416
 30
0.0
  0
VERTEX
  5
F973
330
EC4A
100
AcDbEntity
  8
Pel_Clad
100
AcDbVertex
100
AcDb2dVertex
 10
0.1934842169284998
 20
-0.1403826802851391
 30
0.0
  0
VERTEX
  5
F974
330
EC4A
100
AcDbEntity
  8
Pel_Clad
100
AcDbVertex
100
AcDb2dVertex
 10
0.2135001420974998
 20
-0.0947575300814805
 30
0.0
  0
VERTEX
  5
F975
330
EC4A
100
AcDbEntity
  8
Pel_Clad
100
AcDbVertex
100
AcDb2dVertex
 10
0.3175001144408998
 20
-0.1403826504828416
 30
0.0
  0
VERTEX
  5
F976
330
EC4A
100
AcDbEntity
  8
Pel_Clad
100
AcDbVertex
100
AcDb2dVertex
 10
0.0050001069903369
 20
-0.140382650482838
 30
0.0
  0
VERTEX
  5
F977
330
EC4A
100
AcDbEntity
  8
Pel_Clad
100
AcDbVertex
100
AcDb2dVertex
 10
0.0050001069903369
 20
4.140158453466922
 30
0.0
  0
VERTEX
  5
F978
330
EC4A
100
AcDbEntity
  8
Pel_Clad
100
AcDbVertex
100
AcDb2dVertex
 10
0.3175001144409002
 20
4.140158453466924
 30
0.0
  0
VERTEX
  5
F979
330
EC4A
100
AcDbEntity
  8
Pel_Clad
100
AcDbVertex
100
AcDb2dVertex
 10
0.2135001420975002
 20
4.094533333065562
 30
0.0
  0
VERTEX
  5
F97A
330
EC4A
100
AcDbEntity
  8
Pel_Clad
100
AcDbVertex
100
AcDb2dVertex
 10
0.1934842300028814
 20
4.140158453466924
 30
0.0
  0
VERTEX
  5
F97B
330
EC4A
100
AcDbEntity
  8
Pel_Clad
100
AcDbVertex
100
AcDb2dVertex
 10
0.3175001144409002
 20
4.140158453466924
 30
0.0
  0
VERTEX
  5
F97C
330
EC4A
100
AcDbEntity
  8
Pel_Clad
100
AcDbVertex
100
AcDb2dVertex
 10
0.3175001144409002
 20
4.190158465387822
 30
0.0
  0
VERTEX
  5
F97D
330
EC4A
100
AcDbEntity
  8
Pel_Clad
100
AcDbVertex
100
AcDb2dVertex
 10
0.0050001025200475
 20
4.190158465387822
 30
0.0
 42
0.4142135618632918
  0
VERTEX
  5
F97E
330
EC4A
100
AcDbEntity
  8
Pel_Clad
100
AcDbVertex
100
AcDb2dVertex
 10
-0.0449998974799524
 20
4.140158465474851
 30
0.0
  0
VERTEX
  5
F97F
330
EC4A
100
AcDbEntity
  8
Pel_Clad
100
AcDbVertex
100
AcDb2dVertex
 10
-0.0449999049305632
 20
-0.1403826623167106
 30
0.0
 42
0.4142135628828982
  0
SEQEND
  5
F980
330
EC4A
100
AcDbEntity
  8
Pel_Clad
  0
ENDBLK
  5
EC5D
330
EC49
100
AcDbEntity
  8
0
100
AcDbBlockEnd
  0
BLOCK
  5
ECA3
330
EC99
100
AcDbEntity
  8
0
100
AcDbBlockBegin
  2
*D18
 70
     1
 10
0.0
 20
0.0
 30
0.0
  3
*D18
  1

  0
LINE
  5
FB0A
330
EC99
100
AcDbEntity
  8
0
100
AcDbLine
 10
17.96558298387644
 20
3.435648514008931
 30
0.0
 11
18.7539357269612
 21
3.435648514008931
 31
0.0
  0
LINE
  5
FB0B
330
EC99
100
AcDbEntity
  8
0
100
AcDbLine
 10
18.01558317461144
 20
3.768148704748932
 30
0.0
 11
18.7539357269612
 21
3.768148704748932
 31
0.0
  0
LINE
  5
FB0C
330
EC99
100
AcDbEntity
  8
0
100
AcDbLine
 10
18.5039357269612
 20
3.185648514008931
 30
0.0
 11
18.5039357269612
 21
2.935648514008931
 31
0.0
  0
LINE
  5
FB0D
330
EC99
100
AcDbEntity
  8
0
100
AcDbLine
 10
18.5039357269612
 20
4.018148704748932
 30
0.0
 11
18.5039357269612
 21
4.268148704748932
 31
0.0
  0
MTEXT
  5
FB0E
330
EC99
100
AcDbEntity
  8
0
 62
   255
100
AcDbMText
 10
19.31523362449236
 20
3.60189860937893
 30
0.0
 40
0.28
 41
0.0
 71
     5
 72
     1
  1
\A1;5/16"\P [8]
  7
Arial
 11
0.0000000000000001
 21
1.0
 31
0.0
 73
     1
 44
1.0
1001
ACAD
1000
MTEXTBEGIN
1070
    73
1070
     1
1070
    44
1040
1.0
1070
    74
1070
     0
1000
MTEXTEND
  0
SOLID
  5
FB0F
330
EC99
100
AcDbEntity
  8
0
100
AcDbTrace
 10
18.46226906029453
 20
3.185648514008931
 30
0.0
 11
18.54560239362787
 21
3.185648514008931
 31
0.0
 12
18.5039357269612
 22
3.435648514008931
 32
0.0
 13
18.5039357269612
 23
3.435648514008931
 33
0.0
  0
SOLID
  5
FB10
330
EC99
100
AcDbEntity
  8
0
100
AcDbTrace
 10
18.46226906029453
 20
4.018148704748932
 30
0.0
 11
18.54560239362787
 21
4.018148704748932
 31
0.0
 12
18.5039357269612
 22
3.768148704748932
 32
0.0
 13
18.5039357269612
 23
3.768148704748932
 33
0.0
  0
POINT
  5
FB11
330
EC99
100
AcDbEntity
  8
Defpoints
 62
     0
100
AcDbPoint
 10
17.46558298387644
 20
3.435648514008931
 30
0.0
  0
POINT
  5
FB12
330
EC99
100
AcDbEntity
  8
Defpoints
 62
     0
100
AcDbPoint
 10
17.51558317461144
 20
3.768148704748932
 30
0.0
  0
POINT
  5
FB13
330
EC99
100
AcDbEntity
  8
Defpoints
 62
     0
100
AcDbPoint
 10
18.5039357269612
 20
3.768148704748932
 30
0.0
  0
ENDBLK
  5
ECA4
330
EC99
100
AcDbEntity
  8
0
100
AcDbBlockEnd
  0
BLOCK
  5
ED42
330
ED37
100
AcDbEntity
  8
0
100
AcDbBlockBegin
  2
*D19
 70
     1
 10
0.0
 20
0.0
 30
0.0
  3
*D19
  1

  0
LINE
  5
FAF6
330
ED37
100
AcDbEntity
  8
0
100
AcDbLine
 10
12.0
 20
6.405648689102774
 30
0.0
 11
11.50978629974012
 21
6.405648689102774
 31
0.0
  0
LINE
  5
FAF7
330
ED37
100
AcDbEntity
  8
0
100
AcDbLine
 10
12.00500010699034
 20
12.03627389175458
 30
0.0
 11
11.50978629974013
 21
12.03627389175458
 31
0.0
  0
LINE
  5
FAF8
330
ED37
100
AcDbEntity
  8
0
100
AcDbLine
 10
11.75978629974012
 20
6.655648689102774
 30
0.0
 11
11.75978629974012
 21
8.678266883880244
 31
0.0
  0
LINE
  5
FAF9
330
ED37
100
AcDbEntity
  8
0
100
AcDbLine
 10
11.75978629974012
 20
11.78627389175458
 30
0.0
 11
11.75978629974012
 21
9.873655696977106
 31
0.0
  0
MTEXT
  5
FAFA
330
ED37
100
AcDbEntity
  8
0
 62
   255
100
AcDbMText
 10
11.75978629974013
 20
9.275961290428677
 30
0.0
 40
0.28
 41
0.0
 71
     5
 72
     1
  1
\A1;5 5/8"\P [143]
  7
Arial
 11
0.0000000000000001
 21
1.0
 31
0.0
 73
     1
 44
1.0
1001
ACAD
1000
MTEXTBEGIN
1070
    73
1070
     1
1070
    44
1040
1.0
1070
    74
1070
     0
1000
MTEXTEND
  0
SOLID
  5
FAFB
330
ED37
100
AcDbEntity
  8
0
100
AcDbTrace
 10
11.71811963307346
 20
6.655648689102774
 30
0.0
 11
11.80145296640679
 21
6.655648689102774
 31
0.0
 12
11.75978629974012
 22
6.405648689102774
 32
0.0
 13
11.75978629974012
 23
6.405648689102774
 33
0.0
  0
SOLID
  5
FAFC
330
ED37
100
AcDbEntity
  8
0
100
AcDbTrace
 10
11.71811963307346
 20
11.78627389175458
 30
0.0
 11
11.80145296640679
 21
11.78627389175458
 31
0.0
 12
11.75978629974013
 22
12.03627389175458
 32
0.0
 13
11.75978629974013
 23
12.03627389175458
 33
0.0
  0
POINT
  5
FAFD
330
ED37
100
AcDbEntity
  8
Defpoints
 62
     0
100
AcDbPoint
 10
12.5
 20
6.405648689102774
 30
0.0
  0
POINT
  5
FAFE
330
ED37
100
AcDbEntity
  8
Defpoints
 62
     0
100
AcDbPoint
 10
12.50500010699034
 20
12.03627389175458
 30
0.0
  0
POINT
  5
FAFF
330
ED37
100
AcDbEntity
  8
Defpoints
 62
     0
100
AcDbPoint
 10
11.75978629974013
 20
12.03627389175458
 30
0.0
  0
ENDBLK
  5
ED43
330
ED37
100
AcDbEntity
  8
0
100
AcDbBlockEnd
  0
BLOCK
  5
EEDB
330
EED0
100
AcDbEntity
  8
0
100
AcDbBlockBegin
  2
*D20
 70
     1
 10
0.0
 20
0.0
 30
0.0
  3
*D20
  1

  0
LINE
  5
FAE2
330
EED0
100
AcDbEntity
  8
0
100
AcDbLine
 10
13.13504204681988
 20
4.268148704748932
 30
0.0
 11
13.13504204681988
 21
4.76814870474893
 31
0.0
  0
LINE
  5
FAE3
330
EED0
100
AcDbEntity
  8
0
100
AcDbLine
 10
17.51558317461144
 20
4.26814870474893
 30
0.0
 11
17.51558317461144
 21
4.76814870474893
 31
0.0
  0
LINE
  5
FAE4
330
EED0
100
AcDbEntity
  8
0
100
AcDbLine
 10
13.38504204681988
 20
4.51814870474893
 30
0.0
 11
13.84158819052467
 21
4.51814870474893
 31
0.0
  0
LINE
  5
FAE5
330
EED0
100
AcDbEntity
  8
0
100
AcDbLine
 10
17.26558317461144
 20
4.51814870474893
 30
0.0
 11
16.80903703090666
 21
4.51814870474893
 31
0.0
  0
MTEXT
  5
FAE6
330
EED0
100
AcDbEntity
  8
0
 62
   255
100
AcDbMText
 10
15.32531261071566
 20
4.51814870474893
 30
0.0
 40
0.28
 41
0.0
 71
     5
 72
     1
  1
\A1;SPCL. 5/8" - 12"\P[16 - 305]
  7
Arial
 73
     1
 44
1.0
1001
ACAD
1000
MTEXTBEGIN
1070
    73
1070
     1
1070
    44
1040
1.0
1070
    74
1070
     0
1000
MTEXTEND
  0
SOLID
  5
FAE7
330
EED0
100
AcDbEntity
  8
0
100
AcDbTrace
 10
13.38504204681988
 20
4.559815371415597
 30
0.0
 11
13.38504204681988
 21
4.476482038082263
 31
0.0
 12
13.13504204681988
 22
4.51814870474893
 32
0.0
 13
13.13504204681988
 23
4.51814870474893
 33
0.0
  0
SOLID
  5
FAE8
330
EED0
100
AcDbEntity
  8
0
100
AcDbTrace
 10
17.26558317461144
 20
4.559815371415597
 30
0.0
 11
17.26558317461144
 21
4.476482038082263
 31
0.0
 12
17.51558317461144
 22
4.51814870474893
 32
0.0
 13
17.51558317461144
 23
4.51814870474893
 33
0.0
  0
POINT
  5
FAE9
330
EED0
100
AcDbEntity
  8
Defpoints
 62
     0
100
AcDbPoint
 10
13.13504204681988
 20
3.768148704748932
 30
0.0
  0
POINT
  5
FAEA
330
EED0
100
AcDbEntity
  8
Defpoints
 62
     0
100
AcDbPoint
 10
17.51558317461144
 20
3.76814870474893
 30
0.0
  0
POINT
  5
FAEB
330
EED0
100
AcDbEntity
  8
Defpoints
 62
     0
100
AcDbPoint
 10
17.51558317461144
 20
4.51814870474893
 30
0.0
  0
ENDBLK
  5
EEDC
330
EED0
100
AcDbEntity
  8
0
100
AcDbBlockEnd
  0
BLOCK
  5
EFC3
330
EFC0
100
AcDbEntity
  8
0
100
AcDbBlockBegin
  2
A$C7ECA1300
 70
     0
 10
0.0
 20
0.0
 30
0.0
  3
A$C7ECA1300
  1

  0
POLYLINE
  5
EFC4
330
EFC0
100
AcDbEntity
  8
Pel_CS-Sealant
100
AcDb2dPolyline
 66
     1
 10
0.0
 20
0.0
 30
0.0
 70
     1
  0
VERTEX
  5
F891
330
EFC4
100
AcDbEntity
  8
Pel_CS-Sealant
100
AcDbVertex
100
AcDb2dVertex
 10
0.1838366640729165
 20
0.0121989615709275
 30
0.0
  0
VERTEX
  5
F892
330
EFC4
100
AcDbEntity
  8
Pel_CS-Sealant
100
AcDbVertex
100
AcDb2dVertex
 10
0.183836664072917
 20
0.0121989615709271
 30
0.0
  0
VERTEX
  5
F893
330
EFC4
100
AcDbEntity
  8
Pel_CS-Sealant
100
AcDbVertex
100
AcDb2dVertex
 10
0.1838366640729165
 20
0.0121989615709275
 30
0.0
 42
0.2545301681853901
  0
VERTEX
  5
F894
330
EFC4
100
AcDbEntity
  8
Pel_CS-Sealant
100
AcDbVertex
100
AcDb2dVertex
 10
0.1848314771197463
 20
0.0121647636603868
 30
0.0
 42
22835.65553356998
  0
VERTEX
  5
F895
330
EFC4
100
AcDbEntity
  8
Pel_CS-Sealant
100
AcDbVertex
100
AcDb2dVertex
 10
0.1848312642613408
 20
0.0121646839681393
 30
0.0
  0
VERTEX
  5
F896
330
EFC4
100
AcDbEntity
  8
Pel_CS-Sealant
100
AcDbVertex
100
AcDb2dVertex
 10
0.1848202749397418
 20
0.0121606151733471
 30
0.0
 42
0.0018528553254466
  0
VERTEX
  5
F897
330
EFC4
100
AcDbEntity
  8
Pel_CS-Sealant
100
AcDbVertex
100
AcDb2dVertex
 10
0.18483168884848
 20
0.0121648429630188
 30
0.0
 42
0.1999728703941393
  0
VERTEX
  5
F898
330
EFC4
100
AcDbEntity
  8
Pel_CS-Sealant
100
AcDbVertex
100
AcDb2dVertex
 10
0.1871187521605364
 20
0.0143090983760015
 30
0.0
 42
0.1043706925030499
  0
VERTEX
  5
F899
330
EFC4
100
AcDbEntity
  8
Pel_CS-Sealant
100
AcDbVertex
100
AcDb2dVertex
 10
0.1872633787956603
 20
0.0149717436747832
 30
0.0
 42
0.1900403229405103
  0
VERTEX
  5
F89A
330
EFC4
100
AcDbEntity
  8
Pel_CS-Sealant
100
AcDbVertex
100
AcDb2dVertex
 10
0.1871543510135902
 20
0.0152539269376089
 30
0.0
 42
0.0598982024751664
  0
VERTEX
  5
F89B
330
EFC4
100
AcDbEntity
  8
Pel_CS-Sealant
100
AcDbVertex
100
AcDb2dVertex
 10
0.1944126719379211
 20
0.0245796331322303
 30
0.0
 42
0.185238430128483
  0
VERTEX
  5
F89C
330
EFC4
100
AcDbEntity
  8
Pel_CS-Sealant
100
AcDbVertex
100
AcDb2dVertex
 10
0.1947055653485612
 20
0.0245413599447115
 30
0.0
 42
0.1136111462943658
  0
VERTEX
  5
F89D
330
EFC4
100
AcDbEntity
  8
Pel_CS-Sealant
100
AcDbVertex
100
AcDb2dVertex
 10
0.1953649330292437
 20
0.0248702139253601
 30
0.0
 42
0.1999728703941449
  0
VERTEX
  5
F89E
330
EFC4
100
AcDbEntity
  8
Pel_CS-Sealant
100
AcDbVertex
100
AcDb2dVertex
 10
0.1968325170062766
 20
0.0276405364949923
 30
0.0
 42
0.1043706925035314
  0
VERTEX
  5
F89F
330
EFC4
100
AcDbEntity
  8
Pel_CS-Sealant
100
AcDbVertex
100
AcDb2dVertex
 10
0.1967543118258641
 20
0.0283142572126085
 30
0.0
 42
0.1900403229387621
  0
VERTEX
  5
F8A0
330
EFC4
100
AcDbEntity
  8
Pel_CS-Sealant
100
AcDbVertex
100
AcDb2dVertex
 10
0.1965596234260083
 20
0.0285457974424648
 30
0.0
 42
0.0598982024751283
  0
VERTEX
  5
F8A1
330
EFC4
100
AcDbEntity
  8
Pel_CS-Sealant
100
AcDbVertex
100
AcDb2dVertex
 10
0.2003993544823204
 20
0.0397220438644084
 30
0.0
 42
0.1698324188596402
  0
VERTEX
  5
F8A2
330
EFC4
100
AcDbEntity
  8
Pel_CS-Sealant
100
AcDbVertex
100
AcDb2dVertex
 10
0.2006676569327643
 20
0.0397682772807859
 30
0.0
 42
0.0149361282788161
  0
VERTEX
  5
F8A3
330
EFC4
100
AcDbEntity
  8
Pel_CS-Sealant
100
AcDbVertex
100
AcDb2dVertex
 10
0.2006888198238359
 20
0.0397808758535039
 30
0.0
 42
0.1136111462940989
  0
VERTEX
  5
F8A4
330
EFC4
100
AcDbEntity
  8
Pel_CS-Sealant
100
AcDbVertex
100
AcDb2dVertex
 10
0.2012058110519388
 20
0.0403058813286932
 30
0.0
 42
0.1999728703939327
  0
VERTEX
  5
F8A5
330
EFC4
100
AcDbEntity
  8
Pel_CS-Sealant
100
AcDbVertex
100
AcDb2dVertex
 10
0.2016951135719065
 20
0.0434025041525761
 30
0.0
 42
0.1043706925038173
  0
VERTEX
  5
F8A6
330
EFC4
100
AcDbEntity
  8
Pel_CS-Sealant
100
AcDbVertex
100
AcDb2dVertex
 10
0.2014025388846217
 20
0.0440143993298339
 30
0.0
 42
0.1900403229413745
  0
VERTEX
  5
F8A7
330
EFC4
100
AcDbEntity
  8
Pel_CS-Sealant
100
AcDbVertex
100
AcDb2dVertex
 10
0.2011432564168385
 20
0.0441702423694062
 30
0.0
 42
0.0598982024751123
  0
VERTEX
  5
F8A8
330
EFC4
100
AcDbEntity
  8
Pel_CS-Sealant
100
AcDbVertex
100
AcDb2dVertex
 10
0.2011489137559241
 20
0.0559876865373834
 30
0.0
 42
0.1852384301206962
  0
VERTEX
  5
F8A9
330
EFC4
100
AcDbEntity
  8
Pel_CS-Sealant
100
AcDbVertex
100
AcDb2dVertex
 10
0.2014036289975403
 20
0.0561372576995964
 30
0.0
 42
0.1136111462946131
  0
VERTEX
  5
F8AA
330
EFC4
100
AcDbEntity
  8
Pel_CS-Sealant
100
AcDbVertex
100
AcDb2dVertex
 10
0.201722301962997
 20
0.0568016056656546
 30
0.0
 42
0.1999728703940734
  0
VERTEX
  5
F8AB
330
EFC4
100
AcDbEntity
  8
Pel_CS-Sealant
100
AcDbVertex
100
AcDb2dVertex
 10
0.2011803773139631
 20
0.0598894540337298
 30
0.0
 42
0.1043706925037914
  0
VERTEX
  5
F8AC
330
EFC4
100
AcDbEntity
  8
Pel_CS-Sealant
100
AcDbVertex
100
AcDb2dVertex
 10
0.2007050916019937
 20
0.0603733126366173
 30
0.0
 42
0.1900403229445729
  0
VERTEX
  5
F8AD
330
EFC4
100
AcDbEntity
  8
Pel_CS-Sealant
100
AcDbVertex
100
AcDb2dVertex
 10
0.2004092711140006
 20
0.0604365952564217
 30
0.0
 42
0.059898202475075
  0
VERTEX
  5
F8AE
330
EFC4
100
AcDbEntity
  8
Pel_CS-Sealant
100
AcDbVertex
100
AcDb2dVertex
 10
0.1965802425750156
 20
0.0716165129267901
 30
0.0
 42
0.185247646699428
  0
VERTEX
  5
F8AF
330
EFC4
100
AcDbEntity
  8
Pel_CS-Sealant
100
AcDbVertex
100
AcDb2dVertex
 10
0.1967726508159169
 20
0.0718406525310682
 30
0.0
 42
-0.0000089108071302
  0
VERTEX
  5
F8B0
330
EFC4
100
AcDbEntity
  8
Pel_CS-Sealant
100
AcDbVertex
100
AcDb2dVertex
 10
0.1967726458725498
 20
0.0718406386905306
 30
0.0
 42
0.1136111462942672
  0
VERTEX
  5
F8B1
330
EFC4
100
AcDbEntity
  8
Pel_CS-Sealant
100
AcDbVertex
100
AcDb2dVertex
 10
0.196858518089909
 20
0.0725724423808742
 30
0.0
 42
0.1999728703943333
  0
VERTEX
  5
F8B2
330
EFC4
100
AcDbEntity
  8
Pel_CS-Sealant
100
AcDbVertex
100
AcDb2dVertex
 10
0.1953440060400897
 20
0.0753173910362097
 30
0.0
 42
0.104370692503955
  0
VERTEX
  5
F8B3
330
EFC4
100
AcDbEntity
  8
Pel_CS-Sealant
100
AcDbVertex
100
AcDb2dVertex
 10
0.1947374383056699
 20
0.0756208564199907
 30
0.0
 42
0.1900403229481818
  0
VERTEX
  5
F8B4
330
EFC4
100
AcDbEntity
  8
Pel_CS-Sealant
100
AcDbVertex
100
AcDb2dVertex
 10
0.1944370894963798
 20
0.0755847310293745
 30
0.0
 42
0.0598982024750519
  0
VERTEX
  5
F8B5
330
EFC4
100
AcDbEntity
  8
Pel_CS-Sealant
100
AcDbVertex
100
AcDb2dVertex
 10
0.1871877008466249
 20
0.0849173824679128
 30
0.0
 42
0.1852384301184662
  0
VERTEX
  5
F8B6
330
EFC4
100
AcDbEntity
  8
Pel_CS-Sealant
100
AcDbVertex
100
AcDb2dVertex
 10
0.1872969729131575
 20
0.0851918109692651
 30
0.0
 42
0.1134119041427682
  0
VERTEX
  5
F8B7
330
EFC4
100
AcDbEntity
  8
Pel_CS-Sealant
100
AcDbVertex
100
AcDb2dVertex
 10
0.1871413022689432
 20
0.085910715061873
 30
0.0
 42
0.0001967076023026
  0
VERTEX
  5
F8B8
330
EFC4
100
AcDbEntity
  8
Pel_CS-Sealant
100
AcDbVertex
100
AcDb2dVertex
 10
0.1871407524505173
 20
0.0859118844696578
 30
0.0
 42
0.1999728703944659
  0
VERTEX
  5
F8B9
330
EFC4
100
AcDbEntity
  8
Pel_CS-Sealant
100
AcDbVertex
100
AcDb2dVertex
 10
0.184817533044348
 20
0.0880169121322521
 30
0.0
 42
0.104370692504522
  0
VERTEX
  5
F8BA
330
EFC4
100
AcDbEntity
  8
Pel_CS-Sealant
100
AcDbVertex
100
AcDb2dVertex
 10
0.1841453178575549
 20
0.088107147370613
 30
0.0
 42
0.1900403229490923
  0
VERTEX
  5
F8BB
330
EFC4
100
AcDbEntity
  8
Pel_CS-Sealant
100
AcDbVertex
100
AcDb2dVertex
 10
0.1838729404196764
 20
0.0879755229715671
 30
0.0
 42
0.0598982024750609
  0
VERTEX
  5
F8BC
330
EFC4
100
AcDbEntity
  8
Pel_CS-Sealant
100
AcDbVertex
100
AcDb2dVertex
 10
0.1739876226144559
 20
0.0944510546530788
 30
0.0
 42
0.1852384301161502
  0
VERTEX
  5
F8BD
330
EFC4
100
AcDbEntity
  8
Pel_CS-Sealant
100
AcDbVertex
100
AcDb2dVertex
 10
0.1740019395023724
 20
0.0947460909450797
 30
0.0
 42
0.1137892748252436
  0
VERTEX
  5
F8BE
330
EFC4
100
AcDbEntity
  8
Pel_CS-Sealant
100
AcDbVertex
100
AcDb2dVertex
 10
0.1736197256589085
 20
0.0953773464178389
 30
0.0
 42
-0.0001758551208815
  0
VERTEX
  5
F8BF
330
EFC4
100
AcDbEntity
  8
Pel_CS-Sealant
100
AcDbVertex
100
AcDb2dVertex
 10
0.1736205304288481
 20
0.0953765176240613
 30
0.0
 42
0.1999728703937932
  0
VERTEX
  5
F8C0
330
EFC4
100
AcDbEntity
  8
Pel_CS-Sealant
100
AcDbVertex
100
AcDb2dVertex
 10
0.1707399911013612
 20
0.0966138466232471
 30
0.0
 42
0.1043706925046969
  0
VERTEX
  5
F8C1
330
EFC4
100
AcDbEntity
  8
Pel_CS-Sealant
100
AcDbVertex
100
AcDb2dVertex
 10
0.1700748665131733
 20
0.0964810876770859
 30
0.0
 42
0.190040322950499
  0
VERTEX
  5
F8C2
330
EFC4
100
AcDbEntity
  8
Pel_CS-Sealant
100
AcDbVertex
100
AcDb2dVertex
 10
0.1698599334552742
 20
0.096268206884826
 30
0.0
 42
0.0598982024750448
  0
VERTEX
  5
F8C3
330
EFC4
100
AcDbEntity
  8
Pel_CS-Sealant
100
AcDbVertex
100
AcDb2dVertex
 10
0.1584083421116578
 20
0.0991859242061546
 30
0.0
 42
0.1852384301165082
  0
VERTEX
  5
F8C4
330
EFC4
100
AcDbEntity
  8
Pel_CS-Sealant
100
AcDbVertex
100
AcDb2dVertex
 10
0.1583261546406618
 20
0.0994696434449978
 30
0.0
 42
0.1119749030724504
  0
VERTEX
  5
F8C5
330
EFC4
100
AcDbEntity
  8
Pel_CS-Sealant
100
AcDbVertex
100
AcDb2dVertex
 10
0.1577702751853094
 20
0.0999373695969297
 30
0.0
 42
0.0011996321590736
  0
VERTEX
  5
F8C6
330
EFC4
100
AcDbEntity
  8
Pel_CS-Sealant
100
AcDbVertex
100
AcDb2dVertex
 10
0.1577632636554327
 20
0.099940967187135
 30
0.0
 42
0.0000523272616175
  0
VERTEX
  5
F8C7
330
EFC4
100
AcDbEntity
  8
Pel_CS-Sealant
100
AcDbVertex
100
AcDb2dVertex
 10
0.1577629574241435
 20
0.0999411233458787
 30
0.0
 42
0.0003637288422179
  0
VERTEX
  5
F8C8
330
EFC4
100
AcDbEntity
  8
Pel_CS-Sealant
100
AcDbVertex
100
AcDb2dVertex
 10
0.157760827896257
 20
0.0999422070396436
 30
0.0
 42
0.1999728703950895
  0
VERTEX
  5
F8C9
330
EFC4
100
AcDbEntity
  8
Pel_CS-Sealant
100
AcDbVertex
100
AcDb2dVertex
 10
0.1546346617191676
 20
0.1001779503380926
 30
0.0
 42
0.1043706925051727
  0
VERTEX
  5
F8CA
330
EFC4
100
AcDbEntity
  8
Pel_CS-Sealant
100
AcDbVertex
100
AcDb2dVertex
 10
0.1540485985317179
 20
0.0998365625879911
 30
0.0
 42
0.1900403229502479
  0
VERTEX
  5
F8CB
330
EFC4
100
AcDbEntity
  8
Pel_CS-Sealant
100
AcDbVertex
100
AcDb2dVertex
 10
0.1539143670072143
 20
0.0995654604874457
 30
0.0
 42
0.0598982024750522
  0
VERTEX
  5
F8CC
330
EFC4
100
AcDbEntity
  8
Pel_CS-Sealant
100
AcDbVertex
100
AcDb2dVertex
 10
0.1421356387160868
 20
0.0986096474763536
 30
0.0
 42
0.1852384301165843
  0
VERTEX
  5
F8CD
330
EFC4
100
AcDbEntity
  8
Pel_CS-Sealant
100
AcDbVertex
100
AcDb2dVertex
 10
0.1419658401045565
 20
0.0988513493969094
 30
0.0
 42
0.1153852603929479
  0
VERTEX
  5
F8CE
330
EFC4
100
AcDbEntity
  8
Pel_CS-Sealant
100
AcDbVertex
100
AcDb2dVertex
 10
0.1412663703371839
 20
0.0991164757643897
 30
0.0
 42
-0.0017511580727204
  0
VERTEX
  5
F8CF
330
EFC4
100
AcDbEntity
  8
Pel_CS-Sealant
100
AcDbVertex
100
AcDb2dVertex
 10
0.1412777677162373
 20
0.0991149154557771
 30
0.0
 42
0.1999728703941881
  0
VERTEX
  5
F8D0
330
EFC4
100
AcDbEntity
  8
Pel_CS-Sealant
100
AcDbVertex
100
AcDb2dVertex
 10
0.1382442461824178
 20
0.0983235640968237
 30
0.0
 42
0.1043706925050394
  0
VERTEX
  5
F8D1
330
EFC4
100
AcDbEntity
  8
Pel_CS-Sealant
100
AcDbVertex
100
AcDb2dVertex
 10
0.1378006602405812
 20
0.0978104879155342
 30
0.0
 42
0.1900403229524344
  0
VERTEX
  5
F8D2
330
EFC4
100
AcDbEntity
  8
Pel_CS-Sealant
100
AcDbVertex
100
AcDb2dVertex
 10
0.1377616549725995
 20
0.0975104995154883
 30
0.0
 42
0.059898202475073
  0
VERTEX
  5
F8D3
330
EFC4
100
AcDbEntity
  8
Pel_CS-Sealant
100
AcDbVertex
100
AcDb2dVertex
 10
0.1269303246681641
 20
0.0927845813502364
 30
0.0
 42
0.185238430120577
  0
VERTEX
  5
F8D4
330
EFC4
100
AcDbEntity
  8
Pel_CS-Sealant
100
AcDbVertex
100
AcDb2dVertex
 10
0.126691288229142
 20
0.0929581122342298
 30
0.0
 42
0.1160190068763989
  0
VERTEX
  5
F8D5
330
EFC4
100
AcDbEntity
  8
Pel_CS-Sealant
100
AcDbVertex
100
AcDb2dVertex
 10
0.1259396100678023
 20
0.0929811262635765
 30
0.0
 42
-0.0023765353415783
  0
VERTEX
  5
F8D6
330
EFC4
100
AcDbEntity
  8
Pel_CS-Sealant
100
AcDbVertex
100
AcDb2dVertex
 10
0.1259549241001405
 20
0.0929841611972049
 30
0.0
 42
0.1999728703944742
  0
VERTEX
  5
F8D7
330
EFC4
100
AcDbEntity
  8
Pel_CS-Sealant
100
AcDbVertex
100
AcDb2dVertex
 10
0.1233422939500528
 20
0.0912513445397529
 30
0.0
 42
0.1043706925058652
  0
VERTEX
  5
F8D8
330
EFC4
100
AcDbEntity
  8
Pel_CS-Sealant
100
AcDbVertex
100
AcDb2dVertex
 10
0.1230891841349644
 20
0.0906220981038359
 30
0.0
 42
0.1900403229494041
  0
VERTEX
  5
F8D9
330
EFC4
100
AcDbEntity
  8
Pel_CS-Sealant
100
AcDbVertex
100
AcDb2dVertex
 10
0.1231496257469411
 20
0.090325684098378
 30
0.0
 42
0.0598982024750779
  0
VERTEX
  5
F8DA
330
EFC4
100
AcDbEntity
  8
Pel_CS-Sealant
100
AcDbVertex
100
AcDb2dVertex
 10
0.1144377137454615
 20
0.0823410358314267
 30
0.0
 42
0.185238430132281
  0
VERTEX
  5
F8DB
330
EFC4
100
AcDbEntity
  8
Pel_CS-Sealant
100
AcDbVertex
100
AcDb2dVertex
 10
0.1141553047747892
 20
0.0824276185096782
 30
0.0
 42
0.1136819434978092
  0
VERTEX
  5
F8DC
330
EFC4
100
AcDbEntity
  8
Pel_CS-Sealant
100
AcDbVertex
100
AcDb2dVertex
 10
0.1134499301663046
 20
0.0822131029767945
 30
0.0
 42
-0.0000698944772916
  0
VERTEX
  5
F8DD
330
EFC4
100
AcDbEntity
  8
Pel_CS-Sealant
100
AcDbVertex
100
AcDb2dVertex
 10
0.1134503282884531
 20
0.082213331709704
 30
0.0
 42
0.1999728703947326
  0
VERTEX
  5
F8DE
330
EFC4
100
AcDbEntity
  8
Pel_CS-Sealant
100
AcDbVertex
100
AcDb2dVertex
 10
0.1115412930800845
 20
0.0797265517751864
 30
0.0
 42
0.1043706925054897
  0
VERTEX
  5
F8DF
330
EFC4
100
AcDbEntity
  8
Pel_CS-Sealant
100
AcDbVertex
100
AcDb2dVertex
 10
0.111506047518338
 20
0.0790492236375879
 30
0.0
 42
0.1900403229494112
  0
VERTEX
  5
F8E0
330
EFC4
100
AcDbEntity
  8
Pel_CS-Sealant
100
AcDbVertex
100
AcDb2dVertex
 10
0.111659395835134
 20
0.0787884579480776
 30
0.0
 42
0.0618388848732396
  0
VERTEX
  5
F8E1
330
EFC4
100
AcDbEntity
  8
Pel_CS-Sealant
100
AcDbVertex
100
AcDb2dVertex
 10
0.1058693800984756
 20
0.0680528331528931
 30
0.0
  0
VERTEX
  5
F8E2
330
EFC4
100
AcDbEntity
  8
Pel_CS-Sealant
100
AcDbVertex
100
AcDb2dVertex
 10
0.1153549500798343
 20
0.0634493790825856
 30
0.0
 42
-0.8390054548723272
  0
VERTEX
  5
F8E3
330
EFC4
100
AcDbEntity
  8
Pel_CS-Sealant
100
AcDbVertex
100
AcDb2dVertex
 10
0.1910000125903322
 20
0.0501024920447151
 30
0.0
 42
-1.0
  0
VERTEX
  5
F8E4
330
EFC4
100
AcDbEntity
  8
Pel_CS-Sealant
100
AcDbVertex
100
AcDb2dVertex
 10
0.1130000125903328
 20
0.0501024920447151
 30
0.0
 42
-0.0875443543145127
  0
VERTEX
  5
F8E5
330
EFC4
100
AcDbEntity
  8
Pel_CS-Sealant
100
AcDbVertex
100
AcDb2dVertex
 10
0.1153549500798343
 20
0.0634493790825856
 30
0.0
  0
VERTEX
  5
F8E6
330
EFC4
100
AcDbEntity
  8
Pel_CS-Sealant
100
AcDbVertex
100
AcDb2dVertex
 10
0.1058693800984756
 20
0.0680528331528931
 30
0.0
 42
0.0203378340687824
  0
VERTEX
  5
F8E7
330
EFC4
100
AcDbEntity
  8
Pel_CS-Sealant
100
AcDbVertex
100
AcDb2dVertex
 10
0.1045634276390976
 20
0.0642453491875701
 30
0.0
 42
-0.3316792665681554
  0
VERTEX
  5
F8E8
330
EFC4
100
AcDbEntity
  8
Pel_CS-Sealant
100
AcDbVertex
100
AcDb2dVertex
 10
0.0949802791640995
 20
0.0571024920447165
 30
0.0
  0
VERTEX
  5
F8E9
330
EFC4
100
AcDbEntity
  8
Pel_CS-Sealant
100
AcDbVertex
100
AcDb2dVertex
 10
0.0521036423011214
 20
0.0571024920447147
 30
0.0
  0
VERTEX
  5
F8EA
330
EFC4
100
AcDbEntity
  8
Pel_CS-Sealant
100
AcDbVertex
100
AcDb2dVertex
 10
0.0630372130239314
 20
0.0760399920447181
 30
0.0
 42
1.0
  0
VERTEX
  5
F8EB
330
EFC4
100
AcDbEntity
  8
Pel_CS-Sealant
100
AcDbVertex
100
AcDb2dVertex
 10
0.0554594907408177
 20
0.080414992044719
 30
0.0
  0
VERTEX
  5
F8EC
330
EFC4
100
AcDbEntity
  8
Pel_CS-Sealant
100
AcDbVertex
100
AcDb2dVertex
 10
0.0420000125903268
 20
0.0571024920447059
 30
0.0
  0
VERTEX
  5
F8ED
330
EFC4
100
AcDbEntity
  8
Pel_CS-Sealant
100
AcDbVertex
100
AcDb2dVertex
 10
0.0181036423011212
 20
0.0571024920447147
 30
0.0
  0
VERTEX
  5
F8EE
330
EFC4
100
AcDbEntity
  8
Pel_CS-Sealant
100
AcDbVertex
100
AcDb2dVertex
 10
0.0290372130239312
 20
0.0760399920447181
 30
0.0
 42
1.0
  0
VERTEX
  5
F8EF
330
EFC4
100
AcDbEntity
  8
Pel_CS-Sealant
100
AcDbVertex
100
AcDb2dVertex
 10
0.0214594907408179
 20
0.0804149920447195
 30
0.0
  0
VERTEX
  5
F8F0
330
EFC4
100
AcDbEntity
  8
Pel_CS-Sealant
100
AcDbVertex
100
AcDb2dVertex
 10
0.0080000125903261
 20
0.0571024920447059
 30
0.0
  0
VERTEX
  5
F8F1
330
EFC4
100
AcDbEntity
  8
Pel_CS-Sealant
100
AcDbVertex
100
AcDb2dVertex
 10
0.0070000125903031
 20
0.0571024920447147
 30
0.0
 42
1.0
  0
VERTEX
  5
F8F2
330
EFC4
100
AcDbEntity
  8
Pel_CS-Sealant
100
AcDbVertex
100
AcDb2dVertex
 10
0.0070000125903178
 20
0.0431024920447136
 30
0.0
  0
VERTEX
  5
F8F3
330
EFC4
100
AcDbEntity
  8
Pel_CS-Sealant
100
AcDbVertex
100
AcDb2dVertex
 10
0.0080000125903945
 20
0.0431024920447136
 30
0.0
  0
VERTEX
  5
F8F4
330
EFC4
100
AcDbEntity
  8
Pel_CS-Sealant
100
AcDbVertex
100
AcDb2dVertex
 10
0.0214594907408206
 20
0.0197899920447053
 30
0.0
 42
1.0
  0
VERTEX
  5
F8F5
330
EFC4
100
AcDbEntity
  8
Pel_CS-Sealant
100
AcDbVertex
100
AcDb2dVertex
 10
0.0290372130239351
 20
0.0241649920447067
 30
0.0
  0
VERTEX
  5
F8F6
330
EFC4
100
AcDbEntity
  8
Pel_CS-Sealant
100
AcDbVertex
100
AcDb2dVertex
 10
0.0181036423011474
 20
0.043102492044719
 30
0.0
  0
VERTEX
  5
F8F7
330
EFC4
100
AcDbEntity
  8
Pel_CS-Sealant
100
AcDbVertex
100
AcDb2dVertex
 10
0.0420000125903926
 20
0.0431024920447154
 30
0.0
  0
VERTEX
  5
F8F8
330
EFC4
100
AcDbEntity
  8
Pel_CS-Sealant
100
AcDbVertex
100
AcDb2dVertex
 10
0.0554594907408204
 20
0.0197899920447053
 30
0.0
 42
1.0
  0
VERTEX
  5
F8F9
330
EFC4
100
AcDbEntity
  8
Pel_CS-Sealant
100
AcDbVertex
100
AcDb2dVertex
 10
0.0630372130239341
 20
0.0241649920447062
 30
0.0
  0
VERTEX
  5
F8FA
330
EFC4
100
AcDbEntity
  8
Pel_CS-Sealant
100
AcDbVertex
100
AcDb2dVertex
 10
0.0521036423011472
 20
0.0431024920447194
 30
0.0
  0
VERTEX
  5
F8FB
330
EFC4
100
AcDbEntity
  8
Pel_CS-Sealant
100
AcDbVertex
100
AcDb2dVertex
 10
0.0949802791641488
 20
0.0431024920447154
 30
0.0
 42
-0.3316792665668195
  0
VERTEX
  5
F8FC
330
EFC4
100
AcDbEntity
  8
Pel_CS-Sealant
100
AcDbVertex
100
AcDb2dVertex
 10
0.1045634276390879
 20
0.0359596349018503
 30
0.0
 42
0.0820392205546883
  0
VERTEX
  5
F8FD
330
EFC4
100
AcDbEntity
  8
Pel_CS-Sealant
100
AcDbVertex
100
AcDb2dVertex
 10
0.1116319487930975
 20
0.0214551636306664
 30
0.0
 42
0.1852384301259895
  0
VERTEX
  5
F8FE
330
EFC4
100
AcDbEntity
  8
Pel_CS-Sealant
100
AcDbVertex
100
AcDb2dVertex
 10
0.1114796170769168
 20
0.0212020896590293
 30
0.0
 42
0.1139421769273033
  0
VERTEX
  5
F8FF
330
EFC4
100
AcDbEntity
  8
Pel_CS-Sealant
100
AcDbVertex
100
AcDb2dVertex
 10
0.1115175778268491
 20
0.0204641487175725
 30
0.0
 42
-0.0003268001708575
  0
VERTEX
  5
F900
330
EFC4
100
AcDbEntity
  8
Pel_CS-Sealant
100
AcDbVertex
100
AcDb2dVertex
 10
0.1115169893951791
 20
0.0204662133183642
 30
0.0
 42
0.1999728703957734
  0
VERTEX
  5
F901
330
EFC4
100
AcDbEntity
  8
Pel_CS-Sealant
100
AcDbVertex
100
AcDb2dVertex
 10
0.1134680639214705
 20
0.0180122780986682
 30
0.0
 42
0.1043706925047375
  0
VERTEX
  5
F902
330
EFC4
100
AcDbEntity
  8
Pel_CS-Sealant
100
AcDbVertex
100
AcDb2dVertex
 10
0.1141167458455565
 20
0.017814218973752
 30
0.0
 42
0.1900403229399057
  0
VERTEX
  5
F903
330
EFC4
100
AcDbEntity
  8
Pel_CS-Sealant
100
AcDbVertex
100
AcDb2dVertex
 10
0.1144068639951206
 20
0.0178999272602538
 30
0.0
 42
0.0598982024752143
  0
VERTEX
  5
F904
330
EFC4
100
AcDbEntity
  8
Pel_CS-Sealant
100
AcDbVertex
100
AcDb2dVertex
 10
0.1231111270589311
 20
0.0099069413860606
 30
0.0
 42
0.1931120878225252
  0
VERTEX
  5
F905
330
EFC4
100
AcDbEntity
  8
Pel_CS-Sealant
100
AcDbVertex
100
AcDb2dVertex
 10
0.123051274136456
 20
0.0096057768060156
 30
0.0
 42
-0.0076017302674622
  0
VERTEX
  5
F906
330
EFC4
100
AcDbEntity
  8
Pel_CS-Sealant
100
AcDbVertex
100
AcDb2dVertex
 10
0.1230491513315695
 20
0.0096181328056804
 30
0.0
 42
0.1136111462971106
  0
VERTEX
  5
F907
330
EFC4
100
AcDbEntity
  8
Pel_CS-Sealant
100
AcDbVertex
100
AcDb2dVertex
 10
0.1233232698438487
 20
0.0089341958786418
 30
0.0
 42
0.199972870395239
  0
VERTEX
  5
F908
330
EFC4
100
AcDbEntity
  8
Pel_CS-Sealant
100
AcDbVertex
100
AcDb2dVertex
 10
0.1259650077966912
 20
0.0072460873341238
 30
0.0
 42
0.1043706925044854
  0
VERTEX
  5
F909
330
EFC4
100
AcDbEntity
  8
Pel_CS-Sealant
100
AcDbVertex
100
AcDb2dVertex
 10
0.1266428577245371
 20
0.0072692202309366
 30
0.0
 42
0.190040322938345
  0
VERTEX
  5
F90A
330
EFC4
100
AcDbEntity
  8
Pel_CS-Sealant
100
AcDbVertex
100
AcDb2dVertex
 10
0.1268894699627858
 20
0.0074444254107306
 30
0.0
 42
0.0598982024752125
  0
VERTEX
  5
F90B
330
EFC4
100
AcDbEntity
  8
Pel_CS-Sealant
100
AcDbVertex
100
AcDb2dVertex
 10
0.1377162704467869
 20
0.0027081388960966
 30
0.0
 42
0.1852384301364579
  0
VERTEX
  5
F90C
330
EFC4
100
AcDbEntity
  8
Pel_CS-Sealant
100
AcDbVertex
100
AcDb2dVertex
 10
0.1377513568846904
 20
0.0024148466719289
 30
0.0
 42
0.1150884726535216
  0
VERTEX
  5
F90D
330
EFC4
100
AcDbEntity
  8
Pel_CS-Sealant
100
AcDbVertex
100
AcDb2dVertex
 10
0.138240300830045
 20
0.0018512119140697
 30
0.0
 42
-0.0014582591355369
  0
VERTEX
  5
F90E
330
EFC4
100
AcDbEntity
  8
Pel_CS-Sealant
100
AcDbVertex
100
AcDb2dVertex
 10
0.1382325601868035
 20
0.0018568555779623
 30
0.0
 42
0.1999728703957628
  0
VERTEX
  5
F90F
330
EFC4
100
AcDbEntity
  8
Pel_CS-Sealant
100
AcDbVertex
100
AcDb2dVertex
 10
0.141279108354833
 20
0.001117238021731
 30
0.0
 42
0.1043706925041278
  0
VERTEX
  5
F910
330
EFC4
100
AcDbEntity
  8
Pel_CS-Sealant
100
AcDbVertex
100
AcDb2dVertex
 10
0.1419127785198699
 20
0.0013590598105253
 30
0.0
 42
0.1900403229378882
  0
VERTEX
  5
F911
330
EFC4
100
AcDbEntity
  8
Pel_CS-Sealant
100
AcDbVertex
100
AcDb2dVertex
 10
0.142089199800246
 20
0.0016048035447493
 30
0.0
 42
0.0598982024752092
  0
VERTEX
  5
F912
330
EFC4
100
AcDbEntity
  8
Pel_CS-Sealant
100
AcDbVertex
100
AcDb2dVertex
 10
0.1538670075441835
 20
0.0006377133649105
 30
0.0
 42
0.1852384301360067
  0
VERTEX
  5
F913
330
EFC4
100
AcDbEntity
  8
Pel_CS-Sealant
100
AcDbVertex
100
AcDb2dVertex
 10
0.1539953595667725
 20
0.0003716736213026
 30
0.0
 42
0.1116584064605623
  0
VERTEX
  5
F914
330
EFC4
100
AcDbEntity
  8
Pel_CS-Sealant
100
AcDbVertex
100
AcDb2dVertex
 10
0.1546195007479074
 20
0.0000038263394577
 30
0.0
 42
0.0019282783900223
  0
VERTEX
  5
F915
330
EFC4
100
AcDbEntity
  8
Pel_CS-Sealant
100
AcDbVertex
100
AcDb2dVertex
 10
0.1546315783348193
 20
0.0000000066223516
 30
0.0
 42
0.1999728703947489
  0
VERTEX
  5
F916
330
EFC4
100
AcDbEntity
  8
Pel_CS-Sealant
100
AcDbVertex
100
AcDb2dVertex
 10
0.1577532804110744
 20
0.0002889114797164
 30
0.0
 42
0.1043706925034927
  0
VERTEX
  5
F917
330
EFC4
100
AcDbEntity
  8
Pel_CS-Sealant
100
AcDbVertex
100
AcDb2dVertex
 10
0.1582742035841296
 20
0.0007232554716889
 30
0.0
 42
0.1900403229358347
  0
VERTEX
  5
F918
330
EFC4
100
AcDbEntity
  8
Pel_CS-Sealant
100
AcDbVertex
100
AcDb2dVertex
 10
0.1583613439777909
 20
0.00101294669156
 30
0.0
 42
0.0598982024752058
  0
VERTEX
  5
F919
330
EFC4
100
AcDbEntity
  8
Pel_CS-Sealant
100
AcDbVertex
100
AcDb2dVertex
 10
0.1698157236566473
 20
0.0039196982877092
 30
0.0
 42
0.1852384301331623
  0
VERTEX
  5
F91A
330
EFC4
100
AcDbEntity
  8
Pel_CS-Sealant
100
AcDbVertex
100
AcDb2dVertex
 10
0.1700234527410984
 20
0.0037096982535356
 30
0.0
 42
0.1130984950529283
  0
VERTEX
  5
F91B
330
EFC4
100
AcDbEntity
  8
Pel_CS-Sealant
100
AcDbVertex
100
AcDb2dVertex
 10
0.170742520192432
 20
0.0035644824294971
 30
0.0
 42
0.0005061476247179
  0
VERTEX
  5
F91C
330
EFC4
100
AcDbEntity
  8
Pel_CS-Sealant
100
AcDbVertex
100
AcDb2dVertex
 10
0.1707458439704865
 20
0.0035645721338229
 30
0.0
 42
0.1999728703945293
  0
VERTEX
  5
F91D
330
EFC4
100
AcDbEntity
  8
Pel_CS-Sealant
100
AcDbVertex
100
AcDb2dVertex
 10
0.1736049115068554
 20
0.0048507380220268
 30
0.0
 42
0.1043706925031875
  0
VERTEX
  5
F91E
330
EFC4
100
AcDbEntity
  8
Pel_CS-Sealant
100
AcDbVertex
100
AcDb2dVertex
 10
0.1739567204158714
 20
0.0054306053750679
 30
0.0
 42
0.1900403229358723
  0
VERTEX
  5
F91F
330
EFC4
100
AcDbEntity
  8
Pel_CS-Sealant
100
AcDbVertex
100
AcDb2dVertex
 10
0.1739451507660243
 20
0.0057328976083131
 30
0.0
 42
0.0598982024751873
  0
SEQEND
  5
F920
330
EFC4
100
AcDbEntity
  8
Pel_CS-Sealant
  0
ENDBLK
  5
F055
330
EFC0
100
AcDbEntity
  8
0
100
AcDbBlockEnd
  0
BLOCK
  5
F986
330
F985
100
AcDbEntity
  8
0
100
AcDbBlockBegin
  2
1AAF
 70
     0
 10
0.0
 20
0.0
 30
0.0
  3
1AAF
  1

  0
POLYLINE
  5
F988
330
F985
100
AcDbEntity
  8
Pel_CS-Sealant
100
AcDb2dPolyline
 66
     1
 10
0.0
 20
0.0
 30
0.0
 70
     1
  0
VERTEX
  5
F989
330
F988
100
AcDbEntity
  8
Pel_CS-Sealant
100
AcDbVertex
100
AcDb2dVertex
 10
0.209093128718834
 20
-0.1825305536029482
 30
0.0
  0
VERTEX
  5
F98A
330
F988
100
AcDbEntity
  8
Pel_CS-Sealant
100
AcDbVertex
100
AcDb2dVertex
 10
0.1870323396857714
 20
-0.1812608543776992
 30
0.0
  0
VERTEX
  5
F98B
330
F988
100
AcDbEntity
  8
Pel_CS-Sealant
100
AcDbVertex
100
AcDb2dVertex
 10
0.1901926111151155
 20
-0.126351723220008
 30
0.0
  0
VERTEX
  5
F98C
330
F988
100
AcDbEntity
  8
Pel_CS-Sealant
100
AcDbVertex
100
AcDb2dVertex
 10
0.2530885249866586
 20
-0.1299716704936209
 30
0.0
 42
0.4504450001060904
  0
VERTEX
  5
F98D
330
F988
100
AcDbEntity
  8
Pel_CS-Sealant
100
AcDbVertex
100
AcDb2dVertex
 10
0.3185216568390103
 20
-0.0640711800689502
 30
0.0
 42
0.1174596874002468
  0
VERTEX
  5
F98E
330
F988
100
AcDbEntity
  8
Pel_CS-Sealant
100
AcDbVertex
100
AcDb2dVertex
 10
0.3100726965706144
 20
-0.0366078733405146
 30
0.0
 42
0.0457291536066986
  0
VERTEX
  5
F98F
330
F988
100
AcDbEntity
  8
Pel_CS-Sealant
100
AcDbVertex
100
AcDb2dVertex
 10
0.291212238302883
 20
-0.0103948568758892
 30
0.0
  0
VERTEX
  5
F990
330
F988
100
AcDbEntity
  8
Pel_CS-Sealant
100
AcDbVertex
100
AcDb2dVertex
 10
0.27939041252435
 20
-0.0234932913978767
 30
0.0
 42
-0.0423691587589085
  0
VERTEX
  5
F991
330
F988
100
AcDbEntity
  8
Pel_CS-Sealant
100
AcDbVertex
100
AcDb2dVertex
 10
0.2949939972230808
 20
-0.0454894737586003
 30
0.0
 42
-0.1110098449504076
  0
VERTEX
  5
F992
330
F988
100
AcDbEntity
  8
Pel_CS-Sealant
100
AcDbVertex
100
AcDb2dVertex
 10
0.3009706088553017
 20
-0.0640711800689502
 30
0.0
 42
-0.4581256618630543
  0
VERTEX
  5
F993
330
F988
100
AcDbEntity
  8
Pel_CS-Sealant
100
AcDbVertex
100
AcDb2dVertex
 10
0.2540940658959911
 20
-0.112500583307078
 30
0.0
  0
VERTEX
  5
F994
330
F988
100
AcDbEntity
  8
Pel_CS-Sealant
100
AcDbVertex
100
AcDb2dVertex
 10
0.063409628602912
 20
-0.1015258225251721
 30
0.0
 42
-0.3526083754148207
  0
VERTEX
  5
F995
330
F988
100
AcDbEntity
  8
Pel_CS-Sealant
100
AcDbVertex
100
AcDb2dVertex
 10
0.0220161090800559
 20
-0.0640711800689502
 30
0.0
 42
-0.2039088080535084
  0
VERTEX
  5
F996
330
F988
100
AcDbEntity
  8
Pel_CS-Sealant
100
AcDbVertex
100
AcDb2dVertex
 10
0.0304678910916607
 20
-0.0302647874836168
 30
0.0
 42
-0.4807838181829646
  0
VERTEX
  5
F997
330
F988
100
AcDbEntity
  8
Pel_CS-Sealant
100
AcDbVertex
100
AcDb2dVertex
 10
0.27939041252435
 20
-0.0234932913978767
 30
0.0
  0
VERTEX
  5
F998
330
F988
100
AcDbEntity
  8
Pel_CS-Sealant
100
AcDbVertex
100
AcDb2dVertex
 10
0.291212238302883
 20
-0.0103948568758892
 30
0.0
 42
0.4766617756672195
  0
VERTEX
  5
F999
330
F988
100
AcDbEntity
  8
Pel_CS-Sealant
100
AcDbVertex
100
AcDb2dVertex
 10
0.0165077383397261
 20
-0.0197118667911056
 30
0.0
 42
0.1923129885873467
  0
VERTEX
  5
F99A
330
F988
100
AcDbEntity
  8
Pel_CS-Sealant
100
AcDbVertex
100
AcDb2dVertex
 10
0.0043598104575011
 20
-0.0640711800689502
 30
0.0
 42
0.3652035533778184
  0
VERTEX
  5
F99B
330
F988
100
AcDbEntity
  8
Pel_CS-Sealant
100
AcDbVertex
100
AcDb2dVertex
 10
0.0624040876935652
 20
-0.1189969097117078
 30
0.0
  0
VERTEX
  5
F99C
330
F988
100
AcDbEntity
  8
Pel_CS-Sealant
100
AcDbVertex
100
AcDb2dVertex
 10
0.1253000015651153
 20
-0.1226168569853279
 30
0.0
  0
VERTEX
  5
F99D
330
F988
100
AcDbEntity
  8
Pel_CS-Sealant
100
AcDbVertex
100
AcDb2dVertex
 10
0.1221397301357712
 20
-0.1775259881430209
 30
0.0
  0
VERTEX
  5
F99E
330
F988
100
AcDbEntity
  8
Pel_CS-Sealant
100
AcDbVertex
100
AcDb2dVertex
 10
0.1000789411027014
 20
-0.1762562889177666
 30
0.0
 42
0.7732568707859083
  0
VERTEX
  5
F99F
330
F988
100
AcDbEntity
  8
Pel_CS-Sealant
100
AcDbVertex
100
AcDb2dVertex
 10
0.0924161392234737
 20
-0.2000268290228568
 30
0.0
 42
0.1278681409478634
  0
VERTEX
  5
F9A0
330
F988
100
AcDbEntity
  8
Pel_CS-Sealant
100
AcDbVertex
100
AcDb2dVertex
 10
0.1522876556894275
 20
-0.2193273348295825
 30
0.0
 42
0.1278681409478644
  0
VERTEX
  5
F9A1
330
F988
100
AcDbEntity
  8
Pel_CS-Sealant
100
AcDbVertex
100
AcDb2dVertex
 10
0.213978159119975
 20
-0.2070232787985624
 30
0.0
 42
0.7732568707859351
  0
SEQEND
  5
F9A2
330
F988
100
AcDbEntity
  8
Pel_CS-Sealant
  0
LWPOLYLINE
  5
F9A3
330
F985
100
AcDbEntity
  8
Pel_Clad
100
AcDbPolyline
 90
       88
 70
     1
 43
0.0
 10
1.443908120266819
 20
-0.0649999999999942
 42
0.4142135623730256
 10
1.428908120266818
 20
-0.0499999999999972
 10
1.246908120266816
 20
-0.0499999999999972
 42
0.4142135623731298
 10
1.231908120266815
 20
-0.0649999999999942
 10
1.231908120266815
 20
-0.0979999999999883
 42
-0.431152153868636
 10
1.146254501616098
 20
-0.1788662094663245
 10
0.4563198577714403
 20
-0.1391624475667825
 42
0.1989123673796542
 10
0.4454783654699171
 20
-0.1429392177665711
 10
0.3966864492408959
 20
-0.1864210444791183
 42
-0.198912367379685
 10
0.3858449569393656
 20
-0.1901978146789069
 10
0.330439149376744
 20
-0.1870093692066454
 42
0.4142135623730951
 10
0.3146021441698821
 20
-0.201122811950281
 10
0.3119307674365928
 20
-0.2475434851277605
 42
-0.1989123673796429
 10
0.306935254531254
 20
-0.257880157671611
 10
0.2356660648698678
 20
-0.3213930260790327
 42
-0.1989123673796638
 10
0.2248245725683446
 20
-0.3251697962788249
 10
0.0720823303123908
 20
-0.31637991788579
 42
-0.1989123673796434
 10
0.0617456577685474
 20
-0.3113844049804548
 10
-0.0017672106388815
 20
-0.2401152153190686
 42
-0.19891236737964
 10
-0.0055439808386737
 20
-0.229273723017549
 10
0.0
 20
-0.132935636589238
 42
-0.4142135623730951
 10
0.0158370052068548
 20
-0.118822193845606
 10
0.1106800903834326
 20
-0.1242801416458334
 10
0.1078074862780554
 20
-0.1741975548966579
 10
0.0628818143523091
 20
-0.1716122112018041
 42
0.4142135623730951
 10
0.0470448091454401
 20
-0.1857256539454504
 10
0.0455633039919334
 20
-0.2114698575558513
 42
0.1989123673796474
 10
0.0493400741917185
 20
-0.2223113498573745
 10
0.085294731440996
 20
-0.262656863309406
 42
0.1989123673796704
 10
0.0956314039848394
 20
-0.2676523762147447
 10
0.2070207071066505
 20
-0.2740625114482249
 42
0.1989123673796949
 10
0.2178621994081737
 20
-0.2702857412484327
 10
0.2582077128602052
 20
-0.2343310839991517
 42
0.1989123673796314
 10
0.2632032257655368
 20
-0.2239944114553083
 10
0.2646847309190505
 20
-0.1982502078449002
 42
0.4142135623731298
 10
0.250571288175415
 20
-0.1824132026380383
 10
0.2016522231896047
 20
-0.179598050614775
 10
0.204524827294982
 20
-0.129680637363947
 10
0.3680410914776644
 20
-0.1390905298483069
 42
0.1989123673796677
 10
0.3788825837791947
 20
-0.1353137596485183
 10
0.4304957925634341
 20
-0.0893176854238256
 42
-0.0806115716705377
 10
0.4345491804422111
 20
-0.0867364914013855
 10
0.4733960236824331
 20
-0.070029319246224
 10
0.4722469820402822
 20
-0.0899962845465545
 10
1.11518326471068
 20
-0.126995425423825
 42
-0.2360679774961212
 10
1.126818731397655
 20
-0.1336749399993486
 42
0.2360679774961452
 10
1.138454198085092
 20
-0.1403544545745703
 10
1.14912710572149
 20
-0.1409686498282063
 42
0.4311521538686494
 10
1.181908120266818
 20
-0.1100198536126911
 10
1.181908120266818
 20
-0.0649999999999977
 42
0.4142135623730951
 10
1.166908120266818
 20
-0.0499999999999972
 10
0.4199081202668183
 20
-0.0499999999999972
 42
-0.1989123673796864
 10
0.4093015185490217
 20
-0.0456066017177932
 10
0.3893015185490185
 20
-0.0256066017177936
 42
-0.6681786379192988
 10
0.3999081202668151
 20
0.0
 10
1.652908120266808
 20
0.0000000000000036
 42
-0.4552705198923025
 10
1.667765276033847
 20
-0.0170651688827022
 10
1.625925785121737
 20
-0.3180651688827005
 42
-0.664836192094557
 10
1.59918698603095
 20
-0.3251556841321133
 10
1.572216899832227
 20
-0.2901556841321131
 42
-0.1656247243532414
 10
1.569098543155973
 20
-0.2809999999999952
 10
1.569098543155973
 20
-0.2402464414897203
 10
1.58890808417869
 20
-0.242999999999995
 10
1.606461930371679
 20
-0.1167148184907276
 42
-0.2947443992373105
 10
1.617084929589125
 20
-0.1043899936870041
 42
0.3326743508035612
 10
1.627850773037486
 20
-0.0899999999999963
 10
1.627850773037486
 20
-0.0649999999999942
 42
0.4142135623730951
 10
1.612850773037486
 20
-0.0499999999999936
 10
1.508908120266816
 20
-0.0499999999999972
 42
0.4142135623730605
 10
1.493908120266816
 20
-0.0649999999999942
 10
1.493908120266816
 20
-0.1457867965643977
 42
-0.1989123673796608
 10
1.489514721984612
 20
-0.1563933982821943
 10
1.404301518549019
 20
-0.2416066017177947
 42
0.198912367379646
 10
1.399908120266815
 20
-0.2522132034355913
 10
1.399908120266815
 20
-0.3757867965643946
 42
0.1989123673796676
 10
1.404301518549019
 20
-0.3863933982821912
 10
1.489514721984612
 20
-0.4716066017177952
 42
-0.1989123673796563
 10
1.493908120266816
 20
-0.4822132034355917
 10
1.493908120266816
 20
-0.5529999999999973
 42
-1.0
 10
1.443908120266812
 20
-0.5529999999999973
 10
1.443908120266819
 20
-0.5029238815542456
 42
0.1989123673796766
 10
1.439514721984615
 20
-0.4923172798364455
 10
1.354301518549014
 20
-0.4071040764008558
 42
-0.1989123673796656
 10
1.34990812026681
 20
-0.3964974746830556
 10
1.349908120266817
 20
-0.2315025253169409
 42
-0.1989123673796503
 10
1.354301518549021
 20
-0.2208959235991443
 10
1.439514721984615
 20
-0.135682720163544
 42
0.198912367379658
 10
1.443908120266819
 20
-0.1250761184457474
  0
ENDBLK
  5
F987
330
F985
100
AcDbEntity
  8
0
100
AcDbBlockEnd
  0
BLOCK
  5
F9B0
330
F9AF
100
AcDbEntity
  8
0
100
AcDbBlockBegin
  2
72HF
 70
     0
 10
0.0
 20
0.0
 30
0.0
  3
72HF
  1

  0
LWPOLYLINE
  5
F9B2
330
F9AF
100
AcDbEntity
  8
Pel_Clad
100
AcDbPolyline
 90
       34
 70
     1
 43
0.0
 10
-0.0424264068711899
 20
-0.0000000000000027
 42
0.3178372451957755
 10
-0.0282842712474611
 20
0.0099999999999989
 42
-0.7071067811865119
 10
0.0282842712474647
 20
0.0100000000000007
 42
0.317837245195808
 10
0.042426406871197
 20
-0.0000000000000009
 10
0.98500000000001
 20
0.0000000000000204
 42
1.0
 10
0.98500000000001
 20
0.030000000000018
 10
0.7600000000000087
 20
0.030000000000018
 10
0.7500000000000107
 20
0.02000000000002
 10
0.7400000000000056
 20
0.030000000000018
 10
0.5629999999999989
 20
0.0300000000000109
 10
0.5430000000000029
 20
0.0500000000000105
 10
0.091457513110651
 20
0.0499999999999998
 42
-0.6457513110645618
 10
0.0250000000000092
 20
0.080000000000001
 10
0.0250000000000021
 20
0.1100000000000021
 42
-0.4142135623731125
 10
0.0550000000000033
 20
0.1399999999999997
 10
0.4399999999998805
 20
0.1400000000000068
 42
1.0
 10
0.5000000000000036
 20
0.1400000000000086
 10
0.5000000000000036
 20
0.1650000000000107
 42
0.4142135623730951
 10
0.485000000000003
 20
0.1800000000000112
 10
-0.4849999999999995
 20
0.1799999999999917
 42
0.4142135623730951
 10
-0.4999999999999965
 20
0.1649999999999911
 10
-0.4999999999999965
 20
0.139999999999989
 42
1.0
 10
-0.4400000000000013
 20
0.1399999999999908
 10
-0.0549999999999962
 20
0.1399999999999979
 42
-0.4142135623731125
 10
-0.0249999999999986
 20
0.1100000000000003
 10
-0.024999999999995
 20
0.0799999999999992
 42
-0.6457513110645855
 10
-0.0914575131106439
 20
0.0499999999999963
 10
-0.5429999999999957
 20
0.0499999999999892
 10
-0.5629999999999918
 20
0.0299999999999896
 10
-0.740000000000002
 20
0.0299999999999896
 10
-0.7500000000000071
 20
0.0199999999999916
 10
-0.7600000000000052
 20
0.0299999999999896
 10
-0.9850000000000029
 20
0.0299999999999807
 42
1.0
 10
-0.9850000000000065
 20
-0.0000000000000204
  0
ENDBLK
  5
F9B1
330
F9AF
100
AcDbEntity
  8
0
100
AcDbBlockEnd
  0
ENDSEC
  0
SECTION
  2
ENTITIES
  0
INSERT
  5
E21E
330
1F
100
AcDbEntity
  8
0
100
AcDbBlockReference
  2
0a6m
 10
8.874386745437965
 20
13.93951053011371
 30
0.0
 50
90.0
  0
INSERT
  5
E22A
330
1F
100
AcDbEntity
  8
0
100
AcDbBlockReference
  2
0a6n
 10
9.124363049326877
 20
12.43951053011371
 30
0.0
 50
90.0
  0
INSERT
  5
E235
330
1F
100
AcDbEntity
  8
0
100
AcDbBlockReference
  2
0a6p
 10
9.374363049326877
 20
10.93951053011371
 30
0.0
 50
90.0
  0
INSERT
  5
E2AD
330
1F
100
AcDbEntity
  8
0
100
AcDbBlockReference
  2
0a6u
 10
10.12436304932688
 20
6.439510530113713
 30
0.0
 50
90.0
  0
INSERT
  5
E2B8
330
1F
100
AcDbEntity
  8
0
100
AcDbBlockReference
  2
0a6v
 10
10.37436304932688
 20
4.939510530113713
 30
0.0
 50
90.0
  0
INSERT
  5
E2C3
330
1F
100
AcDbEntity
  8
0
100
AcDbBlockReference
  2
0a6w
 10
10.62436304932687
 20
3.439510530113713
 30
0.0
 50
90.0
  0
MTEXT
  5
E329
330
1F
100
AcDbEntity
  8
0
100
AcDbMText
 10
8.624386745437965
 20
15.19452590177365
 30
0.0
 40
0.25
 41
2.068242177024783
 71
     2
 72
     5
  1
STANDARD\P#7217
  7
Arial
 73
     1
 44
1.0
1001
ACAD
1000
MTEXTBEGIN
1070
    73
1070
     1
1070
    44
1040
1.0
1070
    74
1070
     0
1000
MTEXTEND
  0
MTEXT
  5
E335
330
1F
100
AcDbEntity
  8
0
100
AcDbMText
 10
8.624386745437963
 20
13.69452590177365
 30
0.0
 40
0.25
 41
1.804301031304759
 71
     2
 72
     5
  1
\A1;{\H0.7x;\S1#2;}" [13]\P#736M
  7
Arial
 73
     1
 44
1.0
1001
ACAD
1000
MTEXTBEGIN
1070
    73
1070
     1
1070
    44
1040
1.0
1070
    74
1070
     1
1000
MTEXTEND
  0
MTEXT
  5
E336
330
1F
100
AcDbEntity
  8
0
100
AcDbMText
 10
8.624386745437963
 20
12.19452590177365
 30
0.0
 40
0.25
 41
2.366849389654461
 71
     2
 72
     5
  1
1" [25]\P#736N
  7
Arial
 73
     1
 44
1.0
1001
ACAD
1000
MTEXTBEGIN
1070
    73
1070
     1
1070
    44
1040
1.0
1070
    74
1070
     0
1000
MTEXTEND
  0
MTEXT
  5
E337
330
1F
100
AcDbEntity
  8
0
100
AcDbMText
 10
8.624386745437963
 20
10.69452590177365
 30
0.0
 40
0.25
 41
2.183091177173309
 71
     2
 72
     5
  1
\A1;1-{\H0.7x;\S1#2;}" [38]\P#736P
  7
Arial
 73
     1
 44
1.0
1001
ACAD
1000
MTEXTBEGIN
1070
    73
1070
     1
1070
    44
1040
1.0
1070
    74
1070
     1
1000
MTEXTEND
  0
MTEXT
  5
E338
330
1F
100
AcDbEntity
  8
0
100
AcDbMText
 10
8.624386745437963
 20
9.194525901773648
 30
0.0
 40
0.25
 41
1.473035455349076
 71
     2
 72
     5
  1
2" [51]\P#72A9
  7
Arial
 73
     1
 44
1.0
1001
ACAD
1000
MTEXTBEGIN
1070
    73
1070
     1
1070
    44
1040
1.0
1070
    74
1070
     0
1000
MTEXTEND
  0
MTEXT
  5
E33A
330
1F
100
AcDbEntity
  8
0
100
AcDbMText
 10
8.624386745437965
 20
6.194525901773648
 30
0.0
 40
0.25
 41
2.138049569451465
 71
     2
 72
     5
  1
3" [76]\P#736U
  7
Arial
 73
     1
 44
1.0
1001
ACAD
1000
MTEXTBEGIN
1070
    73
1070
     1
1070
    44
1040
1.0
1070
    74
1070
     0
1000
MTEXTEND
  0
MTEXT
  5
E33B
330
1F
100
AcDbEntity
  8
0
100
AcDbMText
 10
8.624386745437965
 20
4.694525901773648
 30
0.0
 40
0.25
 41
2.230287877320987
 71
     2
 72
     5
  1
\A1;3-{\H0.7x;\S1#2;}" [89]\P#736V
  7
Arial
 73
     1
 44
1.0
1001
ACAD
1000
MTEXTBEGIN
1070
    73
1070
     1
1070
    44
1040
1.0
1070
    74
1070
     1
1000
MTEXTEND
  0
MTEXT
  5
E33C
330
1F
100
AcDbEntity
  8
0
100
AcDbMText
 10
8.624386745437963
 20
3.194525901773646
 30
0.0
 40
0.25
 41
1.73643750525619
 71
     2
 72
     5
  1
4" [102]\P#736W
  7
Arial
 73
     1
 44
1.0
1001
ACAD
1000
MTEXTBEGIN
1070
    73
1070
     1
1070
    44
1040
1.0
1070
    74
1070
     0
1000
MTEXTEND
  0
MTEXT
  5
E33D
330
1F
100
AcDbEntity
  8
0
100
AcDbMText
 10
8.624386745437963
 20
7.694525901773648
 30
0.0
 40
0.25
 41
1.724593474021076
 71
     2
 72
     5
  1
\A1;2-{\H0.7x;\S1#2;}" [64]\P#736R
  7
Arial
 73
     1
 44
1.0
1001
ACAD
1000
MTEXTBEGIN
1070
    73
1070
     1
1070
    44
1040
1.0
1070
    74
1070
     1
1000
MTEXTEND
  0
DIMENSION
  5
E3CF
330
1F
100
AcDbEntity
  8
0
100
AcDbDimension
  2
*D7
 10
25.48750000000002
 20
8.731670954499374
 30
0.0
 11
24.49500000000001
 21
8.731670954499374
 31
0.0
 70
   160
 71
     5
 42
1.985000000000013
  3
3 inch Scale
100
AcDbAlignedDimension
 13
23.5025
 23
7.93064868910277
 33
0.0
 14
25.48750000000002
 24
7.915648689102811
 34
0.0
100
AcDbRotatedDimension
1001
ACAD
1000
DSTYLE
1002
{
1070
    41
1040
0.25
1070
   147
1040
0.08
1002
}
  0
MTEXT
  5
E41B
330
1F
100
AcDbEntity
  8
0
100
AcDbMText
 10
24.51229508649663
 20
7.664622511374142
 30
0.0
 40
0.25
 41
4.147991148131135
 71
     2
 72
     5
  1
EXPANSION COVER\P#72HF
  7
Arial
 73
     1
 44
1.0
1001
ACAD
1000
MTEXTBEGIN
1070
    73
1070
     1
1070
    44
1040
1.0
1070
    74
1070
     0
1000
MTEXTEND
  0
MTEXT
  5
E41C
330
1F
100
AcDbEntity
  8
0
100
AcDbMText
 10
15.32531261071566
 20
6.194525901773646
 30
0.0
 40
0.25
 41
3.701649927692744
 71
     2
 72
     5
  1
90 MULLION COVER\P#4994
  7
Arial
 73
     1
 44
1.0
1001
ACAD
1000
MTEXTBEGIN
1070
    73
1070
     1
1070
    44
1040
1.0
1070
    74
1070
     0
1000
MTEXTEND
  0
INSERT
  5
E5BF
330
1F
100
AcDbEntity
  8
0
100
AcDbBlockReference
  2
0a6t
 10
9.874363049326877
 20
7.939510530113713
 30
0.0
 50
90.0
  0
INSERT
  5
E5C4
330
1F
100
AcDbEntity
  8
0
100
AcDbBlockReference
  2
Oa6s
 10
9.631742705134339
 20
9.43951053011372
 30
0.0
  0
INSERT
  5
E637
330
1F
100
AcDbEntity
  8
0
100
AcDbBlockReference
  2
0a6l
 10
14.21725403844942
 20
14.5668705284193
 30
0.0
  0
LINE
  5
E6BF
330
1F
100
AcDbEntity
  8
0
100
AcDbLine
 10
25.48750000000002
 20
8.731670954499374
 30
0.0
 11
23.5025
 21
8.731670954499374
 31
0.0
  0
DIMENSION
  5
E6DC
330
1F
100
AcDbEntity
  8
0
100
AcDbDimension
  2
*D10
 10
22.94865244920209
 20
11.29416756159218
 30
0.0
 11
22.25018720795496
 21
11.1063108391957
 31
0.0
 70
   160
 71
     5
 42
0.3757134447929662
  3
3 inch Scale
100
AcDbAlignedDimension
 13
23.71691618676076
 23
10.91845411679921
 33
0.0
 14
23.64886614946196
 24
11.29416756159218
 34
0.0
 50
90.0
100
AcDbRotatedDimension
1001
ACAD
1000
DSTYLE
1002
{
1070
    41
1040
0.25
1070
   147
1040
0.08
1002
}
  0
XLINE
  5
E7F4
330
1F
100
AcDbEntity
  8
0
100
AcDbXline
 10
62.5
 20
2.875
 30
0.0
 11
0.0
 21
1.0
 31
0.0
  0
XLINE
  5
E7F5
330
1F
100
AcDbEntity
  8
0
100
AcDbXline
 10
62.5
 20
2.875
 30
0.0
 11
0.0
 21
1.0
 31
0.0
  0
LINE
  5
E815
330
1F
100
AcDbEntity
  8
0
100
AcDbLine
 10
22.94865244920209
 20
10.91845411679921
 30
0.0
 11
22.94865244920209
 21
11.29416756159218
 31
0.0
  0
LINE
  5
E82B
330
1F
100
AcDbEntity
  8
0
100
AcDbLine
 10
25.14845221976563
 20
12.05967095449937
 30
0.0
 11
23.87613795322762
 21
12.05967095449937
 31
0.0
  0
DIMENSION
  5
E82C
330
1F
100
AcDbEntity
  8
0
100
AcDbDimension
  2
*D11
 10
25.14845221976563
 20
12.05967095449937
 30
0.0
 11
24.51229508649662
 21
12.05967095449937
 31
0.0
 70
   160
 71
     5
 42
1.272314266538003
  3
3 inch Scale
100
AcDbAlignedDimension
 13
23.87613795322762
 23
11.22864868910279
 33
0.0
 14
25.14845221976563
 24
11.2436486891028
 34
0.0
100
AcDbRotatedDimension
1001
ACAD
1000
DSTYLE
1002
{
1070
    41
1040
0.25
1070
   147
1040
0.08
1002
}
  0
INSERT
  5
E877
330
1F
100
AcDbEntity
  8
0
100
AcDbBlockReference
  2
4994
 10
12.5
 20
11.95064876539277
 30
0.0
  0
MTEXT
  5
E8D3
330
1F
100
AcDbEntity
  8
0
100
AcDbMText
 10
24.51229508649662
 20
10.41462251137412
 30
0.0
 40
0.25
 41
4.147991148131135
 71
     2
 72
     5
  1
EXPANSION COVER\P#1AAF
  7
Arial
 73
     1
 44
1.0
1001
ACAD
1000
MTEXTBEGIN
1070
    73
1070
     1
1070
    44
1040
1.0
1070
    74
1070
     0
1000
MTEXTEND
  0
INSERT
  5
E94A
330
1F
100
AcDbEntity
  8
0
100
AcDbBlockReference
  2
72AL
 10
22.642
 20
4.155648689102775
 30
0.0
  0
MTEXT
  5
E94B
330
1F
100
AcDbEntity
  8
0
100
AcDbMText
 10
24.90410787854167
 20
3.091102958392443
 30
0.0
 40
0.25
 41
4.147991148131135
 71
     2
 72
     5
  1
T-EXPANSION MULLION\P#72AL
  7
Arial
 73
     1
 44
1.0
1001
ACAD
1000
MTEXTBEGIN
1070
    73
1070
     1
1070
    44
1040
1.0
1070
    74
1070
     0
1000
MTEXTEND
  0
DIMENSION
  5
E94D
330
1F
100
AcDbEntity
  8
0
100
AcDbDimension
  2
*D14
 10
26.49
 20
5.905648689102777
 30
0.0
 11
24.495
 21
5.905648689102777
 31
0.0
 70
   160
 71
     5
 42
3.989999999999998
  3
3 inch Scale
100
AcDbAlignedDimension
 13
22.5
 23
5.013733823601022
 33
0.0
 14
26.49
 24
4.572648689102774
 34
0.0
100
AcDbRotatedDimension
1001
ACAD
1000
DSTYLE
1002
{
1070
    41
1040
0.25
1070
   147
1040
0.08
1002
}
  0
LINE
  5
E94E
330
1F
100
AcDbEntity
  8
0
100
AcDbLine
 10
21.79978629974013
 20
3.405648689102775
 30
0.0
 11
21.79978629974013
 21
5.403648689102773
 31
0.0
  0
DIMENSION
  5
E94F
330
1F
100
AcDbEntity
  8
0
100
AcDbDimension
  2
*D15
 10
21.79978629974013
 20
5.403648689102774
 30
0.0
 11
21.79978629974013
 21
4.435310839195665
 31
0.0
 70
   160
 71
     5
 42
1.997999999999998
  3
3 inch Scale
100
AcDbAlignedDimension
 13
22.54
 23
3.405648689102775
 33
0.0
 14
22.54
 24
5.403648689102773
 34
0.0
 50
90.0
100
AcDbRotatedDimension
1001
ACAD
1000
DSTYLE
1002
{
1070
    41
1040
0.25
1070
   147
1040
0.08
1002
}
  0
LINE
  5
E952
330
1F
100
AcDbEntity
  8
0
100
AcDbLine
 10
26.49
 20
5.905648689102777
 30
0.0
 11
22.5
 21
5.905648689102777
 31
0.0
  0
LINE
  5
EAE8
330
1F
100
AcDbEntity
  8
0
100
AcDbLine
 10
27.05570529543451
 20
3.405648689102773
 30
0.0
 11
27.05570529543451
 21
4.165648689102773
 31
0.0
  0
DIMENSION
  5
EAE9
330
1F
100
AcDbEntity
  8
0
100
AcDbDimension
  2
*D16
 10
27.05570529543451
 20
4.165648689102773
 30
0.0
 11
27.05570529543451
 21
3.785648689102774
 31
0.0
 70
   160
 71
     5
 42
0.7599999999999989
  3
3 inch Scale
100
AcDbAlignedDimension
 13
22.54
 23
3.405648689102775
 33
0.0
 14
25.899
 24
4.165648689102773
 34
0.0
 50
90.0
100
AcDbRotatedDimension
1001
ACAD
1000
DSTYLE
1002
{
1070
    41
1040
0.25
1070
   147
1040
0.08
1002
}
  0
INSERT
  5
EC5E
330
1F
100
AcDbEntity
  8
0
100
AcDbBlockReference
  2
M-100
 10
17.3252005122077
 20
3.450648590308031
 30
0.0
 50
90.0
  0
MTEXT
  5
EC5F
330
1F
100
AcDbEntity
  8
0
100
AcDbMText
 10
15.32531261071566
 20
3.197525909969242
 30
0.0
 40
0.25
 41
2.976146783413321
 71
     2
 72
     5
  1
SPECIAL COVER\P#M100
  7
Arial
 73
     1
 44
1.0
1001
ACAD
1000
MTEXTBEGIN
1070
    73
1070
     1
1070
    44
1040
1.0
1070
    74
1070
     0
1000
MTEXTEND
  0
DIMENSION
  5
EC97
330
1F
100
AcDbEntity
  8
0
100
AcDbDimension
  2
*D18
 10
18.5039357269612
 20
3.768148704748932
 30
0.0
 11
19.31523362449236
 21
3.60189860937893
 31
0.0
 70
   160
 71
     5
 42
0.3325001907400011
  3
3 inch Scale
100
AcDbAlignedDimension
 13
17.46558298387644
 23
3.435648514008931
 33
0.0
 14
17.51558317461144
 24
3.768148704748932
 34
0.0
 50
90.0
100
AcDbRotatedDimension
1001
ACAD
1000
DSTYLE
1002
{
1070
    41
1040
0.25
1070
   147
1040
0.08
1002
}
  0
LINE
  5
EC98
330
1F
100
AcDbEntity
  8
0
100
AcDbLine
 10
18.5039357269612
 20
3.43564851400893
 30
0.0
 11
18.5039357269612
 21
3.768148704748931
 31
0.0
  0
DIMENSION
  5
ED35
330
1F
100
AcDbEntity
  8
0
100
AcDbDimension
  2
*D19
 10
11.75978629974013
 20
12.03627389175458
 30
0.0
 11
11.75978629974013
 21
9.275961290428677
 31
0.0
 70
   160
 71
     5
 42
5.630625202651803
  3
3 inch Scale
100
AcDbAlignedDimension
 13
12.5
 23
6.405648689102774
 33
0.0
 14
12.50500010699034
 24
12.03627389175458
 34
0.0
 50
90.0
100
AcDbRotatedDimension
1001
ACAD
1000
DSTYLE
1002
{
1070
    41
1040
0.25
1070
   147
1040
0.08
1002
}
  0
LINE
  5
ED36
330
1F
100
AcDbEntity
  8
0
100
AcDbLine
 10
11.75978629974013
 20
6.405648689102775
 30
0.0
 11
11.75978629974013
 21
12.03627389175458
 31
0.0
  0
LINE
  5
EECE
330
1F
100
AcDbEntity
  8
0
100
AcDbLine
 10
17.51558317461144
 20
4.51814870474893
 30
0.0
 11
13.13504204681988
 21
4.51814870474893
 31
0.0
  0
DIMENSION
  5
EECF
330
1F
100
AcDbEntity
  8
0
100
AcDbDimension
  2
*D20
 10
17.51558317461144
 20
4.51814870474893
 30
0.0
 11
15.32531261071566
 21
4.51814870474893
 31
0.0
 70
   160
  1
SPCL. 5/8" - 12"\P[16 - 305]
 71
     5
 42
4.380541127791561
  3
3 inch Scale
100
AcDbAlignedDimension
 13
13.13504204681988
 23
3.768148704748932
 33
0.0
 14
17.51558317461144
 24
3.76814870474893
 34
0.0
100
AcDbRotatedDimension
1001
ACAD
1000
DSTYLE
1002
{
1070
    41
1040
0.25
1070
   147
1040
0.08
1002
}
  0
INSERT
  5
F05E
330
1F
100
AcDbEntity
  8
0
100
AcDbBlockReference
  2
A$C7ECA1300
 10
14.71731256035434
 20
9.205238720923913
 30
0.0
 41
4.0
 42
4.0
 43
4.0
  0
MTEXT
  5
F05F
330
1F
100
AcDbEntity
  8
0
100
AcDbMText
 10
15.33814351841394
 20
8.918153094167948
 30
0.0
 40
0.25
 41
3.701649927692744
 71
     2
 72
     5
  1
RECEPTOR GASKET\P#0DA9
  7
Arial
 73
     1
 44
1.0
1001
ACAD
1000
MTEXTBEGIN
1070
    73
1070
     1
1070
    44
1040
1.0
1070
    74
1070
     0
1000
MTEXTEND
  0
INSERT
  5
F9AE
330
1F
100
AcDbEntity
  8
0
100
AcDbBlockReference
  2
1AAF
 10
23.49122983296081
 20
11.24364868910279
 30
0.0
  0
INSERT
  5
F9BD
330
1F
100
AcDbEntity
  8
0
100
AcDbBlockReference
  2
72HF
 10
24.50250000000001
 20
7.91564868910279
 30
0.0
  0
VIEWPORT
  5
CBD9
102
{ACAD_XDICTIONARY
360
FB9E
102
}
330
CBD2
100
AcDbEntity
 67
     1
  8
0
100
AcDbViewport
 10
3.968749891115924
 20
5.218749628292292
 30
0.0
 40
17.62601621246861
 41
11.63799974576694
 68
     1
 69
     1
 12
3.968749891115924
 22
5.218749628292292
 13
0.0
 23
0.0
 14
0.5
 24
0.5
 15
0.5
 25
0.5
 16
0.0
 26
0.0
 36
1.0
 17
0.0
 27
0.0
 37
0.0
 42
50.0
 43
0.0
 44
0.0
 45
11.63799974576694
 50
0.0
 51
0.0
 72
  5000
 90
    32800
  1

281
     0
 71
     1
 74
     0
110
0.0
120
0.0
130
0.0
111
1.0
121
0.0
131
0.0
112
0.0
122
1.0
132
0.0
 79
     0
146
0.0
  0
VIEWPORT
  5
D915
102
{ACAD_XDICTIONARY
360
FBA0
102
}
330
CBD2
100
AcDbEntity
 67
     1
  8
0
100
AcDbViewport
 10
3.968749882715535
 20
5.218749625349884
 30
0.0
 40
7.928490862866247
 41
10.43240584937289
 68
     2
 69
     2
 12
3.6875
 22
4.3125
 13
0.0
 23
0.0
 14
0.125
 24
0.125
 15
0.5
 25
0.5
 16
0.0
 26
0.0
 36
1.0
 17
0.0
 27
0.0
 37
0.0
 42
50.0
 43
0.0
 44
0.0
 45
9.704115760475342
 50
0.0
 51
0.0
 72
  5000
 90
    32768
  1

281
     0
 71
     1
 74
     0
110
0.0
120
0.0
130
0.0
111
1.0
121
0.0
131
0.0
112
0.0
122
1.0
132
0.0
 79
     0
146
0.0
  0
ENDSEC
  0
SECTION
  2
OBJECTS
  0
DICTIONARY
  5
C
330
0
100
AcDbDictionary
281
     1
  3
ACAD_COLOR
350
A6AD
  3
ACAD_GROUP
350
D
  3
ACAD_LAYOUT
350
1A
  3
ACAD_MATERIAL
350
A6AC
  3
ACAD_MLINESTYLE
350
17
  3
ACAD_PLOTSETTINGS
350
19
  3
ACAD_PLOTSTYLENAME
350
E
  3
AcadDim
350
15D
  3
ACDBHEADERROUNDTRIPXREC
350
FB8B
  3
AcDbVariableDictionary
350
79D9
  3
ADE_QUERY_LIBRARY
350
1012
  3
AMAcad
350
1B9
  3
ASE_INDEX_DICTIONARY
350
E0A6
  3
AVAT_FILE_STORE
350
FD6
1001
ADE
1000
ADE02C004
1000
[Query]
1000
CaseSensitiveMatch=0
1000
SaveCurrQueryInSession=1
1000
MkSelSetWithQryObj=0
1000
ShowBlockAsInsPt=0
1000
CreateAssociativeHatchObjects=0
1000
ReferenceBoundaryForAreaLocation=1
1000
ShowImageAsBoundary=1
1000
DefaultJoinOperator=2
1000
ColorForAdd=red
1000
ColorForRemove=red
1000
BlockLocnForQuery=1
1000
TextLocnForQuery=1
1000
[Save Back]
1000
RedefineBlockDefinitions=1
1000
RedefineLayerDefinitions=1
1000
RedefineTextStyleDefinitions=1
1000
RemoveUnusedGroups=1
1000
EraseSavedBackObjects=1
1000
RemoveLockAfterSave=1
1000
CreateHistoryFileOfChanges=0
1000
CreateBackupFileOfSourceDwg=1
1000
DontAddObjectsToSaveSet=0
1000
MarkObjectsForEditingWithoutPrompting=0
1000
[Coordinate Transformation]
1000
RestoreLastActiveDwgsOnStartup=1
1000
ActivateDwgsOnAttach=1
1000
AdjustSizesAndScalesForChangesInUnits=1
1000
AdjustRotationsForMapDistortions=1
1000
AdjustSizesAndScalesForMapDistortions=1
1000
AdjustElevations=1
1000
AdjustZeroRotationObjects=1
1000
ReconnectDbOnWSOpen=1
1000
NoOfSQLConditionsInHistory=10
  0
DICTIONARY
  5
F159
330
2
100
AcDbDictionary
280
     1
281
     1
  3
ACAD_LAYERSTATES
360
F15A
  0
DICTIONARY
  5
D9A1
330
1F
100
AcDbDictionary
280
     1
281
     1
  0
DICTIONARY
  5
E5E0
330
E213
100
AcDbDictionary
280
     1
281
     1
  3
ACAD_SORTENTS
360
F7D4
  0
DICTIONARY
  5
E5DA
330
E220
100
AcDbDictionary
280
     1
281
     1
  3
ACAD_SORTENTS
360
F7D9
  0
DICTIONARY
  5
E5D4
330
E22B
100
AcDbDictionary
280
     1
281
     1
  3
ACAD_SORTENTS
360
F7DE
  0
DICTIONARY
  5
E560
330
E236
100
AcDbDictionary
280
     1
281
     1
  3
ACAD_SORTENTS
360
F7E8
  0
DICTIONARY
  5
E55A
330
E2A3
100
AcDbDictionary
280
     1
281
     1
  3
ACAD_SORTENTS
360
F7ED
  0
DICTIONARY
  5
E554
330
E2AE
100
AcDbDictionary
280
     1
281
     1
  3
ACAD_SORTENTS
360
F7F7
  0
DICTIONARY
  5
E54E
330
E2B9
100
AcDbDictionary
280
     1
281
     1
  3
ACAD_SORTENTS
360
F7FC
  0
DICTIONARY
  5
E5CE
330
E5C0
100
AcDbDictionary
280
     1
281
     1
  3
ACAD_SORTENTS
360
F7E3
  0
DICTIONARY
  5
F7CE
330
E61F
100
AcDbDictionary
280
     1
281
     1
  3
ACAD_SORTENTS
360
F7CF
  0
DICTIONARY
  5
ED33
330
E85A
100
AcDbDictionary
280
     1
281
     1
  3
ACAD_SORTENTS
360
F95A
  0
DICTIONARY
  5
EAE6
330
E8D4
100
AcDbDictionary
280
     1
281
     1
  3
ACAD_SORTENTS
360
FAAC
  0
DICTIONARY
  5
F981
330
EC49
100
AcDbDictionary
280
     1
281
     1
  3
ACAD_SORTENTS
360
F982
  0
DICTIONARY
  5
EFC1
330
EFC0
100
AcDbDictionary
280
     1
281
     1
  3
ACAD_SORTENTS
360
F921
  0
DICTIONARY
  5
F9C2
330
F9AF
100
AcDbDictionary
280
     1
281
     1
  3
ACAD_SORTENTS
360
F9C3
  0
DICTIONARY
  5
FB9E
330
CBD9
100
AcDbDictionary
280
     1
281
     1
  3
ACAD_XREC_ROUNDTRIP
360
FB9F
  0
DICTIONARY
  5
FBA0
330
D915
100
AcDbDictionary
280
     1
281
     1
  3
ACAD_XREC_ROUNDTRIP
360
FBA1
  0
DICTIONARY
  5
A6AD
102
{ACAD_REACTORS
330
C
102
}
330
C
100
AcDbDictionary
281
     1
  0
DICTIONARY
  5
D
102
{ACAD_REACTORS
330
C
102
}
330
C
100
AcDbDictionary
281
     1
  0
DICTIONARY
  5
1A
102
{ACAD_REACTORS
330
C
102
}
330
C
100
AcDbDictionary
281
     1
  3
Layout1
350
CBD3
  3
Model
350
22
  0
DICTIONARY
  5
A6AC
102
{ACAD_REACTORS
330
C
102
}
330
C
100
AcDbDictionary
281
     1
  0
DICTIONARY
  5
17
102
{ACAD_REACTORS
330
C
102
}
330
C
100
AcDbDictionary
281
     1
  3
Standard
350
18
  0
DICTIONARY
  5
19
102
{ACAD_REACTORS
330
C
102
}
330
C
100
AcDbDictionary
281
     1
  3
22x17 Xerox8830
350
CBD1
  3
22x34 Xerox8830
350
CBD0
  3
8.5x11(row 1)
350
B30E
  3
8.5x11(row 2)
350
BF67
  3
8.5x11(row 3)
350
BF68
  3
8.5x11(row 4)
350
BF69
  0
ACDBDICTIONARYWDFLT
  5
E
102
{ACAD_REACTORS
330
C
102
}
330
C
100
AcDbDictionary
281
     1
  3
Normal
350
F
100
AcDbDictionaryWithDefault
340
F
  0
XRECORD
  5
15D
102
{ACAD_REACTORS
330
C
102
}
330
C
100
AcDbXrecord
280
     1
 90
   990106
  3

 60
     0
 61
     0
 62
     1
 63
     3
 64
     0
 65
     0
 66
     0
 67
     3
 68
     0
 69
     0
 70
     0
 71
     0
 72
     0
 40
0.0
170
     2
340
0
  0
DICTIONARY
  5
FB8B
102
{ACAD_REACTORS
330
C
102
}
330
C
100
AcDbDictionary
281
     1
  3
COLORDICT
350
FB8D
  3
MATERIALDICT
350
FB8C
  0
DICTIONARY
  5
79D9
102
{ACAD_REACTORS
330
C
102
}
330
C
100
AcDbDictionary
281
     1
  3
DIMASSOC
350
79DA
  3
PROJECTNAME
350
F109
  0
DICTIONARY
  5
1012
102
{ACAD_REACTORS
330
C
102
}
330
C
100
AcDbDictionary
281
     1
  3
_CurrQry
350
1047
  0
DICTIONARY
  5
1B9
102
{ACAD_REACTORS
330
C
102
}
330
C
100
AcDbDictionary
281
     1
  3
AM_LOADER
350
1BA
  0
DICTIONARY
  5
E0A6
102
{ACAD_REACTORS
330
C
102
}
330
C
100
AcDbDictionary
281
     1
  3
ASEBlockHierarchyIndexRecord
350
E0A7
1001
DCO15
1040
1527930735.345
  0
DICTIONARY
  5
FD6
102
{ACAD_REACTORS
330
C
102
}
330
C
100
AcDbDictionary
281
     1
  0
DICTIONARY
  5
F15A
102
{ACAD_REACTORS
330
F159
102
}
330
F159
100
AcDbDictionary
281
     1
  0
SORTENTSTABLE
  5
F7D4
102
{ACAD_REACTORS
330
E5E0
102
}
330
E5E0
100
AcDbSortentsTable
330
E213
  0
SORTENTSTABLE
  5
F7D9
102
{ACAD_REACTORS
330
E5DA
102
}
330
E5DA
100
AcDbSortentsTable
330
E220
  0
SORTENTSTABLE
  5
F7DE
102
{ACAD_REACTORS
330
E5D4
102
}
330
E5D4
100
AcDbSortentsTable
330
E22B
  0
SORTENTSTABLE
  5
F7E8
102
{ACAD_REACTORS
330
E560
102
}
330
E560
100
AcDbSortentsTable
330
E236
  0
SORTENTSTABLE
  5
F7ED
102
{ACAD_REACTORS
330
E55A
102
}
330
E55A
100
AcDbSortentsTable
330
E2A3
  0
SORTENTSTABLE
  5
F7F7
102
{ACAD_REACTORS
330
E554
102
}
330
E554
100
AcDbSortentsTable
330
E2AE
  0
SORTENTSTABLE
  5
F7FC
102
{ACAD_REACTORS
330
E54E
102
}
330
E54E
100
AcDbSortentsTable
330
E2B9
  0
SORTENTSTABLE
  5
F7E3
102
{ACAD_REACTORS
330
E5CE
102
}
330
E5CE
100
AcDbSortentsTable
330
E5C0
  0
SORTENTSTABLE
  5
F7CF
102
{ACAD_REACTORS
330
F7CE
102
}
330
F7CE
100
AcDbSortentsTable
330
E61F
  0
SORTENTSTABLE
  5
F95A
102
{ACAD_REACTORS
330
ED33
102
}
330
ED33
100
AcDbSortentsTable
330
E85A
  0
SORTENTSTABLE
  5
FAAC
102
{ACAD_REACTORS
330
EAE6
102
}
330
EAE6
100
AcDbSortentsTable
330
E8D4
  0
SORTENTSTABLE
  5
F982
102
{ACAD_REACTORS
330
F981
102
}
330
F981
100
AcDbSortentsTable
330
EC49
  0
SORTENTSTABLE
  5
F921
102
{ACAD_REACTORS
330
EFC1
102
}
330
EFC1
100
AcDbSortentsTable
330
EFC0
  0
SORTENTSTABLE
  5
F9C3
102
{ACAD_REACTORS
330
F9C2
102
}
330
F9C2
100
AcDbSortentsTable
330
F9AF
  0
XRECORD
  5
FB9F
102
{ACAD_REACTORS
330
FB9E
102
}
330
FB9E
100
AcDbXrecord
280
     1
102
SHADEPLOT
 70
     0
  0
XRECORD
  5
FBA1
102
{ACAD_REACTORS
330
FBA0
102
}
330
FBA0
100
AcDbXrecord
280
     1
102
SHADEPLOT
 70
     0
  0
LAYOUT
  5
CBD3
102
{ACAD_XDICTIONARY
360
FB9C
102
}
102
{ACAD_REACTORS
330
1A
102
}
330
1A
100
AcDbPlotSettings
  1

  2
pdfFactory Pro
  4
Letter
  6

 40
7.143749713897705
 41
7.143756389617919
 42
7.14373779296875
 43
7.14373779296875
 44
215.8999938964844
 45
279.3999938964844
 46
0.0
 47
0.0
 48
0.0
 49
0.0
140
0.0
141
0.0
142
1.0
143
1.0
 70
   688
 72
     0
 73
     0
 74
     5
  7
PellaCAD 2000.ctb
 75
    16
147
1.0
148
0.0
149
0.0
100
AcDbLayout
  1
Layout1
 70
     1
 71
     1
 10
-0.2812499887361301
 20
-0.2812502515597606
 11
8.218749770967978
 21
10.71874950814434
 12
0.0
 22
0.0
 32
0.0
 14
0.0045044512824113
 24
0.0025467006634372
 34
0.0
 15
7.932995314148659
 25
10.43495255003633
 35
0.0
146
0.0
 13
0.0
 23
0.0
 33
0.0
 16
1.0
 26
0.0
 36
0.0
 17
0.0
 27
1.0
 37
0.0
 76
     0
330
CBD2
331
CBD9
  0
LAYOUT
  5
22
102
{ACAD_XDICTIONARY
360
FB8E
102
}
102
{ACAD_REACTORS
330
1A
102
}
330
1A
100
AcDbPlotSettings
  1

  2
pdfFactory Pro
  4
D size sheet
  6

 40
3.174999952316284
 41
3.174999952316284
 42
3.17498779296875
 43
3.17498779296875
 44
558.7999877929687
 45
863.6000366210938
 46
0.0
 47
0.0
 48
0.0
 49
0.0
140
0.0
141
0.0
142
1.0
143
1.0
 70
 11956
 72
     0
 73
     0
 74
     1
  7
PellaCAD 2000.ctb
 75
    16
147
1.0
148
120.2389910741592
149
15.246356212616
100
AcDbLayout
  1
Model
 70
     1
 71
     0
 10
0.0
 20
0.0
 11
12.0
 21
9.0
 12
0.0
 22
0.0
 32
0.0
 14
0.0
 24
0.0
 34
0.0
 15
0.0
 25
0.0
 35
0.0
146
0.0
 13
0.0
 23
0.0
 33
0.0
 16
1.0
 26
0.0
 36
0.0
 17
0.0
 27
1.0
 37
0.0
 76
     0
330
1F
  0
MLINESTYLE
  5
18
102
{ACAD_REACTORS
330
17
102
}
330
17
100
AcDbMlineStyle
  2
STANDARD
 70
     0
  3

 62
   256
 51
90.0
 52
90.0
 71
     2
 49
0.5
 62
   256
  6
BYLAYER
 49
-0.5
 62
   256
  6
BYLAYER
  0
PLOTSETTINGS
  5
CBD1
102
{ACAD_XDICTIONARY
360
FB9A
102
}
102
{ACAD_REACTORS
330
19
102
}
330
19
100
AcDbPlotSettings
  1
22x17 Xerox8830
  2
Xes 8830 for 2004.pc3
  4
ANSI_C_(22.00_x_17.00_Inches)
  6

 40
6.793749809265136
 41
6.793749809265136
 42
6.79376220703125
 43
6.79376220703125
 44
558.7999877929687
 45
431.7999877929687
 46
0.0
 47
35.81399999999999
 48
0.0
 49
0.0
140
0.0
141
0.0
142
1.0
143
1.49524349949159
 70
   692
 72
     0
 73
     0
 74
     1
  7
PellaCAD 2000.ctb
 75
     0
147
0.6687873917124656
148
-21.59157886640523
149
-6.230335335960706
  0
PLOTSETTINGS
  5
CBD0
102
{ACAD_XDICTIONARY
360
FB98
102
}
102
{ACAD_REACTORS
330
19
102
}
330
19
100
AcDbPlotSettings
  1
22x34 Xerox8830
  2
Xes 8830 for 2004.pc3
  4
ANSI_D_(22.00_x_34.00_Inches)
  6

 40
6.793749809265136
 41
6.793749809265136
 42
6.79376220703125
 43
6.79376220703125
 44
558.7999877929687
 45
863.5999755859375
 46
13.462
 47
17.272
 48
0.0
 49
0.0
140
0.0
141
0.0
142
1.0
143
1.0
 70
   692
 72
     0
 73
     1
 74
     1
  7
PellaCAD 2000.ctb
 75
    16
147
1.0
148
-21.59157886640523
149
-6.230335335960706
  0
PLOTSETTINGS
  5
B30E
102
{ACAD_XDICTIONARY
360
FB90
102
}
102
{ACAD_REACTORS
330
19
102
}
330
19
100
AcDbPlotSettings
  1
8.5x11(row 1)
  2
\\pelsprnt02\PECSP13
  4
Letter
  6

 40
7.143749713897705
 41
5.027085304260253
 42
7.14373779296875
 43
5.027069091796875
 44
215.8999938964844
 45
279.3999938964844
 46
2.285999999999999
 47
3.556
 48
0.0
 49
0.0
140
0.0
141
0.0
142
1.0
143
1.0
 70
   692
 72
     0
 73
     0
 74
     1
  7
PellaCAD 2000.ctb
 75
    16
147
1.0
148
-4.158432903504825
149
-3.617288020760524
  0
PLOTSETTINGS
  5
BF67
102
{ACAD_XDICTIONARY
360
FB92
102
}
102
{ACAD_REACTORS
330
19
102
}
330
19
100
AcDbPlotSettings
  1
8.5x11(row 2)
  2
\\pelsprnt01\PEASP5
  4
User144
  6

 40
6.349999904632568
 41
4.233341693878173
 42
6.349990844726562
 43
4.23333740234375
 44
215.8999938964844
 45
279.3999938964844
 46
3.047999999999999
 47
4.318
 48
0.0
 49
0.0
140
0.0
141
0.0
142
1.0
143
1.0
 70
   692
 72
     0
 73
     0
 74
     1
  7
PellaCAD 2000.ctb
 75
    16
147
1.0
148
-4.158432903504825
149
-3.617288020760524
  0
PLOTSETTINGS
  5
BF68
102
{ACAD_XDICTIONARY
360
FB94
102
}
102
{ACAD_REACTORS
330
19
102
}
330
19
100
AcDbPlotSettings
  1
8.5x11(row 3)
  2
\\pelsprnt01\peslp0
  4
Letter
  6

 40
5.365749835968017
 41
5.408084392547607
 42
5.4080810546875
 43
5.365753173828125
 44
215.8999938964844
 45
279.3999938964844
 46
4.064
 47
3.302
 48
0.0
 49
0.0
140
0.0
141
0.0
142
1.0
143
1.0
 70
   692
 72
     0
 73
     0
 74
     1
  7
PellaCAD 2000.ctb
 75
    16
147
1.0
148
-4.158432903504825
149
-3.617288020760524
  0
PLOTSETTINGS
  5
BF69
102
{ACAD_XDICTIONARY
360
FB96
102
}
102
{ACAD_REACTORS
330
19
102
}
330
19
100
AcDbPlotSettings
  1
8.5x11(row 4)
  2
\\pelsprnt02\PEASP6
  4
Letter
  6

 40
7.143749713897705
 41
5.027085304260253
 42
7.14373779296875
 43
5.027069091796875
 44
215.8999938964844
 45
279.3999938964844
 46
2.285999999999999
 47
3.556
 48
0.0
 49
0.0
140
0.0
141
0.0
142
1.0
143
1.0
 70
   692
 72
     0
 73
     0
 74
     1
  7
PellaCAD 2000.ctb
 75
    16
147
1.0
148
-4.158432903504825
149
-3.617288020760524
  0
ACDBPLACEHOLDER
  5
F
102
{ACAD_REACTORS
330
E
102
}
330
E
  0
XRECORD
  5
FB8D
102
{ACAD_REACTORS
330
FB8B
102
}
330
FB8B
100
AcDbXrecord
280
     1
340
A6AD
  0
XRECORD
  5
FB8C
102
{ACAD_REACTORS
330
FB8B
102
}
330
FB8B
100
AcDbXrecord
280
     1
340
A6AC
  0
DICTIONARYVAR
  5
79DA
102
{ACAD_REACTORS
330
79D9
102
}
330
79D9
100
DictionaryVariables
280
     0
  1
2
  0
DICTIONARYVAR
  5
F109
102
{ACAD_REACTORS
330
79D9
102
}
330
79D9
100
DictionaryVariables
280
     0
  1

  0
XRECORD
  5
1047
102
{ACAD_REACTORS
330
1012
102
}
330
1012
100
AcDbXrecord
280
     1
1000
ADE02C001
1070
     1
1070
     0
1002
{
1002
}
1002
{
1002
}
1002
{
1002
}
1000

  0
ACAD_PROXY_OBJECT
  5
1BA
102
{ACAD_REACTORS
330
1B9
102
}
330
1B9
100
AcDbProxyObject
 90
      499
 91
      504
 95
   983063
 70
     0
 93
       51
310
40502896026454
 94
        0
1001
ACAD
1000
AcRTDxfName
1000
AMLOADER
1000
AcRTDxfName
1000
AMLOADER
  0
XRECORD
  5
E0A7
102
{ACAD_REACTORS
330
E0A6
102
}
330
E0A6
100
AcDbXrecord
280
     1
330
0
330
0
  0
DICTIONARY
  5
FB9C
330
CBD3
100
AcDbDictionary
280
     1
281
     1
  3
ACAD_XREC_ROUNDTRIP
360
FB9D
  0
DICTIONARY
  5
FB8E
330
22
100
AcDbDictionary
280
     1
281
     1
  3
ACAD_XREC_ROUNDTRIP
360
FB8F
  0
DICTIONARY
  5
FB9A
330
CBD1
100
AcDbDictionary
280
     1
281
     1
  3
ACAD_XREC_ROUNDTRIP
360
FB9B
  0
DICTIONARY
  5
FB98
330
CBD0
100
AcDbDictionary
280
     1
281
     1
  3
ACAD_XREC_ROUNDTRIP
360
FB99
  0
DICTIONARY
  5
FB90
330
B30E
100
AcDbDictionary
280
     1
281
     1
  3
ACAD_XREC_ROUNDTRIP
360
FB91
  0
DICTIONARY
  5
FB92
330
BF67
100
AcDbDictionary
280
     1
281
     1
  3
ACAD_XREC_ROUNDTRIP
360
FB93
  0
DICTIONARY
  5
FB94
330
BF68
100
AcDbDictionary
280
     1
281
     1
  3
ACAD_XREC_ROUNDTRIP
360
FB95
  0
DICTIONARY
  5
FB96
330
BF69
100
AcDbDictionary
280
     1
281
     1
  3
ACAD_XREC_ROUNDTRIP
360
FB97
  0
XRECORD
  5
FB9D
102
{ACAD_REACTORS
330
FB9C
102
}
330
FB9C
100
AcDbXrecord
280
     1
102
SHADEPLOT
 70
     1
102
SHADEPLOTRESLEVEL
 70
     2
102
SHADEPLOTCUSTOMDPI
 70
   150
  0
XRECORD
  5
FB8F
102
{ACAD_REACTORS
330
FB8E
102
}
330
FB8E
100
AcDbXrecord
280
     1
102
SHADEPLOT
 70
     0
102
SHADEPLOTRESLEVEL
 70
     2
102
SHADEPLOTCUSTOMDPI
 70
   300
  0
XRECORD
  5
FB9B
102
{ACAD_REACTORS
330
FB9A
102
}
330
FB9A
100
AcDbXrecord
280
     1
102
SHADEPLOT
 70
     1
102
SHADEPLOTRESLEVEL
 70
     2
102
SHADEPLOTCUSTOMDPI
 70
   200
  0
XRECORD
  5
FB99
102
{ACAD_REACTORS
330
FB98
102
}
330
FB98
100
AcDbXrecord
280
     1
102
SHADEPLOT
 70
     1
102
SHADEPLOTRESLEVEL
 70
     2
102
SHADEPLOTCUSTOMDPI
 70
   200
  0
XRECORD
  5
FB91
102
{ACAD_REACTORS
330
FB90
102
}
330
FB90
100
AcDbXrecord
280
     1
102
SHADEPLOT
 70
     1
102
SHADEPLOTRESLEVEL
 70
     2
102
SHADEPLOTCUSTOMDPI
 70
   300
  0
XRECORD
  5
FB93
102
{ACAD_REACTORS
330
FB92
102
}
330
FB92
100
AcDbXrecord
280
     1
102
SHADEPLOT
 70
     1
102
SHADEPLOTRESLEVEL
 70
     2
102
SHADEPLOTCUSTOMDPI
 70
   300
  0
XRECORD
  5
FB95
102
{ACAD_REACTORS
330
FB94
102
}
330
FB94
100
AcDbXrecord
280
     1
102
SHADEPLOT
 70
     1
102
SHADEPLOTRESLEVEL
 70
     2
102
SHADEPLOTCUSTOMDPI
 70
   300
  0
XRECORD
  5
FB97
102
{ACAD_REACTORS
330
FB96
102
}
330
FB96
100
AcDbXrecord
280
     1
102
SHADEPLOT
 70
     1
102
SHADEPLOTRESLEVEL
 70
     2
102
SHADEPLOTCUSTOMDPI
 70
   300
  0
ENDSEC
  0
EOF
