  0
SECTION
  2
HEADER
  9
$ACADVER
  1
AC1015
  9
$ACADMAINTVER
 70
    18
  9
$DWGCODEPAGE
  3
ANSI_1252
  9
$INSBASE
 10
0.0
 20
0.0
 30
0.0
  9
$EXTMIN
 10
4.732261731908964
 20
13.19622812652522
 30
-0.0015258207003612
  9
$EXTMAX
 10
27.16695410649637
 20
32.23828132943982
 30
0.0000000349246008
  9
$LIMMIN
 10
0.0
 20
0.0
  9
$LIMMAX
 10
12.0
 20
9.0
  9
$ORTHOMODE
 70
     1
  9
$REGENMODE
 70
     1
  9
$FILLMODE
 70
     1
  9
$QTEXTMODE
 70
     0
  9
$MIRRTEXT
 70
     0
  9
$LTSCALE
 40
0.5
  9
$ATTMODE
 70
     1
  9
$TEXTSIZE
 40
1.9375
  9
$TRACEWID
 40
0.05
  9
$TEXTSTYLE
  7
ARCHQUIK
  9
$CLAYER
  8
0
  9
$CELTYPE
  6
ByLayer
  9
$CECOLOR
 62
   256
  9
$CELTSCALE
 40
1.0
  9
$DISPSILH
 70
     0
  9
$DIMSCALE
 40
1.0
  9
$DIMASZ
 40
2.0
  9
$DIMEXO
 40
0.0625
  9
$DIMDLI
 40
0.0625
  9
$DIMRND
 40
0.0
  9
$DIMDLE
 40
0.0
  9
$DIMEXE
 40
0.0625
  9
$DIMTP
 40
0.0
  9
$DIMTM
 40
0.0
  9
$DIMTXT
 40
1.919999999999999
  9
$DIMCEN
 40
0.09
  9
$DIMTSZ
 40
0.0
  9
$DIMTOL
 70
     0
  9
$DIMLIM
 70
     0
  9
$DIMTIH
 70
     0
  9
$DIMTOH
 70
     0
  9
$DIMSE1
 70
     0
  9
$DIMSE2
 70
     0
  9
$DIMTAD
 70
     1
  9
$DIMZIN
 70
     2
  9
$DIMBLK
  1

  9
$DIMASO
 70
     1
  9
$DIMSHO
 70
     1
  9
$DIMPOST
  1

  9
$DIMAPOST
  1

  9
$DIMALT
 70
     0
  9
$DIMALTD
 70
     2
  9
$DIMALTF
 40
25.4
  9
$DIMLFAC
 40
1.0
  9
$DIMTOFL
 70
     0
  9
$DIMTVP
 40
0.0
  9
$DIMTIX
 70
     0
  9
$DIMSOXD
 70
     0
  9
$DIMSAH
 70
     0
  9
$DIMBLK1
  1

  9
$DIMBLK2
  1

  9
$DIMSTYLE
  2
Standard
  9
$DIMCLRD
 70
   256
  9
$DIMCLRE
 70
   256
  9
$DIMCLRT
 70
     7
  9
$DIMTFAC
 40
0.75
  9
$DIMGAP
 40
0.0625
  9
$DIMJUST
 70
     0
  9
$DIMSD1
 70
     0
  9
$DIMSD2
 70
     0
  9
$DIMTOLJ
 70
     1
  9
$DIMTZIN
 70
     0
  9
$DIMALTZ
 70
     0
  9
$DIMALTTZ
 70
     0
  9
$DIMUPT
 70
     0
  9
$DIMDEC
 70
     4
  9
$DIMTDEC
 70
     4
  9
$DIMALTU
 70
     2
  9
$DIMALTTD
 70
     2
  9
$DIMTXSTY
  7
Standard
  9
$DIMAUNIT
 70
     0
  9
$DIMADEC
 70
     3
  9
$DIMALTRND
 40
0.0
  9
$DIMAZIN
 70
     0
  9
$DIMDSEP
 70
    46
  9
$DIMATFIT
 70
     3
  9
$DIMFRAC
 70
     1
  9
$DIMLDRBLK
  1

  9
$DIMLUNIT
 70
     5
  9
$DIMLWD
 70
    -2
  9
$DIMLWE
 70
    -2
  9
$DIMTMOVE
 70
     0
  9
$LUNITS
 70
     2
  9
$LUPREC
 70
     4
  9
$SKETCHINC
 40
0.1
  9
$FILLETRAD
 40
0.0
  9
$AUNITS
 70
     0
  9
$AUPREC
 70
     3
  9
$MENU
  1
.
  9
$ELEVATION
 40
0.0
  9
$PELEVATION
 40
0.0
  9
$THICKNESS
 40
0.0
  9
$LIMCHECK
 70
     0
  9
$CHAMFERA
 40
0.5
  9
$CHAMFERB
 40
0.5
  9
$CHAMFERC
 40
1.0
  9
$CHAMFERD
 40
0.0
  9
$SKPOLY
 70
     0
  9
$TDCREATE
 40
2453963.430150475
  9
$TDUCREATE
 40
2453963.638483808
  9
$TDUPDATE
 40
2455447.478215579
  9
$TDUUPDATE
 40
2455447.686548912
  9
$TDINDWG
 40
1.5291665856
  9
$TDUSRTIMER
 40
1.5291664005
  9
$USRTIMER
 70
     1
  9
$ANGBASE
 50
0.0
  9
$ANGDIR
 70
     0
  9
$PDMODE
 70
    33
  9
$PDSIZE
 40
0.016
  9
$PLINEWID
 40
0.0
  9
$SPLFRAME
 70
     0
  9
$SPLINETYPE
 70
     6
  9
$SPLINESEGS
 70
     8
  9
$HANDSEED
  5
59E7
  9
$SURFTAB1
 70
     6
  9
$SURFTAB2
 70
     6
  9
$SURFTYPE
 70
     6
  9
$SURFU
 70
     6
  9
$SURFV
 70
     6
  9
$UCSBASE
  2

  9
$UCSNAME
  2

  9
$UCSORG
 10
0.0
 20
0.0
 30
0.0
  9
$UCSXDIR
 10
1.0
 20
0.0
 30
0.0
  9
$UCSYDIR
 10
0.0
 20
1.0
 30
0.0
  9
$UCSORTHOREF
  2

  9
$UCSORTHOVIEW
 70
     0
  9
$UCSORGTOP
 10
0.0
 20
0.0
 30
0.0
  9
$UCSORGBOTTOM
 10
0.0
 20
0.0
 30
0.0
  9
$UCSORGLEFT
 10
0.0
 20
0.0
 30
0.0
  9
$UCSORGRIGHT
 10
0.0
 20
0.0
 30
0.0
  9
$UCSORGFRONT
 10
0.0
 20
0.0
 30
0.0
  9
$UCSORGBACK
 10
0.0
 20
0.0
 30
0.0
  9
$PUCSBASE
  2

  9
$PUCSNAME
  2

  9
$PUCSORG
 10
0.0
 20
0.0
 30
0.0
  9
$PUCSXDIR
 10
1.0
 20
0.0
 30
0.0
  9
$PUCSYDIR
 10
0.0
 20
1.0
 30
0.0
  9
$PUCSORTHOREF
  2

  9
$PUCSORTHOVIEW
 70
     0
  9
$PUCSORGTOP
 10
0.0
 20
0.0
 30
0.0
  9
$PUCSORGBOTTOM
 10
0.0
 20
0.0
 30
0.0
  9
$PUCSORGLEFT
 10
0.0
 20
0.0
 30
0.0
  9
$PUCSORGRIGHT
 10
0.0
 20
0.0
 30
0.0
  9
$PUCSORGFRONT
 10
0.0
 20
0.0
 30
0.0
  9
$PUCSORGBACK
 10
0.0
 20
0.0
 30
0.0
  9
$USERI1
 70
     0
  9
$USERI2
 70
     0
  9
$USERI3
 70
     0
  9
$USERI4
 70
     0
  9
$USERI5
 70
     0
  9
$USERR1
 40
24.0
  9
$USERR2
 40
0.0
  9
$USERR3
 40
22.0
  9
$USERR4
 40
0.0
  9
$USERR5
 40
0.0
  9
$WORLDVIEW
 70
     1
  9
$SHADEDGE
 70
     3
  9
$SHADEDIF
 70
    70
  9
$TILEMODE
 70
     1
  9
$MAXACTVP
 70
    64
  9
$PINSBASE
 10
0.0
 20
0.0
 30
0.0
  9
$PLIMCHECK
 70
     0
  9
$PEXTMIN
 10
0.0
 20
0.0
 30
0.0
  9
$PEXTMAX
 10
0.0
 20
0.0
 30
0.0
  9
$PLIMMIN
 10
0.0
 20
0.0
  9
$PLIMMAX
 10
12.0
 20
9.0
  9
$UNITMODE
 70
     0
  9
$VISRETAIN
 70
     1
  9
$PLINEGEN
 70
     0
  9
$PSLTSCALE
 70
     1
  9
$TREEDEPTH
 70
  3020
  9
$CMLSTYLE
  2
Standard
  9
$CMLJUST
 70
     0
  9
$CMLSCALE
 40
1.0
  9
$PROXYGRAPHICS
 70
     1
  9
$MEASUREMENT
 70
     0
  9
$CELWEIGHT
370
    -1
  9
$ENDCAPS
280
     0
  9
$JOINSTYLE
280
     0
  9
$LWDISPLAY
290
     0
  9
$INSUNITS
 70
     1
  9
$HYPERLINKBASE
  1

  9
$STYLESHEET
  1
Laser Keynote PellaCAD 2000.ctb
  9
$XEDIT
290
     1
  9
$CEPSNTYPE
380
     0
  9
$PSTYLEMODE
290
     1
  9
$FINGERPRINTGUID
  2
{FDEAD576-A652-11D2-9A35-0060089B3A3F}
  9
$VERSIONGUID
  2
{8D0B22FD-0326-4340-95F5-D1440BB43CE6}
  9
$EXTNAMES
290
     1
  9
$PSVPSCALE
 40
0.0
  9
$OLESTARTUP
290
     0
  0
ENDSEC
  0
SECTION
  2
CLASSES
  0
CLASS
  1
ACDBDICTIONARYWDFLT
  2
AcDbDictionaryWithDefault
  3
ObjectDBX Classes
 90
        0
280
     0
281
     0
  0
CLASS
  1
ACDBPLACEHOLDER
  2
AcDbPlaceHolder
  3
ObjectDBX Classes
 90
        0
280
     0
281
     0
  0
CLASS
  1
LAYOUT
  2
AcDbLayout
  3
ObjectDBX Classes
 90
        0
280
     0
281
     0
  0
CLASS
  1
PLOTSETTINGS
  2
AcDbPlotSettings
  3
ObjectDBX Classes
 90
        0
280
     0
281
     0
  0
CLASS
  1
AMLOADER
  2
AMLoader
  3
AMAcad
 90
    32768
280
     1
281
     0
  0
CLASS
  1
DICTIONARYVAR
  2
AcDbDictionaryVar
  3
ObjectDBX Classes
 90
        0
280
     0
281
     0
  0
CLASS
  1
SORTENTSTABLE
  2
AcDbSortentsTable
  3
ObjectDBX Classes
 90
        0
280
     0
281
     0
  0
CLASS
  1
DIMASSOC
  2
AcDbDimAssoc
  3
"AcDbDimAssoc|Product Desc:     AcDim ARX App For Dimension|Company:          Autodesk, Inc.|WEB Address:      www.autodesk.com"
 90
    32768
280
     0
281
     0
  0
CLASS
  1
MATERIAL
  2
AcDbMaterial
  3
ObjectDBX Classes
 90
     1153
280
     0
281
     0
  0
CLASS
  1
VISUALSTYLE
  2
AcDbVisualStyle
  3
ObjectDBX Classes
 90
     4095
280
     0
281
     0
  0
CLASS
  1
TABLESTYLE
  2
AcDbTableStyle
  3
ObjectDBX Classes
 90
     4095
280
     0
281
     0
  0
CLASS
  1
SCALE
  2
AcDbScale
  3
ObjectDBX Classes
 90
     1153
280
     0
281
     0
  0
CLASS
  1
MLEADERSTYLE
  2
AcDbMLeaderStyle
  3
ACDB_MLEADERSTYLE_CLASS
 90
     4095
280
     0
281
     0
  0
CLASS
  1
CELLSTYLEMAP
  2
AcDbCellStyleMap
  3
ObjectDBX Classes
 90
     1152
280
     0
281
     0
  0
CLASS
  1
ACAD_EVALUATION_GRAPH
  2
AcDbEvalGraph
  3
ObjectDBX Classes
 90
    33921
280
     0
281
     0
  0
CLASS
  1
BLOCKVISIBILITYPARAMETER
  2
AcDbBlockVisibilityParameter
  3
ObjectDBX Classes
 90
    33921
280
     0
281
     0
  0
CLASS
  1
BLOCKVISIBILITYGRIP
  2
AcDbBlockVisibilityGrip
  3
ObjectDBX Classes
 90
    33921
280
     0
281
     0
  0
CLASS
  1
BLOCKGRIPLOCATIONCOMPONENT
  2
AcDbBlockGripExpr
  3
ObjectDBX Classes
 90
    33921
280
     0
281
     0
  0
CLASS
  1
BLOCKBASEPOINTPARAMETER
  2
AcDbBlockBasepointParameter
  3
ObjectDBX Classes
 90
    33921
280
     0
281
     0
  0
CLASS
  1
BLOCKFLIPPARAMETER
  2
AcDbBlockFlipParameter
  3
ObjectDBX Classes
 90
    33921
280
     0
281
     0
  0
CLASS
  1
BLOCKFLIPGRIP
  2
AcDbBlockFlipGrip
  3
ObjectDBX Classes
 90
    33921
280
     0
281
     0
  0
CLASS
  1
BLOCKFLIPACTION
  2
AcDbBlockFlipAction
  3
ObjectDBX Classes
 90
    33921
280
     0
281
     0
  0
CLASS
  1
ACDB_DYNAMICBLOCKPURGEPREVENTER_VERSION
  2
AcDbDynamicBlockPurgePreventer
  3
ObjectDBX Classes
 90
    33921
280
     0
281
     0
  0
CLASS
  1
ACDB_BLOCKREPRESENTATION_DATA
  2
AcDbBlockRepresentationData
  3
ObjectDBX Classes
 90
    33921
280
     0
281
     0
  0
CLASS
  1
ACAECUSTOBJ
  2
AcAeEditorObj
  3
AcAeEditorObj
 90
    33792
280
     0
281
     0
  0
CLASS
  1
BASEPOINTPARAMETERENTITY
  2
AcDbBlockBasepointParameterEntity
  3
ObjectDBX Classes
 90
    33793
280
     0
281
     1
  0
CLASS
  1
ACAEEEMGROBJ
  2
AcAeEEMgrObj
  3
AcAeEEMgrObj
 90
    33792
280
     0
281
     0
  0
CLASS
  1
VISIBILITYPARAMETERENTITY
  2
AcDbBlockVisibilityParameterEntity
  3
ObjectDBX Classes
 90
    33793
280
     0
281
     1
  0
CLASS
  1
VISIBILITYGRIPENTITY
  2
AcDbBlockVisibilityGripEntity
  3
ObjectDBX Classes
 90
    33793
280
     0
281
     1
  0
CLASS
  1
SOLID_BACKGROUND
  2
AcDbSolidBackground
  3
SCENEOE
 90
    36863
280
     0
281
     0
  0
CLASS
  1
NPOCOLLECTION
  2
AcDbImpNonPersistentObjectsCollection
  3
ObjectDBX Classes
 90
    33921
280
     0
281
     0
  0
ENDSEC
  0
SECTION
  2
TABLES
  0
TABLE
  2
VPORT
  5
20
102
{ACAD_XDICTIONARY
360
58D6
102
}
330
0
100
AcDbSymbolTable
 70
     1
  0
VPORT
  5
2529
330
20
100
AcDbSymbolTableRecord
100
AcDbViewportTableRecord
  2
*Active
 70
     0
 10
0.0
 20
0.0
 11
1.0
 21
1.0
 12
15.94960791920266
 22
22.71725472798252
 13
0.0
 23
0.0
 14
0.0625
 24
0.0625
 15
0.5
 25
0.5
 16
0.0
 26
0.0
 36
1.0
 17
0.0
 27
0.0
 37
0.0
 40
19.19856322923993
 41
1.495198902606309
 42
50.0
 43
0.0
 44
0.0
 50
0.0
 51
0.0
 71
     0
 72
  5000
 73
     1
 74
     0
 75
     0
 76
     0
 77
     0
 78
     0
281
     0
 65
     1
110
0.0
120
0.0
130
0.0
111
1.0
121
0.0
131
0.0
112
0.0
122
1.0
132
0.0
 79
     0
146
0.0
  0
ENDTAB
  0
TABLE
  2
LTYPE
  5
1B
330
0
100
AcDbSymbolTable
 70
     1
  0
LTYPE
  5
1C
330
1B
100
AcDbSymbolTableRecord
100
AcDbLinetypeTableRecord
  2
ByBlock
 70
     0
  3

 72
    65
 73
     0
 40
0.0
  0
LTYPE
  5
1D
330
1B
100
AcDbSymbolTableRecord
100
AcDbLinetypeTableRecord
  2
ByLayer
 70
     0
  3

 72
    65
 73
     0
 40
0.0
  0
LTYPE
  5
A
330
1B
100
AcDbSymbolTableRecord
100
AcDbLinetypeTableRecord
  2
Continuous
 70
     0
  3
Solid line
 72
    65
 73
     0
 40
0.0
  0
ENDTAB
  0
TABLE
  2
LAYER
  5
13
102
{ACAD_XDICTIONARY
360
14
102
}
330
0
100
AcDbSymbolTable
 70
    15
  0
LAYER
  5
5
102
{ACAD_XDICTIONARY
360
58B6
102
}
330
13
100
AcDbSymbolTableRecord
100
AcDbLayerTableRecord
  2
0
 70
     0
 62
     7
  6
Continuous
370
    -3
390
6
  0
LAYER
  5
34
102
{ACAD_XDICTIONARY
360
58BE
102
}
330
13
100
AcDbSymbolTableRecord
100
AcDbLayerTableRecord
  2
Pel_Wall
 70
     0
 62
     9
  6
Continuous
370
    -3
390
6
  0
LAYER
  5
255
102
{ACAD_XDICTIONARY
360
58C2
102
}
330
13
100
AcDbSymbolTableRecord
100
AcDbLayerTableRecord
  2
Pel_CS-IG
 70
     0
 62
     2
  6
Continuous
370
    -3
390
6
  0
LAYER
  5
21E
102
{ACAD_XDICTIONARY
360
58C4
102
}
330
13
100
AcDbSymbolTableRecord
100
AcDbLayerTableRecord
  2
Pel_CS-Hardware
 70
     0
 62
    53
  6
Continuous
370
    -3
390
6
  0
LAYER
  5
20C
102
{ACAD_XDICTIONARY
360
58C6
102
}
330
13
100
AcDbSymbolTableRecord
100
AcDbLayerTableRecord
  2
Pel_CS-Sealant
 70
     0
 62
    40
  6
Continuous
370
    -3
390
6
  0
LAYER
  5
223
102
{ACAD_XDICTIONARY
360
58C8
102
}
330
13
100
AcDbSymbolTableRecord
100
AcDbLayerTableRecord
  2
Pel_CS-Cross Section
 70
     0
 62
     7
  6
Continuous
370
    -3
390
6
  0
LAYER
  5
154
102
{ACAD_XDICTIONARY
360
58CA
102
}
330
13
100
AcDbSymbolTableRecord
100
AcDbLayerTableRecord
  2
Pel_Points
 70
     0
 62
     7
  6
Continuous
290
     0
370
    -3
390
6
  0
LAYER
  5
1D8
102
{ACAD_XDICTIONARY
360
58CC
102
}
330
13
100
AcDbSymbolTableRecord
100
AcDbLayerTableRecord
  2
Pel_CS-Weatherstrip
 70
     0
 62
     8
  6
Continuous
370
    -3
390
6
  0
LAYER
  5
221
102
{ACAD_XDICTIONARY
360
58CE
102
}
330
13
100
AcDbSymbolTableRecord
100
AcDbLayerTableRecord
  2
Pel_CS-Reinforcement
 70
     0
 62
   150
  6
Continuous
370
    -3
390
6
  0
LAYER
  5
20A2
102
{ACAD_XDICTIONARY
360
58D0
102
}
330
13
100
AcDbSymbolTableRecord
100
AcDbLayerTableRecord
  2
Pel_Clad
 70
     0
 62
    63
  6
Continuous
370
    -3
390
6
  0
LAYER
  5
36C2
102
{ACAD_XDICTIONARY
360
36C3
102
}
330
13
100
AcDbSymbolTableRecord
100
AcDbLayerTableRecord
  2
Pel_Hatch
 70
     0
 62
     7
  6
Continuous
370
    -3
390
6
  0
LAYER
  5
593C
330
13
100
AcDbSymbolTableRecord
100
AcDbLayerTableRecord
  2
Defpoints
 70
     0
 62
     7
  6
Continuous
290
     0
370
    -3
390
6
  0
ENDTAB
  0
TABLE
  2
STYLE
  5
17
330
0
100
AcDbSymbolTable
 70
     2
  0
STYLE
  5
18
330
17
100
AcDbSymbolTableRecord
100
AcDbTextStyleTableRecord
  2
Standard
 70
     0
 40
0.0
 41
1.0
 50
0.0
 71
     0
 42
1.9375
  3
ARIAL.TTF
  4

1001
ACAD
1000
Arial
1071
       34
  0
STYLE
  5
25
330
17
100
AcDbSymbolTableRecord
100
AcDbTextStyleTableRecord
  2
ARCHQUIK
 70
     0
 40
0.0
 41
1.0
 50
0.0
 71
     0
 42
1.9375
  3
archquik.shx
  4

  0
ENDTAB
  0
TABLE
  2
VIEW
  5
1E
330
0
100
AcDbSymbolTable
 70
     0
  0
ENDTAB
  0
TABLE
  2
UCS
  5
1F
330
0
100
AcDbSymbolTable
 70
     0
  0
ENDTAB
  0
TABLE
  2
APPID
  5
22
330
0
100
AcDbSymbolTable
 70
    26
  0
APPID
  5
19
330
22
100
AcDbSymbolTableRecord
100
AcDbRegAppTableRecord
  2
ACAD
 70
     0
  0
APPID
  5
9
330
22
100
AcDbSymbolTableRecord
100
AcDbRegAppTableRecord
  2
ADE
 70
     0
  0
APPID
  5
2581
330
22
100
AcDbSymbolTableRecord
100
AcDbRegAppTableRecord
  2
ACAD_MLEADERVER
 70
     0
  0
APPID
  5
2603
330
22
100
AcDbSymbolTableRecord
100
AcDbRegAppTableRecord
  2
ACAD_DSTYLE_DIMJAG
 70
     0
  0
APPID
  5
2604
330
22
100
AcDbSymbolTableRecord
100
AcDbRegAppTableRecord
  2
ACAD_DSTYLE_DIMTALN
 70
     0
  0
APPID
  5
3213
330
22
100
AcDbSymbolTableRecord
100
AcDbRegAppTableRecord
  2
AMAcad
 70
     0
  0
APPID
  5
3214
330
22
100
AcDbSymbolTableRecord
100
AcDbRegAppTableRecord
  2
DCO15
 70
     0
  0
APPID
  5
3215
330
22
100
AcDbSymbolTableRecord
100
AcDbRegAppTableRecord
  2
ADCADD_ZZ
 70
     0
  0
APPID
  5
3216
330
22
100
AcDbSymbolTableRecord
100
AcDbRegAppTableRecord
  2
SDSK_PMN
 70
     0
  0
APPID
  5
3217
330
22
100
AcDbSymbolTableRecord
100
AcDbRegAppTableRecord
  2
GENIUS_GENODEF_13
 70
     0
  0
APPID
  5
3218
330
22
100
AcDbSymbolTableRecord
100
AcDbRegAppTableRecord
  2
GENIUS_GENOBJ-N-FIL_13
 70
     0
  0
APPID
  5
3219
330
22
100
AcDbSymbolTableRecord
100
AcDbRegAppTableRecord
  2
GENIUS_GENDTOL_13
 70
     0
  0
APPID
  5
321A
330
22
100
AcDbSymbolTableRecord
100
AcDbRegAppTableRecord
  2
AVE_RENDER
 70
     0
  0
APPID
  5
321B
330
22
100
AcDbSymbolTableRecord
100
AcDbRegAppTableRecord
  2
AVE_ENTITY_MATERIAL
 70
     0
  0
APPID
  5
321C
330
22
100
AcDbSymbolTableRecord
100
AcDbRegAppTableRecord
  2
AVE_FINISH
 70
     0
  0
APPID
  5
321D
330
22
100
AcDbSymbolTableRecord
100
AcDbRegAppTableRecord
  2
AVE_MATERIAL
 70
     0
  0
APPID
  5
321E
330
22
100
AcDbSymbolTableRecord
100
AcDbRegAppTableRecord
  2
AVE_GLOBAL
 70
     0
  0
APPID
  5
321F
330
22
100
AcDbSymbolTableRecord
100
AcDbRegAppTableRecord
  2
ACAD_PSEXT
 70
     0
  0
APPID
  5
3220
330
22
100
AcDbSymbolTableRecord
100
AcDbRegAppTableRecord
  2
AcDbBlockRepETag
 70
     0
  0
APPID
  5
3221
330
22
100
AcDbSymbolTableRecord
100
AcDbRegAppTableRecord
  2
AcDbDynamicBlockTrueName
 70
     0
  0
APPID
  5
3222
330
22
100
AcDbSymbolTableRecord
100
AcDbRegAppTableRecord
  2
AcDbDynamicBlockGUID
 70
     0
  0
APPID
  5
3223
330
22
100
AcDbSymbolTableRecord
100
AcDbRegAppTableRecord
  2
AcDbBlockRepBTag
 70
     0
  0
APPID
  5
34C4
330
22
100
AcDbSymbolTableRecord
100
AcDbRegAppTableRecord
  2
ACAD_EXEMPT_FROM_CAD_STANDARDS
 70
     0
  0
APPID
  5
34C5
330
22
100
AcDbSymbolTableRecord
100
AcDbRegAppTableRecord
  2
ACAUTHENVIRON
 70
     0
  0
APPID
  5
34C6
330
22
100
AcDbSymbolTableRecord
100
AcDbRegAppTableRecord
  2
AcadAnnoPO
 70
     0
  0
APPID
  5
36C4
330
22
100
AcDbSymbolTableRecord
100
AcDbRegAppTableRecord
  2
AME_SOL
 70
     0
  0
ENDTAB
  0
TABLE
  2
DIMSTYLE
  5
23
330
0
100
AcDbSymbolTable
 70
     2
100
AcDbDimStyleTable
 71
     2
340
590A
340
2A
  0
DIMSTYLE
105
2A
102
{ACAD_REACTORS
330
692
330
687
330
67C
330
671
330
666
330
658
330
64A
330
63F
330
62F
102
}
330
23
100
AcDbSymbolTableRecord
100
AcDbDimStyleTableRecord
  2
3 inch Scale
 70
     0
  3
"\X
 41
0.21875
 42
0.5
 43
0.2
 44
0.25
 73
     0
 74
     0
 77
     1
 78
    10
140
0.28
146
0.75
147
0.125
170
     1
171
     0
176
   256
177
   256
178
   255
179
     3
274
     0
276
     2
277
     5
279
     2
340
18
371
    -1
372
    -1
1001
ACAD_DSTYLE_DIMJAG
1070
   388
1040
1.5
1001
ACAD_DSTYLE_DIMTALN
1070
   392
1070
     0
  0
DIMSTYLE
105
590A
330
23
100
AcDbSymbolTableRecord
100
AcDbDimStyleTableRecord
  2
Standard
 70
     0
 41
0.125
 43
0.0625
 44
0.0625
 73
     0
 74
     0
 77
     1
 78
     2
140
0.09375
146
0.75
147
0.0625
176
   256
177
   256
178
     7
179
     3
276
     1
277
     5
279
     2
340
18
1001
ACAD_DSTYLE_DIMJAG
1070
   388
1040
1.5
1001
ACAD_DSTYLE_DIMTALN
1070
   392
1070
     0
  0
ENDTAB
  0
TABLE
  2
BLOCK_RECORD
  5
1
330
0
100
AcDbSymbolTable
 70
    21
  0
BLOCK_RECORD
  5
2
102
{ACAD_XDICTIONARY
360
3
102
}
330
1
100
AcDbSymbolTableRecord
100
AcDbBlockTableRecord
  2
*Model_Space
340
C
  0
BLOCK_RECORD
  5
58E7
330
1
100
AcDbSymbolTableRecord
100
AcDbBlockTableRecord
  2
*Paper_Space
340
58E8
  0
BLOCK_RECORD
  5
631
330
1
100
AcDbSymbolTableRecord
100
AcDbBlockTableRecord
  2
_None
340
0
  0
BLOCK_RECORD
  5
156
102
{ACAD_XDICTIONARY
360
157
102
}
330
1
100
AcDbSymbolTableRecord
100
AcDbBlockTableRecord
  2
Rodseal
340
0
102
{BLKREFS
331
4AB
331
155
331
829
102
}
  0
BLOCK_RECORD
  5
394
102
{ACAD_XDICTIONARY
360
395
102
}
330
1
100
AcDbSymbolTableRecord
100
AcDbBlockTableRecord
  2
Td--2xwstuc-fJ
340
0
102
{BLKREFS
331
393
102
}
  0
BLOCK_RECORD
  5
1C0
102
{ACAD_XDICTIONARY
360
1C1
102
}
330
1
100
AcDbSymbolTableRecord
100
AcDbBlockTableRecord
  2
clip
340
0
102
{BLKREFS
331
343
331
284
331
1BF
102
}
  0
BLOCK_RECORD
  5
1D3
102
{ACAD_XDICTIONARY
360
46C8
102
}
330
1
100
AcDbSymbolTableRecord
100
AcDbBlockTableRecord
  2
TSE 10 SH VLJ
340
0
102
{BLKREFS
331
1D2
102
}
1001
AcDbDynamicBlockGUID
1000
{187D04B0-90CD-425C-AC7E-AFDC0B1D9554}
1001
AcDbBlockRepETag
1070
     1
1071
       54
  0
BLOCK_RECORD
  5
32B
102
{ACAD_XDICTIONARY
360
32C
102
}
330
1
100
AcDbSymbolTableRecord
100
AcDbBlockTableRecord
  2
TSE 10 SH FH
340
0
102
{BLKREFS
331
32A
102
}
  0
BLOCK_RECORD
  5
2A0
102
{ACAD_XDICTIONARY
360
2A1
102
}
330
1
100
AcDbSymbolTableRecord
100
AcDbBlockTableRecord
  2
TSE 10 SW VS
340
0
102
{BLKREFS
331
29F
102
}
  0
BLOCK_RECORD
  5
35
102
{ACAD_XDICTIONARY
360
36
102
}
330
1
100
AcDbSymbolTableRecord
100
AcDbBlockTableRecord
  2
Td--2xwstuc-fS2
340
0
102
{BLKREFS
331
33
102
}
  0
BLOCK_RECORD
  5
6E5
102
{ACAD_XDICTIONARY
360
6E6
102
}
330
1
100
AcDbSymbolTableRecord
100
AcDbBlockTableRecord
  2
10headstuc
340
0
102
{BLKREFS
331
867
102
}
  0
BLOCK_RECORD
  5
2513
330
1
100
AcDbSymbolTableRecord
100
AcDbBlockTableRecord
  2
*D9
340
0
  0
BLOCK_RECORD
  5
251D
330
1
100
AcDbSymbolTableRecord
100
AcDbBlockTableRecord
  2
*D10
340
0
  0
BLOCK_RECORD
  5
2598
330
1
100
AcDbSymbolTableRecord
100
AcDbBlockTableRecord
  2
*D11
340
0
  0
BLOCK_RECORD
  5
25C1
330
1
100
AcDbSymbolTableRecord
100
AcDbBlockTableRecord
  2
*D12
340
0
  0
BLOCK_RECORD
  5
25CE
330
1
100
AcDbSymbolTableRecord
100
AcDbBlockTableRecord
  2
*D13
340
0
  0
BLOCK_RECORD
  5
25D8
330
1
100
AcDbSymbolTableRecord
100
AcDbBlockTableRecord
  2
*D14
340
0
  0
BLOCK_RECORD
  5
25E2
330
1
100
AcDbSymbolTableRecord
100
AcDbBlockTableRecord
  2
*D15
340
0
  0
BLOCK_RECORD
  5
25EF
330
1
100
AcDbSymbolTableRecord
100
AcDbBlockTableRecord
  2
*D16
340
0
  0
BLOCK_RECORD
  5
25F9
330
1
100
AcDbSymbolTableRecord
100
AcDbBlockTableRecord
  2
*D17
340
0
  0
BLOCK_RECORD
  5
4DD3
102
{ACAD_XDICTIONARY
360
4DD8
102
}
330
1
100
AcDbSymbolTableRecord
100
AcDbBlockTableRecord
  2
30AY
340
0
102
{BLKREFS
331
4DDC
331
53FC
331
53FD
102
}
  0
BLOCK_RECORD
  5
4DDD
330
1
100
AcDbSymbolTableRecord
100
AcDbBlockTableRecord
  2
Nail
340
0
102
{BLKREFS
331
4FCE
331
5895
102
}
  0
BLOCK_RECORD
  5
50BF
102
{ACAD_XDICTIONARY
360
50E5
102
}
330
1
100
AcDbSymbolTableRecord
100
AcDbBlockTableRecord
  2
FOAM1
340
0
102
{BLKREFS
331
5149
331
5665
331
588F
102
}
  0
ENDTAB
  0
ENDSEC
  0
SECTION
  2
BLOCKS
  0
BLOCK
  5
4
330
2
100
AcDbEntity
  8
0
100
AcDbBlockBegin
  2
*Model_Space
 70
     0
 10
0.0
 20
0.0
 30
0.0
  3
*Model_Space
  1

  0
ENDBLK
  5
B
330
2
100
AcDbEntity
  8
0
100
AcDbBlockEnd
  0
BLOCK
  5
58E9
330
58E7
100
AcDbEntity
 67
     1
  8
0
100
AcDbBlockBegin
  2
*Paper_Space
 70
     0
 10
0.0
 20
0.0
 30
0.0
  3
*Paper_Space
  1

  0
ENDBLK
  5
58EA
330
58E7
100
AcDbEntity
 67
     1
  8
0
100
AcDbBlockEnd
  0
BLOCK
  5
632
330
631
100
AcDbEntity
  8
0
100
AcDbBlockBegin
  2
_None
 70
     0
 10
0.0
 20
0.0
 30
0.0
  3
_None
  1

  0
ENDBLK
  5
633
330
631
100
AcDbEntity
  8
0
100
AcDbBlockEnd
  0
BLOCK
  5
159
330
156
100
AcDbEntity
  8
0
100
AcDbBlockBegin
  2
Rodseal
 70
     0
 10
0.0
 20
0.0
 30
0.0
  3
Rodseal
  1

  0
ARC
  5
15A
330
156
100
AcDbEntity
  8
Pel_Wall
100
AcDbCircle
 10
-0.5625
 20
0.5
 30
0.0
 40
1.0625
100
AcDbArc
 50
17.99029647599074
 51
28.07248693585249
  0
ARC
  5
15B
330
156
100
AcDbEntity
  8
Pel_Wall
100
AcDbCircle
 10
-0.5625
 20
0.5
 30
0.0
 40
1.0625
100
AcDbArc
 50
331.9275130641475
 51
340.7928957547761
  0
ARC
  5
15C
330
156
100
AcDbEntity
  8
Pel_Wall
100
AcDbCircle
 10
-0.9375
 20
0.5
 30
0.0
 40
1.0625
100
AcDbArc
 50
331.9275130641475
 51
28.07248693585249
  0
ARC
  5
15D
330
156
100
AcDbEntity
  8
Pel_Wall
100
AcDbCircle
 10
-0.8125
 20
0.5
 30
0.0
 40
1.0625
100
AcDbArc
 50
331.9275130641475
 51
28.07248693585249
  0
ARC
  5
15E
330
156
100
AcDbEntity
  8
Pel_Wall
100
AcDbCircle
 10
-0.6875
 20
0.5
 30
0.0
 40
1.0625
100
AcDbArc
 50
331.9275130641475
 51
28.07248693585249
  0
CIRCLE
  5
15F
330
156
100
AcDbEntity
  8
Pel_Wall
100
AcDbCircle
 10
0.7708146583002531
 20
0.2987804878048763
 30
0.0
 40
0.0182801895249072
  0
ARC
  5
160
330
156
100
AcDbEntity
  8
Pel_Wall
100
AcDbCircle
 10
-0.4375
 20
0.5
 30
0.0
 40
1.0625
100
AcDbArc
 50
331.9275130641475
 51
335.4550269558484
  0
CIRCLE
  5
161
330
156
100
AcDbEntity
  8
Pel_Wall
100
AcDbCircle
 10
0.5880127630511823
 20
0.189024390243901
 30
0.0
 40
0.0182926829268291
  0
ARC
  5
162
330
156
100
AcDbEntity
  8
Pel_Wall
100
AcDbCircle
 10
-0.4375
 20
0.5
 30
0.0
 40
1.0625
100
AcDbArc
 50
24.773340356527
 51
28.07248693585249
  0
CIRCLE
  5
163
330
156
100
AcDbEntity
  8
Pel_Wall
100
AcDbCircle
 10
0.8165151321125279
 20
0.4939024390243958
 30
0.0
 40
0.027420284287361
  0
CIRCLE
  5
164
330
156
100
AcDbEntity
  8
Pel_Wall
100
AcDbCircle
 10
0.560592478763823
 20
0.4969512195121979
 30
0.0
 40
0.0274390243902443
  0
CIRCLE
  5
165
330
156
100
AcDbEntity
  8
Pel_Wall
100
AcDbCircle
 10
0.6855071071840087
 20
0.7835365853658516
 30
0.0
 40
0.0243735860332097
  0
ELLIPSE
  5
166
330
156
100
AcDbEntity
  8
Pel_Wall
100
AcDbEllipse
 10
0.6875
 20
0.5
 30
0.0
 11
0.0
 21
0.5
 31
0.0
210
0.0
220
0.0
230
1.0
 40
0.625
 41
4.712388980384689
 42
10.99557428756427
  0
ENDBLK
  5
167
330
156
100
AcDbEntity
  8
0
100
AcDbBlockEnd
  0
BLOCK
  5
397
330
394
100
AcDbEntity
  8
0
100
AcDbBlockBegin
  2
Td--2xwstuc-fJ
 70
     0
 10
0.0
 20
0.0
 30
0.0
  3
Td--2xwstuc-fJ
  1

  0
POLYLINE
  5
398
330
394
100
AcDbEntity
  8
Pel_Wall
  6
Continuous
100
AcDb2dPolyline
 66
     1
 10
0.0
 20
0.0
 30
0.0
  0
VERTEX
  5
5618
330
398
100
AcDbEntity
  8
Pel_Wall
  6
Continuous
100
AcDbVertex
100
AcDb2dVertex
 10
5.156353964620504
 20
4.250200000000032
 30
0.0
 42
-0.6332168699142388
  0
VERTEX
  5
5619
330
398
100
AcDbEntity
  8
Pel_Wall
  6
Continuous
100
AcDbVertex
100
AcDb2dVertex
 10
3.797680068044866
 20
3.532133046112019
 30
0.0
  0
VERTEX
  5
561A
330
398
100
AcDbEntity
  8
Pel_Wall
  6
Continuous
100
AcDbVertex
100
AcDb2dVertex
 10
3.118965938685051
 20
4.041164738898193
 30
0.0
 42
0.6394770868481389
  0
VERTEX
  5
561B
330
398
100
AcDbEntity
  8
Pel_Wall
  6
Continuous
100
AcDbVertex
100
AcDb2dVertex
 10
1.758662291710106
 20
3.312500000000018
 30
0.0
  0
SEQEND
  5
561C
330
398
100
AcDbEntity
  8
Pel_Wall
  6
Continuous
  0
POLYLINE
  5
39E
330
394
100
AcDbEntity
  8
Pel_Wall
  6
Continuous
100
AcDb2dPolyline
 66
     1
 10
0.0
 20
0.0
 30
0.0
  0
VERTEX
  5
561E
330
39E
100
AcDbEntity
  8
Pel_Wall
  6
Continuous
100
AcDbVertex
100
AcDb2dVertex
 10
1.185499999999998
 20
4.250200000000006
 30
0.0
  0
VERTEX
  5
561F
330
39E
100
AcDbEntity
  8
Pel_Wall
  6
Continuous
100
AcDbVertex
100
AcDb2dVertex
 10
1.185499999999999
 20
0.2541826402571704
 30
0.0
  0
VERTEX
  5
5620
330
39E
100
AcDbEntity
  8
Pel_Wall
  6
Continuous
100
AcDbVertex
100
AcDb2dVertex
 10
3.082871127815463
 20
0.2541826402571707
 30
0.0
  0
SEQEND
  5
5621
330
39E
100
AcDbEntity
  8
Pel_Wall
  6
Continuous
  0
POLYLINE
  5
3A3
330
394
100
AcDbEntity
  8
Pel_Wall
  6
Continuous
100
AcDb2dPolyline
 66
     1
 10
0.0
 20
0.0
 30
0.0
  0
VERTEX
  5
5623
330
3A3
100
AcDbEntity
  8
Pel_Wall
  6
Continuous
100
AcDbVertex
100
AcDb2dVertex
 10
1.205499999999997
 20
4.250200000000006
 30
0.0
  0
VERTEX
  5
5624
330
3A3
100
AcDbEntity
  8
Pel_Wall
  6
Continuous
100
AcDbVertex
100
AcDb2dVertex
 10
1.205499999999998
 20
0.2741826402571522
 30
0.0
  0
VERTEX
  5
5625
330
3A3
100
AcDbEntity
  8
Pel_Wall
  6
Continuous
100
AcDbVertex
100
AcDb2dVertex
 10
3.082871127815463
 20
0.2741826402571525
 30
0.0
  0
SEQEND
  5
5626
330
3A3
100
AcDbEntity
  8
Pel_Wall
  6
Continuous
  0
POLYLINE
  5
3A8
330
394
100
AcDbEntity
  8
Pel_Wall
  6
Continuous
100
AcDb2dPolyline
 66
     1
 10
0.0
 20
0.0
 30
0.0
  0
VERTEX
  5
5628
330
3A8
100
AcDbEntity
  8
Pel_Wall
  6
Continuous
100
AcDbVertex
100
AcDb2dVertex
 10
1.694690429133968
 20
1.812500000000018
 30
0.0
  0
VERTEX
  5
5629
330
3A8
100
AcDbEntity
  8
Pel_Wall
  6
Continuous
100
AcDbVertex
100
AcDb2dVertex
 10
5.194690429133967
 20
1.812500000000025
 30
0.0
  0
VERTEX
  5
562A
330
3A8
100
AcDbEntity
  8
Pel_Wall
  6
Continuous
100
AcDbVertex
100
AcDb2dVertex
 10
5.194690429133967
 20
3.312500000000025
 30
0.0
  0
VERTEX
  5
562B
330
3A8
100
AcDbEntity
  8
Pel_Wall
  6
Continuous
100
AcDbVertex
100
AcDb2dVertex
 10
1.694690429133967
 20
3.312500000000018
 30
0.0
  0
VERTEX
  5
562C
330
3A8
100
AcDbEntity
  8
Pel_Wall
  6
Continuous
100
AcDbVertex
100
AcDb2dVertex
 10
1.694690429133968
 20
1.812500000000018
 30
0.0
  0
SEQEND
  5
562D
330
3A8
100
AcDbEntity
  8
Pel_Wall
  6
Continuous
  0
LINE
  5
3AF
330
394
100
AcDbEntity
  8
Pel_Wall
  6
Continuous
100
AcDbLine
 10
1.694690429133968
 20
1.812500000000018
 30
0.0
 11
5.194690429133967
 21
3.312500000000025
 31
0.0
  0
LINE
  5
3B0
330
394
100
AcDbEntity
  8
Pel_Wall
  6
Continuous
100
AcDbLine
 10
1.694690429133967
 20
3.312500000000018
 30
0.0
 11
5.194690429133967
 21
1.812500000000025
 31
0.0
  0
LINE
  5
3B1
330
394
100
AcDbEntity
  8
Pel_Wall
  6
Continuous
100
AcDbLine
 10
1.694690429133968
 20
1.812500000000018
 30
0.0
 11
5.194690429133975
 21
0.3125000000000259
 31
0.0
  0
LINE
  5
3B2
330
394
100
AcDbEntity
  8
Pel_Wall
  6
Continuous
100
AcDbLine
 10
1.694690429133968
 20
0.3125000000000182
 30
0.0
 11
5.194690429133967
 21
1.812500000000025
 31
0.0
  0
POLYLINE
  5
3B3
330
394
100
AcDbEntity
  8
Pel_Wall
  6
Continuous
100
AcDb2dPolyline
 66
     1
 10
0.0
 20
0.0
 30
0.0
  0
VERTEX
  5
5633
330
3B3
100
AcDbEntity
  8
Pel_Wall
  6
Continuous
100
AcDbVertex
100
AcDb2dVertex
 10
1.694690429133968
 20
0.3125000000000182
 30
0.0
  0
VERTEX
  5
5634
330
3B3
100
AcDbEntity
  8
Pel_Wall
  6
Continuous
100
AcDbVertex
100
AcDb2dVertex
 10
5.194690429133975
 20
0.3125000000000259
 30
0.0
  0
VERTEX
  5
5635
330
3B3
100
AcDbEntity
  8
Pel_Wall
  6
Continuous
100
AcDbVertex
100
AcDb2dVertex
 10
5.194690429133967
 20
1.812500000000025
 30
0.0
  0
VERTEX
  5
5636
330
3B3
100
AcDbEntity
  8
Pel_Wall
  6
Continuous
100
AcDbVertex
100
AcDb2dVertex
 10
1.694690429133968
 20
1.812500000000018
 30
0.0
  0
VERTEX
  5
5637
330
3B3
100
AcDbEntity
  8
Pel_Wall
  6
Continuous
100
AcDbVertex
100
AcDb2dVertex
 10
1.694690429133968
 20
0.3125000000000182
 30
0.0
  0
SEQEND
  5
5638
330
3B3
100
AcDbEntity
  8
Pel_Wall
  6
Continuous
  0
LWPOLYLINE
  5
3BA
330
394
100
AcDbEntity
  8
Pel_Wall
  6
Continuous
100
AcDbPolyline
 90
        6
 70
     0
 43
0.0
 10
0.0384404291339613
 20
0.657499999999999
 10
0.0709404291339602
 20
0.657499999999999
 10
0.0709404291339603
 20
0.282499999999999
 10
0.787190429133959
 20
0.2824999999999991
 10
0.7871904291339586
 20
1.782499999999999
 10
0.819690429133961
 20
1.782499999999999
  0
LINE
  5
3BE
330
394
100
AcDbEntity
  8
Pel_Wall
  6
Continuous
100
AcDbLine
 10
1.007190429133961
 20
0.9405676875769874
 30
0.0
 11
1.938921108735355
 21
0.9405676875769874
 31
0.0
  0
POLYLINE
  5
3BF
330
394
100
AcDbEntity
  8
Pel_Wall
  6
Continuous
100
AcDb2dPolyline
 66
     1
 10
0.0
 20
0.0
 30
0.0
  0
VERTEX
  5
563C
330
3BF
100
AcDbEntity
  8
Pel_Wall
  6
Continuous
100
AcDbVertex
100
AcDb2dVertex
 10
0.9608815757228137
 20
0.0000000000000003
 30
0.0
  0
VERTEX
  5
563D
330
3BF
100
AcDbEntity
  8
Pel_Wall
  6
Continuous
100
AcDbVertex
100
AcDb2dVertex
 10
0.9608815757228134
 20
1.192221359549989
 30
0.0
  0
VERTEX
  5
563E
330
3BF
100
AcDbEntity
  8
Pel_Wall
  6
Continuous
100
AcDbVertex
100
AcDb2dVertex
 10
1.023381575722813
 20
1.317221359549989
 30
0.0
  0
VERTEX
  5
563F
330
3BF
100
AcDbEntity
  8
Pel_Wall
  6
Continuous
100
AcDbVertex
100
AcDb2dVertex
 10
1.023381575722813
 20
3.0
 30
0.0
  0
SEQEND
  5
5640
330
3BF
100
AcDbEntity
  8
Pel_Wall
  6
Continuous
  0
POLYLINE
  5
3C5
330
394
100
AcDbEntity
  8
Pel_Wall
  6
Continuous
100
AcDb2dPolyline
 66
     1
 10
0.0
 20
0.0
 30
0.0
  0
VERTEX
  5
5642
330
3C5
100
AcDbEntity
  8
Pel_Wall
  6
Continuous
100
AcDbVertex
100
AcDb2dVertex
 10
0.9808815757228133
 20
0.0000000000000003
 30
0.0
  0
VERTEX
  5
5643
330
3C5
100
AcDbEntity
  8
Pel_Wall
  6
Continuous
100
AcDbVertex
100
AcDb2dVertex
 10
0.980881575722813
 20
1.1875
 30
0.0
  0
VERTEX
  5
5644
330
3C5
100
AcDbEntity
  8
Pel_Wall
  6
Continuous
100
AcDbVertex
100
AcDb2dVertex
 10
1.043381575722812
 20
1.3125
 30
0.0
  0
VERTEX
  5
5645
330
3C5
100
AcDbEntity
  8
Pel_Wall
  6
Continuous
100
AcDbVertex
100
AcDb2dVertex
 10
1.043381575722812
 20
3.0
 30
0.0
  0
SEQEND
  5
5646
330
3C5
100
AcDbEntity
  8
Pel_Wall
  6
Continuous
  0
LINE
  5
3CF
330
394
100
AcDbEntity
  8
Pel_Wall
  6
Continuous
100
AcDbLine
 10
1.032671108735358
 20
0.8155676875769874
 30
0.0
 11
1.032671108735358
 21
1.065567687576987
 31
0.0
  0
POLYLINE
  5
3E4
102
{ACAD_REACTORS
330
566A
102
}
330
394
100
AcDbEntity
  8
Pel_Wall
  6
Continuous
100
AcDb2dPolyline
 66
     1
 10
0.0
 20
0.0
 30
0.0
 70
     1
  0
VERTEX
  5
5649
330
3E4
100
AcDbEntity
  8
Pel_Wall
  6
Continuous
100
AcDbVertex
100
AcDb2dVertex
 10
5.194690429133975
 20
4.250200000000032
 30
0.0
  0
VERTEX
  5
564A
330
3E4
100
AcDbEntity
  8
Pel_Wall
  6
Continuous
100
AcDbVertex
100
AcDb2dVertex
 10
5.194690429133975
 20
0.3125000000000259
 30
0.0
  0
VERTEX
  5
564B
330
3E4
100
AcDbEntity
  8
Pel_Wall
  6
Continuous
100
AcDbVertex
100
AcDb2dVertex
 10
5.694690429133975
 20
0.312500000000026
 30
0.0
  0
VERTEX
  5
564C
330
3E4
100
AcDbEntity
  8
Pel_Wall
  6
Continuous
100
AcDbVertex
100
AcDb2dVertex
 10
5.694690429133975
 20
4.250200000000032
 30
0.0
  0
SEQEND
  5
564D
330
3E4
100
AcDbEntity
  8
Pel_Wall
  6
Continuous
  0
POLYLINE
  5
3EA
330
394
100
AcDbEntity
  8
Pel_Wall
  6
Continuous
100
AcDb2dPolyline
 66
     1
 10
0.0
 20
0.0
 30
0.0
  0
VERTEX
  5
564F
330
3EA
100
AcDbEntity
  8
Pel_Wall
  6
Continuous
100
AcDbVertex
100
AcDb2dVertex
 10
2.356853236531666
 20
4.250200000000025
 30
0.0
 42
0.1505968793853698
  0
VERTEX
  5
5650
330
3EA
100
AcDbEntity
  8
Pel_Wall
  6
Continuous
100
AcDbVertex
100
AcDb2dVertex
 10
2.857527621736271
 20
4.250200000000025
 30
0.0
  0
SEQEND
  5
5651
330
3EA
100
AcDbEntity
  8
Pel_Wall
  6
Continuous
  0
LINE
  5
3EE
330
394
100
AcDbEntity
  8
Pel_Wall
  6
Continuous
100
AcDbLine
 10
2.470171108735355
 20
0.9405676875769875
 30
0.0
 11
3.220171108735355
 21
0.9405676875769948
 31
0.0
  0
LINE
  5
3EF
330
394
100
AcDbEntity
  8
Pel_Wall
  6
Continuous
100
AcDbLine
 10
2.095171108735355
 20
0.9405676875769875
 30
0.0
 11
2.345171108735355
 21
0.9405676875769875
 31
0.0
  0
POINT
  5
4AA
330
394
100
AcDbEntity
  8
Pel_Points
100
AcDbPoint
 10
0.0000000000000015
 20
0.0000000000000001
 30
0.0
 50
270.0
  0
INSERT
  5
4AB
330
394
100
AcDbEntity
  8
Pel_Wall
100
AcDbBlockReference
  2
Rodseal
 10
0.0384404291339579
 20
0.0000000000000001
 30
0.0
 41
0.875
 42
0.25
  0
POLYLINE
  5
4AD
330
394
100
AcDbEntity
  8
Pel_Wall
100
AcDb2dPolyline
 66
     1
 10
0.0
 20
0.0
 30
0.0
  0
VERTEX
  5
5657
330
4AD
100
AcDbEntity
  8
Pel_Wall
100
AcDbVertex
100
AcDb2dVertex
 10
4.1479620987102
 20
0.031428035330614
 30
0.0
  0
VERTEX
  5
5658
330
4AD
100
AcDbEntity
  8
Pel_Wall
100
AcDbVertex
100
AcDb2dVertex
 10
4.1479620987102
 20
0.2500000000000222
 30
0.0
  0
VERTEX
  5
5659
330
4AD
100
AcDbEntity
  8
Pel_Wall
100
AcDbVertex
100
AcDb2dVertex
 10
5.2729620987102
 20
0.2500000000000224
 30
0.0
  0
VERTEX
  5
565A
330
4AD
100
AcDbEntity
  8
Pel_Wall
100
AcDbVertex
100
AcDb2dVertex
 10
5.2729620987102
 20
0.0314280353306142
 30
0.0
  0
VERTEX
  5
565B
330
4AD
100
AcDbEntity
  8
Pel_Wall
100
AcDbVertex
100
AcDb2dVertex
 10
4.1479620987102
 20
0.031428035330614
 30
0.0
  0
VERTEX
  5
565C
330
4AD
100
AcDbEntity
  8
Pel_Wall
100
AcDbVertex
100
AcDb2dVertex
 10
5.2729620987102
 20
0.2500000000000224
 30
0.0
  0
SEQEND
  5
565D
330
4AD
100
AcDbEntity
  8
Pel_Wall
  0
POLYLINE
  5
1659
102
{ACAD_REACTORS
330
165F
102
}
330
394
100
AcDbEntity
  8
Pel_Wall
100
AcDb2dPolyline
 66
     1
 10
0.0
 20
0.0
 30
0.0
 70
     1
  0
VERTEX
  5
565F
330
1659
100
AcDbEntity
  8
Pel_Wall
100
AcDbVertex
100
AcDb2dVertex
 10
1.694690429133968
 20
0.3125000000000182
 30
0.0
  0
VERTEX
  5
5660
330
1659
100
AcDbEntity
  8
Pel_Wall
100
AcDbVertex
100
AcDb2dVertex
 10
1.257190429133968
 20
0.3125000000000181
 30
0.0
  0
VERTEX
  5
5661
330
1659
100
AcDbEntity
  8
Pel_Wall
100
AcDbVertex
100
AcDb2dVertex
 10
1.257190429133967
 20
4.250000000000014
 30
0.0
  0
VERTEX
  5
5662
330
1659
100
AcDbEntity
  8
Pel_Wall
100
AcDbVertex
100
AcDb2dVertex
 10
1.694690429133967
 20
4.250000000000014
 30
0.0
  0
SEQEND
  5
5663
330
1659
100
AcDbEntity
  8
Pel_Wall
  0
HATCH
  5
165F
330
394
100
AcDbEntity
  8
Pel_Wall
100
AcDbHatch
 10
0.0
 20
0.0
 30
0.0
210
0.0
220
0.0
230
1.0
  2
PLY
 70
     0
 71
     1
 91
        1
 92
        1
 93
        4
 72
     1
 10
1.694690429133968
 20
0.3125000000000182
 11
1.257190429133968
 21
0.3125000000000182
 72
     1
 10
1.257190429133968
 20
0.3125000000000181
 11
1.257190429133967
 21
4.250000000000014
 72
     1
 10
1.257190429133967
 20
4.250000000000014
 11
1.694690429133967
 21
4.250000000000014
 72
     1
 10
1.694690429133967
 20
4.250000000000014
 11
1.694690429133968
 21
0.3125000000000178
 97
        1
330
1659
 75
     0
 76
     1
 52
-89.99999999999998
 41
1.0
 77
     0
 78
     2
 53
270.0
 43
-20.94719404345266
 44
22.79142803533064
 45
0.125
 46
0.0
 79
     0
 53
315.0
 43
-21.07219404345266
 44
22.79142803533064
 45
0.3535533905932737
 46
0.3535533905932738
 79
     0
 98
        1
 10
-21.07219404345266
 20
22.79142803533064
  0
INSERT
  5
5665
330
394
100
AcDbEntity
  8
0
100
AcDbBlockReference
  2
FOAM1
 10
5.685500000000002
 20
0.0000000000000118
 30
0.0
 42
1.25
  0
LWPOLYLINE
  5
5666
102
{ACAD_REACTORS
330
5669
102
}
330
394
100
AcDbEntity
  8
Pel_Wall
  6
Continuous
100
AcDbPolyline
 90
       30
 70
     1
 43
0.0
 10
0.7871904291339554
 20
0.2824999999999991
 10
0.7871904291339586
 20
1.782499999999999
 10
0.819690429133961
 20
1.782499999999999
 10
0.694690429133961
 20
2.25
 10
0.819690429133961
 20
2.25
 10
0.6946904291339609
 20
2.6875
 10
0.8196904291339608
 20
2.6875
 10
0.6946904291339608
 20
3.0625
 10
0.8196904291339606
 20
3.0625
 10
0.6946904291339608
 20
3.375
 10
0.8196904291339606
 20
3.375
 10
0.6946904291339607
 20
3.6875
 10
0.8196904291339606
 20
3.6875
 10
0.6946904291339607
 20
4.0
 10
0.8196904291339606
 20
4.0
 10
0.7196904291339591
 20
4.25
 10
0.0753919391776356
 20
4.25
 10
0.1048507324972021
 20
3.97800695815594
 10
0.0384404291339607
 20
3.625000000000003
 10
0.0996815021975025
 20
3.262320501517702
 10
0.059639995757899
 20
2.958209777430681
 10
0.0996815021975027
 20
2.58850654422687
 10
0.0332711988342577
 20
2.235499586070943
 10
0.0860087926815407
 20
1.738189107858066
 10
0.0332711988342579
 20
1.288582272639186
 10
0.0860087926815409
 20
0.9510789984563531
 10
0.0384404291339613
 20
0.6875000000000001
 10
0.0384404291339613
 20
0.657499999999999
 10
0.0709404291339602
 20
0.657499999999999
 10
0.0709404291339603
 20
0.282499999999999
  0
LWPOLYLINE
  5
5667
330
394
100
AcDbEntity
  8
Pel_Wall
  6
Continuous
100
AcDbPolyline
 90
        4
 70
     0
 43
0.0
 10
0.0384404291339613
 20
0.657499999999999
 10
0.0384404291339614
 20
0.2500000000000001
 10
0.8196904291339613
 20
0.2500000000000003
 10
0.8196904291339569
 20
4.25
  0
LWPOLYLINE
  5
5668
330
394
100
AcDbEntity
  8
Pel_Wall
100
AcDbPolyline
 90
        9
 70
     1
 43
0.0
 10
0.819690429133961
 20
1.782499999999999
 10
0.7871904291339586
 20
1.782499999999999
 10
0.7871904291339554
 20
0.2824999999999991
 10
0.0709404291339603
 20
0.282499999999999
 10
0.0709404291339602
 20
0.657499999999999
 10
0.0384404291339613
 20
0.657499999999999
 10
0.0384404291339614
 20
0.2500000000000001
 10
0.8196904291339613
 20
0.2500000000000003
 10
0.819690429133961
 20
1.782499999999999
  0
HATCH
  5
5669
330
394
100
AcDbEntity
  8
Pel_Hatch
 62
     2
100
AcDbHatch
 10
0.0
 20
0.0
 30
0.0
210
0.0
220
0.0
230
1.0
  2
AR-SAND
 70
     0
 71
     1
 91
        1
 92
        1
 93
       30
 72
     1
 10
0.7871904291339554
 20
0.2824999999999991
 11
0.7871904291339586
 21
1.782499999999999
 72
     1
 10
0.7871904291339586
 20
1.782499999999999
 11
0.819690429133961
 21
1.782499999999999
 72
     1
 10
0.819690429133961
 20
1.782499999999999
 11
0.694690429133961
 21
2.25
 72
     1
 10
0.694690429133961
 20
2.25
 11
0.819690429133961
 21
2.25
 72
     1
 10
0.819690429133961
 20
2.25
 11
0.6946904291339609
 21
2.6875
 72
     1
 10
0.6946904291339609
 20
2.6875
 11
0.8196904291339608
 21
2.6875
 72
     1
 10
0.8196904291339608
 20
2.6875
 11
0.6946904291339608
 21
3.0625
 72
     1
 10
0.6946904291339608
 20
3.0625
 11
0.8196904291339606
 21
3.0625
 72
     1
 10
0.8196904291339606
 20
3.0625
 11
0.6946904291339607
 21
3.375
 72
     1
 10
0.6946904291339608
 20
3.375
 11
0.8196904291339606
 21
3.375
 72
     1
 10
0.8196904291339606
 20
3.375
 11
0.6946904291339607
 21
3.6875
 72
     1
 10
0.6946904291339607
 20
3.6875
 11
0.8196904291339606
 21
3.6875
 72
     1
 10
0.8196904291339606
 20
3.6875
 11
0.6946904291339607
 21
4.0
 72
     1
 10
0.6946904291339607
 20
4.0
 11
0.8196904291339606
 21
4.0
 72
     1
 10
0.8196904291339606
 20
4.0
 11
0.7196904291339593
 21
4.25
 72
     1
 10
0.7196904291339591
 20
4.25
 11
0.0753919391776355
 21
4.25
 72
     1
 10
0.0753919391776356
 20
4.25
 11
0.1048507324972021
 21
3.97800695815594
 72
     1
 10
0.1048507324972021
 20
3.97800695815594
 11
0.0384404291339607
 21
3.625000000000003
 72
     1
 10
0.0384404291339607
 20
3.625000000000003
 11
0.0996815021975025
 21
3.262320501517702
 72
     1
 10
0.0996815021975025
 20
3.262320501517702
 11
0.059639995757899
 21
2.958209777430681
 72
     1
 10
0.059639995757899
 20
2.958209777430681
 11
0.0996815021975027
 21
2.58850654422687
 72
     1
 10
0.0996815021975027
 20
2.58850654422687
 11
0.0332711988342577
 21
2.235499586070943
 72
     1
 10
0.0332711988342577
 20
2.235499586070943
 11
0.0860087926815407
 21
1.738189107858065
 72
     1
 10
0.0860087926815407
 20
1.738189107858066
 11
0.0332711988342579
 21
1.288582272639186
 72
     1
 10
0.0332711988342579
 20
1.288582272639186
 11
0.0860087926815409
 21
0.9510789984563531
 72
     1
 10
0.0860087926815409
 20
0.9510789984563531
 11
0.0384404291339613
 21
0.6875000000000001
 72
     1
 10
0.0384404291339613
 20
0.6875000000000001
 11
0.0384404291339613
 21
0.657499999999999
 72
     1
 10
0.0384404291339613
 20
0.657499999999999
 11
0.0709404291339602
 21
0.657499999999999
 72
     1
 10
0.0709404291339602
 20
0.657499999999999
 11
0.0709404291339603
 21
0.2824999999999989
 72
     1
 10
0.0709404291339603
 20
0.282499999999999
 11
0.7871904291339554
 21
0.2824999999999991
 97
        1
330
5666
 75
     0
 76
     1
 52
-89.99999999999998
 41
0.2
 77
     0
 78
     4
 53
307.5
 43
-20.78013447258662
 44
22.79142803533062
 45
0.3853647538026317
 46
0.0125986716219217
 79
     6
 49
0.0
 49
-0.304
 49
0.0
 49
-0.34
 49
0.0
 49
-0.325
 53
277.5
 43
-20.78013447258662
 44
22.79142803533062
 45
0.5644292130459484
 46
-0.3539553410535454
 79
     6
 49
0.0
 49
-0.164
 49
0.0
 49
-0.274
 49
0.0
 49
-0.105
 53
237.5
 43
-20.78013447258662
 44
23.03742803533062
 45
0.001131810707393
 46
-0.6228283723502991
 79
     6
 49
0.0
 49
-0.1
 49
0.0
 49
-0.36
 49
0.0
 49
-0.4700000000000001
 53
227.5
 43
-20.78013447258662
 44
23.03742803533062
 45
0.17553511298685
 46
-0.6012253209144588
 79
     6
 49
0.0
 49
-0.05
 49
0.0
 49
-0.236
 49
0.0
 49
-0.27
 98
        1
 10
-20.78013447258662
 20
22.79142803533062
1001
ACAD
1010
0.0
1020
0.0
1030
0.0
  0
HATCH
  5
566A
330
394
100
AcDbEntity
  8
Pel_Hatch
 62
     2
100
AcDbHatch
 10
0.0
 20
0.0
 30
0.0
210
0.0
220
0.0
230
1.0
  2
AR-SAND
 70
     0
 71
     1
 91
        1
 92
        1
 93
        4
 72
     1
 10
5.194690429133975
 20
4.250200000000032
 11
5.194690429133975
 21
0.3125000000000258
 72
     1
 10
5.194690429133975
 20
0.3125000000000259
 11
5.694690429133975
 21
0.312500000000026
 72
     1
 10
5.694690429133975
 20
0.312500000000026
 11
5.694690429133975
 21
4.250200000000032
 72
     1
 10
5.694690429133975
 20
4.250200000000032
 11
5.194690429133975
 21
4.250200000000032
 97
        1
330
3E4
 75
     0
 76
     1
 52
-89.99999999999998
 41
0.2
 77
     0
 78
     4
 53
307.5
 43
-20.78013447258662
 44
22.79142803533062
 45
0.3853647538026317
 46
0.0125986716219217
 79
     6
 49
0.0
 49
-0.304
 49
0.0
 49
-0.34
 49
0.0
 49
-0.325
 53
277.5
 43
-20.78013447258662
 44
22.79142803533062
 45
0.5644292130459484
 46
-0.3539553410535454
 79
     6
 49
0.0
 49
-0.164
 49
0.0
 49
-0.274
 49
0.0
 49
-0.105
 53
237.5
 43
-20.78013447258662
 44
23.03742803533062
 45
0.001131810707393
 46
-0.6228283723502991
 79
     6
 49
0.0
 49
-0.1
 49
0.0
 49
-0.36
 49
0.0
 49
-0.4700000000000001
 53
227.5
 43
-20.78013447258662
 44
23.03742803533062
 45
0.17553511298685
 46
-0.6012253209144588
 79
     6
 49
0.0
 49
-0.05
 49
0.0
 49
-0.236
 49
0.0
 49
-0.27
 98
        1
 10
-20.78013447258662
 20
22.79142803533062
1001
ACAD
1010
0.0
1020
0.0
1030
0.0
  0
ENDBLK
  5
4B5
330
394
100
AcDbEntity
  8
0
100
AcDbBlockEnd
  0
BLOCK
  5
1C3
330
1C0
100
AcDbEntity
  8
0
100
AcDbBlockBegin
  2
clip
 70
     0
 10
0.0
 20
0.0
 30
0.0
  3
clip
  1

  0
POLYLINE
  5
229F
330
1C0
100
AcDbEntity
  8
0
 62
     4
100
AcDb2dPolyline
 66
     1
 10
0.0
 20
0.0
 30
0.0
 70
     1
  0
VERTEX
  5
4FFD
330
229F
100
AcDbEntity
  8
0
 62
     4
100
AcDbVertex
100
AcDb2dVertex
 10
-0.0815691952019567
 20
0.2525037053432256
 30
0.0
  0
VERTEX
  5
4FFE
330
229F
100
AcDbEntity
  8
0
 62
     4
100
AcDbVertex
100
AcDb2dVertex
 10
-0.0189999999996704
 20
0.010000000000015
 30
0.0
  0
VERTEX
  5
4FFF
330
229F
100
AcDbEntity
  8
0
 62
     4
100
AcDbVertex
100
AcDb2dVertex
 10
-0.0089999999999069
 20
0.010000000000015
 30
0.0
  0
VERTEX
  5
5000
330
229F
100
AcDbEntity
  8
0
 62
     4
100
AcDbVertex
100
AcDb2dVertex
 10
0.0830000000001913
 20
0.1199999999999718
 30
0.0
  0
VERTEX
  5
5001
330
229F
100
AcDbEntity
  8
0
 62
     4
100
AcDbVertex
100
AcDb2dVertex
 10
0.0145834821761294
 20
0.1200000000000287
 30
0.0
  0
VERTEX
  5
5002
330
229F
100
AcDbEntity
  8
0
 62
     4
100
AcDbVertex
100
AcDb2dVertex
 10
-0.0112178535658874
 20
0.2199999999999945
 30
0.0
  0
VERTEX
  5
5003
330
229F
100
AcDbEntity
  8
0
 62
     4
100
AcDbVertex
100
AcDb2dVertex
 10
0.1489999999999948
 20
0.2199999999999981
 30
0.0
  0
VERTEX
  5
5004
330
229F
100
AcDbEntity
  8
0
 62
     4
100
AcDbVertex
100
AcDb2dVertex
 10
0.1489999999999914
 20
-0.2600000000000237
 30
0.0
  0
VERTEX
  5
5005
330
229F
100
AcDbEntity
  8
0
 62
     4
100
AcDbVertex
100
AcDb2dVertex
 10
0.2090000000003951
 20
-0.2600000000000218
 30
0.0
  0
VERTEX
  5
5006
330
229F
100
AcDbEntity
  8
0
 62
     4
100
AcDbVertex
100
AcDb2dVertex
 10
0.2090000000003949
 20
0.8200000000000173
 30
0.0
  0
VERTEX
  5
5007
330
229F
100
AcDbEntity
  8
0
 62
     4
100
AcDbVertex
100
AcDb2dVertex
 10
0.1489999999999947
 20
0.8200000000000173
 30
0.0
  0
VERTEX
  5
5008
330
229F
100
AcDbEntity
  8
0
 62
     4
100
AcDbVertex
100
AcDb2dVertex
 10
0.1489999999999948
 20
0.2799999999999968
 30
0.0
  0
VERTEX
  5
5009
330
229F
100
AcDbEntity
  8
0
 62
     4
100
AcDbVertex
100
AcDb2dVertex
 10
-0.0602668304258093
 20
0.2799999999999968
 30
0.0
 42
0.4902604554703356
  0
SEQEND
  5
500A
330
229F
100
AcDbEntity
  8
0
 62
     4
  0
POLYLINE
  5
22C4
102
{ACAD_REACTORS
330
22CA
102
}
330
1C0
100
AcDbEntity
  8
Pel_Wall
 62
     3
100
AcDb2dPolyline
 66
     1
 10
0.0
 20
0.0
 30
0.0
 70
     1
  0
VERTEX
  5
500C
330
22C4
100
AcDbEntity
  8
Pel_Wall
 62
     3
100
AcDbVertex
100
AcDb2dVertex
 10
0.1489999999999977
 20
3.2555
 30
0.0
  0
VERTEX
  5
500D
330
22C4
100
AcDbEntity
  8
Pel_Wall
 62
     3
100
AcDbVertex
100
AcDb2dVertex
 10
-0.7001913338020135
 20
3.2555
 30
0.0
  0
VERTEX
  5
500E
330
22C4
100
AcDbEntity
  8
Pel_Wall
 62
     3
100
AcDbVertex
100
AcDb2dVertex
 10
-0.7001913338020235
 20
0.2801471230092671
 30
0.0
  0
VERTEX
  5
500F
330
22C4
100
AcDbEntity
  8
Pel_Wall
 62
     3
100
AcDbVertex
100
AcDb2dVertex
 10
0.1489999999999948
 20
0.2799999999999968
 30
0.0
  0
SEQEND
  5
5010
330
22C4
100
AcDbEntity
  8
Pel_Wall
 62
     3
  0
HATCH
  5
22CA
330
1C0
100
AcDbEntity
  8
Pel_Wall
 62
     2
100
AcDbHatch
 10
0.0
 20
0.0
 30
0.0
210
0.0
220
0.0
230
1.0
  2
WOOD
 70
     0
 71
     1
 91
        1
 92
        1
 93
        4
 72
     1
 10
0.1489999999999977
 20
3.2555
 11
-0.7001913338020135
 21
3.2555
 72
     1
 10
-0.7001913338020135
 20
3.2555
 11
-0.7001913338020235
 21
0.2801471230092671
 72
     1
 10
-0.7001913338020235
 20
0.2801471230092671
 11
0.1489999999999948
 21
0.2799999999999968
 72
     1
 10
0.1489999999999948
 20
0.2799999999999968
 11
0.1489999999999977
 21
3.2555
 97
        1
330
22C4
 75
     0
 76
     1
 52
135.0
 41
0.14
 77
     0
 78
    12
 53
225.0
 43
-25.32732553760489
 44
-21.65721252788967
 45
-0.0000000000000001
 46
-0.7919595949289332
 79
     2
 49
0.5600000000000001
 49
-5.04
 53
225.0
 43
-26.41626998063217
 44
-22.94414686964919
 45
-0.0000000000000001
 46
-0.7919595949289332
 79
     2
 49
0.5600000000000001
 49
-2.24
 53
251.56505118
 43
-25.72330533506935
 44
-21.26123273042521
 45
-0.0000000442314984
 46
-0.7919595586260602
 79
     2
 49
1.25219808
 49
-11.26978258
 53
210.96375653
 43
-23.94139624647926
 44
-19.87530343929957
 45
-0.0000000240384628
 46
-0.7919596908495017
 79
     2
 49
0.57723484
 49
-4.040643459999999
 53
210.96375653
 43
-24.83235079077431
 44
-20.56826808486238
 45
-0.0000000240384628
 46
-0.7919596908495017
 79
     2
 49
0.57723484
 49
-4.040643459999999
 53
210.96375653
 43
-22.85245180345198
 44
-20.17228828739792
 45
-0.0000000240384628
 46
-0.7919596908495017
 79
     2
 49
0.57723484
 49
-4.040643459999999
 53
239.03624347
 43
-26.11928513253383
 44
-22.4491721228186
 45
0.0000000240384627
 46
-0.7919596908495016
 79
     2
 49
0.5772348400000001
 49
-22.51215666
 53
239.03624347
 43
-30.07908310717849
 44
-29.576808477179
 45
0.0000000240384627
 46
-0.7919596908495016
 79
     2
 49
0.5772348400000001
 49
-22.51215666
 53
239.03624347
 43
-34.03888108182317
 44
-35.91248523661047
 45
0.0000000240384627
 46
-0.7919596908495016
 79
     2
 49
0.5772348400000001
 49
-22.51215666
 53
198.4349488199999
 43
-27.30722452492722
 44
-23.637111515212
 45
0.0000000442314982
 46
-0.7919595586260602
 79
     2
 49
0.6260990399999998
 49
-11.89588161999999
 53
198.4349488199999
 43
-19.38762857563789
 44
-21.26123273042521
 45
0.0000000442314982
 46
-0.7919595586260602
 79
     2
 49
0.6260990399999998
 49
-11.89588161999999
 53
198.4349488199999
 43
-23.34742655028255
 44
-22.84515192028308
 45
0.0000000442314982
 46
-0.7919595586260602
 79
     2
 49
0.6260990399999998
 49
-11.89588161999999
 98
        1
 10
-21.82152033207893
 20
27.7617234997131
  0
ENDBLK
  5
1D1
330
1C0
100
AcDbEntity
  8
0
100
AcDbBlockEnd
  0
BLOCK
  5
1D6
330
1D3
100
AcDbEntity
  8
0
100
AcDbBlockBegin
  2
TSE 10 SH VLJ
 70
     0
 10
0.0
 20
0.0
 30
0.0
  3
TSE 10 SH VLJ
  1

  0
POINT
  5
46BB
330
1D3
100
AcDbEntity
  8
Pel_Points
100
AcDbPoint
 10
0.0000000000000015
 20
0.0000000000000037
 30
0.0
 50
360.0
  0
POLYLINE
  5
46BC
330
1D3
100
AcDbEntity
  8
Pel_CS-IG
100
AcDb2dPolyline
 66
     1
 10
0.0
 20
0.0
 30
0.0
  0
VERTEX
  5
48E5
330
46BC
100
AcDbEntity
  8
Pel_CS-IG
100
AcDbVertex
100
AcDb2dVertex
 10
2.367999999999986
 20
-4.124999999999981
 30
0.0
  0
VERTEX
  5
48E6
330
46BC
100
AcDbEntity
  8
Pel_CS-IG
100
AcDbVertex
100
AcDb2dVertex
 10
2.367999999999986
 20
-1.749999999999995
 30
0.0
  0
VERTEX
  5
48E7
330
46BC
100
AcDbEntity
  8
Pel_CS-IG
100
AcDbVertex
100
AcDb2dVertex
 10
2.249999999999987
 20
-1.749999999999996
 30
0.0
  0
VERTEX
  5
48E8
330
46BC
100
AcDbEntity
  8
Pel_CS-IG
100
AcDbVertex
100
AcDb2dVertex
 10
2.24999999999998
 20
-4.124999999999981
 30
0.0
  0
SEQEND
  5
48E9
330
46BC
100
AcDbEntity
  8
Pel_CS-IG
  0
POLYLINE
  5
46C2
330
1D3
100
AcDbEntity
  8
Pel_CS-IG
100
AcDb2dPolyline
 66
     1
 10
0.0
 20
0.0
 30
0.0
  0
VERTEX
  5
48EB
330
46C2
100
AcDbEntity
  8
Pel_CS-IG
100
AcDbVertex
100
AcDb2dVertex
 10
1.617750000000042
 20
-4.124999999999982
 30
0.0
  0
VERTEX
  5
48EC
330
46C2
100
AcDbEntity
  8
Pel_CS-IG
100
AcDbVertex
100
AcDb2dVertex
 10
1.617750000000041
 20
-1.749999999999996
 30
0.0
  0
VERTEX
  5
48ED
330
46C2
100
AcDbEntity
  8
Pel_CS-IG
100
AcDbVertex
100
AcDb2dVertex
 10
1.73575000000004
 20
-1.749999999999996
 30
0.0
  0
VERTEX
  5
48EE
330
46C2
100
AcDbEntity
  8
Pel_CS-IG
100
AcDbVertex
100
AcDb2dVertex
 10
1.735750000000048
 20
-4.124999999999981
 30
0.0
  0
SEQEND
  5
48EF
330
46C2
100
AcDbEntity
  8
Pel_CS-IG
  0
CIRCLE
  5
4773
330
1D3
100
AcDbEntity
  8
Pel_CS-Weatherstrip
100
AcDbCircle
 10
0.6669999999999787
 20
-2.235000000000013
 30
0.0
 40
0.018
  0
CIRCLE
  5
4774
330
1D3
100
AcDbEntity
  8
Pel_CS-Weatherstrip
100
AcDbCircle
 10
0.6669999999999787
 20
-2.110000000000013
 30
0.0
 40
0.018
  0
CIRCLE
  5
4775
330
1D3
100
AcDbEntity
  8
Pel_CS-Weatherstrip
100
AcDbCircle
 10
0.6669999999999789
 20
-2.485000000000013
 30
0.0
 40
0.018
  0
CIRCLE
  5
4776
330
1D3
100
AcDbEntity
  8
Pel_CS-Weatherstrip
100
AcDbCircle
 10
0.6669999999999789
 20
-2.735000000000013
 30
0.0
 40
0.018
  0
CIRCLE
  5
4777
330
1D3
100
AcDbEntity
  8
Pel_CS-Weatherstrip
100
AcDbCircle
 10
0.6669999999999789
 20
-2.845000000000012
 30
0.0
 40
0.018
  0
CIRCLE
  5
4778
330
1D3
100
AcDbEntity
  8
Pel_CS-Weatherstrip
100
AcDbCircle
 10
0.6669999999999789
 20
-2.610000000000013
 30
0.0
 40
0.018
  0
CIRCLE
  5
4779
330
1D3
100
AcDbEntity
  8
Pel_CS-Weatherstrip
100
AcDbCircle
 10
0.6669999999999787
 20
-2.360000000000013
 30
0.0
 40
0.018
  0
CIRCLE
  5
477A
330
1D3
100
AcDbEntity
  8
Pel_CS-Weatherstrip
100
AcDbCircle
 10
0.666999999999979
 20
-2.970000000000012
 30
0.0
 40
0.018
  0
CIRCLE
  5
477B
330
1D3
100
AcDbEntity
  8
Pel_CS-Weatherstrip
100
AcDbCircle
 10
0.6669999999999786
 20
-1.610000000000013
 30
0.0
 40
0.018
  0
CIRCLE
  5
477C
330
1D3
100
AcDbEntity
  8
Pel_CS-Weatherstrip
100
AcDbCircle
 10
0.6669999999999786
 20
-1.485000000000013
 30
0.0
 40
0.018
  0
CIRCLE
  5
477D
330
1D3
100
AcDbEntity
  8
Pel_CS-Weatherstrip
100
AcDbCircle
 10
0.6669999999999787
 20
-1.985000000000013
 30
0.0
 40
0.018
  0
CIRCLE
  5
477E
330
1D3
100
AcDbEntity
  8
Pel_CS-Weatherstrip
100
AcDbCircle
 10
0.6669999999999786
 20
-1.860000000000013
 30
0.0
 40
0.018
  0
CIRCLE
  5
477F
330
1D3
100
AcDbEntity
  8
Pel_CS-Weatherstrip
100
AcDbCircle
 10
0.6669999999999786
 20
-1.735000000000013
 30
0.0
 40
0.018
  0
POINT
  5
4780
330
1D3
100
AcDbEntity
  8
Pel_Points
100
AcDbPoint
 10
0.0000000000000015
 20
0.0000000000000001
 30
0.0
 50
360.0
  0
POLYLINE
  5
4781
330
1D3
100
AcDbEntity
  8
Pel_Clad
100
AcDb2dPolyline
 66
     1
 10
0.0
 20
0.0
 30
0.0
 70
     1
  0
VERTEX
  5
48FF
330
4781
100
AcDbEntity
  8
Pel_Clad
100
AcDbVertex
100
AcDb2dVertex
 10
0.7049999999999716
 20
-0.7650000000000004
 30
0.0
  0
VERTEX
  5
4900
330
4781
100
AcDbEntity
  8
Pel_Clad
100
AcDbVertex
100
AcDb2dVertex
 10
0.9649999999999836
 20
-0.7650000000000003
 30
0.0
 42
-0.4142135623732505
  0
VERTEX
  5
4901
330
4781
100
AcDbEntity
  8
Pel_Clad
100
AcDbVertex
100
AcDb2dVertex
 10
0.9849999999999832
 20
-0.7850000000000105
 30
0.0
  0
VERTEX
  5
4902
330
4781
100
AcDbEntity
  8
Pel_Clad
100
AcDbVertex
100
AcDb2dVertex
 10
0.9849999999999834
 20
-1.385000000000011
 30
0.0
 42
-0.4142135623731472
  0
VERTEX
  5
4903
330
4781
100
AcDbEntity
  8
Pel_Clad
100
AcDbVertex
100
AcDb2dVertex
 10
0.9649999999999838
 20
-1.405000000000015
 30
0.0
  0
VERTEX
  5
4904
330
4781
100
AcDbEntity
  8
Pel_Clad
100
AcDbVertex
100
AcDb2dVertex
 10
0.9249999999999811
 20
-1.405000000000015
 30
0.0
  0
VERTEX
  5
4905
330
4781
100
AcDbEntity
  8
Pel_Clad
100
AcDbVertex
100
AcDb2dVertex
 10
0.9249999999999813
 20
-1.495000000000011
 30
0.0
 42
-0.4142135623731472
  0
VERTEX
  5
4906
330
4781
100
AcDbEntity
  8
Pel_Clad
100
AcDbVertex
100
AcDb2dVertex
 10
0.9049999999999817
 20
-1.515000000000014
 30
0.0
  0
VERTEX
  5
4907
330
4781
100
AcDbEntity
  8
Pel_Clad
100
AcDbVertex
100
AcDb2dVertex
 10
0.7049999999999789
 20
-1.515000000000014
 30
0.0
 42
-0.4142135623730951
  0
VERTEX
  5
4908
330
4781
100
AcDbEntity
  8
Pel_Clad
100
AcDbVertex
100
AcDb2dVertex
 10
0.6849999999999793
 20
-1.495000000000011
 30
0.0
  0
VERTEX
  5
4909
330
4781
100
AcDbEntity
  8
Pel_Clad
100
AcDbVertex
100
AcDb2dVertex
 10
0.6849999999999793
 20
-1.475000000000015
 30
0.0
 42
-0.4142135623731472
  0
VERTEX
  5
490A
330
4781
100
AcDbEntity
  8
Pel_Clad
100
AcDbVertex
100
AcDb2dVertex
 10
0.7049999999999788
 20
-1.455000000000012
 30
0.0
  0
VERTEX
  5
490B
330
4781
100
AcDbEntity
  8
Pel_Clad
100
AcDbVertex
100
AcDb2dVertex
 10
0.7523836048657433
 20
-1.455000000000012
 30
0.0
 42
-0.0578233517657538
  0
VERTEX
  5
490C
330
4781
100
AcDbEntity
  8
Pel_Clad
100
AcDbVertex
100
AcDb2dVertex
 10
0.7546734674554312
 20
-1.455265703450166
 30
0.0
  0
VERTEX
  5
490D
330
4781
100
AcDbEntity
  8
Pel_Clad
100
AcDbVertex
100
AcDb2dVertex
 10
0.7546734674554313
 20
-1.475000000000015
 30
0.0
  0
VERTEX
  5
490E
330
4781
100
AcDbEntity
  8
Pel_Clad
100
AcDbVertex
100
AcDb2dVertex
 10
0.7049999999999789
 20
-1.475000000000015
 30
0.0
  0
VERTEX
  5
490F
330
4781
100
AcDbEntity
  8
Pel_Clad
100
AcDbVertex
100
AcDb2dVertex
 10
0.7049999999999789
 20
-1.495000000000004
 30
0.0
  0
VERTEX
  5
4910
330
4781
100
AcDbEntity
  8
Pel_Clad
100
AcDbVertex
100
AcDb2dVertex
 10
0.9049999999999817
 20
-1.495000000000018
 30
0.0
  0
VERTEX
  5
4911
330
4781
100
AcDbEntity
  8
Pel_Clad
100
AcDbVertex
100
AcDb2dVertex
 10
0.904999999999978
 20
-1.385000000000011
 30
0.0
  0
VERTEX
  5
4912
330
4781
100
AcDbEntity
  8
Pel_Clad
100
AcDbVertex
100
AcDb2dVertex
 10
0.9649999999999767
 20
-1.385000000000011
 30
0.0
  0
VERTEX
  5
4913
330
4781
100
AcDbEntity
  8
Pel_Clad
100
AcDbVertex
100
AcDb2dVertex
 10
0.9649999999999836
 20
-0.7850000000000105
 30
0.0
  0
VERTEX
  5
4914
330
4781
100
AcDbEntity
  8
Pel_Clad
100
AcDbVertex
100
AcDb2dVertex
 10
0.7049999999999823
 20
-0.7850000000000107
 30
0.0
  0
VERTEX
  5
4915
330
4781
100
AcDbEntity
  8
Pel_Clad
100
AcDbVertex
100
AcDb2dVertex
 10
0.7049999999999788
 20
-1.298750000000005
 30
0.0
  0
VERTEX
  5
4916
330
4781
100
AcDbEntity
  8
Pel_Clad
100
AcDbVertex
100
AcDb2dVertex
 10
0.884999999999982
 20
-1.298750000000012
 30
0.0
 42
-0.4142135623731472
  0
VERTEX
  5
4917
330
4781
100
AcDbEntity
  8
Pel_Clad
100
AcDbVertex
100
AcDb2dVertex
 10
0.9049999999999815
 20
-1.318750000000015
 30
0.0
  0
VERTEX
  5
4918
330
4781
100
AcDbEntity
  8
Pel_Clad
100
AcDbVertex
100
AcDb2dVertex
 10
0.9049999999999817
 20
-1.495000000000018
 30
0.0
  0
VERTEX
  5
4919
330
4781
100
AcDbEntity
  8
Pel_Clad
100
AcDbVertex
100
AcDb2dVertex
 10
0.7049999999999789
 20
-1.495000000000004
 30
0.0
  0
VERTEX
  5
491A
330
4781
100
AcDbEntity
  8
Pel_Clad
100
AcDbVertex
100
AcDb2dVertex
 10
0.7049999999999789
 20
-1.475000000000015
 30
0.0
  0
VERTEX
  5
491B
330
4781
100
AcDbEntity
  8
Pel_Clad
100
AcDbVertex
100
AcDb2dVertex
 10
0.8849999999999857
 20
-1.475000000000015
 30
0.0
  0
VERTEX
  5
491C
330
4781
100
AcDbEntity
  8
Pel_Clad
100
AcDbVertex
100
AcDb2dVertex
 10
0.8849999999999784
 20
-1.318750000000015
 30
0.0
  0
VERTEX
  5
491D
330
4781
100
AcDbEntity
  8
Pel_Clad
100
AcDbVertex
100
AcDb2dVertex
 10
0.7049999999999788
 20
-1.318750000000015
 30
0.0
 42
-0.4142135623730951
  0
VERTEX
  5
491E
330
4781
100
AcDbEntity
  8
Pel_Clad
100
AcDbVertex
100
AcDb2dVertex
 10
0.6849999999999792
 20
-1.298750000000012
 30
0.0
  0
VERTEX
  5
491F
330
4781
100
AcDbEntity
  8
Pel_Clad
100
AcDbVertex
100
AcDb2dVertex
 10
0.6849999999999791
 20
-0.7850000000000107
 30
0.0
 42
-0.4142135623731472
  0
SEQEND
  5
4920
330
4781
100
AcDbEntity
  8
Pel_Clad
  0
HATCH
  5
47A4
330
1D3
100
AcDbEntity
  8
Pel_CS-Weatherstrip
100
AcDbHatch
 10
0.0
 20
0.0
 30
0.0
210
0.0
220
0.0
230
1.0
  2
SOLID
 70
     1
 71
     0
 91
        1
 92
        1
 93
        1
 72
     2
 10
0.666999999999979
 20
-2.970000000000016
 40
0.018
 50
0.0
 51
360.0
 73
     1
 97
        0
 75
     0
 76
     1
 98
        1
 10
0.0000000000000018
 20
-1.484999999999999
  0
HATCH
  5
47A5
330
1D3
100
AcDbEntity
  8
Pel_CS-Weatherstrip
100
AcDbHatch
 10
0.0
 20
0.0
 30
0.0
210
0.0
220
0.0
230
1.0
  2
SOLID
 70
     1
 71
     0
 91
        1
 92
        1
 93
        1
 72
     2
 10
0.6669999999999789
 20
-2.845000000000016
 40
0.018
 50
0.0
 51
360.0
 73
     1
 97
        0
 75
     0
 76
     1
 98
        1
 10
0.0000000000000018
 20
-1.359999999999999
  0
HATCH
  5
47A6
330
1D3
100
AcDbEntity
  8
Pel_CS-Weatherstrip
100
AcDbHatch
 10
0.0
 20
0.0
 30
0.0
210
0.0
220
0.0
230
1.0
  2
SOLID
 70
     1
 71
     0
 91
        1
 92
        1
 93
        1
 72
     2
 10
0.6669999999999789
 20
-2.735000000000016
 40
0.018
 50
0.0
 51
360.0
 73
     1
 97
        0
 75
     0
 76
     1
 98
        1
 10
0.0000000000000018
 20
-1.249999999999999
  0
HATCH
  5
47A7
330
1D3
100
AcDbEntity
  8
Pel_CS-Weatherstrip
100
AcDbHatch
 10
0.0
 20
0.0
 30
0.0
210
0.0
220
0.0
230
1.0
  2
SOLID
 70
     1
 71
     0
 91
        1
 92
        1
 93
        1
 72
     2
 10
0.6669999999999789
 20
-2.610000000000016
 40
0.018
 50
0.0
 51
360.0
 73
     1
 97
        0
 75
     0
 76
     1
 98
        1
 10
0.0000000000000018
 20
-1.124999999999999
  0
HATCH
  5
47A8
330
1D3
100
AcDbEntity
  8
Pel_CS-Weatherstrip
100
AcDbHatch
 10
0.0
 20
0.0
 30
0.0
210
0.0
220
0.0
230
1.0
  2
SOLID
 70
     1
 71
     0
 91
        1
 92
        1
 93
        1
 72
     2
 10
0.6669999999999789
 20
-2.485000000000016
 40
0.018
 50
0.0
 51
360.0
 73
     1
 97
        0
 75
     0
 76
     1
 98
        1
 10
0.0000000000000017
 20
-0.9999999999999998
  0
HATCH
  5
47A9
330
1D3
100
AcDbEntity
  8
Pel_CS-Weatherstrip
100
AcDbHatch
 10
0.0
 20
0.0
 30
0.0
210
0.0
220
0.0
230
1.0
  2
SOLID
 70
     1
 71
     0
 91
        1
 92
        1
 93
        1
 72
     2
 10
0.6669999999999787
 20
-2.360000000000016
 40
0.018
 50
0.0
 51
360.0
 73
     1
 97
        0
 75
     0
 76
     1
 98
        1
 10
0.0000000000000017
 20
-0.8749999999999998
  0
HATCH
  5
47AA
330
1D3
100
AcDbEntity
  8
Pel_CS-Weatherstrip
100
AcDbHatch
 10
0.0
 20
0.0
 30
0.0
210
0.0
220
0.0
230
1.0
  2
SOLID
 70
     1
 71
     0
 91
        1
 92
        1
 93
        1
 72
     2
 10
0.6669999999999787
 20
-2.235000000000016
 40
0.018
 50
0.0
 51
360.0
 73
     1
 97
        0
 75
     0
 76
     1
 98
        1
 10
0.0000000000000017
 20
-0.75
  0
HATCH
  5
47AB
330
1D3
100
AcDbEntity
  8
Pel_CS-Weatherstrip
100
AcDbHatch
 10
0.0
 20
0.0
 30
0.0
210
0.0
220
0.0
230
1.0
  2
SOLID
 70
     1
 71
     0
 91
        1
 92
        1
 93
        1
 72
     2
 10
0.6669999999999787
 20
-2.110000000000016
 40
0.018
 50
0.0
 51
360.0
 73
     1
 97
        0
 75
     0
 76
     1
 98
        1
 10
0.0000000000000016
 20
-0.625
  0
HATCH
  5
47AC
330
1D3
100
AcDbEntity
  8
Pel_CS-Weatherstrip
100
AcDbHatch
 10
0.0
 20
0.0
 30
0.0
210
0.0
220
0.0
230
1.0
  2
SOLID
 70
     1
 71
     0
 91
        1
 92
        1
 93
        1
 72
     2
 10
0.6669999999999787
 20
-1.985000000000016
 40
0.018
 50
0.0
 51
360.0
 73
     1
 97
        0
 75
     0
 76
     1
 98
        1
 10
0.0000000000000016
 20
-0.5
  0
HATCH
  5
47AD
330
1D3
100
AcDbEntity
  8
Pel_CS-Weatherstrip
100
AcDbHatch
 10
0.0
 20
0.0
 30
0.0
210
0.0
220
0.0
230
1.0
  2
SOLID
 70
     1
 71
     0
 91
        1
 92
        1
 93
        1
 72
     2
 10
0.6669999999999786
 20
-1.860000000000016
 40
0.018
 50
0.0
 51
360.0
 73
     1
 97
        0
 75
     0
 76
     1
 98
        1
 10
0.0000000000000016
 20
-0.3749999999999999
  0
HATCH
  5
47AE
330
1D3
100
AcDbEntity
  8
Pel_CS-Weatherstrip
100
AcDbHatch
 10
0.0
 20
0.0
 30
0.0
210
0.0
220
0.0
230
1.0
  2
SOLID
 70
     1
 71
     0
 91
        1
 92
        1
 93
        1
 72
     2
 10
0.6669999999999786
 20
-1.735000000000016
 40
0.018
 50
0.0
 51
360.0
 73
     1
 97
        0
 75
     0
 76
     1
 98
        1
 10
0.0000000000000016
 20
-0.2499999999999999
  0
HATCH
  5
47AF
330
1D3
100
AcDbEntity
  8
Pel_CS-Weatherstrip
100
AcDbHatch
 10
0.0
 20
0.0
 30
0.0
210
0.0
220
0.0
230
1.0
  2
SOLID
 70
     1
 71
     0
 91
        1
 92
        1
 93
        1
 72
     2
 10
0.6669999999999786
 20
-1.610000000000016
 40
0.018
 50
0.0
 51
360.0
 73
     1
 97
        0
 75
     0
 76
     1
 98
        1
 10
0.0000000000000015
 20
-0.1249999999999999
  0
HATCH
  5
47B0
330
1D3
100
AcDbEntity
  8
Pel_CS-Weatherstrip
100
AcDbHatch
 10
0.0
 20
0.0
 30
0.0
210
0.0
220
0.0
230
1.0
  2
SOLID
 70
     1
 71
     0
 91
        1
 92
        1
 93
        1
 72
     2
 10
0.6669999999999786
 20
-1.485000000000016
 40
0.018
 50
0.0
 51
360.0
 73
     1
 97
        0
 75
     0
 76
     1
 98
        1
 10
0.0000000000000051
 20
0.0000000000000001
  0
LWPOLYLINE
  5
47B1
330
1D3
100
AcDbEntity
  8
Pel_Clad
  6
Continuous
100
AcDbPolyline
 90
       12
 70
     1
 43
0.0
 10
1.699499999999984
 20
-0.2979999999999872
 10
1.699499999999984
 20
-0.7729999999999886
 42
0.4142135623730951
 10
1.731499999999988
 20
-0.8049999999999922
 10
2.173499999999981
 20
-0.804999999999992
 42
0.4142135623730951
 10
2.205499999999984
 20
-0.7729999999999956
 10
2.205499999999984
 20
-0.2979999999999871
 10
2.233499999999983
 20
-0.2979999999999871
 10
2.233499999999983
 20
-0.7729999999999956
 42
-0.4142135623730951
 10
2.173499999999981
 20
-0.8329999999999907
 10
1.731499999999988
 20
-0.8329999999999909
 42
-0.4142135623730951
 10
1.671499999999985
 20
-0.7729999999999886
 10
1.671499999999985
 20
-0.2979999999999872
  0
CIRCLE
  5
47B2
330
1D3
100
AcDbEntity
  8
Pel_CS-Hardware
  6
Continuous
100
AcDbCircle
 10
1.952499999999984
 20
-0.5549999999999922
 30
0.0
 40
0.25
  0
CIRCLE
  5
47B3
330
1D3
100
AcDbEntity
  8
Pel_CS-Hardware
  6
Continuous
100
AcDbCircle
 10
1.952499999999984
 20
-0.5549999999999922
 30
0.0
 40
0.21
  0
HATCH
  5
47B4
330
1D3
100
AcDbEntity
  8
Pel_Hatch
 62
   254
100
AcDbHatch
 10
0.0
 20
0.0
 30
0.0
210
0.0
220
0.0
230
1.0
  2
PLAST
 70
     0
 71
     1
 91
        1
 92
        1
 93
       10
 72
     1
 10
1.78300000000002
 20
-1.481095283178809
 11
1.78300000000002
 21
-1.076095283178811
 72
     1
 10
1.78300000000002
 20
-1.076095283178811
 11
1.735000000000018
 21
-1.076095283178811
 72
     1
 10
1.735000000000018
 20
-1.076095283178811
 11
1.735000000000018
 21
-1.481095283178809
 72
     2
 10
1.783000000000018
 20
-1.481095283178808
 40
0.0479999999999998
 50
180.0000000000018
 51
270.0000000000024
 73
     1
 72
     1
 10
1.78300000000002
 20
-1.529095283178807
 11
2.351999999999987
 21
-1.529095283178804
 72
     2
 10
2.351999999999985
 20
-1.481095283178807
 40
0.0479999999999968
 50
270.0000000000027
 51
360.0000000000022
 73
     1
 72
     1
 10
2.399999999999982
 20
-1.481095283178805
 11
2.399999999999989
 21
-1.17109528317881
 72
     1
 10
2.399999999999989
 20
-1.17109528317881
 11
2.351999999999987
 21
-1.171095283178807
 72
     1
 10
2.351999999999987
 20
-1.171095283178807
 11
2.351999999999987
 21
-1.481095283178813
 72
     1
 10
2.351999999999987
 20
-1.481095283178813
 11
1.78300000000002
 21
-1.481095283178809
 97
        1
330
47B5
 75
     0
 76
     1
 52
45.00000000000001
 41
1.0
 77
     0
 78
     3
 53
45.0
 43
0.0000000000000016
 44
-0.2150483505492494
 45
-0.1767766952966369
 46
0.1767766952966369
 79
     0
 53
45.0
 43
-0.0220970869120783
 44
-0.1929512636371696
 45
-0.1767766952966369
 46
0.1767766952966369
 79
     0
 53
45.0
 43
-0.044194173824158
 44
-0.1708541767250898
 45
-0.1767766952966369
 46
0.1767766952966369
 79
     0
 98
        1
 10
4.124305956116474
 20
-0.2150483505492487
1001
ACAD
1010
0.0
1020
0.0
1030
0.0
  0
LWPOLYLINE
  5
47B5
102
{ACAD_REACTORS
330
47B4
102
}
330
1D3
100
AcDbEntity
  8
Pel_CS-Reinforcement
100
AcDbPolyline
 90
       10
 70
     1
 43
0.0
 10
1.78300000000002
 20
-1.481095283178809
 10
1.78300000000002
 20
-1.076095283178811
 10
1.735000000000018
 20
-1.076095283178811
 10
1.735000000000018
 20
-1.481095283178809
 42
0.4142135623730969
 10
1.78300000000002
 20
-1.529095283178807
 10
2.351999999999987
 20
-1.529095283178804
 42
0.4142135623730925
 10
2.399999999999982
 20
-1.481095283178805
 10
2.399999999999989
 20
-1.17109528317881
 10
2.351999999999987
 20
-1.171095283178807
 10
2.351999999999987
 20
-1.481095283178813
  0
LWPOLYLINE
  5
47B6
330
1D3
100
AcDbEntity
  8
Pel_CS-Cross Section
 62
     4
100
AcDbPolyline
 90
       59
 70
     1
 43
0.0
 10
2.262499999999993
 20
-0.9999999999999852
 10
1.474999999999992
 20
-0.9999999999999854
 42
0.4142135623730931
 10
1.41499999999999
 20
-1.059999999999987
 10
1.41499999999999
 20
-1.102499999999984
 10
1.459999999999991
 20
-1.10249999999998
 10
1.459999999999991
 20
-1.059999999999987
 10
1.509999999999989
 20
-1.059999999999987
 10
1.509999999999989
 20
-1.269999999999988
 10
1.459999999999991
 20
-1.269999999999977
 10
1.459999999999991
 20
-1.22749999999998
 10
1.414999999999986
 20
-1.227499999999984
 10
1.41499999999999
 20
-1.609999999999991
 42
0.4142135623729911
 10
1.429999999999983
 20
-1.624999999999985
 10
1.479999999999995
 20
-1.624999999999992
 42
0.8937924126323798
 10
1.486666666666662
 20
-1.565750118708627
 42
-0.3500011104185865
 10
1.474999999999992
 20
-1.55112517806297
 10
1.474999999999992
 20
-1.354999999999989
 42
-0.4142135623731026
 10
1.499999999999987
 20
-1.32999999999999
 10
1.505366523876693
 20
-1.32999999999999
 42
-0.0918870916679591
 10
1.51432572261533
 20
-1.331660489337557
 10
1.628959198738646
 20
-1.375664158032392
 42
-0.3105082534627774
 10
1.645000000000008
 20
-1.399003668694816
 10
1.645000000000008
 20
-1.609999999999984
 42
0.1044615359720018
 10
1.646281348233008
 20
-1.616066184442928
 10
1.706281348233007
 20
-1.556066184442925
 42
-0.1044615359719121
 10
1.70500000000001
 20
-1.549999999999989
 10
1.70500000000001
 20
-1.399003668694823
 42
0.3105082534628309
 10
1.650461275711363
 20
-1.319649332442558
 10
1.579624480756811
 20
-1.292457634502326
 42
-0.3105082534628289
 10
1.569999999999984
 20
-1.278453928104873
 10
1.569999999999984
 20
-1.074999999999988
 42
-0.4142135623730951
 10
1.584999999999984
 20
-1.059999999999987
 10
2.144999999999987
 20
-1.059999999999987
 42
-0.4142135623730778
 10
2.159999999999987
 20
-1.074999999999988
 10
2.159999999999987
 20
-1.094999999999984
 42
0.4142135623731038
 10
2.219999999999989
 20
-1.154999999999986
 10
2.41499999999999
 20
-1.154999999999986
 42
-0.4142135623730778
 10
2.42999999999999
 20
-1.169999999999986
 10
2.42999999999999
 20
-1.549999999999989
 42
-0.4142135623730604
 10
2.41499999999999
 20
-1.564999999999989
 10
1.720000000000011
 20
-1.56499999999999
 42
-0.2969051242860407
 10
1.706281348233007
 20
-1.556066184442925
 10
1.646281348233008
 20
-1.616066184442928
 42
0.2969051242859246
 10
1.660000000000009
 20
-1.624999999999985
 10
2.41499999999999
 20
-1.624999999999985
 42
-0.4142135623730866
 10
2.42999999999999
 20
-1.639999999999985
 10
2.429999999999991
 20
-2.234999999999988
 42
0.4142135623730258
 10
2.444999999999988
 20
-2.249999999999981
 10
2.474999999999992
 20
-2.249999999999981
 42
0.4142135623730171
 10
2.489999999999986
 20
-2.234999999999981
 10
2.489999999999993
 20
-1.059999999999987
 42
0.4142135623730298
 10
2.430000000000005
 20
-0.9999999999999923
 10
2.387499999999993
 20
-0.9999999999999852
 10
2.38749999999999
 20
-1.044999999999986
 10
2.42999999999999
 20
-1.044999999999986
 10
2.429999999999983
 20
-1.094999999999991
 10
2.219999999999989
 20
-1.094999999999984
 10
2.219999999999989
 20
-1.044999999999987
 10
2.262499999999993
 20
-1.044999999999987
  0
POLYLINE
  5
47B7
330
1D3
100
AcDbEntity
  8
Pel_CS-Weatherstrip
100
AcDb2dPolyline
 66
     1
 10
0.0
 20
0.0
 30
0.0
  0
VERTEX
  5
4935
330
47B7
100
AcDbEntity
  8
Pel_CS-Weatherstrip
100
AcDbVertex
100
AcDb2dVertex
 10
2.237062558138079
 20
-1.060000013999992
 30
0.0
  0
VERTEX
  5
4936
330
47B7
100
AcDbEntity
  8
Pel_CS-Weatherstrip
100
AcDbVertex
100
AcDb2dVertex
 10
2.283307147776456
 20
-1.060000013999992
 30
0.0
  0
VERTEX
  5
4937
330
47B7
100
AcDbEntity
  8
Pel_CS-Weatherstrip
100
AcDbVertex
100
AcDb2dVertex
 10
2.234520200544254
 20
-0.9222299250618307
 30
0.0
  0
VERTEX
  5
4938
330
47B7
100
AcDbEntity
  8
Pel_CS-Weatherstrip
100
AcDbVertex
100
AcDb2dVertex
 10
2.266841641222628
 20
-0.9349320748756889
 30
0.0
  0
VERTEX
  5
4939
330
47B7
100
AcDbEntity
  8
Pel_CS-Weatherstrip
100
AcDbVertex
100
AcDb2dVertex
 10
2.283307147776456
 20
-1.060000013999992
 30
0.0
  0
VERTEX
  5
493A
330
47B7
100
AcDbEntity
  8
Pel_CS-Weatherstrip
100
AcDbVertex
100
AcDb2dVertex
 10
2.294149888925273
 20
-0.9199999999999976
 30
0.0
  0
VERTEX
  5
493B
330
47B7
100
AcDbEntity
  8
Pel_CS-Weatherstrip
100
AcDbVertex
100
AcDb2dVertex
 10
2.324536130028187
 20
-0.9199999999999976
 30
0.0
  0
VERTEX
  5
493C
330
47B7
100
AcDbEntity
  8
Pel_CS-Weatherstrip
100
AcDbVertex
100
AcDb2dVertex
 10
2.283307147776456
 20
-1.060000013999992
 30
0.0
  0
VERTEX
  5
493D
330
47B7
100
AcDbEntity
  8
Pel_CS-Weatherstrip
100
AcDbVertex
100
AcDb2dVertex
 10
2.365765112279918
 20
-1.060000013999992
 30
0.0
  0
VERTEX
  5
493E
330
47B7
100
AcDbEntity
  8
Pel_CS-Weatherstrip
100
AcDbVertex
100
AcDb2dVertex
 10
2.324536130028187
 20
-0.9199999999999976
 30
0.0
  0
VERTEX
  5
493F
330
47B7
100
AcDbEntity
  8
Pel_CS-Weatherstrip
100
AcDbVertex
100
AcDb2dVertex
 10
2.354922371131108
 20
-0.9199999999999976
 30
0.0
  0
VERTEX
  5
4940
330
47B7
100
AcDbEntity
  8
Pel_CS-Weatherstrip
100
AcDbVertex
100
AcDb2dVertex
 10
2.365765112279918
 20
-1.060000013999992
 30
0.0
  0
VERTEX
  5
4941
330
47B7
100
AcDbEntity
  8
Pel_CS-Weatherstrip
100
AcDbVertex
100
AcDb2dVertex
 10
2.383902888581465
 20
-0.9199999999999976
 30
0.0
  0
VERTEX
  5
4942
330
47B7
100
AcDbEntity
  8
Pel_CS-Weatherstrip
100
AcDbVertex
100
AcDb2dVertex
 10
2.41455205951213
 20
-0.9199999999999976
 30
0.0
  0
VERTEX
  5
4943
330
47B7
100
AcDbEntity
  8
Pel_CS-Weatherstrip
100
AcDbVertex
100
AcDb2dVertex
 10
2.365765112279918
 20
-1.060000013999992
 30
0.0
  0
VERTEX
  5
4944
330
47B7
100
AcDbEntity
  8
Pel_CS-Weatherstrip
100
AcDbVertex
100
AcDb2dVertex
 10
2.423840281824249
 20
-1.060000013999992
 30
0.0
  0
VERTEX
  5
4945
330
47B7
100
AcDbEntity
  8
Pel_CS-Weatherstrip
100
AcDbVertex
100
AcDb2dVertex
 10
2.423840281824249
 20
-1.094999999999987
 30
0.0
  0
VERTEX
  5
4946
330
47B7
100
AcDbEntity
  8
Pel_CS-Weatherstrip
100
AcDbVertex
100
AcDb2dVertex
 10
2.237062558138079
 20
-1.094999999999987
 30
0.0
  0
VERTEX
  5
4947
330
47B7
100
AcDbEntity
  8
0
100
AcDbVertex
100
AcDb2dVertex
 10
2.237062558138079
 20
-1.060000013999992
 30
0.0
  0
SEQEND
  5
4948
330
47B7
100
AcDbEntity
  8
Pel_CS-Weatherstrip
  0
POLYLINE
  5
47CC
330
1D3
100
AcDbEntity
  8
Pel_CS-Weatherstrip
100
AcDb2dPolyline
 66
     1
 10
0.0
 20
0.0
 30
0.0
  0
VERTEX
  5
494A
330
47CC
100
AcDbEntity
  8
Pel_CS-Weatherstrip
100
AcDbVertex
100
AcDb2dVertex
 10
1.472770088938139
 20
-1.253287128208618
 30
0.0
  0
VERTEX
  5
494B
330
47CC
100
AcDbEntity
  8
Pel_CS-Weatherstrip
100
AcDbVertex
100
AcDb2dVertex
 10
1.472770088938139
 20
-1.207042538570241
 30
0.0
  0
VERTEX
  5
494C
330
47CC
100
AcDbEntity
  8
Pel_CS-Weatherstrip
100
AcDbVertex
100
AcDb2dVertex
 10
1.355000000000002
 20
-1.248747114351821
 30
0.0
  0
VERTEX
  5
494D
330
47CC
100
AcDbEntity
  8
Pel_CS-Weatherstrip
100
AcDbVertex
100
AcDb2dVertex
 10
1.355000000000002
 20
-1.222547264920041
 30
0.0
  0
VERTEX
  5
494E
330
47CC
100
AcDbEntity
  8
Pel_CS-Weatherstrip
100
AcDbVertex
100
AcDb2dVertex
 10
1.472770088938139
 20
-1.207042538570241
 30
0.0
  0
VERTEX
  5
494F
330
47CC
100
AcDbEntity
  8
Pel_CS-Weatherstrip
100
AcDbVertex
100
AcDb2dVertex
 10
1.355000000000002
 20
-1.19777383155792
 30
0.0
  0
VERTEX
  5
4950
330
47CC
100
AcDbEntity
  8
Pel_CS-Weatherstrip
100
AcDbVertex
100
AcDb2dVertex
 10
1.355000000000002
 20
-1.16581355631851
 30
0.0
  0
VERTEX
  5
4951
330
47CC
100
AcDbEntity
  8
Pel_CS-Weatherstrip
100
AcDbVertex
100
AcDb2dVertex
 10
1.472770088938139
 20
-1.207042538570241
 30
0.0
  0
VERTEX
  5
4952
330
47CC
100
AcDbEntity
  8
Pel_CS-Weatherstrip
100
AcDbVertex
100
AcDb2dVertex
 10
1.472770088938139
 20
-1.124584574066779
 30
0.0
  0
VERTEX
  5
4953
330
47CC
100
AcDbEntity
  8
Pel_CS-Weatherstrip
100
AcDbVertex
100
AcDb2dVertex
 10
1.355000000000002
 20
-1.16581355631851
 30
0.0
  0
VERTEX
  5
4954
330
47CC
100
AcDbEntity
  8
Pel_CS-Weatherstrip
100
AcDbVertex
100
AcDb2dVertex
 10
1.355000000000002
 20
-1.133853281079097
 30
0.0
  0
VERTEX
  5
4955
330
47CC
100
AcDbEntity
  8
Pel_CS-Weatherstrip
100
AcDbVertex
100
AcDb2dVertex
 10
1.472770088938139
 20
-1.124584574066779
 30
0.0
  0
VERTEX
  5
4956
330
47CC
100
AcDbEntity
  8
Pel_CS-Weatherstrip
100
AcDbVertex
100
AcDb2dVertex
 10
1.355000000000002
 20
-1.109079847716987
 30
0.0
  0
VERTEX
  5
4957
330
47CC
100
AcDbEntity
  8
Pel_CS-Weatherstrip
100
AcDbVertex
100
AcDb2dVertex
 10
1.355000000000002
 20
-1.082879998285189
 30
0.0
  0
VERTEX
  5
4958
330
47CC
100
AcDbEntity
  8
Pel_CS-Weatherstrip
100
AcDbVertex
100
AcDb2dVertex
 10
1.472770088938139
 20
-1.124584574066779
 30
0.0
  0
VERTEX
  5
4959
330
47CC
100
AcDbEntity
  8
Pel_CS-Weatherstrip
100
AcDbVertex
100
AcDb2dVertex
 10
1.472770088938139
 20
-1.066509404522448
 30
0.0
  0
VERTEX
  5
495A
330
47CC
100
AcDbEntity
  8
Pel_CS-Weatherstrip
100
AcDbVertex
100
AcDb2dVertex
 10
1.507770074938134
 20
-1.066509404522448
 30
0.0
  0
VERTEX
  5
495B
330
47CC
100
AcDbEntity
  8
Pel_CS-Weatherstrip
100
AcDbVertex
100
AcDb2dVertex
 10
1.507770074938134
 20
-1.253287128208618
 30
0.0
  0
VERTEX
  5
495C
330
47CC
100
AcDbEntity
  8
0
100
AcDbVertex
100
AcDb2dVertex
 10
1.472770088938139
 20
-1.253287128208618
 30
0.0
  0
SEQEND
  5
495D
330
47CC
100
AcDbEntity
  8
Pel_CS-Weatherstrip
  0
LWPOLYLINE
  5
47E1
330
1D3
100
AcDbEntity
  8
Pel_CS-Cross Section
 62
     4
100
AcDbPolyline
 90
       14
 70
   129
 43
0.0
 10
1.613003333947675
 20
-2.234316146045727
 42
-0.0998807877076541
 10
1.443034925868333
 20
-1.648627546340172
 10
1.512775634119444
 20
-1.644972590695104
 42
0.398959545973707
 10
1.531728914994586
 20
-1.625000000000013
 10
1.531728914994586
 20
-1.519139017402025
 10
1.643966122543085
 20
-1.401900986668141
 42
1.0
 10
1.629519225492371
 20
-1.388070326322153
 10
1.49172891499459
 20
-1.532000000000017
 10
1.51172891499459
 20
-1.550008080885973
 10
1.511728914994586
 20
-1.62500000000001
 10
1.436190284944297
 20
-1.628958811851027
 42
0.4576894237555402
 10
1.422269823720531
 20
-1.646895999462735
 42
0.1008918840847244
 10
1.596606276904007
 20
-2.245767631552275
 42
0.9914914112673672
 10
1.613041875079721
 20
-2.234372812235455
  0
LINE
  5
47E2
330
1D3
100
AcDbEntity
  8
Pel_CS-Weatherstrip
100
AcDbLine
 10
2.367999999999993
 20
-1.860000000000012
 30
0.0
 11
2.431728914994552
 21
-1.860000000000016
 31
0.0
  0
LINE
  5
47E3
330
1D3
100
AcDbEntity
  8
Pel_CS-Weatherstrip
100
AcDbLine
 10
2.367999999999993
 20
-2.235000000000013
 30
0.0
 11
2.431728914994549
 21
-2.235000000000016
 31
0.0
  0
LWPOLYLINE
  5
47E4
330
1D3
100
AcDbEntity
  8
Pel_CS-Cross Section
 62
     4
100
AcDbPolyline
 90
       14
 70
   129
 43
0.0
 10
1.613003333947675
 20
-2.234316146045727
 42
-0.0998807877076541
 10
1.443034925868333
 20
-1.648627546340172
 10
1.512775634119444
 20
-1.644972590695104
 42
0.398959545973707
 10
1.531728914994586
 20
-1.625000000000013
 10
1.531728914994586
 20
-1.519139017402025
 10
1.643966122543085
 20
-1.401900986668141
 42
1.0
 10
1.629519225492371
 20
-1.388070326322153
 10
1.49172891499459
 20
-1.532000000000017
 10
1.51172891499459
 20
-1.550008080885973
 10
1.511728914994586
 20
-1.62500000000001
 10
1.436190284944297
 20
-1.628958811851027
 42
0.4576894237555402
 10
1.422269823720531
 20
-1.646895999462735
 42
0.1008918840847244
 10
1.596606276904007
 20
-2.245767631552275
 42
0.9914914112673672
 10
1.613041875079721
 20
-2.234372812235455
  0
LINE
  5
47E5
330
1D3
100
AcDbEntity
  8
Pel_CS-Sealant
100
AcDbLine
 10
1.76849999999998
 20
-1.872500000000005
 30
0.0
 11
1.73574999999998
 21
-1.872500000000005
 31
0.0
  0
LINE
  5
47E6
330
1D3
100
AcDbEntity
  8
Pel_CS-Sealant
100
AcDbLine
 10
1.76849999999998
 20
-2.187500000000006
 30
0.0
 11
1.73574999999998
 21
-2.187500000000006
 31
0.0
  0
ARC
  5
47E7
330
1D3
100
AcDbEntity
  8
Pel_CS-Sealant
100
AcDbCircle
 10
1.992874999999964
 20
-1.132983526488867
 30
0.0
 40
0.6684478993976424
100
AcDbArc
 50
247.37738141966
 51
292.6226185803421
  0
HATCH
  5
47E8
330
1D3
100
AcDbEntity
  8
Pel_CS-Sealant
100
AcDbHatch
 10
0.0
 20
0.0
 30
0.0
210
0.0
220
0.0
230
1.0
  2
DASH
 70
     0
 71
     0
 91
        2
 92
        1
 93
        4
 72
     1
 10
1.77449999999998
 20
-1.938191049788844
 11
2.211249999999976
 21
-1.938191049788844
 72
     1
 10
2.211249999999976
 20
-1.938191049788844
 11
2.211249999999976
 21
-1.8885
 72
     1
 10
2.211249999999976
 20
-1.8885
 11
1.77449999999998
 21
-1.88850000000001
 72
     1
 10
1.77449999999998
 20
-1.88850000000001
 11
1.77449999999998
 21
-1.938191049788844
 97
        0
 92
       49
 93
        1
 72
     1
 10
1.77449999999998
 20
-1.938191049788844
 11
2.211249999999976
 21
-1.938191049788844
 97
        0
 75
     0
 76
     1
 52
30.0
 41
0.15
 77
     0
 78
     1
 53
330.0
 43
-3.851281177407609
 44
0.3483267997246026
 45
0.0068629763209582
 46
-0.0256129763209582
 79
     2
 49
0.01875
 49
-0.01875
 98
        1
 10
-3.851281177407609
 20
0.3483267997246026
  0
LWPOLYLINE
  5
47E9
330
1D3
100
AcDbEntity
  8
Pel_CS-Sealant
100
AcDbPolyline
 90
        4
 70
     1
 43
0.0
 10
1.77449999999998
 20
-1.93819104978884
 10
2.211249999999976
 20
-1.93819104978884
 10
2.211249999999976
 20
-1.888499999999996
 10
1.77449999999998
 20
-1.888500000000007
  0
LWPOLYLINE
  5
47EA
330
1D3
100
AcDbEntity
  8
Pel_CS-IG
100
AcDbPolyline
 90
       16
 70
   129
 43
0.0
 10
1.85849999999998
 20
-2.187500000000006
 10
1.76849999999998
 20
-2.187500000000006
 42
-0.4142135623731017
 10
1.758499999999975
 20
-2.177500000000008
 10
1.758499999999982
 20
-1.882500000000006
 42
-0.4142135623730873
 10
1.76849999999998
 20
-1.872500000000005
 10
2.217249999999976
 20
-1.872499999999994
 42
-0.4142135623731013
 10
2.227249999999978
 20
-1.882499999999996
 10
2.227249999999978
 20
-2.177499999999997
 42
-0.4142135623730894
 10
2.217249999999976
 20
-2.187499999999999
 10
2.127249999999976
 20
-2.187500000000006
 10
2.127249999999976
 20
-2.171500000000001
 10
2.211249999999976
 20
-2.171499999999997
 10
2.211249999999976
 20
-1.888499999999996
 10
1.77449999999998
 20
-1.888500000000007
 10
1.77449999999998
 20
-2.171500000000008
 10
1.85849999999998
 20
-2.171500000000004
  0
LINE
  5
47EB
330
1D3
100
AcDbEntity
  8
Pel_CS-Sealant
100
AcDbLine
 10
2.217249999999976
 20
-1.872500000000005
 30
0.0
 11
2.249999999999976
 21
-1.872500000000005
 31
0.0
  0
LINE
  5
47EC
330
1D3
100
AcDbEntity
  8
Pel_CS-Sealant
100
AcDbLine
 10
2.217249999999976
 20
-2.187500000000006
 30
0.0
 11
2.249999999999976
 21
-2.187500000000006
 31
0.0
  0
LWPOLYLINE
  5
47ED
330
1D3
100
AcDbEntity
  8
Pel_CS-Cross Section
 62
     4
100
AcDbPolyline
 90
      137
 70
     1
 43
0.0
 10
2.645000000000004
 20
-0.0149999999999964
 42
0.4142135623731236
 10
2.630000000000003
 20
0.0000000000000042
 10
1.153000000000003
 20
0.0000000000000039
 42
-0.4142135623731095
 10
1.123000000000002
 20
0.030000000000005
 10
1.123000000000005
 20
1.095000000000002
 42
1.0
 10
1.063000000000007
 20
1.095000000000002
 10
1.063000000000003
 20
0.030000000000005
 42
-0.4142135623731149
 10
1.033000000000002
 20
0.0000000000000039
 10
0.0750000000000044
 20
0.0000000000000037
 42
-0.4142135623730982
 10
0.0600000000000038
 20
0.0150000000000043
 10
0.0600000000000038
 20
0.0310000000000025
 10
0.0000000000000051
 20
0.0310000000000025
 42
0.1672852476327882
 10
0.0048280133316553
 20
0.022513326882539
 42
-0.449515153603182
 10
0.0050000000000041
 20
-0.0223606797749943
 42
0.2134217652834015
 10
0.0000000000000015
 20
-0.0335410196624933
 10
0.0000000000000017
 20
-0.8599999999999921
 42
0.4142135623730951
 10
0.0150000000000023
 20
-0.8749999999999891
 10
0.070000000000002
 20
-0.8749999999999891
 42
0.9458235162656416
 10
0.0733333333333323
 20
-0.815185760299993
 42
-0.3819660112500369
 10
0.060000000000004
 20
-0.8002786404499955
 10
0.0600000000000039
 20
-0.6499999999999914
 42
-0.4142135623731042
 10
0.0850000000000061
 20
-0.6249999999999928
 10
0.2100000000000025
 20
-0.6249999999999928
 42
-0.414213562373099
 10
0.2350000000000047
 20
-0.6499999999999913
 10
0.2350000000000011
 20
-0.8599999999999921
 42
0.4142135623730843
 10
0.2500000000000017
 20
-0.8749999999999891
 10
0.6550000000000029
 20
-0.8749999999999962
 42
0.4142135623731017
 10
0.6700000000000034
 20
-0.8599999999999957
 10
0.6700000000000034
 20
-0.7649999999999969
 42
-0.414213562373106
 10
0.685000000000004
 20
-0.7499999999999963
 10
1.015000000000002
 20
-0.7499999999999961
 42
-0.2706623082387043
 10
1.028065604259344
 20
-0.7576318261870153
 10
1.070805157905608
 20
-0.7148922725407477
 42
0.2129176659484373
 10
1.015000000000002
 20
-0.6899999999999974
 10
0.9300000000000013
 20
-0.6899999999999974
 42
-0.4142135623730887
 10
0.9150000000000007
 20
-0.6749999999999968
 10
0.8750000000000015
 20
-0.6749999999999968
 42
-0.4142135623730887
 10
0.860000000000001
 20
-0.6899999999999974
 10
0.685000000000004
 20
-0.6899999999999976
 42
0.4142135623731033
 10
0.6100000000000047
 20
-0.7649999999999969
 10
0.6100000000000047
 20
-0.799999999999997
 42
-0.4142135623730539
 10
0.5950000000000041
 20
-0.8149999999999975
 10
0.310000000000004
 20
-0.8149999999999975
 42
-0.4142135623731061
 10
0.2950000000000034
 20
-0.799999999999997
 10
0.2950000000000034
 20
-0.6499999999999913
 42
0.4142135623730943
 10
0.210000000000006
 20
-0.5649999999999905
 10
0.0750000000000045
 20
-0.5649999999999906
 42
-0.4142135623731015
 10
0.0600000000000039
 20
-0.54999999999999
 10
0.0600000000000038
 20
-0.0749999999999956
 42
-0.4142135623731054
 10
0.0750000000000044
 20
-0.059999999999995
 10
0.8600000000000045
 20
-0.0599999999999949
 42
-0.4142135623730661
 10
0.8750000000000015
 20
-0.0749999999999955
 10
0.8750000000000015
 20
-0.6749999999999968
 10
0.9150000000000007
 20
-0.6749999999999968
 10
0.9150000000000042
 20
-0.0749999999999954
 42
-0.4142135623730708
 10
0.9300000000000013
 20
-0.0599999999999949
 10
1.377000000000003
 20
-0.0599999999999948
 42
-0.4142135623731067
 10
1.392000000000004
 20
-0.0749999999999954
 10
1.452000000000003
 20
-0.0749999999999954
 42
-0.4142135623731054
 10
1.467000000000003
 20
-0.0599999999999948
 10
2.355000000000001
 20
-0.0599999999999982
 42
-0.4142135623731241
 10
2.370000000000002
 20
-0.0749999999999988
 10
2.370000000000002
 20
-0.2229999999999984
 42
-0.4142135623730864
 10
2.355000000000002
 20
-0.237999999999999
 10
1.467000000000003
 20
-0.2379999999999956
 42
-0.4142135623731012
 10
1.452000000000003
 20
-0.222999999999995
 10
1.452000000000003
 20
-0.0749999999999954
 10
1.392000000000001
 20
-0.0749999999999954
 10
1.392000000000001
 20
-0.8449999999999949
 42
-0.4142135623730539
 10
1.377000000000004
 20
-0.8599999999999955
 10
1.3684846922835
 20
-0.8599999999999955
 42
0.317837245195789
 10
1.297774014164842
 20
-0.9099999999999962
 42
-0.3178372451957535
 10
1.283631878541113
 20
-0.9199999999999977
 10
1.105000000000002
 20
-0.9199999999999977
 10
1.105000000000002
 20
-0.9599999999999969
 10
1.280000000000002
 20
-0.9599999999999969
 42
-0.4142135623731234
 10
1.295000000000003
 20
-0.9749999999999975
 10
1.295000000000003
 20
-1.484999999999995
 42
-0.4142135623730735
 10
1.280000000000002
 20
-1.499999999999996
 10
1.105000000000002
 20
-1.499999999999996
 42
-0.4142135623730909
 10
1.090000000000001
 20
-1.484999999999995
 10
1.090000000000001
 20
-0.9749999999999975
 42
-0.4142135623730951
 10
1.105000000000002
 20
-0.9599999999999969
 10
1.105000000000002
 20
-0.9199999999999977
 42
-0.4142135623730777
 10
1.090000000000001
 20
-0.9049999999999972
 10
1.090000000000001
 20
-0.7649999999999967
 42
0.1849817313880213
 10
1.070805157905608
 20
-0.7148922725407477
 10
1.028065604259344
 20
-0.7576318261870153
 42
-0.1290798537170298
 10
1.030000000000002
 20
-0.7649999999999967
 10
1.030000000000002
 20
-1.544999999999997
 42
0.4142135623730909
 10
1.045000000000003
 20
-1.559999999999994
 10
1.325000000000004
 20
-1.559999999999998
 42
0.414213562373093
 10
1.355000000000002
 20
-1.529999999999997
 10
1.355000000000002
 20
-0.9349999999999983
 42
-0.4142135623730796
 10
1.370000000000002
 20
-0.9199999999999977
 10
1.608775010008011
 20
-0.9199999999999977
 42
-0.2277350772923663
 10
1.620484381255009
 20
-0.9256249999999962
 42
0.7088115080035261
 10
1.665000000000004
 20
-0.9099999999999962
 10
1.665000000000004
 20
-0.874999999999996
 42
0.414213562373106
 10
1.650000000000003
 20
-0.8599999999999955
 10
1.467
 20
-0.8599999999999955
 42
-0.4142135623730671
 10
1.452000000000003
 20
-0.8449999999999949
 10
1.452000000000003
 20
-0.3129999999999984
 42
-0.4142135623730897
 10
1.467000000000003
 20
-0.2979999999999979
 10
2.437000000000002
 20
-0.2979999999999977
 42
-0.4142135623731006
 10
2.452000000000003
 20
-0.3129999999999983
 10
2.452000000000003
 20
-0.8449999999999983
 10
2.512000000000002
 20
-0.8449999999999983
 10
2.512000000000002
 20
-0.3129999999999947
 42
-0.4142135623730897
 10
2.527000000000002
 20
-0.2979999999999976
 10
2.635000000000003
 20
-0.2979999999999976
 42
-0.4142135623730887
 10
2.650000000000003
 20
-0.3129999999999947
 10
2.650000000000003
 20
-0.8449999999999983
 42
-0.4142135623730887
 10
2.635000000000003
 20
-0.8599999999999953
 10
2.527000000000002
 20
-0.8599999999999953
 42
-0.4142135623730887
 10
2.512000000000002
 20
-0.8449999999999983
 10
2.452000000000003
 20
-0.8449999999999983
 42
-0.4142135623730539
 10
2.437000000000002
 20
-0.8599999999999953
 10
2.255000000000004
 20
-0.8599999999999953
 42
0.414213562373106
 10
2.240000000000003
 20
-0.8749999999999959
 10
2.240000000000003
 20
-0.909999999999996
 42
0.7088115080034561
 10
2.284515618744995
 20
-0.9256249999999996
 42
-0.2277350772923631
 10
2.296224989991992
 20
-0.9199999999999976
 10
2.695000000000002
 20
-0.9199999999999974
 42
0.4142135623731102
 10
2.710000000000002
 20
-0.9049999999999968
 10
2.710000000000002
 20
-0.2529999999999959
 42
0.4142135623730887
 10
2.695000000000005
 20
-0.2379999999999954
 10
2.470000000000004
 20
-0.2379999999999954
 42
-0.414213562373102
 10
2.430000000000004
 20
-0.1979999999999963
 10
2.430000000000004
 20
-0.0749999999999952
 42
-0.4142135623730542
 10
2.445000000000001
 20
-0.0599999999999982
 10
2.553000000000002
 20
-0.0599999999999981
 42
-0.414213562373089
 10
2.568000000000002
 20
-0.0749999999999952
 10
2.568000000000002
 20
-0.1049999999999963
 10
2.593000000000004
 20
-0.1049999999999963
 10
2.637500000000004
 20
-0.0793079130210573
 42
0.2679491924311337
 10
2.645000000000004
 20
-0.0663175319642904
  0
LWPOLYLINE
  5
47EE
330
1D3
100
AcDbEntity
  8
Pel_CS-Weatherstrip
  6
Continuous
100
AcDbPolyline
 90
        4
 70
     1
 43
0.0
 10
2.42999999999999
 20
-1.860000000000012
 10
2.367999999999993
 20
-1.860000000000012
 10
2.367999999999993
 20
-2.235000000000013
 10
2.429999999999991
 20
-2.235000000000013
  0
POLYLINE
  5
47EF
330
1D3
100
AcDbEntity
  8
Pel_CS-Sealant
100
AcDb2dPolyline
 66
     1
 10
0.0
 20
0.0
 30
0.0
 70
     1
  0
VERTEX
  5
496D
330
47EF
100
AcDbEntity
  8
Pel_CS-Sealant
100
AcDbVertex
100
AcDb2dVertex
 10
0.869661841774354
 20
-1.433125000000014
 30
0.0
  0
VERTEX
  5
496E
330
47EF
100
AcDbEntity
  8
Pel_CS-Sealant
100
AcDbVertex
100
AcDb2dVertex
 10
0.8618271592571158
 20
-1.411599386695303
 30
0.0
  0
VERTEX
  5
496F
330
47EF
100
AcDbEntity
  8
Pel_CS-Sealant
100
AcDbVertex
100
AcDb2dVertex
 10
0.87937499999998
 20
-1.396875000000015
 30
0.0
  0
VERTEX
  5
4970
330
47EF
100
AcDbEntity
  8
Pel_CS-Sealant
100
AcDbVertex
100
AcDb2dVertex
 10
0.8618271592571158
 20
-1.382150613304716
 30
0.0
  0
VERTEX
  5
4971
330
47EF
100
AcDbEntity
  8
Pel_CS-Sealant
100
AcDbVertex
100
AcDb2dVertex
 10
0.869661841774354
 20
-1.360625000000009
 30
0.0
  0
VERTEX
  5
4972
330
47EF
100
AcDbEntity
  8
Pel_CS-Sealant
100
AcDbVertex
100
AcDb2dVertex
 10
0.8471027725618203
 20
-1.356647227438173
 30
0.0
  0
VERTEX
  5
4973
330
47EF
100
AcDbEntity
  8
Pel_CS-Sealant
100
AcDbVertex
100
AcDb2dVertex
 10
0.843124999999981
 20
-1.334088158225636
 30
0.0
  0
VERTEX
  5
4974
330
47EF
100
AcDbEntity
  8
Pel_CS-Sealant
100
AcDbVertex
100
AcDb2dVertex
 10
0.8215993866952775
 20
-1.341922840742878
 30
0.0
  0
VERTEX
  5
4975
330
47EF
100
AcDbEntity
  8
Pel_CS-Sealant
100
AcDbVertex
100
AcDb2dVertex
 10
0.8128278380373377
 20
-1.374658705995365
 30
0.0
 42
-0.3394542588633676
  0
VERTEX
  5
4976
330
47EF
100
AcDbEntity
  8
Pel_CS-Sealant
100
AcDbVertex
100
AcDb2dVertex
 10
0.8298749999999781
 20
-1.396875000000011
 30
0.0
 42
-1.0
  0
VERTEX
  5
4977
330
47EF
100
AcDbEntity
  8
Pel_CS-Sealant
100
AcDbVertex
100
AcDb2dVertex
 10
0.7838749999999788
 20
-1.396875000000011
 30
0.0
 42
-0.4931454260313062
  0
VERTEX
  5
4978
330
47EF
100
AcDbEntity
  8
Pel_CS-Sealant
100
AcDbVertex
100
AcDb2dVertex
 10
0.8128278380373377
 20
-1.374658705995365
 30
0.0
  0
VERTEX
  5
4979
330
47EF
100
AcDbEntity
  8
Pel_CS-Sealant
100
AcDbVertex
100
AcDb2dVertex
 10
0.8215993866952739
 20
-1.341922840742878
 30
0.0
  0
VERTEX
  5
497A
330
47EF
100
AcDbEntity
  8
Pel_CS-Sealant
100
AcDbVertex
100
AcDb2dVertex
 10
0.8068749999999784
 20
-1.32437500000001
 30
0.0
  0
VERTEX
  5
497B
330
47EF
100
AcDbEntity
  8
Pel_CS-Sealant
100
AcDbVertex
100
AcDb2dVertex
 10
0.792150613304683
 20
-1.341922840742878
 30
0.0
  0
VERTEX
  5
497C
330
47EF
100
AcDbEntity
  8
Pel_CS-Sealant
100
AcDbVertex
100
AcDb2dVertex
 10
0.7706249999999795
 20
-1.334088158225639
 30
0.0
  0
VERTEX
  5
497D
330
47EF
100
AcDbEntity
  8
Pel_CS-Sealant
100
AcDbVertex
100
AcDb2dVertex
 10
0.7666472274381402
 20
-1.356647227438177
 30
0.0
  0
VERTEX
  5
497E
330
47EF
100
AcDbEntity
  8
Pel_CS-Sealant
100
AcDbVertex
100
AcDb2dVertex
 10
0.7440881582256065
 20
-1.360625000000012
 30
0.0
  0
VERTEX
  5
497F
330
47EF
100
AcDbEntity
  8
Pel_CS-Sealant
100
AcDbVertex
100
AcDb2dVertex
 10
0.7519228407428447
 20
-1.382150613304723
 30
0.0
  0
VERTEX
  5
4980
330
47EF
100
AcDbEntity
  8
Pel_CS-Sealant
100
AcDbVertex
100
AcDb2dVertex
 10
0.7343749999999769
 20
-1.396875000000015
 30
0.0
  0
VERTEX
  5
4981
330
47EF
100
AcDbEntity
  8
Pel_CS-Sealant
100
AcDbVertex
100
AcDb2dVertex
 10
0.7519228407428482
 20
-1.41159938669531
 30
0.0
  0
VERTEX
  5
4982
330
47EF
100
AcDbEntity
  8
Pel_CS-Sealant
100
AcDbVertex
100
AcDb2dVertex
 10
0.7440881582256065
 20
-1.433125000000017
 30
0.0
  0
VERTEX
  5
4983
330
47EF
100
AcDbEntity
  8
Pel_CS-Sealant
100
AcDbVertex
100
AcDb2dVertex
 10
0.7666472274381438
 20
-1.437102772561853
 30
0.0
  0
VERTEX
  5
4984
330
47EF
100
AcDbEntity
  8
Pel_CS-Sealant
100
AcDbVertex
100
AcDb2dVertex
 10
0.7706249999999795
 20
-1.45966184177439
 30
0.0
  0
VERTEX
  5
4985
330
47EF
100
AcDbEntity
  8
Pel_CS-Sealant
100
AcDbVertex
100
AcDb2dVertex
 10
0.792150613304683
 20
-1.451827159257149
 30
0.0
  0
VERTEX
  5
4986
330
47EF
100
AcDbEntity
  8
Pel_CS-Sealant
100
AcDbVertex
100
AcDb2dVertex
 10
0.8068749999999857
 20
-1.469375000000016
 30
0.0
  0
VERTEX
  5
4987
330
47EF
100
AcDbEntity
  8
Pel_CS-Sealant
100
AcDbVertex
100
AcDb2dVertex
 10
0.821599386695281
 20
-1.451827159257145
 30
0.0
  0
VERTEX
  5
4988
330
47EF
100
AcDbEntity
  8
Pel_CS-Sealant
100
AcDbVertex
100
AcDb2dVertex
 10
0.843124999999981
 20
-1.459661841774383
 30
0.0
  0
VERTEX
  5
4989
330
47EF
100
AcDbEntity
  8
Pel_CS-Sealant
100
AcDbVertex
100
AcDb2dVertex
 10
0.8471027725618238
 20
-1.437102772561846
 30
0.0
  0
SEQEND
  5
498A
330
47EF
100
AcDbEntity
  8
Pel_CS-Sealant
  0
CIRCLE
  5
498B
330
1D3
100
AcDbEntity
  8
Pel_CS-Weatherstrip
100
AcDbCircle
 10
0.6669999999999791
 20
-3.595000000000012
 30
0.0
 40
0.018
  0
CIRCLE
  5
498C
330
1D3
100
AcDbEntity
  8
Pel_CS-Weatherstrip
100
AcDbCircle
 10
0.6669999999999791
 20
-3.470000000000012
 30
0.0
 40
0.018
  0
CIRCLE
  5
498D
330
1D3
100
AcDbEntity
  8
Pel_CS-Weatherstrip
100
AcDbCircle
 10
0.6669999999999791
 20
-3.845000000000012
 30
0.0
 40
0.018
  0
CIRCLE
  5
498E
330
1D3
100
AcDbEntity
  8
Pel_CS-Weatherstrip
100
AcDbCircle
 10
0.6669999999999792
 20
-4.095000000000013
 30
0.0
 40
0.018
  0
CIRCLE
  5
498F
330
1D3
100
AcDbEntity
  8
Pel_CS-Weatherstrip
100
AcDbCircle
 10
0.6669999999999792
 20
-3.970000000000012
 30
0.0
 40
0.018
  0
CIRCLE
  5
4990
330
1D3
100
AcDbEntity
  8
Pel_CS-Weatherstrip
100
AcDbCircle
 10
0.6669999999999791
 20
-3.720000000000012
 30
0.0
 40
0.018
  0
CIRCLE
  5
4991
330
1D3
100
AcDbEntity
  8
Pel_CS-Weatherstrip
100
AcDbCircle
 10
0.666999999999979
 20
-3.345000000000012
 30
0.0
 40
0.018
  0
CIRCLE
  5
4992
330
1D3
100
AcDbEntity
  8
Pel_CS-Weatherstrip
100
AcDbCircle
 10
0.666999999999979
 20
-3.220000000000012
 30
0.0
 40
0.018
  0
CIRCLE
  5
4993
330
1D3
100
AcDbEntity
  8
Pel_CS-Weatherstrip
100
AcDbCircle
 10
0.666999999999979
 20
-3.095000000000012
 30
0.0
 40
0.018
  0
HATCH
  5
4994
330
1D3
100
AcDbEntity
  8
Pel_CS-Weatherstrip
100
AcDbHatch
 10
0.0
 20
0.0
 30
0.0
210
0.0
220
0.0
230
1.0
  2
SOLID
 70
     1
 71
     0
 91
        1
 92
        1
 93
        1
 72
     2
 10
0.6669999999999792
 20
-4.095000000000016
 40
0.018
 50
0.0
 51
360.0
 73
     1
 97
        0
 75
     0
 76
     1
 98
        1
 10
0.0000000000000021
 20
-2.609999999999999
  0
HATCH
  5
4995
330
1D3
100
AcDbEntity
  8
Pel_CS-Weatherstrip
100
AcDbHatch
 10
0.0
 20
0.0
 30
0.0
210
0.0
220
0.0
230
1.0
  2
SOLID
 70
     1
 71
     0
 91
        1
 92
        1
 93
        1
 72
     2
 10
0.6669999999999792
 20
-3.970000000000016
 40
0.018
 50
0.0
 51
360.0
 73
     1
 97
        0
 75
     0
 76
     1
 98
        1
 10
0.0000000000000021
 20
-2.484999999999999
  0
HATCH
  5
4996
330
1D3
100
AcDbEntity
  8
Pel_CS-Weatherstrip
100
AcDbHatch
 10
0.0
 20
0.0
 30
0.0
210
0.0
220
0.0
230
1.0
  2
SOLID
 70
     1
 71
     0
 91
        1
 92
        1
 93
        1
 72
     2
 10
0.6669999999999791
 20
-3.845000000000016
 40
0.018
 50
0.0
 51
360.0
 73
     1
 97
        0
 75
     0
 76
     1
 98
        1
 10
0.000000000000002
 20
-2.359999999999999
  0
HATCH
  5
4997
330
1D3
100
AcDbEntity
  8
Pel_CS-Weatherstrip
100
AcDbHatch
 10
0.0
 20
0.0
 30
0.0
210
0.0
220
0.0
230
1.0
  2
SOLID
 70
     1
 71
     0
 91
        1
 92
        1
 93
        1
 72
     2
 10
0.6669999999999791
 20
-3.720000000000016
 40
0.018
 50
0.0
 51
360.0
 73
     1
 97
        0
 75
     0
 76
     1
 98
        1
 10
0.000000000000002
 20
-2.234999999999999
  0
HATCH
  5
4998
330
1D3
100
AcDbEntity
  8
Pel_CS-Weatherstrip
100
AcDbHatch
 10
0.0
 20
0.0
 30
0.0
210
0.0
220
0.0
230
1.0
  2
SOLID
 70
     1
 71
     0
 91
        1
 92
        1
 93
        1
 72
     2
 10
0.6669999999999791
 20
-3.595000000000016
 40
0.018
 50
0.0
 51
360.0
 73
     1
 97
        0
 75
     0
 76
     1
 98
        1
 10
0.000000000000002
 20
-2.109999999999999
  0
HATCH
  5
4999
330
1D3
100
AcDbEntity
  8
Pel_CS-Weatherstrip
100
AcDbHatch
 10
0.0
 20
0.0
 30
0.0
210
0.0
220
0.0
230
1.0
  2
SOLID
 70
     1
 71
     0
 91
        1
 92
        1
 93
        1
 72
     2
 10
0.6669999999999791
 20
-3.470000000000016
 40
0.018
 50
0.0
 51
360.0
 73
     1
 97
        0
 75
     0
 76
     1
 98
        1
 10
0.0000000000000019
 20
-1.984999999999999
  0
HATCH
  5
499A
330
1D3
100
AcDbEntity
  8
Pel_CS-Weatherstrip
100
AcDbHatch
 10
0.0
 20
0.0
 30
0.0
210
0.0
220
0.0
230
1.0
  2
SOLID
 70
     1
 71
     0
 91
        1
 92
        1
 93
        1
 72
     2
 10
0.666999999999979
 20
-3.345000000000016
 40
0.018
 50
0.0
 51
360.0
 73
     1
 97
        0
 75
     0
 76
     1
 98
        1
 10
0.0000000000000019
 20
-1.859999999999999
  0
HATCH
  5
499B
330
1D3
100
AcDbEntity
  8
Pel_CS-Weatherstrip
100
AcDbHatch
 10
0.0
 20
0.0
 30
0.0
210
0.0
220
0.0
230
1.0
  2
SOLID
 70
     1
 71
     0
 91
        1
 92
        1
 93
        1
 72
     2
 10
0.666999999999979
 20
-3.220000000000016
 40
0.018
 50
0.0
 51
360.0
 73
     1
 97
        0
 75
     0
 76
     1
 98
        1
 10
0.0000000000000019
 20
-1.734999999999999
  0
HATCH
  5
499C
330
1D3
100
AcDbEntity
  8
Pel_CS-Weatherstrip
100
AcDbHatch
 10
0.0
 20
0.0
 30
0.0
210
0.0
220
0.0
230
1.0
  2
SOLID
 70
     1
 71
     0
 91
        1
 92
        1
 93
        1
 72
     2
 10
0.666999999999979
 20
-3.095000000000016
 40
0.018
 50
0.0
 51
360.0
 73
     1
 97
        0
 75
     0
 76
     1
 98
        1
 10
0.0000000000000019
 20
-1.609999999999999
  0
ENDBLK
  5
283
330
1D3
100
AcDbEntity
  8
0
100
AcDbBlockEnd
  0
BLOCK
  5
32E
330
32B
100
AcDbEntity
  8
0
100
AcDbBlockBegin
  2
TSE 10 SH FH
 70
     0
 10
0.0
 20
0.0
 30
0.0
  3
TSE 10 SH FH
  1

  0
LWPOLYLINE
  5
338
330
32B
100
AcDbEntity
  8
Pel_CS-IG
  6
Continuous
100
AcDbPolyline
 90
        4
 70
     0
 43
0.0
 10
0.3430000000000213
 20
-4.0
 10
0.3430000000000213
 20
-0.9999999999999893
 10
0.2180000000000284
 20
-0.9999999999999893
 10
0.2180000000000284
 20
-4.0
  0
LWPOLYLINE
  5
339
330
32B
100
AcDbEntity
  8
Pel_CS-IG
  6
Continuous
100
AcDbPolyline
 90
        4
 70
     0
 43
0.0
 10
0.9680000000000283
 20
-4.0
 10
0.9680000000000283
 20
-0.9999999999999964
 10
0.8430000000000283
 20
-0.9999999999999893
 10
0.8430000000000283
 20
-4.0
  0
LWPOLYLINE
  5
4A57
330
32B
100
AcDbEntity
  8
Pel_CS-Cross Section
 62
     4
100
AcDbPolyline
 90
       13
 70
     1
 43
0.0
 10
0.1350000000001419
 20
-0.7703907306372991
 10
0.2416421551932988
 20
-0.6560247286422616
 42
0.9999999999999996
 10
0.2233578448069853
 20
-0.6389752713577331
 10
0.0900000000001402
 20
-0.7819919191140308
 10
0.1100000000001433
 20
-0.7999999999999936
 10
0.1100000000001433
 20
-0.8749999999999964
 10
0.0320839747918047
 20
-0.8749999999999964
 42
0.4387364446152711
 10
0.0201252798601086
 20
-0.8879947942151851
 42
0.1028671740245727
 10
0.1936017249855855
 20
-1.473579765626947
 42
1.000000000000018
 10
0.2156243986745299
 20
-1.461747528155097
 42
-0.1004471373057855
 10
0.0462782269401085
 20
-0.8999999999999879
 10
0.1100000000001398
 20
-0.8999999999999879
 42
0.4142135623730847
 10
0.1350000000001419
 20
-0.8749999999999964
1001
AcDbBlockRepETag
1070
     1
1071
        3
1005
4A57
  0
LINE
  5
4A58
330
32B
100
AcDbEntity
  8
Pel_CS-Sealant
100
AcDbLine
 10
0.3757500000000213
 20
-1.437499999999996
 30
0.0
 11
0.3430000000000213
 21
-1.437499999999996
 31
0.0
1001
AcDbBlockRepETag
1070
     1
1071
        4
1005
4A58
  0
LINE
  5
4A59
330
32B
100
AcDbEntity
  8
Pel_CS-Sealant
100
AcDbLine
 10
0.8102500000000283
 20
-1.437499999999996
 30
0.0
 11
0.8430000000000283
 21
-1.437499999999996
 31
0.0
1001
AcDbBlockRepETag
1070
     1
1071
        5
1005
4A59
  0
ARC
  5
4A5A
330
32B
100
AcDbEntity
  8
Pel_CS-Sealant
100
AcDbCircle
 10
0.5930000000000107
 20
-0.3182685958638096
 30
0.0
 40
0.7261251320437026
100
AcDbArc
 50
249.8613393576902
 51
290.1386606423122
1001
AcDbBlockRepETag
1070
     1
1071
        6
1005
4A5A
  0
LINE
  5
4A5B
330
32B
100
AcDbEntity
  8
Pel_CS-Sealant
100
AcDbLine
 10
0.3757500000000213
 20
-1.122499999999998
 30
0.0
 11
0.3430000000000213
 21
-1.122499999999998
 31
0.0
1001
AcDbBlockRepETag
1070
     1
1071
        7
1005
4A5B
  0
LINE
  5
4A5C
330
32B
100
AcDbEntity
  8
Pel_CS-Sealant
100
AcDbLine
 10
0.8102500000000283
 20
-1.122499999999998
 30
0.0
 11
0.8430000000000283
 21
-1.122499999999998
 31
0.0
1001
AcDbBlockRepETag
1070
     1
1071
        8
1005
4A5C
  0
LWPOLYLINE
  5
4A5D
330
32B
100
AcDbEntity
  8
Pel_CS-Weatherstrip
  6
Continuous
100
AcDbPolyline
 90
        4
 70
     1
 43
0.0
 10
1.030000000000015
 20
-1.125000000000024
 10
0.9680000000000177
 20
-1.125000000000024
 10
0.9680000000000177
 20
-1.500000000000024
 10
1.030000000000015
 20
-1.500000000000024
1001
AcDbBlockRepETag
1070
     1
1071
        9
1005
4A5D
  0
HATCH
  5
4A5E
330
32B
100
AcDbEntity
  8
Pel_CS-Sealant
100
AcDbHatch
 10
0.0
 20
0.0
 30
0.0
210
0.0
220
0.0
230
1.0
  2
DASH
 70
     0
 71
     0
 91
        2
 92
        1
 93
        4
 72
     1
 10
0.3746250000000266
 20
-1.188191049788841
 11
0.811375000000023
 21
-1.188191049788841
 72
     1
 10
0.811375000000023
 20
-1.188191049788841
 11
0.811375000000023
 21
-1.138499999999996
 72
     1
 10
0.811375000000023
 20
-1.138499999999996
 11
0.3746250000000266
 21
-1.138500000000007
 72
     1
 10
0.3746250000000266
 20
-1.138500000000007
 11
0.3746250000000266
 21
-1.188191049788841
 97
        0
 92
       49
 93
        1
 72
     1
 10
0.3746250000000266
 20
-1.188191049788841
 11
0.811375000000023
 21
-1.188191049788841
 97
        0
 75
     0
 76
     1
 52
30.0
 41
0.15
 77
     0
 78
     1
 53
330.0
 43
-5.251156177407561
 44
1.098326799724603
 45
0.0068629763209582
 46
-0.0256129763209582
 79
     2
 49
0.01875
 49
-0.01875
 98
        1
 10
-5.251156177407561
 20
1.098326799724603
1001
AcDbBlockRepETag
1070
     1
1071
       10
1005
4A5E
  0
LWPOLYLINE
  5
4A5F
330
32B
100
AcDbEntity
  8
Pel_CS-Sealant
100
AcDbPolyline
 90
        4
 70
     1
 43
0.0
 10
0.3746250000000266
 20
-1.188191049788841
 10
0.811375000000023
 20
-1.188191049788841
 10
0.811375000000023
 20
-1.138499999999996
 10
0.3746250000000266
 20
-1.138500000000007
1001
AcDbBlockRepETag
1070
     1
1071
       11
1005
4A5F
  0
LWPOLYLINE
  5
4A60
330
32B
100
AcDbEntity
  8
Pel_CS-IG
 62
     2
100
AcDbPolyline
 90
       16
 70
   129
 43
0.0
 10
0.4586250000000263
 20
-1.437500000000007
 10
0.3686250000000264
 20
-1.437500000000007
 42
-0.4142135623731017
 10
0.3586250000000213
 20
-1.427500000000009
 10
0.3586250000000284
 20
-1.132500000000007
 42
-0.4142135623730873
 10
0.3686250000000264
 20
-1.122500000000005
 10
0.8173750000000232
 20
-1.122499999999995
 42
-0.4142135623731013
 10
0.8273750000000248
 20
-1.132499999999996
 10
0.8273750000000248
 20
-1.427499999999998
 42
-0.4142135623730894
 10
0.8173750000000232
 20
-1.4375
 10
0.7273750000000235
 20
-1.437500000000007
 10
0.7273750000000235
 20
-1.421500000000001
 10
0.811375000000023
 20
-1.421499999999998
 10
0.811375000000023
 20
-1.138499999999996
 10
0.3746250000000266
 20
-1.138500000000007
 10
0.3746250000000266
 20
-1.421500000000008
 10
0.4586250000000263
 20
-1.421500000000005
1001
AcDbBlockRepETag
1070
     1
1071
       12
1005
4A60
  0
POINT
  5
4A61
330
32B
100
AcDbEntity
  8
Pel_Points
100
AcDbPoint
 10
0.0
 20
0.0
 30
0.0
1001
AcDbBlockRepETag
1070
     1
1071
       13
1005
4A61
  0
LWPOLYLINE
  5
4A62
330
32B
100
AcDbEntity
  8
Pel_CS-Cross Section
 62
     4
100
AcDbPolyline
 90
      113
 70
     1
 43
0.0
 10
2.644999999999999
 20
-0.0150000000000006
 42
0.4142135623730888
 10
2.63
 20
-0.0000000000000036
 10
1.153
 20
-0.0000000000000036
 42
-0.414213562373088
 10
1.123000000000001
 20
0.0299999999999976
 10
1.123000000000001
 20
1.094999999999998
 42
1.0
 10
1.063000000000002
 20
1.094999999999998
 10
1.063
 20
0.0299999999999976
 42
-0.4142135623730888
 10
1.033000000000001
 20
0.0
 10
0.0750000000000011
 20
0.0
 42
-0.4142135623730982
 10
0.0600000000000005
 20
0.0150000000000006
 10
0.0600000000000005
 20
0.0309999999999988
 10
0.0
 20
0.0309999999999988
 42
0.1672852476328086
 10
0.0048280133316538
 20
0.0225133268825353
 42
-0.4495151536031774
 10
0.0050000000000008
 20
-0.022360679774998
 42
0.2134217652834015
 10
0.0
 20
-0.033541019662497
 10
0.0
 20
-0.8599999999999958
 42
0.4142135623730951
 10
0.0150000000000006
 20
-0.8749999999999964
 10
0.0700000000000003
 20
-0.8749999999999964
 42
0.9458235162656128
 10
0.0733333333333306
 20
-0.8151857602999967
 42
-0.3819660112500411
 10
0.0600000000000005
 20
-0.8002786404499993
 10
0.0600000000000005
 20
-0.6499999999999951
 42
-0.4142135623731042
 10
0.0850000000000027
 20
-0.6249999999999965
 10
0.2100000000000008
 20
-0.6249999999999965
 42
-0.414213562373099
 10
0.2350000000000012
 20
-0.6499999999999951
 10
0.2349999999999994
 20
-0.8599999999999958
 42
0.1989123673797168
 10
0.2393933982822034
 20
-0.870606601717796
 10
0.2993933982822021
 20
-0.8106066017178008
 42
-0.1989123673796697
 10
0.2949999999999999
 20
-0.8000000000000007
 10
0.2949999999999999
 20
-0.6499999999999951
 42
0.4142135623730943
 10
0.2100000000000008
 20
-0.5649999999999942
 10
0.0750000000000011
 20
-0.5649999999999942
 42
-0.4142135623730843
 10
0.0600000000000005
 20
-0.5499999999999972
 10
0.0600000000000005
 20
-0.0749999999999993
 42
-0.414213562373088
 10
0.0750000000000011
 20
-0.0599999999999987
 10
0.8599999999999994
 20
-0.0600000000000023
 42
-0.4142135623731094
 10
0.875
 20
-0.0750000000000029
 10
0.875
 20
-0.6750000000000007
 10
0.9149999999999991
 20
-0.6750000000000007
 10
0.9149999999999991
 20
-0.0749999999999993
 42
-0.4142135623731055
 10
0.9299999999999997
 20
-0.0600000000000023
 10
1.382000000000001
 20
-0.0600000000000023
 42
-0.4142135623730925
 10
1.397
 20
-0.0750000000000029
 10
1.397000000000002
 20
-0.8450000000000024
 10
1.447
 20
-0.8450000000000024
 10
1.446999999999999
 20
-0.0749999999999993
 42
-0.4142135623730882
 10
1.461999999999999
 20
-0.0600000000000023
 10
2.355
 20
-0.0600000000000023
 42
-0.4142135623731068
 10
2.37
 20
-0.0749999999999993
 10
2.37
 20
-0.2230000000000025
 42
0.4142135623730925
 10
2.445
 20
-0.2980000000000018
 10
2.635000000000001
 20
-0.2980000000000018
 42
-0.4142135623730887
 10
2.65
 20
-0.3130000000000024
 10
2.65
 20
-0.8450000000000024
 42
-0.4142135623730887
 10
2.635000000000001
 20
-0.8600000000000029
 10
1.461999999999999
 20
-0.8600000000000029
 42
-0.4142135623730887
 10
1.446999999999999
 20
-0.8450000000000024
 10
1.396999999999998
 20
-0.8450000000000024
 42
-0.4142135623730713
 10
1.382000000000001
 20
-0.8600000000000029
 10
1.368484692283495
 20
-0.8600000000000029
 42
0.3178372451957828
 10
1.29777401416484
 20
-0.9100000000000001
 42
-0.3178372451957985
 10
1.283631878541109
 20
-0.9200000000000017
 10
1.105
 20
-0.9200000000000017
 10
1.105
 20
-0.9600000000000008
 10
1.280000000000001
 20
-0.9600000000000008
 42
-0.414213562373106
 10
1.294999999999999
 20
-0.9750000000000014
 10
1.294999999999999
 20
-1.485000000000002
 42
-0.4142135623730734
 10
1.280000000000001
 20
-1.5
 10
1.105
 20
-1.5
 42
-0.4142135623731081
 10
1.089999999999999
 20
-1.485000000000002
 10
1.089999999999999
 20
-0.9750000000000014
 42
-0.4142135623731146
 10
1.105
 20
-0.9600000000000008
 10
1.105
 20
-0.9200000000000017
 42
-0.4142135623730951
 10
1.089999999999999
 20
-0.9050000000000011
 10
1.089999999999999
 20
-0.7650000000000042
 42
0.4142135623730956
 10
1.015
 20
-0.6900000000000013
 10
0.9299999999999997
 20
-0.6900000000000013
 42
-0.4142135623730887
 10
0.9149999999999991
 20
-0.6750000000000007
 10
0.875
 20
-0.6750000000000007
 42
-0.4142135623730887
 10
0.8599999999999994
 20
-0.6900000000000013
 10
0.6850000000000005
 20
-0.6900000000000013
 42
0.4142135623730965
 10
0.6100000000000012
 20
-0.7650000000000042
 10
0.6100000000000012
 20
-0.8000000000000007
 42
-0.414213562373106
 10
0.5950000000000007
 20
-0.8150000000000012
 10
0.3099999999999987
 20
-0.8150000000000012
 42
-0.1989123673796497
 10
0.2993933982822021
 20
-0.8106066017178008
 10
0.2393933982822034
 20
-0.870606601717796
 42
0.1989123673796016
 10
0.25
 20
-0.8749999999999964
 10
0.6550000000000012
 20
-0.8750000000000035
 42
0.4142135623731102
 10
0.6700000000000017
 20
-0.8600000000000029
 10
0.6700000000000017
 20
-0.7650000000000042
 42
-0.4142135623731234
 10
0.6850000000000023
 20
-0.75
 10
1.015
 20
-0.75
 42
-0.414213562373093
 10
1.030000000000001
 20
-0.7650000000000006
 10
1.030000000000001
 20
-1.545000000000001
 42
0.4142135623730907
 10
1.044999999999999
 20
-1.560000000000002
 10
1.324999999999999
 20
-1.560000000000002
 42
0.4142135623730973
 10
1.355
 20
-1.530000000000001
 10
1.355
 20
-0.9350000000000022
 42
-0.414213562373106
 10
1.37
 20
-0.9200000000000017
 10
2.695
 20
-0.9200000000000017
 42
0.414213562373093
 10
2.71
 20
-0.9050000000000011
 10
2.71
 20
-0.2530000000000037
 42
0.4142135623730887
 10
2.695
 20
-0.2380000000000031
 10
2.445
 20
-0.2380000000000031
 42
-0.414213562373106
 10
2.429999999999999
 20
-0.2230000000000025
 10
2.429999999999999
 20
-0.0749999999999993
 42
-0.414213562373089
 10
2.445
 20
-0.0600000000000023
 10
2.553
 20
-0.0600000000000023
 42
-0.414213562373089
 10
2.568000000000001
 20
-0.0749999999999993
 10
2.568000000000001
 20
-0.1050000000000004
 10
2.592999999999999
 20
-0.1050000000000004
 10
2.637499999999999
 20
-0.079307913021065
 42
0.2679491924311337
 10
2.644999999999999
 20
-0.0663175319642981
1001
AcDbBlockRepETag
1070
     1
1071
       15
1005
4A62
  0
ENDBLK
  5
341
330
32B
100
AcDbEntity
  8
0
100
AcDbBlockEnd
  0
BLOCK
  5
2A3
330
2A0
100
AcDbEntity
  8
0
100
AcDbBlockBegin
  2
TSE 10 SW VS
 70
     0
 10
0.0
 20
0.0
 30
0.0
  3
TSE 10 SW VS
  1

  0
LWPOLYLINE
  5
2EE
330
2A0
100
AcDbEntity
  8
Pel_CS-IG
  6
Continuous
100
AcDbPolyline
 90
        4
 70
     0
 43
0.0
 10
1.627999999999966
 20
4.0
 10
1.627999999999966
 20
1.874999999999964
 10
1.752999999999959
 20
1.874999999999964
 10
1.752999999999959
 20
4.0
  0
LWPOLYLINE
  5
2EF
330
2A0
100
AcDbEntity
  8
Pel_CS-IG
  6
Continuous
100
AcDbPolyline
 90
        4
 70
     0
 43
0.0
 10
2.252999999999966
 20
4.0
 10
2.252999999999966
 20
1.874999999999964
 10
2.377999999999966
 20
1.874999999999971
 10
2.377999999999955
 20
4.0
  0
CIRCLE
  5
3FB0
102
{ACAD_REACTORS
330
3FE1
102
}
330
2A0
100
AcDbEntity
  8
Pel_CS-Weatherstrip
100
AcDbCircle
 10
0.6669999999999803
 20
1.470000000000016
 30
0.0
 40
0.018
1001
AcDbBlockRepETag
1070
     1
1071
        0
1005
3FB0
  0
CIRCLE
  5
3FB1
330
2A0
100
AcDbEntity
  8
Pel_CS-Weatherstrip
100
AcDbCircle
 10
0.6669999999999803
 20
1.595000000000016
 30
0.0
 40
0.018
1001
AcDbBlockRepETag
1070
     1
1071
        1
1005
3FB1
  0
CIRCLE
  5
3FB2
330
2A0
100
AcDbEntity
  8
Pel_CS-Weatherstrip
100
AcDbCircle
 10
0.6669999999999803
 20
1.720000000000016
 30
0.0
 40
0.018
1001
AcDbBlockRepETag
1070
     1
1071
        2
1005
3FB2
  0
POLYLINE
  5
3FB3
330
2A0
100
AcDbEntity
  8
Pel_Clad
100
AcDb2dPolyline
 66
     1
 10
0.0
 20
0.0
 30
0.0
 70
     1
1001
AcDbBlockRepETag
1070
     1
1071
        3
1005
3FB3
  0
VERTEX
  5
3FB4
330
3FB3
100
AcDbEntity
  8
Pel_Clad
100
AcDbVertex
100
AcDb2dVertex
 10
0.7049999999999735
 20
0.7500000000000036
 30
0.0
  0
VERTEX
  5
3FB5
330
3FB3
100
AcDbEntity
  8
Pel_Clad
100
AcDbVertex
100
AcDb2dVertex
 10
0.9649999999999856
 20
0.7500000000000036
 30
0.0
 42
0.4142135623732505
  0
VERTEX
  5
3FB6
330
3FB3
100
AcDbEntity
  8
Pel_Clad
100
AcDbVertex
100
AcDb2dVertex
 10
0.9849999999999852
 20
0.7700000000000138
 30
0.0
  0
VERTEX
  5
3FB7
330
3FB3
100
AcDbEntity
  8
Pel_Clad
100
AcDbVertex
100
AcDb2dVertex
 10
0.9849999999999852
 20
1.370000000000015
 30
0.0
 42
0.4142135623731472
  0
VERTEX
  5
3FB8
330
3FB3
100
AcDbEntity
  8
Pel_Clad
100
AcDbVertex
100
AcDb2dVertex
 10
0.9649999999999856
 20
1.390000000000018
 30
0.0
  0
VERTEX
  5
3FB9
330
3FB3
100
AcDbEntity
  8
Pel_Clad
100
AcDbVertex
100
AcDb2dVertex
 10
0.9249999999999829
 20
1.390000000000018
 30
0.0
  0
VERTEX
  5
3FBA
330
3FB3
100
AcDbEntity
  8
Pel_Clad
100
AcDbVertex
100
AcDb2dVertex
 10
0.9249999999999829
 20
1.480000000000014
 30
0.0
 42
0.4142135623731472
  0
VERTEX
  5
3FBB
330
3FB3
100
AcDbEntity
  8
Pel_Clad
100
AcDbVertex
100
AcDb2dVertex
 10
0.9049999999999833
 20
1.500000000000017
 30
0.0
  0
VERTEX
  5
3FBC
330
3FB3
100
AcDbEntity
  8
Pel_Clad
100
AcDbVertex
100
AcDb2dVertex
 10
0.7049999999999806
 20
1.500000000000017
 30
0.0
 42
0.4142135623730951
  0
VERTEX
  5
3FBD
330
3FB3
100
AcDbEntity
  8
Pel_Clad
100
AcDbVertex
100
AcDb2dVertex
 10
0.684999999999981
 20
1.480000000000014
 30
0.0
  0
VERTEX
  5
3FBE
330
3FB3
100
AcDbEntity
  8
Pel_Clad
100
AcDbVertex
100
AcDb2dVertex
 10
0.684999999999981
 20
1.460000000000018
 30
0.0
 42
0.4142135623731472
  0
VERTEX
  5
3FBF
330
3FB3
100
AcDbEntity
  8
Pel_Clad
100
AcDbVertex
100
AcDb2dVertex
 10
0.7049999999999806
 20
1.440000000000015
 30
0.0
  0
VERTEX
  5
3FC0
330
3FB3
100
AcDbEntity
  8
Pel_Clad
100
AcDbVertex
100
AcDb2dVertex
 10
0.7523836048657451
 20
1.440000000000015
 30
0.0
 42
0.0578233517657538
  0
VERTEX
  5
3FC1
330
3FB3
100
AcDbEntity
  8
Pel_Clad
100
AcDbVertex
100
AcDb2dVertex
 10
0.754673467455433
 20
1.440265703450169
 30
0.0
  0
VERTEX
  5
3FC2
330
3FB3
100
AcDbEntity
  8
Pel_Clad
100
AcDbVertex
100
AcDb2dVertex
 10
0.754673467455433
 20
1.460000000000018
 30
0.0
  0
VERTEX
  5
3FC3
330
3FB3
100
AcDbEntity
  8
Pel_Clad
100
AcDbVertex
100
AcDb2dVertex
 10
0.7049999999999806
 20
1.460000000000018
 30
0.0
  0
VERTEX
  5
3FC4
330
3FB3
100
AcDbEntity
  8
Pel_Clad
100
AcDbVertex
100
AcDb2dVertex
 10
0.7049999999999806
 20
1.480000000000007
 30
0.0
  0
VERTEX
  5
3FC5
330
3FB3
100
AcDbEntity
  8
Pel_Clad
100
AcDbVertex
100
AcDb2dVertex
 10
0.9049999999999833
 20
1.480000000000021
 30
0.0
  0
VERTEX
  5
3FC6
330
3FB3
100
AcDbEntity
  8
Pel_Clad
100
AcDbVertex
100
AcDb2dVertex
 10
0.9049999999999798
 20
1.370000000000015
 30
0.0
  0
VERTEX
  5
3FC7
330
3FB3
100
AcDbEntity
  8
Pel_Clad
100
AcDbVertex
100
AcDb2dVertex
 10
0.9649999999999785
 20
1.370000000000015
 30
0.0
  0
VERTEX
  5
3FC8
330
3FB3
100
AcDbEntity
  8
Pel_Clad
100
AcDbVertex
100
AcDb2dVertex
 10
0.9649999999999856
 20
0.7700000000000138
 30
0.0
  0
VERTEX
  5
3FC9
330
3FB3
100
AcDbEntity
  8
Pel_Clad
100
AcDbVertex
100
AcDb2dVertex
 10
0.7049999999999841
 20
0.7700000000000138
 30
0.0
  0
VERTEX
  5
3FCA
330
3FB3
100
AcDbEntity
  8
Pel_Clad
100
AcDbVertex
100
AcDb2dVertex
 10
0.7049999999999806
 20
1.283750000000008
 30
0.0
  0
VERTEX
  5
3FCB
330
3FB3
100
AcDbEntity
  8
Pel_Clad
100
AcDbVertex
100
AcDb2dVertex
 10
0.8849999999999837
 20
1.283750000000015
 30
0.0
 42
0.4142135623731472
  0
VERTEX
  5
3FCC
330
3FB3
100
AcDbEntity
  8
Pel_Clad
100
AcDbVertex
100
AcDb2dVertex
 10
0.9049999999999833
 20
1.303750000000018
 30
0.0
  0
VERTEX
  5
3FCD
330
3FB3
100
AcDbEntity
  8
Pel_Clad
100
AcDbVertex
100
AcDb2dVertex
 10
0.9049999999999833
 20
1.480000000000021
 30
0.0
  0
VERTEX
  5
3FCE
330
3FB3
100
AcDbEntity
  8
Pel_Clad
100
AcDbVertex
100
AcDb2dVertex
 10
0.7049999999999806
 20
1.480000000000007
 30
0.0
  0
VERTEX
  5
3FCF
330
3FB3
100
AcDbEntity
  8
Pel_Clad
100
AcDbVertex
100
AcDb2dVertex
 10
0.7049999999999806
 20
1.460000000000018
 30
0.0
  0
VERTEX
  5
3FD0
330
3FB3
100
AcDbEntity
  8
Pel_Clad
100
AcDbVertex
100
AcDb2dVertex
 10
0.8849999999999873
 20
1.460000000000018
 30
0.0
  0
VERTEX
  5
3FD1
330
3FB3
100
AcDbEntity
  8
Pel_Clad
100
AcDbVertex
100
AcDb2dVertex
 10
0.8849999999999802
 20
1.303750000000018
 30
0.0
  0
VERTEX
  5
3FD2
330
3FB3
100
AcDbEntity
  8
Pel_Clad
100
AcDbVertex
100
AcDb2dVertex
 10
0.7049999999999806
 20
1.303750000000018
 30
0.0
 42
0.4142135623730951
  0
VERTEX
  5
3FD3
330
3FB3
100
AcDbEntity
  8
Pel_Clad
100
AcDbVertex
100
AcDb2dVertex
 10
0.684999999999981
 20
1.283750000000015
 30
0.0
  0
VERTEX
  5
3FD4
330
3FB3
100
AcDbEntity
  8
Pel_Clad
100
AcDbVertex
100
AcDb2dVertex
 10
0.684999999999981
 20
0.7700000000000138
 30
0.0
 42
0.4142135623731472
  0
SEQEND
  5
3FD5
330
3FB3
100
AcDbEntity
  8
Pel_Clad
  0
CIRCLE
  5
3FD6
330
2A0
100
AcDbEntity
  8
Pel_CS-Weatherstrip
100
AcDbCircle
 10
0.6669999999999803
 20
2.970000000000016
 30
0.0
 40
0.018
1001
AcDbBlockRepETag
1070
     1
1071
        4
1005
3FD6
  0
CIRCLE
  5
3FD7
330
2A0
100
AcDbEntity
  8
Pel_CS-Weatherstrip
100
AcDbCircle
 10
0.6669999999999803
 20
2.845000000000016
 30
0.0
 40
0.018
1001
AcDbBlockRepETag
1070
     1
1071
        5
1005
3FD7
  0
CIRCLE
  5
3FD8
330
2A0
100
AcDbEntity
  8
Pel_CS-Weatherstrip
100
AcDbCircle
 10
0.6669999999999803
 20
2.220000000000016
 30
0.0
 40
0.018
1001
AcDbBlockRepETag
1070
     1
1071
        6
1005
3FD8
  0
CIRCLE
  5
3FD9
330
2A0
100
AcDbEntity
  8
Pel_CS-Weatherstrip
100
AcDbCircle
 10
0.6669999999999803
 20
2.345000000000016
 30
0.0
 40
0.018
1001
AcDbBlockRepETag
1070
     1
1071
        7
1005
3FD9
  0
CIRCLE
  5
3FDA
330
2A0
100
AcDbEntity
  8
Pel_CS-Weatherstrip
100
AcDbCircle
 10
0.6669999999999803
 20
2.470000000000016
 30
0.0
 40
0.018
1001
AcDbBlockRepETag
1070
     1
1071
        8
1005
3FDA
  0
CIRCLE
  5
3FDB
330
2A0
100
AcDbEntity
  8
Pel_CS-Weatherstrip
100
AcDbCircle
 10
0.6669999999999803
 20
2.595000000000016
 30
0.0
 40
0.018
1001
AcDbBlockRepETag
1070
     1
1071
        9
1005
3FDB
  0
CIRCLE
  5
3FDC
330
2A0
100
AcDbEntity
  8
Pel_CS-Weatherstrip
100
AcDbCircle
 10
0.6669999999999803
 20
2.720000000000016
 30
0.0
 40
0.018
1001
AcDbBlockRepETag
1070
     1
1071
       10
1005
3FDC
  0
CIRCLE
  5
3FDD
330
2A0
100
AcDbEntity
  8
Pel_CS-Weatherstrip
100
AcDbCircle
 10
0.6669999999999803
 20
2.095000000000016
 30
0.0
 40
0.018
1001
AcDbBlockRepETag
1070
     1
1071
       11
1005
3FDD
  0
CIRCLE
  5
3FDE
330
2A0
100
AcDbEntity
  8
Pel_CS-Weatherstrip
100
AcDbCircle
 10
0.6669999999999803
 20
1.845000000000016
 30
0.0
 40
0.018
1001
AcDbBlockRepETag
1070
     1
1071
       12
1005
3FDE
  0
CIRCLE
  5
3FDF
330
2A0
100
AcDbEntity
  8
Pel_CS-Weatherstrip
100
AcDbCircle
 10
0.6669999999999803
 20
1.970000000000016
 30
0.0
 40
0.018
1001
AcDbBlockRepETag
1070
     1
1071
       13
1005
3FDF
  0
POINT
  5
3FE0
330
2A0
100
AcDbEntity
  8
Pel_Points
100
AcDbPoint
 10
0.0
 20
0.0
 30
0.0
1001
AcDbBlockRepETag
1070
     1
1071
       14
1005
3FE0
  0
HATCH
  5
3FE1
330
2A0
100
AcDbEntity
  8
Pel_CS-Weatherstrip
100
AcDbHatch
 10
0.0
 20
0.0
 30
0.0
210
0.0
220
0.0
230
1.0
  2
SOLID
 70
     1
 71
     1
 91
        1
 92
        1
 93
        1
 72
     2
 10
0.6669999999999803
 20
1.470000000000016
 40
0.018
 50
0.0
 51
360.0
 73
     1
 97
        1
330
3FB0
 75
     0
 76
     1
 98
        1
 10
-0.0150000000000166
 20
0.0
1001
AcDbBlockRepETag
1070
     1
1071
       15
1005
3FE1
  0
HATCH
  5
3FE2
330
2A0
100
AcDbEntity
  8
Pel_CS-Weatherstrip
100
AcDbHatch
 10
0.0
 20
0.0
 30
0.0
210
0.0
220
0.0
230
1.0
  2
SOLID
 70
     1
 71
     0
 91
        1
 92
        1
 93
        1
 72
     2
 10
0.6669999999999803
 20
1.595000000000016
 40
0.018
 50
0.0
 51
360.0
 73
     1
 97
        0
 75
     0
 76
     1
 98
        1
 10
-0.0150000000000166
 20
0.125
1001
AcDbBlockRepETag
1070
     1
1071
       16
1005
3FE2
  0
HATCH
  5
3FE3
330
2A0
100
AcDbEntity
  8
Pel_CS-Weatherstrip
100
AcDbHatch
 10
0.0
 20
0.0
 30
0.0
210
0.0
220
0.0
230
1.0
  2
SOLID
 70
     1
 71
     0
 91
        1
 92
        1
 93
        1
 72
     2
 10
0.6669999999999803
 20
1.720000000000016
 40
0.018
 50
0.0
 51
360.0
 73
     1
 97
        0
 75
     0
 76
     1
 98
        1
 10
-0.0150000000000166
 20
0.25
1001
AcDbBlockRepETag
1070
     1
1071
       17
1005
3FE3
  0
HATCH
  5
3FE4
330
2A0
100
AcDbEntity
  8
Pel_CS-Weatherstrip
100
AcDbHatch
 10
0.0
 20
0.0
 30
0.0
210
0.0
220
0.0
230
1.0
  2
SOLID
 70
     1
 71
     0
 91
        1
 92
        1
 93
        1
 72
     2
 10
0.6669999999999803
 20
1.845000000000016
 40
0.018
 50
0.0
 51
360.0
 73
     1
 97
        0
 75
     0
 76
     1
 98
        1
 10
-0.0150000000000166
 20
0.375
1001
AcDbBlockRepETag
1070
     1
1071
       18
1005
3FE4
  0
HATCH
  5
3FE5
330
2A0
100
AcDbEntity
  8
Pel_CS-Weatherstrip
100
AcDbHatch
 10
0.0
 20
0.0
 30
0.0
210
0.0
220
0.0
230
1.0
  2
SOLID
 70
     1
 71
     0
 91
        1
 92
        1
 93
        1
 72
     2
 10
0.6669999999999803
 20
1.970000000000016
 40
0.018
 50
0.0
 51
360.0
 73
     1
 97
        0
 75
     0
 76
     1
 98
        1
 10
-0.0150000000000166
 20
0.5
1001
AcDbBlockRepETag
1070
     1
1071
       19
1005
3FE5
  0
HATCH
  5
3FE6
330
2A0
100
AcDbEntity
  8
Pel_CS-Weatherstrip
100
AcDbHatch
 10
0.0
 20
0.0
 30
0.0
210
0.0
220
0.0
230
1.0
  2
SOLID
 70
     1
 71
     0
 91
        1
 92
        1
 93
        1
 72
     2
 10
0.6669999999999803
 20
2.095000000000016
 40
0.018
 50
0.0
 51
360.0
 73
     1
 97
        0
 75
     0
 76
     1
 98
        1
 10
-0.0150000000000166
 20
0.625
1001
AcDbBlockRepETag
1070
     1
1071
       20
1005
3FE6
  0
HATCH
  5
3FE7
330
2A0
100
AcDbEntity
  8
Pel_CS-Weatherstrip
100
AcDbHatch
 10
0.0
 20
0.0
 30
0.0
210
0.0
220
0.0
230
1.0
  2
SOLID
 70
     1
 71
     0
 91
        1
 92
        1
 93
        1
 72
     2
 10
0.6669999999999803
 20
2.220000000000016
 40
0.018
 50
0.0
 51
360.0
 73
     1
 97
        0
 75
     0
 76
     1
 98
        1
 10
-0.0150000000000166
 20
0.75
1001
AcDbBlockRepETag
1070
     1
1071
       21
1005
3FE7
  0
HATCH
  5
3FE8
330
2A0
100
AcDbEntity
  8
Pel_CS-Weatherstrip
100
AcDbHatch
 10
0.0
 20
0.0
 30
0.0
210
0.0
220
0.0
230
1.0
  2
SOLID
 70
     1
 71
     0
 91
        1
 92
        1
 93
        1
 72
     2
 10
0.6669999999999803
 20
2.345000000000016
 40
0.018
 50
0.0
 51
360.0
 73
     1
 97
        0
 75
     0
 76
     1
 98
        1
 10
-0.0150000000000166
 20
0.875
1001
AcDbBlockRepETag
1070
     1
1071
       22
1005
3FE8
  0
HATCH
  5
3FE9
330
2A0
100
AcDbEntity
  8
Pel_CS-Weatherstrip
100
AcDbHatch
 10
0.0
 20
0.0
 30
0.0
210
0.0
220
0.0
230
1.0
  2
SOLID
 70
     1
 71
     0
 91
        1
 92
        1
 93
        1
 72
     2
 10
0.6669999999999803
 20
2.470000000000016
 40
0.018
 50
0.0
 51
360.0
 73
     1
 97
        0
 75
     0
 76
     1
 98
        1
 10
-0.0150000000000166
 20
1.0
1001
AcDbBlockRepETag
1070
     1
1071
       23
1005
3FE9
  0
HATCH
  5
3FEA
330
2A0
100
AcDbEntity
  8
Pel_CS-Weatherstrip
100
AcDbHatch
 10
0.0
 20
0.0
 30
0.0
210
0.0
220
0.0
230
1.0
  2
SOLID
 70
     1
 71
     0
 91
        1
 92
        1
 93
        1
 72
     2
 10
0.6669999999999803
 20
2.595000000000016
 40
0.018
 50
0.0
 51
360.0
 73
     1
 97
        0
 75
     0
 76
     1
 98
        1
 10
-0.0150000000000166
 20
1.125
1001
AcDbBlockRepETag
1070
     1
1071
       24
1005
3FEA
  0
HATCH
  5
3FEB
330
2A0
100
AcDbEntity
  8
Pel_CS-Weatherstrip
100
AcDbHatch
 10
0.0
 20
0.0
 30
0.0
210
0.0
220
0.0
230
1.0
  2
SOLID
 70
     1
 71
     0
 91
        1
 92
        1
 93
        1
 72
     2
 10
0.6669999999999803
 20
2.720000000000016
 40
0.018
 50
0.0
 51
360.0
 73
     1
 97
        0
 75
     0
 76
     1
 98
        1
 10
-0.0150000000000166
 20
1.25
1001
AcDbBlockRepETag
1070
     1
1071
       25
1005
3FEB
  0
HATCH
  5
3FEC
330
2A0
100
AcDbEntity
  8
Pel_CS-Weatherstrip
100
AcDbHatch
 10
0.0
 20
0.0
 30
0.0
210
0.0
220
0.0
230
1.0
  2
SOLID
 70
     1
 71
     0
 91
        1
 92
        1
 93
        1
 72
     2
 10
0.6669999999999803
 20
2.845000000000016
 40
0.018
 50
0.0
 51
360.0
 73
     1
 97
        0
 75
     0
 76
     1
 98
        1
 10
-0.0150000000000166
 20
1.375
1001
AcDbBlockRepETag
1070
     1
1071
       26
1005
3FEC
  0
HATCH
  5
3FED
330
2A0
100
AcDbEntity
  8
Pel_CS-Weatherstrip
100
AcDbHatch
 10
0.0
 20
0.0
 30
0.0
210
0.0
220
0.0
230
1.0
  2
SOLID
 70
     1
 71
     0
 91
        1
 92
        1
 93
        1
 72
     2
 10
0.6669999999999803
 20
2.970000000000016
 40
0.018
 50
0.0
 51
360.0
 73
     1
 97
        0
 75
     0
 76
     1
 98
        1
 10
-0.0150000000000166
 20
1.5
1001
AcDbBlockRepETag
1070
     1
1071
       27
1005
3FED
  0
LWPOLYLINE
  5
3FF0
330
2A0
100
AcDbEntity
  8
Pel_CS-Cross Section
 62
     4
100
AcDbPolyline
 90
       13
 70
     1
 43
0.0
 10
1.546602312471204
 20
1.645390730637302
 10
1.653244467664361
 20
1.531024728642265
 42
-0.9999999999999996
 10
1.634960157278047
 20
1.513975271357736
 10
1.501602312471206
 20
1.656991919114041
 10
1.521602312471205
 20
1.674999999999997
 10
1.521602312471205
 20
1.75
 10
1.44368628726287
 20
1.75
 42
-0.4387364446152711
 10
1.431727592331174
 20
1.762994794215188
 42
-0.1028671740245727
 10
1.605204037456648
 20
2.348579765626951
 42
-1.000000000000018
 10
1.627226711145592
 20
2.3367475281551
 42
0.1004471373057855
 10
1.457880539411174
 20
1.774999999999998
 10
1.521602312471205
 20
1.774999999999998
 42
-0.4142135623730847
 10
1.546602312471204
 20
1.75
1001
AcDbBlockRepETag
1070
     1
1071
       30
1005
3FF0
  0
LWPOLYLINE
  5
3FF1
330
2A0
100
AcDbEntity
  8
Pel_CS-Weatherstrip
  6
Continuous
100
AcDbPolyline
 90
        4
 70
     1
 43
0.0
 10
2.439999999999963
 20
2.0
 10
2.377999999999966
 20
2.0
 10
2.377999999999966
 20
2.375
 10
2.439999999999963
 20
2.375
1001
AcDbBlockRepETag
1070
     1
1071
       33
1005
3FF1
  0
LWPOLYLINE
  5
3FF2
330
2A0
100
AcDbEntity
  8
Pel_CS-Sealant
100
AcDbPolyline
 90
        8
 70
     1
 43
0.0
 10
1.612058540207673
 20
1.783980333998805
 42
-0.6836320748339042
 10
1.642499999999975
 20
1.862121207941918
 10
2.424999999999975
 20
1.862121207941918
 42
-0.4142135623730951
 10
2.439999999999976
 20
1.847121207941917
 10
2.439999999999976
 20
1.772121207941921
 42
-0.4142135623730935
 10
2.424999999999975
 20
1.757121207941921
 10
1.647142987833174
 20
1.757121207941921
 42
-0.1879079936139291
 10
1.636995834569074
 20
1.761074249960877
1001
AcDbBlockRepETag
1070
     1
1071
       34
1005
3FF2
  0
ARC
  5
3FF3
330
2A0
100
AcDbEntity
  8
Pel_CS-Sealant
100
AcDbCircle
 10
2.002999999999948
 20
1.193268595863909
 30
0.0
 40
0.7261251320435847
100
AcDbArc
 50
69.86133935768444
 51
110.1386606423132
1001
AcDbBlockRepETag
1070
     1
1071
       35
1005
3FF3
  0
LINE
  5
3FF4
330
2A0
100
AcDbEntity
  8
Pel_CS-Sealant
100
AcDbLine
 10
1.785749999999959
 20
1.997499999999973
 30
0.0
 11
1.752999999999959
 21
1.997499999999973
 31
0.0
1001
AcDbBlockRepETag
1070
     1
1071
       36
1005
3FF4
  0
LINE
  5
3FF5
330
2A0
100
AcDbEntity
  8
Pel_CS-Sealant
100
AcDbLine
 10
1.785749999999959
 20
2.312499999999978
 30
0.0
 11
1.752999999999959
 21
2.312499999999978
 31
0.0
1001
AcDbBlockRepETag
1070
     1
1071
       37
1005
3FF5
  0
LINE
  5
3FF6
330
2A0
100
AcDbEntity
  8
Pel_CS-Sealant
  6
Continuous
100
AcDbLine
 10
2.220249999999966
 20
1.997499999999973
 30
0.0
 11
2.252999999999966
 21
1.997499999999973
 31
0.0
1001
AcDbBlockRepETag
1070
     1
1071
       38
1005
3FF6
  0
LINE
  5
3FF7
330
2A0
100
AcDbEntity
  8
Pel_CS-Sealant
  6
Continuous
100
AcDbLine
 10
2.220249999999966
 20
2.312499999999978
 30
0.0
 11
2.252999999999966
 21
2.312499999999978
 31
0.0
1001
AcDbBlockRepETag
1070
     1
1071
       39
1005
3FF7
  0
LWPOLYLINE
  5
3FF8
330
2A0
100
AcDbEntity
  8
Pel_CS-IG
100
AcDbPolyline
 90
       16
 70
   129
 43
0.0
 10
1.868624999999964
 20
2.312499999999978
 10
1.778624999999964
 20
2.312499999999978
 42
0.4142135623731017
 10
1.768624999999959
 20
2.30249999999998
 10
1.768624999999966
 20
2.007499999999978
 42
0.4142135623730873
 10
1.778624999999964
 20
1.997499999999977
 10
2.227374999999961
 20
1.997499999999966
 42
0.4142135623731013
 10
2.237374999999962
 20
2.007499999999968
 10
2.237374999999962
 20
2.30249999999997
 42
0.4142135623730894
 10
2.227374999999961
 20
2.312499999999971
 10
2.137374999999961
 20
2.312499999999978
 10
2.137374999999961
 20
2.296499999999973
 10
2.221374999999961
 20
2.296499999999969
 10
2.221374999999961
 20
2.013499999999968
 10
1.784624999999964
 20
2.013499999999979
 10
1.784624999999964
 20
2.29649999999998
 10
1.868624999999964
 20
2.296499999999976
1001
AcDbBlockRepETag
1070
     1
1071
       40
1005
3FF8
  0
LWPOLYLINE
  5
3FF9
330
2A0
100
AcDbEntity
  8
Pel_CS-Sealant
100
AcDbPolyline
 90
        4
 70
     1
 43
0.0
 10
1.784624999999964
 20
2.063191049788812
 10
2.221374999999961
 20
2.063191049788812
 10
2.221374999999961
 20
2.013499999999968
 10
1.784624999999964
 20
2.013499999999979
1001
AcDbBlockRepETag
1070
     1
1071
       41
1005
3FF9
  0
HATCH
  5
3FFA
330
2A0
100
AcDbEntity
  8
Pel_CS-Sealant
100
AcDbHatch
 10
0.0
 20
0.0
 30
0.0
210
0.0
220
0.0
230
1.0
  2
DASH
 70
     0
 71
     0
 91
        2
 92
        1
 93
        4
 72
     1
 10
1.784624999999964
 20
2.063191049788812
 11
2.221374999999961
 21
2.063191049788812
 72
     1
 10
2.221374999999961
 20
2.063191049788812
 11
2.221374999999961
 21
2.013499999999968
 72
     1
 10
2.221374999999961
 20
2.013499999999968
 11
1.784624999999964
 21
2.013499999999979
 72
     1
 10
1.784624999999964
 20
2.013499999999979
 11
1.784624999999964
 21
2.063191049788812
 97
        0
 92
       49
 93
        1
 72
     1
 10
1.784624999999964
 20
2.063191049788812
 11
2.221374999999961
 21
2.063191049788812
 97
        0
 75
     0
 76
     1
 52
30.0
 41
0.15
 77
     0
 78
     1
 53
30.00000000000003
 43
-3.841156177407622
 44
-0.2233267997246315
 45
0.0068629763209582
 46
0.0256129763209582
 79
     2
 49
0.01875
 49
-0.01875
 98
        1
 10
-3.841156177407622
 20
-0.2233267997246315
1001
AcDbBlockRepETag
1070
     1
1071
       42
1005
3FFA
  0
POLYLINE
  5
3FFB
330
2A0
100
AcDbEntity
  8
Pel_CS-Weatherstrip
100
AcDb2dPolyline
 66
     1
 10
0.0
 20
0.0
 30
0.0
1001
AcDbBlockRepETag
1070
     1
1071
       43
1005
3FFB
  0
VERTEX
  5
3FFC
330
3FFB
100
AcDbEntity
  8
Pel_CS-Weatherstrip
100
AcDbVertex
100
AcDb2dVertex
 10
1.482770088938103
 20
1.378287128208636
 30
0.0
  0
VERTEX
  5
3FFD
330
3FFB
100
AcDbEntity
  8
Pel_CS-Weatherstrip
100
AcDbVertex
100
AcDb2dVertex
 10
1.482770088938103
 20
1.332042538570259
 30
0.0
  0
VERTEX
  5
3FFE
330
3FFB
100
AcDbEntity
  8
Pel_CS-Weatherstrip
100
AcDbVertex
100
AcDb2dVertex
 10
1.354999999999998
 20
1.377288300077136
 30
0.0
  0
VERTEX
  5
3FFF
330
3FFB
100
AcDbEntity
  8
Pel_CS-Weatherstrip
100
AcDbVertex
100
AcDb2dVertex
 10
1.354999999999998
 20
1.348863789895929
 30
0.0
  0
VERTEX
  5
4000
330
3FFB
100
AcDbEntity
  8
Pel_CS-Weatherstrip
100
AcDbVertex
100
AcDb2dVertex
 10
1.482770088938103
 20
1.332042538570259
 30
0.0
  0
VERTEX
  5
4001
330
3FFB
100
AcDbEntity
  8
Pel_CS-Weatherstrip
100
AcDbVertex
100
AcDb2dVertex
 10
1.354999999999998
 20
1.321986814489694
 30
0.0
  0
VERTEX
  5
4002
330
3FFB
100
AcDbEntity
  8
Pel_CS-Weatherstrip
100
AcDbVertex
100
AcDb2dVertex
 10
1.354999999999996
 20
1.290813556318529
 30
0.0
  0
VERTEX
  5
4003
330
3FFB
100
AcDbEntity
  8
Pel_CS-Weatherstrip
100
AcDbVertex
100
AcDb2dVertex
 10
1.482770088938103
 20
1.332042538570259
 30
0.0
  0
VERTEX
  5
4004
330
3FFB
100
AcDbEntity
  8
Pel_CS-Weatherstrip
100
AcDbVertex
100
AcDb2dVertex
 10
1.482770088938103
 20
1.249584574066798
 30
0.0
  0
VERTEX
  5
4005
330
3FFB
100
AcDbEntity
  8
Pel_CS-Weatherstrip
100
AcDbVertex
100
AcDb2dVertex
 10
1.354999999999996
 20
1.290813556318529
 30
0.0
  0
VERTEX
  5
4006
330
3FFB
100
AcDbEntity
  8
Pel_CS-Weatherstrip
100
AcDbVertex
100
AcDb2dVertex
 10
1.354999999999996
 20
1.25964029814736
 30
0.0
  0
VERTEX
  5
4007
330
3FFB
100
AcDbEntity
  8
Pel_CS-Weatherstrip
100
AcDbVertex
100
AcDb2dVertex
 10
1.482770088938103
 20
1.249584574066798
 30
0.0
  0
VERTEX
  5
4008
330
3FFB
100
AcDbEntity
  8
Pel_CS-Weatherstrip
100
AcDbVertex
100
AcDb2dVertex
 10
1.354999999999996
 20
1.232763322741131
 30
0.0
  0
VERTEX
  5
4009
330
3FFB
100
AcDbEntity
  8
Pel_CS-Weatherstrip
100
AcDbVertex
100
AcDb2dVertex
 10
1.354999999999996
 20
1.204338812559907
 30
0.0
  0
VERTEX
  5
400A
330
3FFB
100
AcDbEntity
  8
Pel_CS-Weatherstrip
100
AcDbVertex
100
AcDb2dVertex
 10
1.482770088938103
 20
1.249584574066798
 30
0.0
  0
VERTEX
  5
400B
330
3FFB
100
AcDbEntity
  8
Pel_CS-Weatherstrip
100
AcDbVertex
100
AcDb2dVertex
 10
1.482770088938103
 20
1.191509404522467
 30
0.0
  0
VERTEX
  5
400C
330
3FFB
100
AcDbEntity
  8
Pel_CS-Weatherstrip
100
AcDbVertex
100
AcDb2dVertex
 10
1.517770074938098
 20
1.191509404522467
 30
0.0
  0
VERTEX
  5
400D
330
3FFB
100
AcDbEntity
  8
Pel_CS-Weatherstrip
100
AcDbVertex
100
AcDb2dVertex
 10
1.517770074938098
 20
1.378287128208636
 30
0.0
  0
VERTEX
  5
400E
330
3FFB
100
AcDbEntity
  8
0
100
AcDbVertex
100
AcDb2dVertex
 10
1.482770088938103
 20
1.378287128208636
 30
0.0
  0
SEQEND
  5
400F
330
3FFB
100
AcDbEntity
  8
Pel_CS-Weatherstrip
  0
LWPOLYLINE
  5
4011
330
2A0
100
AcDbEntity
  8
Pel_CS-Cross Section
 62
     4
100
AcDbPolyline
 90
       94
 70
     1
 43
0.0
 10
1.484999999999955
 20
1.676125178062982
 42
-0.3500011104185663
 10
1.496666666666625
 20
1.690750118708635
 42
0.8937924126323794
 10
1.489999999999957
 20
1.749999999999992
 10
1.439999999999953
 20
1.749999999999992
 42
0.4142135623730951
 10
1.424999999999952
 20
1.734999999999992
 10
1.424999999999952
 20
1.352499999999992
 10
1.469999999999956
 20
1.352499999999992
 10
1.469999999999954
 20
1.394999999999988
 10
1.519999999999949
 20
1.394999999999996
 10
1.519999999999951
 20
1.184999999999995
 10
1.469999999999956
 20
1.184999999999995
 10
1.469999999999956
 20
1.227499999999992
 10
1.424999999999952
 20
1.227499999999992
 10
1.424999999999952
 20
1.184999999999995
 42
0.4142135623730819
 10
1.484999999999955
 20
1.124999999999992
 10
1.87249999999995
 20
1.124999999999992
 42
0.4142135623730951
 10
1.887499999999951
 20
1.139999999999993
 10
1.887499999999951
 20
1.169999999999994
 42
0.4142135623730951
 10
1.87249999999995
 20
1.184999999999995
 10
1.812499999999955
 20
1.184999999999995
 42
-0.4142135623730951
 10
1.797499999999955
 20
1.199999999999995
 10
1.797499999999955
 20
1.369999999999997
 42
-0.4142135623730951
 10
1.812499999999955
 20
1.384999999999998
 10
2.112499999999952
 20
1.38499999999999
 42
-0.1784395900594729
 10
2.122235628575699
 20
1.381411289858508
 10
2.164688559390478
 20
1.423864220673287
 42
0.194809557829822
 10
2.11249999999995
 20
1.444999999999993
 10
1.812499999999955
 20
1.444999999999993
 42
0.118159066029304
 10
1.778503112194576
 20
1.436852162414979
 42
-0.301511344577986
 10
1.7620299626209
 20
1.438758819994017
 10
1.757948497534526
 20
1.442202987648546
 10
1.729562989870416
 20
1.413817479984434
 10
1.736233237253975
 20
1.408188753583502
 42
-0.3015113445779063
 10
1.740882887701131
 20
1.392270815566298
 42
0.0755157870278402
 10
1.737499999999956
 20
1.370000000000231
 10
1.737499999999959
 20
1.199999999999995
 42
-0.4142135623730951
 10
1.722499999999959
 20
1.184999999999995
 10
1.594999999999954
 20
1.184999999999995
 42
-0.4142135623730951
 10
1.579999999999953
 20
1.199999999999995
 10
1.579999999999953
 20
1.403453928104873
 42
-0.3105082534628505
 10
1.589624480756775
 20
1.417457634502333
 10
1.660461275711325
 20
1.444649332442565
 42
0.0364636279492234
 10
1.671666249138146
 20
1.44991639797471
 42
-0.3129626543687265
 10
1.688692888645714
 20
1.44830594863394
 10
1.729562989870418
 20
1.413817479984434
 10
1.757948497534529
 20
1.442202987648546
 10
1.714489614012618
 20
1.478876015044477
 42
-0.3129626543682286
 10
1.710038878121464
 20
1.495389371760367
 42
0.0860476970752851
 10
1.714999999999973
 20
1.52400366869482
 10
1.714999999999973
 20
1.674999999999997
 42
-0.4142135623730951
 10
1.729999999999972
 20
1.689999999999997
 10
2.424999999999952
 20
1.689999999999997
 42
-0.4142135623730951
 10
2.439999999999953
 20
1.674999999999997
 10
2.439999999999953
 20
1.294999999999994
 42
-0.4142135623731473
 10
2.424999999999947
 20
1.279999999999986
 10
2.202499999999956
 20
1.279999999999994
 42
-0.4142135623730692
 10
2.187499999999955
 20
1.294999999999994
 10
2.187499999999948
 20
1.369999999999997
 42
0.203021628787307
 10
2.164688559390478
 20
1.423864220673287
 10
2.122235628575699
 20
1.381411289858508
 42
-0.2195468071307798
 10
2.127499999999953
 20
1.36999999999999
 10
2.127499999999953
 20
1.294999999999994
 42
0.25929068624906
 10
2.162916666666626
 20
1.231296313118981
 42
-0.2592906862487576
 10
2.169999999999957
 20
1.218555575742804
 10
2.169999999999957
 20
1.199999999999995
 42
-0.4142135623730951
 10
2.154999999999956
 20
1.184999999999995
 10
2.05249999999995
 20
1.184999999999995
 42
0.4142135623730951
 10
2.037499999999949
 20
1.169999999999994
 10
2.037499999999949
 20
1.139999999999993
 42
0.4142135623731644
 10
2.05249999999995
 20
1.124999999999992
 10
2.272499999999958
 20
1.124999999999992
 10
2.272499999999956
 20
1.169999999999994
 10
2.229999999999959
 20
1.169999999999994
 10
2.229999999999952
 20
1.219999999999991
 10
2.439999999999953
 20
1.219999999999991
 10
2.439999999999955
 20
1.169999999999994
 10
2.397499999999958
 20
1.169999999999994
 10
2.397499999999956
 20
1.124999999999992
 10
2.439999999999953
 20
1.124999999999992
 42
0.4142135623730907
 10
2.499999999999955
 20
1.184999999999995
 10
2.499999999999955
 20
2.359999999999992
 42
0.4142135623730951
 10
2.484999999999955
 20
2.374999999999992
 10
2.454999999999953
 20
2.374999999999992
 42
0.4142135623730951
 10
2.439999999999953
 20
2.359999999999992
 10
2.439999999999953
 20
1.764999999999993
 42
-0.4142135623730951
 10
2.424999999999952
 20
1.749999999999992
 10
1.669999999999971
 20
1.749999999999992
 42
0.4142135623730951
 10
1.65499999999997
 20
1.734999999999992
 10
1.654999999999974
 20
1.524003668694824
 42
-0.3105082534628305
 10
1.638959198738609
 20
1.500664158032392
 10
1.524325722615293
 20
1.456660489337565
 42
-0.0918870916678807
 10
1.515366523876663
 20
1.454999999999991
 10
1.509999999999957
 20
1.454999999999991
 42
-0.4142135623731159
 10
1.484999999999955
 20
1.479999999999996
1001
AcDbBlockRepETag
1070
     1
1071
       45
1005
4011
  0
POLYLINE
  5
4012
330
2A0
100
AcDbEntity
  8
Pel_CS-Weatherstrip
100
AcDb2dPolyline
 66
     1
 10
0.0
 20
0.0
 30
0.0
1001
AcDbBlockRepETag
1070
     1
1071
       46
1005
4012
  0
VERTEX
  5
4013
330
4012
100
AcDbEntity
  8
Pel_CS-Weatherstrip
100
AcDbVertex
100
AcDb2dVertex
 10
2.615000014000001
 20
1.802906939439811
 30
0.0
  0
VERTEX
  5
4014
330
4012
100
AcDbEntity
  8
Pel_CS-Weatherstrip
100
AcDbVertex
100
AcDb2dVertex
 10
2.615000014000001
 20
1.756662349801434
 30
0.0
  0
VERTEX
  5
4015
330
4012
100
AcDbEntity
  8
Pel_CS-Weatherstrip
100
AcDbVertex
100
AcDb2dVertex
 10
2.499999999999955
 20
1.797385990600133
 30
0.0
  0
VERTEX
  5
4016
330
4012
100
AcDbEntity
  8
Pel_CS-Weatherstrip
100
AcDbVertex
100
AcDb2dVertex
 10
2.499999999999955
 20
1.771802388867129
 30
0.0
  0
VERTEX
  5
4017
330
4012
100
AcDbEntity
  8
Pel_CS-Weatherstrip
100
AcDbVertex
100
AcDb2dVertex
 10
2.615000014000001
 20
1.756662349801434
 30
0.0
  0
VERTEX
  5
4018
330
4012
100
AcDbEntity
  8
Pel_CS-Weatherstrip
100
AcDbVertex
100
AcDb2dVertex
 10
2.499999999999955
 20
1.747611652414772
 30
0.0
  0
VERTEX
  5
4019
330
4012
100
AcDbEntity
  8
Pel_CS-Weatherstrip
100
AcDbVertex
100
AcDb2dVertex
 10
2.499999999999955
 20
1.715433367549703
 30
0.0
  0
VERTEX
  5
401A
330
4012
100
AcDbEntity
  8
Pel_CS-Weatherstrip
100
AcDbVertex
100
AcDb2dVertex
 10
2.615000014000001
 20
1.756662349801434
 30
0.0
  0
VERTEX
  5
401B
330
4012
100
AcDbEntity
  8
Pel_CS-Weatherstrip
100
AcDbVertex
100
AcDb2dVertex
 10
2.615000014000001
 20
1.674204385297972
 30
0.0
  0
VERTEX
  5
401C
330
4012
100
AcDbEntity
  8
Pel_CS-Weatherstrip
100
AcDbVertex
100
AcDb2dVertex
 10
2.499999999999955
 20
1.715433367549703
 30
0.0
  0
VERTEX
  5
401D
330
4012
100
AcDbEntity
  8
Pel_CS-Weatherstrip
100
AcDbVertex
100
AcDb2dVertex
 10
2.499999999999955
 20
1.683255082684631
 30
0.0
  0
VERTEX
  5
401E
330
4012
100
AcDbEntity
  8
Pel_CS-Weatherstrip
100
AcDbVertex
100
AcDb2dVertex
 10
2.615000014000001
 20
1.674204385297972
 30
0.0
  0
VERTEX
  5
401F
330
4012
100
AcDbEntity
  8
Pel_CS-Weatherstrip
100
AcDbVertex
100
AcDb2dVertex
 10
2.499999999999955
 20
1.65906434623228
 30
0.0
  0
VERTEX
  5
4020
330
4012
100
AcDbEntity
  8
Pel_CS-Weatherstrip
100
AcDbVertex
100
AcDb2dVertex
 10
2.499999999999955
 20
1.633480744499259
 30
0.0
  0
VERTEX
  5
4021
330
4012
100
AcDbEntity
  8
Pel_CS-Weatherstrip
100
AcDbVertex
100
AcDb2dVertex
 10
2.615000014000001
 20
1.674204385297972
 30
0.0
  0
VERTEX
  5
4022
330
4012
100
AcDbEntity
  8
Pel_CS-Weatherstrip
100
AcDbVertex
100
AcDb2dVertex
 10
2.615000014000001
 20
1.616129215753641
 30
0.0
  0
VERTEX
  5
4023
330
4012
100
AcDbEntity
  8
Pel_CS-Weatherstrip
100
AcDbVertex
100
AcDb2dVertex
 10
2.649999999999996
 20
1.616129215753641
 30
0.0
  0
VERTEX
  5
4024
330
4012
100
AcDbEntity
  8
Pel_CS-Weatherstrip
100
AcDbVertex
100
AcDb2dVertex
 10
2.649999999999996
 20
1.802906939439811
 30
0.0
  0
VERTEX
  5
4025
330
4012
100
AcDbEntity
  8
0
100
AcDbVertex
100
AcDb2dVertex
 10
2.615000014000001
 20
1.802906939439811
 30
0.0
  0
SEQEND
  5
4026
330
4012
100
AcDbEntity
  8
Pel_CS-Weatherstrip
  0
LWPOLYLINE
  5
4028
330
2A0
100
AcDbEntity
  8
Pel_CS-Cross Section
 62
     4
100
AcDbPolyline
 90
      142
 70
     1
 43
0.0
 10
0.6700000000000035
 20
0.8599999999999994
 42
0.414213562373106
 10
0.655000000000003
 20
0.875
 10
0.2500000000000018
 20
0.8749999999999964
 42
0.4142135623730149
 10
0.2350000000000048
 20
0.8599999999999958
 10
0.2350000000000048
 20
0.6499999999999986
 42
-0.4142135623731197
 10
0.2100000000000026
 20
0.6249999999999965
 10
0.0850000000000027
 20
0.6249999999999965
 42
-0.4142135623731146
 10
0.0600000000000005
 20
0.6499999999999986
 10
0.0600000000000005
 20
0.8002786404499993
 42
-0.3819660112501339
 10
0.0733333333333359
 20
0.8151857603000003
 42
0.9458235162657206
 10
0.0700000000000021
 20
0.8749999999999964
 10
0.0150000000000024
 20
0.8749999999999964
 42
0.4142135623731125
 10
0.0000000000000018
 20
0.8599999999999958
 10
0.0000000000000036
 20
0.0800000000000054
 10
0.0000000000000018
 20
0.2050000000000018
 10
0.0600000000000005
 20
0.2050000000000018
 10
0.0600000000000005
 20
0.0800000000000054
 10
0.0600000000000005
 20
0.5499999999999972
 42
-0.4142135623731015
 10
0.0750000000000011
 20
0.5649999999999978
 10
0.2100000000000026
 20
0.5649999999999978
 42
0.4142135623730897
 10
0.2949999999999999
 20
0.6499999999999986
 10
0.2949999999999999
 20
0.8000000000000007
 42
-0.4142135623731233
 10
0.3100000000000005
 20
0.8150000000000012
 10
0.5950000000000042
 20
0.8150000000000012
 42
-0.4142135623731017
 10
0.6100000000000048
 20
0.8000000000000007
 10
0.6100000000000048
 20
0.7650000000000006
 42
0.4142135623730964
 10
0.6850000000000041
 20
0.6900000000000013
 10
0.8600000000000012
 20
0.6900000000000013
 42
-0.4142135623731755
 10
0.8750000000000053
 20
0.6750000000000007
 10
0.9150000000000009
 20
0.6750000000000007
 42
-0.4142135623731058
 10
0.9300000000000014
 20
0.6900000000000013
 10
1.015000000000002
 20
0.6900000000000013
 42
0.4142135623731079
 10
1.090000000000005
 20
0.7650000000000006
 10
1.090000000000005
 20
0.9050000000000011
 42
-0.4142135623730258
 10
1.105000000000002
 20
0.9200000000000017
 10
1.105000000000002
 20
0.9600000000000008
 42
-0.4142135623730301
 10
1.090000000000005
 20
0.9750000000000014
 10
1.090000000000005
 20
1.484999999999999
 42
-0.4142135623730909
 10
1.105000000000005
 20
1.5
 10
1.280000000000006
 20
1.5
 42
-0.4142135623730301
 10
1.295000000000003
 20
1.484999999999999
 10
1.295000000000003
 20
0.9750000000000014
 42
-0.4142135623730887
 10
1.280000000000002
 20
0.9600000000000008
 10
1.105000000000002
 20
0.9600000000000008
 10
1.105
 20
0.9200000000000017
 10
1.283631878541113
 20
0.9200000000000017
 42
-0.3178372451957665
 10
1.297774014164843
 20
0.9100000000000001
 42
0.3178372451957886
 10
1.3684846922835
 20
0.8599999999999994
 10
1.381999999999999
 20
0.8599999999999994
 42
-0.4142135623731755
 10
1.397000000000003
 20
0.8449999999999988
 10
1.397000000000003
 20
0.0749999999999993
 10
1.447000000000004
 20
0.0750000000000029
 10
1.447000000000004
 20
0.8450000000000024
 42
-0.4142135623730887
 10
1.462000000000005
 20
0.8599999999999994
 10
2.63588235294118
 20
0.8600000000000029
 10
2.639117647058826
 20
0.9150000000000027
 10
2.620000000000002
 20
0.9149999999999991
 42
-0.4142135623730323
 10
2.605000000000005
 20
0.9299999999999997
 10
2.605000000000005
 20
1.540000000000002
 42
-0.4142135623730215
 10
2.620000000000002
 20
1.554999999999999
 10
2.640000000000002
 20
1.554999999999999
 42
-0.4142135623730995
 10
2.655000000000002
 20
1.540000000000002
 10
2.655000000000002
 20
0.9299999999999997
 42
-0.4142135623730712
 10
2.640000000000002
 20
0.9149999999999991
 10
2.639117647058826
 20
0.9149999999999991
 10
2.635880830329275
 20
0.8599741155976268
 42
-0.3971072311549626
 10
2.65
 20
0.8450000000000024
 10
2.65
 20
0.3130000000000024
 42
-0.414213562373106
 10
2.634999999999999
 20
0.2980000000000018
 10
2.445000000000002
 20
0.2980000000000018
 42
0.4142135623730937
 10
2.370000000000002
 20
0.2230000000000025
 10
2.370000000000002
 20
0.0750000000000029
 42
-0.414213562373124
 10
2.355000000000002
 20
0.0600000000000023
 10
1.462000000000001
 20
0.0600000000000023
 42
-0.4142135623731164
 10
1.447
 20
0.0750000000000029
 10
1.397
 20
0.0749999999999993
 42
-0.4142135623730958
 10
1.381999999999999
 20
0.0600000000000023
 10
0.9300000000000014
 20
0.0600000000000023
 42
-0.4142135623730535
 10
0.9150000000000044
 20
0.0750000000000029
 10
0.9150000000000027
 20
0.6750000000000007
 10
0.8750000000000017
 20
0.6750000000000007
 10
0.8750000000000017
 20
0.0750000000000029
 42
-0.414213562373124
 10
0.8600000000000012
 20
0.0600000000000023
 10
0.0750000000000046
 20
0.0600000000000023
 42
-0.4142135623731697
 10
0.0600000000000005
 20
0.0749999999999993
 10
0.0600000000000005
 20
0.0800000000000054
 10
0.0000000000000036
 20
0.0800000000000054
 10
0.0000000000000018
 20
0.033541019662497
 42
0.2134217652834024
 10
0.0050000000000026
 20
0.022360679774998
 42
-0.4495151536031539
 10
0.0048280133316538
 20
-0.0225133268825317
 42
0.1672852476327966
 10
0.0000000000000036
 20
-0.0309999999999988
 10
0.0600000000000005
 20
-0.0309999999999988
 10
0.0600000000000005
 20
-0.0150000000000006
 42
-0.4142135623731534
 10
0.0750000000000046
 20
0.0
 10
1.033000000000006
 20
0.0
 42
-0.4142135623730369
 10
1.063
 20
-0.0299999999999976
 10
1.063
 20
-1.094999999999998
 42
1.0
 10
1.122999999999999
 20
-1.094999999999998
 10
1.122999999999999
 20
-0.0299999999999976
 42
-0.4142135623731412
 10
1.153000000000004
 20
0.0
 10
2.63
 20
0.0
 42
0.4142135623731008
 10
2.645000000000001
 20
0.0150000000000006
 10
2.645000000000001
 20
0.0663175319642981
 42
0.2679491924311101
 10
2.637500000000001
 20
0.0793079130210615
 10
2.593000000000003
 20
0.1050000000000004
 10
2.568000000000003
 20
0.1050000000000004
 10
2.568000000000003
 20
0.0749999999999993
 42
-0.414213562373089
 10
2.553000000000002
 20
0.0600000000000023
 10
2.445000000000005
 20
0.0600000000000023
 42
-0.41421356237317
 10
2.430000000000001
 20
0.0749999999999993
 10
2.430000000000001
 20
0.222999999999999
 42
-0.4142135623731233
 10
2.445000000000002
 20
0.2379999999999995
 10
2.695000000000002
 20
0.2379999999999995
 42
0.414213562373106
 10
2.710000000000002
 20
0.2530000000000001
 10
2.710000000000002
 20
0.9164589803375058
 42
0.2134217652833592
 10
2.705000000000003
 20
0.9276393202250048
 42
-0.4472135954999673
 10
2.705000000000003
 20
0.9723606797750008
 42
0.213421765283363
 10
2.710000000000002
 20
0.9835410196624962
 10
2.710000000000002
 20
1.859999999999999
 42
0.4142135623730215
 10
2.695000000000005
 20
1.875
 10
2.565000000000003
 20
1.875
 42
0.4142135623730909
 10
2.550000000000002
 20
1.859999999999999
 10
2.550000000000002
 20
1.777499999999999
 10
2.599999999999999
 20
1.777500000000003
 10
2.600000000000001
 20
1.82
 10
2.650000000000002
 20
1.82
 10
2.65
 20
1.609999999999999
 10
2.599999999999999
 20
1.609999999999999
 10
2.599999999999999
 20
1.652499999999999
 10
2.55
 20
1.652499999999999
 10
2.550000000000002
 20
0.9350000000000022
 42
-0.4142135623730887
 10
2.535000000000001
 20
0.9200000000000017
 10
1.369999999999999
 20
0.9200000000000017
 42
-0.4142135623730367
 10
1.355000000000002
 20
0.9350000000000022
 10
1.355000000000002
 20
1.530000000000001
 42
0.4142135623730712
 10
1.325000000000004
 20
1.560000000000002
 10
1.045000000000003
 20
1.560000000000002
 42
0.4142135623730909
 10
1.030000000000002
 20
1.545000000000001
 10
1.030000000000002
 20
0.7650000000000006
 42
-0.4142135623730887
 10
1.015000000000002
 20
0.75
 10
0.6850000000000041
 20
0.75
 42
-0.4142135623730887
 10
0.6700000000000035
 20
0.7650000000000006
1001
AcDbBlockRepETag
1070
     1
1071
       48
1005
4028
  0
POLYLINE
  5
4029
330
2A0
100
AcDbEntity
  8
Pel_CS-Sealant
100
AcDb2dPolyline
 66
     1
 10
0.0
 20
0.0
 30
0.0
 70
     1
1001
AcDbBlockRepETag
1070
     1
1071
       51
1005
4029
  0
VERTEX
  5
402A
330
4029
100
AcDbEntity
  8
Pel_CS-Sealant
100
AcDbVertex
100
AcDb2dVertex
 10
0.869661841774354
 20
1.345625000000016
 30
0.0
  0
VERTEX
  5
402B
330
4029
100
AcDbEntity
  8
Pel_CS-Sealant
100
AcDbVertex
100
AcDb2dVertex
 10
0.8618271592571158
 20
1.367150613304723
 30
0.0
  0
VERTEX
  5
402C
330
4029
100
AcDbEntity
  8
Pel_CS-Sealant
100
AcDbVertex
100
AcDb2dVertex
 10
0.8793749999999818
 20
1.381875000000015
 30
0.0
  0
VERTEX
  5
402D
330
4029
100
AcDbEntity
  8
Pel_CS-Sealant
100
AcDbVertex
100
AcDb2dVertex
 10
0.8618271592571176
 20
1.39659938669531
 30
0.0
  0
VERTEX
  5
402E
330
4029
100
AcDbEntity
  8
Pel_CS-Sealant
100
AcDbVertex
100
AcDb2dVertex
 10
0.8696618417743557
 20
1.418125000000017
 30
0.0
  0
VERTEX
  5
402F
330
4029
100
AcDbEntity
  8
Pel_CS-Sealant
100
AcDbVertex
100
AcDb2dVertex
 10
0.8471027725618203
 20
1.422102772561853
 30
0.0
  0
VERTEX
  5
4030
330
4029
100
AcDbEntity
  8
Pel_CS-Sealant
100
AcDbVertex
100
AcDb2dVertex
 10
0.8431249999999828
 20
1.44466184177439
 30
0.0
  0
VERTEX
  5
4031
330
4029
100
AcDbEntity
  8
Pel_CS-Sealant
100
AcDbVertex
100
AcDb2dVertex
 10
0.8215993866952775
 20
1.436827159257148
 30
0.0
  0
VERTEX
  5
4032
330
4029
100
AcDbEntity
  8
Pel_CS-Sealant
100
AcDbVertex
100
AcDb2dVertex
 10
0.8128278380373394
 20
1.404091294004665
 30
0.0
 42
-0.3394542588633676
  0
VERTEX
  5
4033
330
4029
100
AcDbEntity
  8
Pel_CS-Sealant
100
AcDbVertex
100
AcDb2dVertex
 10
0.8298749999999799
 20
1.381875000000015
 30
0.0
 42
-1.0
  0
VERTEX
  5
4034
330
4029
100
AcDbEntity
  8
Pel_CS-Sealant
100
AcDbVertex
100
AcDb2dVertex
 10
0.7838749999999806
 20
1.381875000000015
 30
0.0
 42
-0.4931454260313062
  0
VERTEX
  5
4035
330
4029
100
AcDbEntity
  8
Pel_CS-Sealant
100
AcDbVertex
100
AcDb2dVertex
 10
0.8128278380373394
 20
1.404091294004665
 30
0.0
  0
VERTEX
  5
4036
330
4029
100
AcDbEntity
  8
Pel_CS-Sealant
100
AcDbVertex
100
AcDb2dVertex
 10
0.8215993866952757
 20
1.436827159257148
 30
0.0
  0
VERTEX
  5
4037
330
4029
100
AcDbEntity
  8
Pel_CS-Sealant
100
AcDbVertex
100
AcDb2dVertex
 10
0.8068749999999784
 20
1.45437500000002
 30
0.0
  0
VERTEX
  5
4038
330
4029
100
AcDbEntity
  8
Pel_CS-Sealant
100
AcDbVertex
100
AcDb2dVertex
 10
0.7921506133046848
 20
1.436827159257152
 30
0.0
  0
VERTEX
  5
4039
330
4029
100
AcDbEntity
  8
Pel_CS-Sealant
100
AcDbVertex
100
AcDb2dVertex
 10
0.7706249999999795
 20
1.444661841774387
 30
0.0
  0
VERTEX
  5
403A
330
4029
100
AcDbEntity
  8
Pel_CS-Sealant
100
AcDbVertex
100
AcDb2dVertex
 10
0.7666472274381402
 20
1.422102772561849
 30
0.0
  0
VERTEX
  5
403B
330
4029
100
AcDbEntity
  8
Pel_CS-Sealant
100
AcDbVertex
100
AcDb2dVertex
 10
0.7440881582256065
 20
1.418125000000014
 30
0.0
  0
VERTEX
  5
403C
330
4029
100
AcDbEntity
  8
Pel_CS-Sealant
100
AcDbVertex
100
AcDb2dVertex
 10
0.7519228407428465
 20
1.396599386695307
 30
0.0
  0
VERTEX
  5
403D
330
4029
100
AcDbEntity
  8
Pel_CS-Sealant
100
AcDbVertex
100
AcDb2dVertex
 10
0.7343749999999787
 20
1.381875000000015
 30
0.0
  0
VERTEX
  5
403E
330
4029
100
AcDbEntity
  8
Pel_CS-Sealant
100
AcDbVertex
100
AcDb2dVertex
 10
0.75192284074285
 20
1.367150613304715
 30
0.0
  0
VERTEX
  5
403F
330
4029
100
AcDbEntity
  8
Pel_CS-Sealant
100
AcDbVertex
100
AcDb2dVertex
 10
0.7440881582256065
 20
1.345625000000008
 30
0.0
  0
VERTEX
  5
4040
330
4029
100
AcDbEntity
  8
Pel_CS-Sealant
100
AcDbVertex
100
AcDb2dVertex
 10
0.7666472274381438
 20
1.341647227438176
 30
0.0
  0
VERTEX
  5
4041
330
4029
100
AcDbEntity
  8
Pel_CS-Sealant
100
AcDbVertex
100
AcDb2dVertex
 10
0.7706249999999813
 20
1.319088158225639
 30
0.0
  0
VERTEX
  5
4042
330
4029
100
AcDbEntity
  8
Pel_CS-Sealant
100
AcDbVertex
100
AcDb2dVertex
 10
0.7921506133046848
 20
1.326922840742881
 30
0.0
  0
VERTEX
  5
4043
330
4029
100
AcDbEntity
  8
Pel_CS-Sealant
100
AcDbVertex
100
AcDb2dVertex
 10
0.8068749999999855
 20
1.309375000000009
 30
0.0
  0
VERTEX
  5
4044
330
4029
100
AcDbEntity
  8
Pel_CS-Sealant
100
AcDbVertex
100
AcDb2dVertex
 10
0.821599386695281
 20
1.326922840742884
 30
0.0
  0
VERTEX
  5
4045
330
4029
100
AcDbEntity
  8
Pel_CS-Sealant
100
AcDbVertex
100
AcDb2dVertex
 10
0.843124999999981
 20
1.319088158225643
 30
0.0
  0
VERTEX
  5
4046
330
4029
100
AcDbEntity
  8
Pel_CS-Sealant
100
AcDbVertex
100
AcDb2dVertex
 10
0.8471027725618238
 20
1.34164722743818
 30
0.0
  0
SEQEND
  5
4047
330
4029
100
AcDbEntity
  8
Pel_CS-Sealant
  0
CIRCLE
  5
4048
330
2A0
100
AcDbEntity
  8
Pel_CS-Weatherstrip
100
AcDbCircle
 10
0.6669999999999803
 20
3.970000000000016
 30
0.0
 40
0.018
1001
AcDbBlockRepETag
1070
     1
1071
        5
1005
3FD7
  0
CIRCLE
  5
4049
330
2A0
100
AcDbEntity
  8
Pel_CS-Weatherstrip
100
AcDbCircle
 10
0.6669999999999803
 20
3.345000000000016
 30
0.0
 40
0.018
1001
AcDbBlockRepETag
1070
     1
1071
        6
1005
3FD8
  0
CIRCLE
  5
404A
330
2A0
100
AcDbEntity
  8
Pel_CS-Weatherstrip
100
AcDbCircle
 10
0.6669999999999803
 20
3.470000000000016
 30
0.0
 40
0.018
1001
AcDbBlockRepETag
1070
     1
1071
        7
1005
3FD9
  0
CIRCLE
  5
404B
330
2A0
100
AcDbEntity
  8
Pel_CS-Weatherstrip
100
AcDbCircle
 10
0.6669999999999803
 20
3.595000000000016
 30
0.0
 40
0.018
1001
AcDbBlockRepETag
1070
     1
1071
        8
1005
3FDA
  0
CIRCLE
  5
404C
330
2A0
100
AcDbEntity
  8
Pel_CS-Weatherstrip
100
AcDbCircle
 10
0.6669999999999803
 20
3.720000000000016
 30
0.0
 40
0.018
1001
AcDbBlockRepETag
1070
     1
1071
        9
1005
3FDB
  0
CIRCLE
  5
404D
330
2A0
100
AcDbEntity
  8
Pel_CS-Weatherstrip
100
AcDbCircle
 10
0.6669999999999803
 20
3.845000000000016
 30
0.0
 40
0.018
1001
AcDbBlockRepETag
1070
     1
1071
       10
1005
3FDC
  0
CIRCLE
  5
404E
330
2A0
100
AcDbEntity
  8
Pel_CS-Weatherstrip
100
AcDbCircle
 10
0.6669999999999803
 20
3.220000000000016
 30
0.0
 40
0.018
1001
AcDbBlockRepETag
1070
     1
1071
       11
1005
3FDD
  0
CIRCLE
  5
404F
330
2A0
100
AcDbEntity
  8
Pel_CS-Weatherstrip
100
AcDbCircle
 10
0.6669999999999803
 20
3.095000000000016
 30
0.0
 40
0.018
1001
AcDbBlockRepETag
1070
     1
1071
       13
1005
3FDF
  0
HATCH
  5
4050
330
2A0
100
AcDbEntity
  8
Pel_CS-Weatherstrip
100
AcDbHatch
 10
0.0
 20
0.0
 30
0.0
210
0.0
220
0.0
230
1.0
  2
SOLID
 70
     1
 71
     0
 91
        1
 92
        1
 93
        1
 72
     2
 10
0.6669999999999803
 20
3.095000000000016
 40
0.018
 50
0.0
 51
360.0
 73
     1
 97
        0
 75
     0
 76
     1
 98
        1
 10
-0.0150000000000166
 20
1.625
1001
AcDbBlockRepETag
1070
     1
1071
       19
1005
3FE5
  0
HATCH
  5
4051
330
2A0
100
AcDbEntity
  8
Pel_CS-Weatherstrip
100
AcDbHatch
 10
0.0
 20
0.0
 30
0.0
210
0.0
220
0.0
230
1.0
  2
SOLID
 70
     1
 71
     0
 91
        1
 92
        1
 93
        1
 72
     2
 10
0.6669999999999803
 20
3.220000000000016
 40
0.018
 50
0.0
 51
360.0
 73
     1
 97
        0
 75
     0
 76
     1
 98
        1
 10
-0.0150000000000166
 20
1.75
1001
AcDbBlockRepETag
1070
     1
1071
       20
1005
3FE6
  0
HATCH
  5
4052
330
2A0
100
AcDbEntity
  8
Pel_CS-Weatherstrip
100
AcDbHatch
 10
0.0
 20
0.0
 30
0.0
210
0.0
220
0.0
230
1.0
  2
SOLID
 70
     1
 71
     0
 91
        1
 92
        1
 93
        1
 72
     2
 10
0.6669999999999803
 20
3.345000000000016
 40
0.018
 50
0.0
 51
360.0
 73
     1
 97
        0
 75
     0
 76
     1
 98
        1
 10
-0.0150000000000166
 20
1.875
1001
AcDbBlockRepETag
1070
     1
1071
       21
1005
3FE7
  0
HATCH
  5
4053
330
2A0
100
AcDbEntity
  8
Pel_CS-Weatherstrip
100
AcDbHatch
 10
0.0
 20
0.0
 30
0.0
210
0.0
220
0.0
230
1.0
  2
SOLID
 70
     1
 71
     0
 91
        1
 92
        1
 93
        1
 72
     2
 10
0.6669999999999803
 20
3.470000000000016
 40
0.018
 50
0.0
 51
360.0
 73
     1
 97
        0
 75
     0
 76
     1
 98
        1
 10
-0.0150000000000166
 20
2.0
1001
AcDbBlockRepETag
1070
     1
1071
       22
1005
3FE8
  0
HATCH
  5
4054
330
2A0
100
AcDbEntity
  8
Pel_CS-Weatherstrip
100
AcDbHatch
 10
0.0
 20
0.0
 30
0.0
210
0.0
220
0.0
230
1.0
  2
SOLID
 70
     1
 71
     0
 91
        1
 92
        1
 93
        1
 72
     2
 10
0.6669999999999803
 20
3.595000000000016
 40
0.018
 50
0.0
 51
360.0
 73
     1
 97
        0
 75
     0
 76
     1
 98
        1
 10
-0.0150000000000166
 20
2.125
1001
AcDbBlockRepETag
1070
     1
1071
       23
1005
3FE9
  0
HATCH
  5
4055
330
2A0
100
AcDbEntity
  8
Pel_CS-Weatherstrip
100
AcDbHatch
 10
0.0
 20
0.0
 30
0.0
210
0.0
220
0.0
230
1.0
  2
SOLID
 70
     1
 71
     0
 91
        1
 92
        1
 93
        1
 72
     2
 10
0.6669999999999803
 20
3.720000000000016
 40
0.018
 50
0.0
 51
360.0
 73
     1
 97
        0
 75
     0
 76
     1
 98
        1
 10
-0.0150000000000166
 20
2.25
1001
AcDbBlockRepETag
1070
     1
1071
       24
1005
3FEA
  0
HATCH
  5
4056
330
2A0
100
AcDbEntity
  8
Pel_CS-Weatherstrip
100
AcDbHatch
 10
0.0
 20
0.0
 30
0.0
210
0.0
220
0.0
230
1.0
  2
SOLID
 70
     1
 71
     0
 91
        1
 92
        1
 93
        1
 72
     2
 10
0.6669999999999803
 20
3.845000000000016
 40
0.018
 50
0.0
 51
360.0
 73
     1
 97
        0
 75
     0
 76
     1
 98
        1
 10
-0.0150000000000166
 20
2.375
1001
AcDbBlockRepETag
1070
     1
1071
       25
1005
3FEB
  0
HATCH
  5
4057
330
2A0
100
AcDbEntity
  8
Pel_CS-Weatherstrip
100
AcDbHatch
 10
0.0
 20
0.0
 30
0.0
210
0.0
220
0.0
230
1.0
  2
SOLID
 70
     1
 71
     0
 91
        1
 92
        1
 93
        1
 72
     2
 10
0.6669999999999803
 20
3.970000000000016
 40
0.018
 50
0.0
 51
360.0
 73
     1
 97
        0
 75
     0
 76
     1
 98
        1
 10
-0.0150000000000166
 20
2.5
1001
AcDbBlockRepETag
1070
     1
1071
       26
1005
3FEC
  0
ENDBLK
  5
325
330
2A0
100
AcDbEntity
  8
0
100
AcDbBlockEnd
  0
BLOCK
  5
38
330
35
100
AcDbEntity
  8
0
100
AcDbBlockBegin
  2
Td--2xwstuc-fS2
 70
     0
 10
0.0
 20
0.0
 30
0.0
  3
Td--2xwstuc-fS2
  1

  0
LINE
  5
53
330
35
100
AcDbEntity
  8
Pel_Wall
  6
Continuous
100
AcDbLine
 10
1.72737100436629
 20
-0.4155788249091117
 30
0.0
 11
5.16487100436629
 21
-1.915578824909111
 31
0.0
  0
LINE
  5
54
330
35
100
AcDbEntity
  8
Pel_Wall
  6
Continuous
100
AcDbLine
 10
1.72737100436629
 20
-3.415578824909111
 30
0.0
 11
5.16487100436629
 21
-1.915578824909111
 31
0.0
  0
POLYLINE
  5
55
330
35
100
AcDbEntity
  8
Pel_Wall
  6
Continuous
100
AcDb2dPolyline
 66
     1
 10
0.0
 20
0.0
 30
0.0
  0
VERTEX
  5
53A3
330
55
100
AcDbEntity
  8
Pel_Wall
  6
Continuous
100
AcDbVertex
100
AcDb2dVertex
 10
1.72737100436629
 20
-3.415578824909111
 30
0.0
  0
VERTEX
  5
53A4
330
55
100
AcDbEntity
  8
Pel_Wall
  6
Continuous
100
AcDbVertex
100
AcDb2dVertex
 10
5.16487100436629
 20
-3.415578824909111
 30
0.0
  0
VERTEX
  5
53A5
330
55
100
AcDbEntity
  8
Pel_Wall
  6
Continuous
100
AcDbVertex
100
AcDb2dVertex
 10
5.16487100436629
 20
-1.915578824909111
 30
0.0
  0
VERTEX
  5
53A6
330
55
100
AcDbEntity
  8
Pel_Wall
  6
Continuous
100
AcDbVertex
100
AcDb2dVertex
 10
1.72737100436629
 20
-1.915578824909111
 30
0.0
  0
VERTEX
  5
53A7
330
55
100
AcDbEntity
  8
Pel_Wall
  6
Continuous
100
AcDbVertex
100
AcDb2dVertex
 10
1.72737100436629
 20
-3.415578824909111
 30
0.0
  0
SEQEND
  5
53A8
330
55
100
AcDbEntity
  8
Pel_Wall
  6
Continuous
  0
POLYLINE
  5
5C
330
35
100
AcDbEntity
  8
Pel_Wall
  6
Continuous
100
AcDb2dPolyline
 66
     1
 10
0.0
 20
0.0
 30
0.0
  0
VERTEX
  5
53AA
330
5C
100
AcDbEntity
  8
Pel_Wall
  6
Continuous
100
AcDbVertex
100
AcDb2dVertex
 10
1.72737100436629
 20
-1.915578824909111
 30
0.0
  0
VERTEX
  5
53AB
330
5C
100
AcDbEntity
  8
Pel_Wall
  6
Continuous
100
AcDbVertex
100
AcDb2dVertex
 10
5.16487100436629
 20
-1.915578824909111
 30
0.0
  0
VERTEX
  5
53AC
330
5C
100
AcDbEntity
  8
Pel_Wall
  6
Continuous
100
AcDbVertex
100
AcDb2dVertex
 10
5.16487100436629
 20
-0.4155788249091117
 30
0.0
  0
VERTEX
  5
53AD
330
5C
100
AcDbEntity
  8
Pel_Wall
  6
Continuous
100
AcDbVertex
100
AcDb2dVertex
 10
1.72737100436629
 20
-0.4155788249091117
 30
0.0
  0
VERTEX
  5
53AE
330
5C
100
AcDbEntity
  8
Pel_Wall
  6
Continuous
100
AcDbVertex
100
AcDb2dVertex
 10
1.72737100436629
 20
-1.915578824909111
 30
0.0
  0
SEQEND
  5
53AF
330
5C
100
AcDbEntity
  8
Pel_Wall
  6
Continuous
  0
LINE
  5
63
330
35
100
AcDbEntity
  8
Pel_Wall
  6
Continuous
100
AcDbLine
 10
1.72737100436629
 20
-1.915578824909111
 30
0.0
 11
5.16487100436629
 21
-0.4155788249091117
 31
0.0
  0
LINE
  5
64
330
35
100
AcDbEntity
  8
Pel_Wall
  6
Continuous
100
AcDbLine
 10
1.72737100436629
 20
-1.915578824909111
 30
0.0
 11
5.16487100436629
 21
-3.415578824909111
 31
0.0
  0
LWPOLYLINE
  5
67
330
35
100
AcDbEntity
  8
Pel_Wall
  6
Continuous
100
AcDbPolyline
 90
       19
 70
     0
 43
0.0
 10
0.0
 20
-0.6574999999999953
 10
0.0
 20
-0.6574999999999953
 10
0.0
 20
-0.2499999999999964
 10
0.90625
 20
-0.2499999999999964
 10
0.90625
 20
-1.782499999999995
 10
0.90625
 20
-1.782499999999995
 10
0.78125
 20
-2.249999999999996
 10
0.90625
 20
-2.249999999999996
 10
0.78125
 20
-2.687499999999996
 10
0.90625
 20
-2.687499999999996
 10
0.78125
 20
-3.062499999999996
 10
0.90625
 20
-3.062499999999996
 10
0.78125
 20
-3.374999999999996
 10
0.90625
 20
-3.374999999999996
 10
0.78125
 20
-3.687499999999996
 10
0.90625
 20
-3.687499999999996
 10
0.78125
 20
-3.999999999999996
 10
0.90625
 20
-3.999999999999996
 10
0.78125
 20
-4.249999999999996
  0
LINE
  5
7D
330
35
100
AcDbEntity
  8
Pel_Wall
  6
Continuous
100
AcDbLine
 10
-0.8681606067329283
 20
-4.25
 30
0.0
 11
-0.8681606067329283
 21
-4.25
 31
0.0
  0
LWPOLYLINE
  5
89
330
35
100
AcDbEntity
  8
Pel_Wall
  6
Continuous
100
AcDbPolyline
 90
        6
 70
     0
 43
0.0
 10
0.0
 20
-0.6574999999999953
 10
0.0324999999999989
 20
-0.6574999999999953
 10
0.0324999999999989
 20
-0.2824999999999953
 10
0.8737499999999727
 20
-0.2824999999999953
 10
0.8737499999999727
 20
-1.782499999999995
 10
0.90625
 20
-1.782499999999995
  0
POINT
  5
153
330
35
100
AcDbEntity
  8
Pel_Points
100
AcDbPoint
 10
0.0
 20
0.0
 30
0.0
  0
INSERT
  5
155
330
35
100
AcDbEntity
  8
Pel_Wall
100
AcDbBlockReference
  2
Rodseal
 10
0.0
 20
-0.2499999999999964
 30
0.0
 42
0.25
  0
POLYLINE
  5
191
330
35
100
AcDbEntity
  8
Pel_Wall
100
AcDb2dPolyline
 66
     1
 10
0.0
 20
0.0
 30
0.0
  0
VERTEX
  5
53B8
330
191
100
AcDbEntity
  8
Pel_Wall
100
AcDbVertex
100
AcDb2dVertex
 10
1.21875
 20
-0.3107739864521974
 30
0.0
  0
VERTEX
  5
53B9
330
191
100
AcDbEntity
  8
Pel_Wall
100
AcDbVertex
100
AcDb2dVertex
 10
1.21875
 20
-0.0817500000011933
 30
0.0
  0
VERTEX
  5
53BA
330
191
100
AcDbEntity
  8
Pel_Wall
100
AcDbVertex
100
AcDb2dVertex
 10
2.40625
 20
-0.0817500000011933
 30
0.0
  0
VERTEX
  5
53BB
330
191
100
AcDbEntity
  8
Pel_Wall
100
AcDbVertex
100
AcDb2dVertex
 10
2.40625
 20
-0.3107739864521974
 30
0.0
  0
VERTEX
  5
53BC
330
191
100
AcDbEntity
  8
Pel_Wall
100
AcDbVertex
100
AcDb2dVertex
 10
1.21875
 20
-0.3107739864521974
 30
0.0
  0
VERTEX
  5
53BD
330
191
100
AcDbEntity
  8
Pel_Wall
100
AcDbVertex
100
AcDb2dVertex
 10
2.40625
 20
-0.0817500000011933
 30
0.0
  0
SEQEND
  5
53BE
330
191
100
AcDbEntity
  8
Pel_Wall
  0
POLYLINE
  5
199
102
{ACAD_REACTORS
330
4FCD
102
}
330
35
100
AcDbEntity
  8
Pel_Wall
  6
Continuous
100
AcDb2dPolyline
 66
     1
 10
0.0
 20
0.0
 30
0.0
 70
     1
  0
VERTEX
  5
53C0
330
199
100
AcDbEntity
  8
Pel_Wall
  6
Continuous
100
AcDbVertex
100
AcDb2dVertex
 10
5.16487100436629
 20
-4.249999999999996
 30
0.0
  0
VERTEX
  5
53C1
330
199
100
AcDbEntity
  8
Pel_Wall
  6
Continuous
100
AcDbVertex
100
AcDb2dVertex
 10
5.16487100436629
 20
-0.4155788249091117
 30
0.0
  0
VERTEX
  5
53C2
330
199
100
AcDbEntity
  8
Pel_Wall
  6
Continuous
100
AcDbVertex
100
AcDb2dVertex
 10
5.66487100436629
 20
-0.4155788249091117
 30
0.0
  0
VERTEX
  5
53C3
330
199
100
AcDbEntity
  8
Pel_Wall
  6
Continuous
100
AcDbVertex
100
AcDb2dVertex
 10
5.66487100436629
 20
-4.249999999999996
 30
0.0
  0
SEQEND
  5
53C4
330
199
100
AcDbEntity
  8
Pel_Wall
  6
Continuous
  0
POLYLINE
  5
19F
330
35
100
AcDbEntity
  8
Pel_Wall
  6
Continuous
100
AcDb2dPolyline
 66
     1
 10
0.0
 20
0.0
 30
0.0
  0
VERTEX
  5
53C6
330
19F
100
AcDbEntity
  8
Pel_Wall
  6
Continuous
100
AcDbVertex
100
AcDb2dVertex
 10
1.738950893073472
 20
-3.415578824909111
 30
0.0
 42
0.2999635505947469
  0
VERTEX
  5
53C7
330
19F
100
AcDbEntity
  8
Pel_Wall
  6
Continuous
100
AcDbVertex
100
AcDb2dVertex
 10
2.107041829950723
 20
-4.249999999999996
 30
0.0
  0
SEQEND
  5
53C8
330
19F
100
AcDbEntity
  8
Pel_Wall
  6
Continuous
  0
POLYLINE
  5
1A3
330
35
100
AcDbEntity
  8
Pel_Wall
  6
Continuous
100
AcDb2dPolyline
 66
     1
 10
0.0
 20
0.0
 30
0.0
  0
VERTEX
  5
53CA
330
1A3
100
AcDbEntity
  8
Pel_Wall
  6
Continuous
100
AcDbVertex
100
AcDb2dVertex
 10
2.9833027047938
 20
-4.249999999999996
 30
0.0
 42
0.027995479788621
  0
VERTEX
  5
53CB
330
1A3
100
AcDbEntity
  8
Pel_Wall
  6
Continuous
100
AcDbVertex
100
AcDb2dVertex
 10
3.062672559023923
 20
-4.197594320177797
 30
0.0
  0
VERTEX
  5
53CC
330
1A3
100
AcDbEntity
  8
Pel_Wall
  6
Continuous
100
AcDbVertex
100
AcDb2dVertex
 10
3.745376324671639
 20
-3.685574837037131
 30
0.0
 42
-0.6486471200585779
  0
VERTEX
  5
53CD
330
1A3
100
AcDbEntity
  8
Pel_Wall
  6
Continuous
100
AcDbVertex
100
AcDb2dVertex
 10
5.164178930182288
 20
-4.249999999999996
 30
0.0
  0
SEQEND
  5
53CE
330
1A3
100
AcDbEntity
  8
Pel_Wall
  6
Continuous
  0
POLYLINE
  5
1195
102
{ACAD_REACTORS
330
119B
102
}
330
35
100
AcDbEntity
  8
Pel_Wall
100
AcDb2dPolyline
 66
     1
 10
0.0
 20
0.0
 30
0.0
 70
     1
  0
VERTEX
  5
53D0
330
1195
100
AcDbEntity
  8
Pel_Wall
100
AcDbVertex
100
AcDb2dVertex
 10
1.72737100436629
 20
-0.4155788249091117
 30
0.0
  0
VERTEX
  5
53D1
330
1195
100
AcDbEntity
  8
Pel_Wall
100
AcDbVertex
100
AcDb2dVertex
 10
1.28987100436629
 20
-0.4155788249091117
 30
0.0
  0
VERTEX
  5
53D2
330
1195
100
AcDbEntity
  8
Pel_Wall
100
AcDbVertex
100
AcDb2dVertex
 10
1.28987100436629
 20
-4.249999999999994
 30
0.0
  0
VERTEX
  5
53D3
330
1195
100
AcDbEntity
  8
Pel_Wall
100
AcDbVertex
100
AcDb2dVertex
 10
1.72737100436629
 20
-4.249999999999985
 30
0.0
  0
SEQEND
  5
53D4
330
1195
100
AcDbEntity
  8
Pel_Wall
  0
HATCH
  5
119B
330
35
100
AcDbEntity
  8
Pel_Wall
100
AcDbHatch
 10
0.0
 20
0.0
 30
0.0
210
0.0
220
0.0
230
1.0
  2
PLY
 70
     0
 71
     1
 91
        1
 92
        1
 93
        4
 72
     1
 10
1.72737100436629
 20
-0.4155788249091117
 11
1.28987100436629
 21
-0.4155788249091117
 72
     1
 10
1.28987100436629
 20
-0.4155788249091117
 11
1.28987100436629
 21
-4.249999999999994
 72
     1
 10
1.28987100436629
 20
-4.249999999999994
 11
1.72737100436629
 21
-4.249999999999985
 72
     1
 10
1.72737100436629
 20
-4.249999999999985
 11
1.72737100436629
 21
-0.4155788249091117
 97
        1
330
1195
 75
     0
 76
     1
 52
90.0
 41
1.0
 77
     0
 78
     2
 53
90.0
 43
-9.146130142463931
 44
-18.48800000000119
 45
-0.125
 46
0.0
 79
     0
 53
135.0
 43
-9.021130142463931
 44
-18.48800000000119
 45
-0.3535533905932738
 46
-0.3535533905932737
 79
     0
 98
        1
 10
-9.021130142463931
 20
-18.48800000000119
  0
LWPOLYLINE
  5
4F6F
102
{ACAD_REACTORS
330
4F71
102
}
330
35
100
AcDbEntity
  8
Pel_Wall
  6
Continuous
100
AcDbPolyline
 90
       30
 70
     1
 43
0.0
 10
0.8737499999999727
 20
-0.2824999999999953
 10
0.0324999999999989
 20
-0.2824999999999953
 10
0.0324999999999989
 20
-0.6574999999999953
 10
0.0
 20
-0.6574999999999953
 10
0.0
 20
-0.6874999999999965
 10
0.047568363547569
 20
-0.9510789984563423
 10
-0.0051692302997139
 20
-1.288582272639196
 10
0.047568363547569
 20
-1.738189107858048
 10
-0.0051692302997139
 20
-2.23549958607094
 10
0.0612410730635418
 20
-2.588506544226856
 10
0.0211995666239346
 20
-2.958209777430685
 10
0.0612410730635418
 20
-3.262320501517708
 10
0.0
 20
-3.624999999999998
 10
0.0664103033632415
 20
-3.97800695815591
 10
0.0369515100436644
 20
-4.249999999999996
 10
0.78125
 20
-4.249999999999994
 10
0.90625
 20
-3.999999999999996
 10
0.78125
 20
-3.999999999999996
 10
0.90625
 20
-3.687499999999996
 10
0.78125
 20
-3.687499999999996
 10
0.90625
 20
-3.374999999999996
 10
0.78125
 20
-3.374999999999996
 10
0.90625
 20
-3.062499999999996
 10
0.78125
 20
-3.062499999999996
 10
0.90625
 20
-2.687499999999996
 10
0.78125
 20
-2.687499999999996
 10
0.90625
 20
-2.249999999999996
 10
0.78125
 20
-2.249999999999996
 10
0.90625
 20
-1.782499999999995
 10
0.8737499999999727
 20
-1.782499999999995
  0
LWPOLYLINE
  5
4F70
330
35
100
AcDbEntity
  8
Pel_Wall
  6
Continuous
100
AcDbPolyline
 90
        4
 70
     0
 43
0.0
 10
0.90625
 20
-4.249999999999996
 10
0.90625
 20
-0.2499999999999964
 10
0.0
 20
-0.2499999999999964
 10
0.0
 20
-0.6574999999999953
  0
HATCH
  5
4F71
330
35
100
AcDbEntity
  8
Pel_Hatch
 62
     2
100
AcDbHatch
 10
0.0
 20
0.0
 30
0.0
210
0.0
220
0.0
230
1.0
  2
AR-SAND
 70
     0
 71
     1
 91
        1
 92
        1
 93
       30
 72
     1
 10
0.8737499999999727
 20
-0.2824999999999953
 11
0.0324999999999989
 21
-0.2824999999999953
 72
     1
 10
0.0324999999999989
 20
-0.2824999999999953
 11
0.0324999999999989
 21
-0.6574999999999953
 72
     1
 10
0.0324999999999989
 20
-0.6574999999999953
 11
0.0
 21
-0.6574999999999953
 72
     1
 10
0.0
 20
-0.6574999999999953
 11
0.0
 21
-0.6874999999999965
 72
     1
 10
0.0
 20
-0.6874999999999965
 11
0.047568363547569
 21
-0.9510789984563423
 72
     1
 10
0.047568363547569
 20
-0.9510789984563423
 11
-0.0051692302997139
 21
-1.288582272639196
 72
     1
 10
-0.0051692302997139
 20
-1.288582272639196
 11
0.047568363547569
 21
-1.738189107858048
 72
     1
 10
0.047568363547569
 20
-1.738189107858048
 11
-0.0051692302997139
 21
-2.23549958607094
 72
     1
 10
-0.0051692302997139
 20
-2.23549958607094
 11
0.0612410730635418
 21
-2.588506544226856
 72
     1
 10
0.0612410730635418
 20
-2.588506544226856
 11
0.0211995666239346
 21
-2.958209777430685
 72
     1
 10
0.0211995666239346
 20
-2.958209777430685
 11
0.0612410730635418
 21
-3.262320501517708
 72
     1
 10
0.0612410730635418
 20
-3.262320501517708
 11
0.0
 21
-3.624999999999998
 72
     1
 10
0.0
 20
-3.624999999999998
 11
0.0664103033632415
 21
-3.97800695815591
 72
     1
 10
0.0664103033632415
 20
-3.97800695815591
 11
0.0369515100436644
 21
-4.249999999999996
 72
     1
 10
0.0369515100436644
 20
-4.249999999999996
 11
0.78125
 21
-4.249999999999994
 72
     1
 10
0.78125
 20
-4.249999999999994
 11
0.90625
 21
-3.999999999999996
 72
     1
 10
0.90625
 20
-3.999999999999996
 11
0.78125
 21
-3.999999999999996
 72
     1
 10
0.78125
 20
-3.999999999999996
 11
0.90625
 21
-3.687499999999996
 72
     1
 10
0.90625
 20
-3.687499999999996
 11
0.78125
 21
-3.687499999999996
 72
     1
 10
0.78125
 20
-3.687499999999996
 11
0.90625
 21
-3.374999999999996
 72
     1
 10
0.90625
 20
-3.374999999999996
 11
0.78125
 21
-3.374999999999996
 72
     1
 10
0.78125
 20
-3.374999999999996
 11
0.90625
 21
-3.062499999999996
 72
     1
 10
0.90625
 20
-3.062499999999996
 11
0.78125
 21
-3.062499999999996
 72
     1
 10
0.78125
 20
-3.062499999999996
 11
0.90625
 21
-2.687499999999996
 72
     1
 10
0.90625
 20
-2.687499999999996
 11
0.78125
 21
-2.687499999999996
 72
     1
 10
0.78125
 20
-2.687499999999996
 11
0.90625
 21
-2.249999999999996
 72
     1
 10
0.90625
 20
-2.249999999999996
 11
0.78125
 21
-2.249999999999996
 72
     1
 10
0.78125
 20
-2.249999999999996
 11
0.90625
 21
-1.782499999999995
 72
     1
 10
0.90625
 20
-1.782499999999995
 11
0.8737499999999727
 21
-1.782499999999995
 72
     1
 10
0.8737499999999727
 20
-1.782499999999995
 11
0.8737499999999727
 21
-0.2824999999999953
 97
        1
330
4F6F
 75
     0
 76
     1
 52
0.0
 41
0.2
 77
     0
 78
     4
 53
37.5
 43
-8.71875
 44
-18.48800000000119
 45
-0.0125986716219216
 46
0.3853647538026317
 79
     6
 49
0.0
 49
-0.304
 49
0.0
 49
-0.34
 49
0.0
 49
-0.325
 53
7.499999999999999
 43
-8.71875
 44
-18.48800000000119
 45
0.3539553410535455
 46
0.5644292130459482
 79
     6
 49
0.0
 49
-0.164
 49
0.0
 49
-0.274
 49
0.0
 49
-0.105
 53
327.5
 43
-8.96475
 44
-18.48800000000119
 45
0.6228283723502991
 46
0.0011318107073929
 79
     6
 49
0.0
 49
-0.1
 49
0.0
 49
-0.36
 49
0.0
 49
-0.4700000000000001
 53
317.5
 43
-8.96475
 44
-18.48800000000119
 45
0.6012253209144588
 46
0.1755351129868498
 79
     6
 49
0.0
 49
-0.05
 49
0.0
 49
-0.236
 49
0.0
 49
-0.27
 98
        1
 10
-8.71875
 20
-18.48800000000119
1001
ACAD
1010
0.0
1020
0.0
1030
0.0
  0
POLYLINE
  5
4FC5
330
35
100
AcDbEntity
  8
Pel_Wall
100
AcDb2dPolyline
 66
     1
 10
0.0
 20
0.0
 30
0.0
  0
VERTEX
  5
53DA
330
4FC5
100
AcDbEntity
  8
Pel_Wall
100
AcDbVertex
100
AcDb2dVertex
 10
4.20297308744748
 20
-0.3530788249091117
 30
0.0
  0
VERTEX
  5
53DB
330
4FC5
100
AcDbEntity
  8
Pel_Wall
100
AcDbVertex
100
AcDb2dVertex
 10
4.20297308744748
 20
-0.0817500000011933
 30
0.0
  0
VERTEX
  5
53DC
330
4FC5
100
AcDbEntity
  8
Pel_Wall
100
AcDbVertex
100
AcDb2dVertex
 10
5.39047308744748
 20
-0.0817500000011933
 30
0.0
  0
VERTEX
  5
53DD
330
4FC5
100
AcDbEntity
  8
Pel_Wall
100
AcDbVertex
100
AcDb2dVertex
 10
5.39047308744748
 20
-0.3530788249091117
 30
0.0
  0
VERTEX
  5
53DE
330
4FC5
100
AcDbEntity
  8
Pel_Wall
100
AcDbVertex
100
AcDb2dVertex
 10
4.20297308744748
 20
-0.3530788249091117
 30
0.0
  0
VERTEX
  5
53DF
330
4FC5
100
AcDbEntity
  8
Pel_Wall
100
AcDbVertex
100
AcDb2dVertex
 10
5.39047308744748
 20
-0.0817500000011933
 30
0.0
  0
SEQEND
  5
53E0
330
4FC5
100
AcDbEntity
  8
Pel_Wall
  0
HATCH
  5
4FCD
330
35
100
AcDbEntity
  8
Pel_Hatch
 62
     2
100
AcDbHatch
 10
0.0
 20
0.0
 30
0.0
210
0.0
220
0.0
230
1.0
  2
AR-SAND
 70
     0
 71
     1
 91
        1
 92
        1
 93
        4
 72
     1
 10
5.16487100436629
 20
-4.249999999999996
 11
5.16487100436629
 21
-0.4155788249091117
 72
     1
 10
5.16487100436629
 20
-0.4155788249091117
 11
5.66487100436629
 21
-0.4155788249091117
 72
     1
 10
5.66487100436629
 20
-0.4155788249091117
 11
5.66487100436629
 21
-4.249999999999996
 72
     1
 10
5.66487100436629
 20
-4.249999999999996
 11
5.16487100436629
 21
-4.249999999999996
 97
        1
330
199
 75
     0
 76
     1
 52
0.0
 41
0.2
 77
     0
 78
     4
 53
37.5
 43
-8.71875
 44
-18.48800000000119
 45
-0.0125986716219216
 46
0.3853647538026317
 79
     6
 49
0.0
 49
-0.304
 49
0.0
 49
-0.34
 49
0.0
 49
-0.325
 53
7.499999999999999
 43
-8.71875
 44
-18.48800000000119
 45
0.3539553410535455
 46
0.5644292130459482
 79
     6
 49
0.0
 49
-0.164
 49
0.0
 49
-0.274
 49
0.0
 49
-0.105
 53
327.5
 43
-8.96475
 44
-18.48800000000119
 45
0.6228283723502991
 46
0.0011318107073929
 79
     6
 49
0.0
 49
-0.1
 49
0.0
 49
-0.36
 49
0.0
 49
-0.4700000000000001
 53
317.5
 43
-8.96475
 44
-18.48800000000119
 45
0.6012253209144588
 46
0.1755351129868498
 79
     6
 49
0.0
 49
-0.05
 49
0.0
 49
-0.236
 49
0.0
 49
-0.27
 98
        1
 10
-8.71875
 20
-18.48800000000119
1001
ACAD
1010
0.0
1020
0.0
1030
0.0
  0
INSERT
  5
4FCE
330
35
100
AcDbEntity
  8
0
100
AcDbBlockReference
  2
Nail
 10
1.063
 20
-0.8869124162124428
 30
0.0
 41
1.5
  0
LWPOLYLINE
  5
4FCF
330
35
100
AcDbEntity
  8
Pel_Wall
100
AcDbPolyline
 90
        9
 70
     1
 43
0.0
 10
0.90625
 20
-1.782499999999995
 10
0.8737499999999727
 20
-1.782499999999995
 10
0.8737499999999727
 20
-0.2824999999999953
 10
0.0324999999999989
 20
-0.2824999999999953
 10
0.0324999999999989
 20
-0.6574999999999953
 10
0.0
 20
-0.6574999999999953
 10
0.0
 20
-0.2499999999999964
 10
0.90625
 20
-0.2499999999999964
 10
0.90625
 20
-1.782499999999995
  0
INSERT
  5
5149
330
35
100
AcDbEntity
  8
0
100
AcDbBlockReference
  2
FOAM1
 10
5.66487100436629
 20
-0.4155788249091117
 30
0.0
 42
1.625
  0
POLYLINE
  5
53E5
330
35
100
AcDbEntity
  8
Pel_Wall
  6
Continuous
100
AcDb2dPolyline
 66
     1
 10
0.0
 20
0.0
 30
0.0
  0
VERTEX
  5
53E6
330
53E5
100
AcDbEntity
  8
Pel_Wall
  6
Continuous
100
AcDbVertex
100
AcDb2dVertex
 10
3.166001146830211
 20
-0.3530788249091117
 30
0.0
  0
VERTEX
  5
53E7
330
53E5
100
AcDbEntity
  8
Pel_Wall
  6
Continuous
100
AcDbVertex
100
AcDb2dVertex
 10
1.186001146830221
 20
-0.3530788249091117
 30
0.0
  0
VERTEX
  5
53E8
330
53E5
100
AcDbEntity
  8
Pel_Wall
  6
Continuous
100
AcDbVertex
100
AcDb2dVertex
 10
1.186001146830221
 20
-1.311554838458107
 30
0.0
  0
SEQEND
  5
53E9
330
53E5
100
AcDbEntity
  8
Pel_Wall
  6
Continuous
  0
POLYLINE
  5
53EA
330
35
100
AcDbEntity
  8
Pel_Wall
  6
Continuous
100
AcDb2dPolyline
 66
     1
 10
0.0
 20
0.0
 30
0.0
  0
VERTEX
  5
53EB
330
53EA
100
AcDbEntity
  8
Pel_Wall
  6
Continuous
100
AcDbVertex
100
AcDb2dVertex
 10
3.166001146830211
 20
-0.3330788249091121
 30
0.0
  0
VERTEX
  5
53EC
330
53EA
100
AcDbEntity
  8
Pel_Wall
  6
Continuous
100
AcDbVertex
100
AcDb2dVertex
 10
1.166001146830211
 20
-0.3330788249091121
 30
0.0
  0
VERTEX
  5
53ED
330
53EA
100
AcDbEntity
  8
Pel_Wall
  6
Continuous
100
AcDbVertex
100
AcDb2dVertex
 10
1.166001146830211
 20
-1.311554838458107
 30
0.0
  0
SEQEND
  5
53EE
330
53EA
100
AcDbEntity
  8
Pel_Wall
  6
Continuous
  0
POLYLINE
  5
53EF
330
35
100
AcDbEntity
  8
Pel_Wall
  6
Continuous
100
AcDb2dPolyline
 66
     1
 10
0.0
 20
0.0
 30
0.0
  0
VERTEX
  5
53F0
330
53EF
100
AcDbEntity
  8
Pel_Wall
  6
Continuous
100
AcDbVertex
100
AcDb2dVertex
 10
1.228501146830211
 20
-0.4155788249091117
 30
0.0
  0
VERTEX
  5
53F1
330
53EF
100
AcDbEntity
  8
Pel_Wall
  6
Continuous
100
AcDbVertex
100
AcDb2dVertex
 10
1.228501146830211
 20
-4.249999999999994
 30
0.0
  0
VERTEX
  5
53F2
330
53EF
100
AcDbEntity
  8
Pel_Wall
  6
Continuous
100
AcDbVertex
100
AcDb2dVertex
 10
1.228501146830211
 20
-4.249999999999994
 30
0.0
  0
VERTEX
  5
53F3
330
53EF
100
AcDbEntity
  8
Pel_Wall
  6
Continuous
100
AcDbVertex
100
AcDb2dVertex
 10
1.228501146830211
 20
-4.249999999999994
 30
0.0
  0
SEQEND
  5
53F4
330
53EF
100
AcDbEntity
  8
Pel_Wall
  6
Continuous
  0
POLYLINE
  5
53F5
330
35
100
AcDbEntity
  8
Pel_Wall
  6
Continuous
100
AcDb2dPolyline
 66
     1
 10
0.0
 20
0.0
 30
0.0
  0
VERTEX
  5
53F6
330
53F5
100
AcDbEntity
  8
Pel_Wall
  6
Continuous
100
AcDbVertex
100
AcDb2dVertex
 10
1.248501146830221
 20
-0.4155788249091117
 30
0.0
  0
VERTEX
  5
53F7
330
53F5
100
AcDbEntity
  8
Pel_Wall
  6
Continuous
100
AcDbVertex
100
AcDb2dVertex
 10
1.248501146830221
 20
-4.249999999999994
 30
0.0
  0
VERTEX
  5
53F8
330
53F5
100
AcDbEntity
  8
Pel_Wall
  6
Continuous
100
AcDbVertex
100
AcDb2dVertex
 10
1.248501146830221
 20
-4.249999999999994
 30
0.0
  0
VERTEX
  5
53F9
330
53F5
100
AcDbEntity
  8
Pel_Wall
  6
Continuous
100
AcDbVertex
100
AcDb2dVertex
 10
1.248501146830221
 20
-4.249999999999994
 30
0.0
  0
SEQEND
  5
53FA
330
53F5
100
AcDbEntity
  8
Pel_Wall
  6
Continuous
  0
ENDBLK
  5
1BD
330
35
100
AcDbEntity
  8
0
100
AcDbBlockEnd
  0
BLOCK
  5
6E8
330
6E5
100
AcDbEntity
  8
0
100
AcDbBlockBegin
  2
10headstuc
 70
     0
 10
0.0
 20
0.0
 30
0.0
  3
10headstuc
  1

  0
POLYLINE
  5
6E9
330
6E5
100
AcDbEntity
  8
Pel_Wall
  6
Continuous
100
AcDb2dPolyline
 66
     1
 10
0.0
 20
0.0
 30
0.0
  0
VERTEX
  5
5897
330
6E9
100
AcDbEntity
  8
Pel_Wall
  6
Continuous
100
AcDbVertex
100
AcDb2dVertex
 10
1.65625
 20
4.249999999999996
 30
0.0
  0
VERTEX
  5
5898
330
6E9
100
AcDbEntity
  8
Pel_Wall
  6
Continuous
100
AcDbVertex
100
AcDb2dVertex
 10
1.65625
 20
0.25
 30
0.0
  0
VERTEX
  5
5899
330
6E9
100
AcDbEntity
  8
Pel_Wall
  6
Continuous
100
AcDbVertex
100
AcDb2dVertex
 10
3.15625
 20
0.25
 30
0.0
  0
VERTEX
  5
589A
330
6E9
100
AcDbEntity
  8
Pel_Wall
  6
Continuous
100
AcDbVertex
100
AcDb2dVertex
 10
3.15625
 20
4.249999999999996
 30
0.0
  0
SEQEND
  5
589B
330
6E9
100
AcDbEntity
  8
Pel_Wall
  6
Continuous
  0
LINE
  5
6EF
330
6E5
100
AcDbEntity
  8
Pel_Wall
  6
Continuous
100
AcDbLine
 10
1.65625
 20
0.25
 30
0.0
 11
2.48383620689654
 21
4.249999999999996
 31
0.0
  0
POLYLINE
  5
6F8
330
6E5
100
AcDbEntity
  8
Pel_Wall
  6
Continuous
100
AcDb2dPolyline
 66
     1
 10
0.0
 20
0.0
 30
0.0
  0
VERTEX
  5
589E
330
6F8
100
AcDbEntity
  8
Pel_Wall
  6
Continuous
100
AcDbVertex
100
AcDb2dVertex
 10
0.8048403136722015
 20
0.3125
 30
0.0
  0
VERTEX
  5
589F
330
6F8
100
AcDbEntity
  8
Pel_Wall
  6
Continuous
100
AcDbVertex
100
AcDb2dVertex
 10
0.8048403136722015
 20
1.692221359549996
 30
0.0
  0
VERTEX
  5
58A0
330
6F8
100
AcDbEntity
  8
Pel_Wall
  6
Continuous
100
AcDbVertex
100
AcDb2dVertex
 10
0.8862499999999897
 20
1.960180848874308
 30
0.0
  0
VERTEX
  5
58A1
330
6F8
100
AcDbEntity
  8
Pel_Wall
  6
Continuous
100
AcDbVertex
100
AcDb2dVertex
 10
0.8862499999999897
 20
4.249999999999996
 30
0.0
  0
SEQEND
  5
58A2
330
6F8
100
AcDbEntity
  8
Pel_Wall
  6
Continuous
  0
POLYLINE
  5
6FE
330
6E5
100
AcDbEntity
  8
Pel_Wall
  6
Continuous
100
AcDb2dPolyline
 66
     1
 10
0.0
 20
0.0
 30
0.0
  0
VERTEX
  5
58A4
330
6FE
100
AcDbEntity
  8
Pel_Wall
  6
Continuous
100
AcDbVertex
100
AcDb2dVertex
 10
0.8248403136722117
 20
0.3125
 30
0.0
  0
VERTEX
  5
58A5
330
6FE
100
AcDbEntity
  8
Pel_Wall
  6
Continuous
100
AcDbVertex
100
AcDb2dVertex
 10
0.8248403136722117
 20
1.6875
 30
0.0
  0
VERTEX
  5
58A6
330
6FE
100
AcDbEntity
  8
Pel_Wall
  6
Continuous
100
AcDbVertex
100
AcDb2dVertex
 10
0.90625
 20
1.955459489324312
 30
0.0
  0
VERTEX
  5
58A7
330
6FE
100
AcDbEntity
  8
Pel_Wall
  6
Continuous
100
AcDbVertex
100
AcDb2dVertex
 10
0.90625
 20
4.249999999999996
 30
0.0
  0
SEQEND
  5
58A8
330
6FE
100
AcDbEntity
  8
Pel_Wall
  6
Continuous
  0
POLYLINE
  5
704
330
6E5
100
AcDbEntity
  8
Pel_Wall
  6
Continuous
100
AcDb2dPolyline
 66
     1
 10
0.0
 20
0.0
 30
0.0
  0
VERTEX
  5
58AA
330
704
100
AcDbEntity
  8
Pel_Wall
  6
Continuous
100
AcDbVertex
100
AcDb2dVertex
 10
0.9487500000000608
 20
0.2499999999999964
 30
0.0
  0
VERTEX
  5
58AB
330
704
100
AcDbEntity
  8
Pel_Wall
  6
Continuous
100
AcDbVertex
100
AcDb2dVertex
 10
0.9487499999999897
 20
1.192221359549996
 30
0.0
  0
VERTEX
  5
58AC
330
704
100
AcDbEntity
  8
Pel_Wall
  6
Continuous
100
AcDbVertex
100
AcDb2dVertex
 10
1.011249999999989
 20
1.317221359549996
 30
0.0
  0
VERTEX
  5
58AD
330
704
100
AcDbEntity
  8
Pel_Wall
  6
Continuous
100
AcDbVertex
100
AcDb2dVertex
 10
1.011249999999989
 20
3.0
 30
0.0
  0
SEQEND
  5
58AE
330
704
100
AcDbEntity
  8
Pel_Wall
  6
Continuous
  0
POLYLINE
  5
70A
330
6E5
100
AcDbEntity
  8
Pel_Wall
  6
Continuous
100
AcDb2dPolyline
 66
     1
 10
0.0
 20
0.0
 30
0.0
  0
VERTEX
  5
58B0
330
70A
100
AcDbEntity
  8
Pel_Wall
  6
Continuous
100
AcDbVertex
100
AcDb2dVertex
 10
0.968750000000071
 20
0.2499999999999964
 30
0.0
  0
VERTEX
  5
58B1
330
70A
100
AcDbEntity
  8
Pel_Wall
  6
Continuous
100
AcDbVertex
100
AcDb2dVertex
 10
0.96875
 20
1.1875
 30
0.0
  0
VERTEX
  5
58B2
330
70A
100
AcDbEntity
  8
Pel_Wall
  6
Continuous
100
AcDbVertex
100
AcDb2dVertex
 10
1.03125
 20
1.3125
 30
0.0
  0
VERTEX
  5
58B3
330
70A
100
AcDbEntity
  8
Pel_Wall
  6
Continuous
100
AcDbVertex
100
AcDb2dVertex
 10
1.03125
 20
3.0
 30
0.0
  0
SEQEND
  5
58B4
330
70A
100
AcDbEntity
  8
Pel_Wall
  6
Continuous
  0
POLYLINE
  5
74E
102
{ACAD_REACTORS
330
5894
102
}
330
6E5
100
AcDbEntity
  8
Pel_Wall
  6
Continuous
100
AcDb2dPolyline
 66
     1
 10
0.0
 20
0.0
 30
0.0
 70
     1
  0
VERTEX
  5
585F
330
74E
100
AcDbEntity
  8
Pel_Wall
  6
Continuous
100
AcDbVertex
100
AcDb2dVertex
 10
5.15625
 20
4.249999999999996
 30
0.0
  0
VERTEX
  5
5860
330
74E
100
AcDbEntity
  8
Pel_Wall
  6
Continuous
100
AcDbVertex
100
AcDb2dVertex
 10
5.15625
 20
0.25
 30
0.0
  0
VERTEX
  5
5861
330
74E
100
AcDbEntity
  8
Pel_Wall
  6
Continuous
100
AcDbVertex
100
AcDb2dVertex
 10
5.65625
 20
0.25
 30
0.0
  0
VERTEX
  5
5862
330
74E
100
AcDbEntity
  8
Pel_Wall
  6
Continuous
100
AcDbVertex
100
AcDb2dVertex
 10
5.65625
 20
4.249999999999996
 30
0.0
  0
SEQEND
  5
5863
330
74E
100
AcDbEntity
  8
Pel_Wall
  6
Continuous
  0
POLYLINE
  5
754
330
6E5
100
AcDbEntity
  8
Pel_Wall
  6
Continuous
100
AcDb2dPolyline
 66
     1
 10
0.0
 20
0.0
 30
0.0
  0
VERTEX
  5
5865
330
754
100
AcDbEntity
  8
Pel_Wall
  6
Continuous
100
AcDbVertex
100
AcDb2dVertex
 10
3.65625
 20
4.249999999999996
 30
0.0
  0
VERTEX
  5
5866
330
754
100
AcDbEntity
  8
Pel_Wall
  6
Continuous
100
AcDbVertex
100
AcDb2dVertex
 10
3.65625
 20
0.25
 30
0.0
  0
VERTEX
  5
5867
330
754
100
AcDbEntity
  8
Pel_Wall
  6
Continuous
100
AcDbVertex
100
AcDb2dVertex
 10
5.15625
 20
0.25
 30
0.0
  0
VERTEX
  5
5868
330
754
100
AcDbEntity
  8
Pel_Wall
  6
Continuous
100
AcDbVertex
100
AcDb2dVertex
 10
5.15625
 20
4.249999999999996
 30
0.0
  0
SEQEND
  5
5869
330
754
100
AcDbEntity
  8
Pel_Wall
  6
Continuous
  0
LINE
  5
75A
330
6E5
100
AcDbEntity
  8
Pel_Wall
  6
Continuous
100
AcDbLine
 10
3.65625
 20
0.25
 30
0.0
 11
4.48383620689654
 21
4.249999999999996
 31
0.0
  0
POLYLINE
  5
75B
330
6E5
100
AcDbEntity
  8
Pel_Wall
  6
Continuous
100
AcDb2dPolyline
 66
     1
 10
0.0
 20
0.0
 30
0.0
  0
VERTEX
  5
586C
330
75B
100
AcDbEntity
  8
Pel_Wall
  6
Continuous
100
AcDbVertex
100
AcDb2dVertex
 10
3.15625
 20
4.249999999999996
 30
0.0
  0
VERTEX
  5
586D
330
75B
100
AcDbEntity
  8
Pel_Wall
  6
Continuous
100
AcDbVertex
100
AcDb2dVertex
 10
3.15625
 20
0.25
 30
0.0
  0
VERTEX
  5
586E
330
75B
100
AcDbEntity
  8
Pel_Wall
  6
Continuous
100
AcDbVertex
100
AcDb2dVertex
 10
3.65625
 20
0.25
 30
0.0
  0
VERTEX
  5
586F
330
75B
100
AcDbEntity
  8
Pel_Wall
  6
Continuous
100
AcDbVertex
100
AcDb2dVertex
 10
3.65625
 20
4.249999999999996
 30
0.0
  0
SEQEND
  5
5870
330
75B
100
AcDbEntity
  8
Pel_Wall
  6
Continuous
  0
LINE
  5
761
330
6E5
100
AcDbEntity
  8
Pel_Wall
  6
Continuous
100
AcDbLine
 10
3.28125
 20
0.25
 30
0.0
 11
3.28125
 21
4.249999999999996
 31
0.0
  0
LINE
  5
762
330
6E5
100
AcDbEntity
  8
Pel_Wall
  6
Continuous
100
AcDbLine
 10
3.40625
 20
0.25
 30
0.0
 11
3.40625
 21
4.249999999999996
 31
0.0
  0
LINE
  5
763
330
6E5
100
AcDbEntity
  8
Pel_Wall
  6
Continuous
100
AcDbLine
 10
3.53125
 20
0.25
 30
0.0
 11
3.53125
 21
4.249999999999996
 31
0.0
  0
LINE
  5
764
330
6E5
100
AcDbEntity
  8
Pel_Wall
  6
Continuous
100
AcDbLine
 10
3.65625
 20
3.276911934581193
 30
0.0
 11
3.15625
 21
3.776911934581193
 31
0.0
  0
LINE
  5
765
330
6E5
100
AcDbEntity
  8
Pel_Wall
  6
Continuous
100
AcDbLine
 10
3.15625
 20
0.25
 30
0.0
 11
2.328663793103444
 21
4.249999999999996
 31
0.0
  0
LINE
  5
767
330
6E5
100
AcDbEntity
  8
Pel_Wall
  6
Continuous
100
AcDbLine
 10
3.65625
 20
0.5734848098349979
 30
0.0
 11
3.15625
 21
1.073484809835001
 31
0.0
  0
LINE
  5
768
330
6E5
100
AcDbEntity
  8
Pel_Wall
  6
Continuous
100
AcDbLine
 10
3.65625
 20
2.569805153394643
 30
0.0
 11
3.15625
 21
3.069805153394639
 31
0.0
  0
LINE
  5
769
330
6E5
100
AcDbEntity
  8
Pel_Wall
  6
Continuous
100
AcDbLine
 10
3.656249999999985
 20
1.280591591021547
 30
0.0
 11
3.15625
 21
1.780591591021543
 31
0.0
  0
LINE
  5
76A
330
6E5
100
AcDbEntity
  8
Pel_Wall
  6
Continuous
100
AcDbLine
 10
3.656249999999985
 20
1.862698372208093
 30
0.0
 11
3.156249999999985
 21
2.362698372208093
 31
0.0
  0
LINE
  5
76B
330
6E5
100
AcDbEntity
  8
Pel_Wall
  6
Continuous
100
AcDbLine
 10
3.65625
 20
3.984018715767739
 30
0.0
 11
3.390268715767732
 21
4.249999999999996
 31
0.0
  0
LINE
  5
76C
330
6E5
100
AcDbEntity
  8
Pel_Wall
  6
Continuous
100
AcDbLine
 10
5.15625
 20
0.25
 30
0.0
 11
4.328663793103444
 21
4.249999999999996
 31
0.0
  0
POINT
  5
828
330
6E5
100
AcDbEntity
  8
Pel_Points
100
AcDbPoint
 10
0.0
 20
0.0
 30
0.0
  0
INSERT
  5
829
330
6E5
100
AcDbEntity
  8
Pel_Wall
100
AcDbBlockReference
  2
Rodseal
 10
0.0
 20
0.0
 30
0.0
 41
0.75
 42
0.25
  0
POLYLINE
  5
83A
330
6E5
100
AcDbEntity
  8
Pel_Wall
100
AcDb2dPolyline
 66
     1
 10
0.0
 20
0.0
 30
0.0
 70
     1
  0
VERTEX
  5
587F
330
83A
100
AcDbEntity
  8
Pel_Wall
100
AcDbVertex
100
AcDb2dVertex
 10
0.90625
 20
1.73690667848081
 30
0.0
  0
VERTEX
  5
5880
330
83A
100
AcDbEntity
  8
Pel_Wall
100
AcDbVertex
100
AcDb2dVertex
 10
0.8737499999999869
 20
1.73690667848081
 30
0.0
  0
VERTEX
  5
5881
330
83A
100
AcDbEntity
  8
Pel_Wall
100
AcDbVertex
100
AcDb2dVertex
 10
0.8737499999999869
 20
0.2824999999999953
 30
0.0
  0
VERTEX
  5
5882
330
83A
100
AcDbEntity
  8
Pel_Wall
100
AcDbVertex
100
AcDb2dVertex
 10
0.0324999999999989
 20
0.2824999999999989
 30
0.0
  0
VERTEX
  5
5883
330
83A
100
AcDbEntity
  8
Pel_Wall
100
AcDbVertex
100
AcDb2dVertex
 10
0.0324999999999989
 20
0.6874035503014895
 30
0.0
  0
VERTEX
  5
5884
330
83A
100
AcDbEntity
  8
Pel_Wall
100
AcDbVertex
100
AcDb2dVertex
 10
0.0
 20
0.6873999842895984
 30
0.0
  0
VERTEX
  5
5885
330
83A
100
AcDbEntity
  8
Pel_Wall
100
AcDbVertex
100
AcDb2dVertex
 10
0.0
 20
0.25
 30
0.0
  0
VERTEX
  5
5886
330
83A
100
AcDbEntity
  8
Pel_Wall
100
AcDbVertex
100
AcDb2dVertex
 10
0.90625
 20
0.2499999999999929
 30
0.0
  0
SEQEND
  5
5887
330
83A
100
AcDbEntity
  8
Pel_Wall
  0
POLYLINE
  5
EB3
102
{ACAD_REACTORS
330
EB9
102
}
330
6E5
100
AcDbEntity
  8
Pel_Wall
100
AcDb2dPolyline
 66
     1
 10
0.0
 20
0.0
 30
0.0
 70
     1
  0
VERTEX
  5
5889
330
EB3
100
AcDbEntity
  8
Pel_Wall
100
AcDbVertex
100
AcDb2dVertex
 10
1.65625
 20
0.25
 30
0.0
  0
VERTEX
  5
588A
330
EB3
100
AcDbEntity
  8
Pel_Wall
100
AcDbVertex
100
AcDb2dVertex
 10
1.15625
 20
0.25
 30
0.0
  0
VERTEX
  5
588B
330
EB3
100
AcDbEntity
  8
Pel_Wall
100
AcDbVertex
100
AcDb2dVertex
 10
1.156249999999996
 20
4.25
 30
0.0
  0
VERTEX
  5
588C
330
EB3
100
AcDbEntity
  8
Pel_Wall
100
AcDbVertex
100
AcDb2dVertex
 10
1.65625
 20
4.249999999999996
 30
0.0
  0
SEQEND
  5
588D
330
EB3
100
AcDbEntity
  8
Pel_Wall
  0
HATCH
  5
EB9
330
6E5
100
AcDbEntity
  8
Pel_Wall
100
AcDbHatch
 10
0.0
 20
0.0
 30
0.0
210
0.0
220
0.0
230
1.0
  2
PLY
 70
     0
 71
     1
 91
        1
 92
        1
 93
        4
 72
     1
 10
1.65625
 20
0.25
 11
1.15625
 21
0.25
 72
     1
 10
1.15625
 20
0.25
 11
1.156249999999996
 21
4.25
 72
     1
 10
1.156249999999996
 20
4.25
 11
1.65625
 21
4.249999999999996
 72
     1
 10
1.65625
 20
4.249999999999996
 11
1.65625
 21
0.25
 97
        1
330
EB3
 75
     0
 76
     1
 52
90.0
 41
1.0
 77
     0
 78
     2
 53
90.0
 43
-9.10237100436629
 44
-27.73800000000119
 45
-0.125
 46
0.0
 79
     0
 53
135.0
 43
-8.97737100436629
 44
-27.73800000000119
 45
-0.3535533905932738
 46
-0.3535533905932737
 79
     0
 98
        1
 10
-8.97737100436629
 20
-27.73800000000119
  0
INSERT
  5
588F
330
6E5
100
AcDbEntity
  8
0
100
AcDbBlockReference
  2
FOAM1
 10
5.65625
 20
-0.0000000000000036
 30
0.0
  0
LWPOLYLINE
  5
5890
102
{ACAD_REACTORS
330
5893
102
}
330
6E5
100
AcDbEntity
  8
Pel_Wall
100
AcDbPolyline
 90
       30
 70
     1
 43
0.0
 10
0.625
 20
2.6875
 10
0.7499999999999983
 20
2.6875
 10
0.625
 20
3.0625
 10
0.7499999999999983
 20
3.0625
 10
0.625
 20
3.375
 10
0.7499999999999983
 20
3.375
 10
0.6250000000000018
 20
3.6875
 10
0.7499999999999983
 20
3.6875
 10
0.625
 20
4.0
 10
0.75
 20
4.0
 10
0.6499999999999915
 20
4.249999999999996
 10
0.0369515100436644
 20
4.249999999999996
 10
0.0664103033632415
 20
3.978006958155916
 10
0.0
 20
3.625
 10
0.0612410730635418
 20
3.262320501517713
 10
0.0211995666239346
 20
2.958209777430685
 10
0.0612410730635418
 20
2.588506544226856
 10
-0.0051692302997139
 20
2.235499586070943
 10
0.047568363547569
 20
1.738189107858048
 10
-0.0051692302997139
 20
1.288582272639196
 10
0.047568363547569
 20
0.9510789984563459
 10
0.0
 20
0.6873999842895984
 10
0.0324999999999989
 20
0.6874035503014895
 10
0.0324999999999989
 20
0.2824999999999989
 10
0.75
 20
0.2824999999999953
 10
0.75
 20
1.323698428289517
 10
0.625
 20
1.782499999999998
 10
0.75
 20
1.782499999999998
 10
0.625
 20
2.25
 10
0.7499999999999983
 20
2.25
  0
LWPOLYLINE
  5
5891
330
6E5
100
AcDbEntity
  8
Pel_Wall
100
AcDbPolyline
 90
        4
 70
     0
 43
0.0
 10
0.0324999999999989
 20
0.6874035503014895
 10
0.0324999999999989
 20
0.2824999999999989
 10
0.75
 20
0.2824999999999953
 10
0.75
 20
4.249999999999996
  0
LWPOLYLINE
  5
5892
330
6E5
100
AcDbEntity
  8
Pel_Wall
100
AcDbPolyline
 90
        9
 70
     0
 43
0.0
 10
0.0324999999999989
 20
0.6874035503014895
 10
0.0
 20
0.6873999842895984
 10
0.0000000000000036
 20
0.2499999999999964
 10
0.90625
 20
0.2499999999999929
 10
0.90625
 20
1.73690667848081
 10
0.8737499999999869
 20
1.73690667848081
 10
0.8737499999999798
 20
0.2824999999999953
 10
0.0324999999999989
 20
0.2824999999999989
 10
0.0324999999999989
 20
0.6874035503014895
  0
HATCH
  5
5893
330
6E5
100
AcDbEntity
  8
Pel_Hatch
 62
     2
100
AcDbHatch
 10
0.0
 20
0.0
 30
0.0
210
0.0
220
0.0
230
1.0
  2
AR-SAND
 70
     0
 71
     1
 91
        1
 92
        1
 93
       30
 72
     1
 10
0.625
 20
2.6875
 11
0.7499999999999983
 21
2.6875
 72
     1
 10
0.7499999999999983
 20
2.6875
 11
0.625
 21
3.0625
 72
     1
 10
0.625
 20
3.0625
 11
0.7499999999999983
 21
3.0625
 72
     1
 10
0.7499999999999983
 20
3.0625
 11
0.625
 21
3.375
 72
     1
 10
0.625
 20
3.375
 11
0.7499999999999983
 21
3.375
 72
     1
 10
0.7499999999999983
 20
3.375
 11
0.6250000000000018
 21
3.6875
 72
     1
 10
0.6250000000000018
 20
3.6875
 11
0.7499999999999983
 21
3.6875
 72
     1
 10
0.7499999999999983
 20
3.6875
 11
0.625
 21
4.0
 72
     1
 10
0.625
 20
4.0
 11
0.75
 21
4.0
 72
     1
 10
0.75
 20
4.0
 11
0.6499999999999915
 21
4.249999999999996
 72
     1
 10
0.6499999999999915
 20
4.249999999999996
 11
0.0369515100436644
 21
4.249999999999996
 72
     1
 10
0.0369515100436644
 20
4.249999999999996
 11
0.0664103033632415
 21
3.978006958155916
 72
     1
 10
0.0664103033632415
 20
3.978006958155916
 11
0.0
 21
3.625
 72
     1
 10
0.0
 20
3.625
 11
0.0612410730635418
 21
3.262320501517713
 72
     1
 10
0.0612410730635418
 20
3.262320501517713
 11
0.0211995666239346
 21
2.958209777430685
 72
     1
 10
0.0211995666239346
 20
2.958209777430685
 11
0.0612410730635418
 21
2.588506544226856
 72
     1
 10
0.0612410730635418
 20
2.588506544226856
 11
-0.0051692302997139
 21
2.235499586070943
 72
     1
 10
-0.0051692302997139
 20
2.235499586070943
 11
0.047568363547569
 21
1.738189107858048
 72
     1
 10
0.047568363547569
 20
1.738189107858048
 11
-0.0051692302997139
 21
1.288582272639196
 72
     1
 10
-0.0051692302997139
 20
1.288582272639196
 11
0.047568363547569
 21
0.9510789984563459
 72
     1
 10
0.047568363547569
 20
0.9510789984563459
 11
0.0
 21
0.6873999842895984
 72
     1
 10
0.0
 20
0.6873999842895984
 11
0.0324999999999989
 21
0.6874035503014895
 72
     1
 10
0.0324999999999989
 20
0.6874035503014895
 11
0.0324999999999989
 21
0.2824999999999989
 72
     1
 10
0.0324999999999989
 20
0.2824999999999989
 11
0.75
 21
0.2824999999999953
 72
     1
 10
0.75
 20
0.2824999999999953
 11
0.75
 21
1.323698428289517
 72
     1
 10
0.75
 20
1.323698428289517
 11
0.625
 21
1.782499999999998
 72
     1
 10
0.625
 20
1.782499999999998
 11
0.75
 21
1.782499999999998
 72
     1
 10
0.75
 20
1.782499999999998
 11
0.625
 21
2.25
 72
     1
 10
0.625
 20
2.25
 11
0.7499999999999983
 21
2.25
 72
     1
 10
0.7499999999999983
 20
2.25
 11
0.625
 21
2.6875
 97
        1
330
5890
 75
     0
 76
     1
 52
0.0
 41
0.2
 77
     0
 78
     4
 53
37.5
 43
-8.72737100436629
 44
-27.73800000000119
 45
-0.0125986716219216
 46
0.3853647538026317
 79
     6
 49
0.0
 49
-0.304
 49
0.0
 49
-0.34
 49
0.0
 49
-0.325
 53
7.499999999999999
 43
-8.72737100436629
 44
-27.73800000000119
 45
0.3539553410535455
 46
0.5644292130459482
 79
     6
 49
0.0
 49
-0.164
 49
0.0
 49
-0.274
 49
0.0
 49
-0.105
 53
327.5
 43
-8.97337100436629
 44
-27.73800000000119
 45
0.6228283723502991
 46
0.0011318107073929
 79
     6
 49
0.0
 49
-0.1
 49
0.0
 49
-0.36
 49
0.0
 49
-0.4700000000000001
 53
317.5
 43
-8.97337100436629
 44
-27.73800000000119
 45
0.6012253209144588
 46
0.1755351129868498
 79
     6
 49
0.0
 49
-0.05
 49
0.0
 49
-0.236
 49
0.0
 49
-0.27
 98
        1
 10
-8.72737100436629
 20
-27.73800000000119
1001
ACAD
1010
0.0
1020
0.0
1030
0.0
  0
HATCH
  5
5894
330
6E5
100
AcDbEntity
  8
Pel_Hatch
 62
     2
100
AcDbHatch
 10
0.0
 20
0.0
 30
0.0
210
0.0
220
0.0
230
1.0
  2
AR-SAND
 70
     0
 71
     1
 91
        1
 92
        1
 93
        4
 72
     1
 10
5.15625
 20
4.249999999999996
 11
5.15625
 21
0.25
 72
     1
 10
5.15625
 20
0.25
 11
5.65625
 21
0.25
 72
     1
 10
5.65625
 20
0.25
 11
5.65625
 21
4.249999999999996
 72
     1
 10
5.65625
 20
4.249999999999996
 11
5.15625
 21
4.249999999999996
 97
        1
330
74E
 75
     0
 76
     1
 52
0.0
 41
0.2
 77
     0
 78
     4
 53
37.5
 43
-8.72737100436629
 44
-27.73800000000119
 45
-0.0125986716219216
 46
0.3853647538026317
 79
     6
 49
0.0
 49
-0.304
 49
0.0
 49
-0.34
 49
0.0
 49
-0.325
 53
7.499999999999999
 43
-8.72737100436629
 44
-27.73800000000119
 45
0.3539553410535455
 46
0.5644292130459482
 79
     6
 49
0.0
 49
-0.164
 49
0.0
 49
-0.274
 49
0.0
 49
-0.105
 53
327.5
 43
-8.97337100436629
 44
-27.73800000000119
 45
0.6228283723502991
 46
0.0011318107073929
 79
     6
 49
0.0
 49
-0.1
 49
0.0
 49
-0.36
 49
0.0
 49
-0.4700000000000001
 53
317.5
 43
-8.97337100436629
 44
-27.73800000000119
 45
0.6012253209144588
 46
0.1755351129868498
 79
     6
 49
0.0
 49
-0.05
 49
0.0
 49
-0.236
 49
0.0
 49
-0.27
 98
        1
 10
-8.72737100436629
 20
-27.73800000000119
1001
ACAD
1010
0.0
1020
0.0
1030
0.0
  0
INSERT
  5
5895
330
6E5
100
AcDbEntity
  8
0
100
AcDbBlockReference
  2
Nail
 10
1.033750000000001
 20
0.8075346177744435
 30
0.0
 41
1.5
  0
ENDBLK
  5
85E
330
6E5
100
AcDbEntity
  8
0
100
AcDbBlockEnd
  0
BLOCK
  5
251B
330
2513
100
AcDbEntity
  8
0
100
AcDbBlockBegin
  2
*D9
 70
     1
 10
0.0
 20
0.0
 30
0.0
  3
*D9
  1

  0
LINE
  5
5974
330
2513
100
AcDbEntity
  8
0
100
AcDbLine
 10
22.79142803533062
 20
20.18032858997411
 30
0.0
 11
22.79142803533062
 21
18.06857490172058
 31
0.0
  0
LINE
  5
5975
330
2513
100
AcDbEntity
  8
0
100
AcDbLine
 10
26.91642803533063
 20
18.31857490172058
 30
0.0
 11
23.01017803533063
 21
18.31857490172058
 31
0.0
  0
MTEXT
  5
5976
330
2513
100
AcDbEntity
  8
0
 62
   255
100
AcDbMText
 10
26.16271442357248
 20
18.05357490172058
 30
0.0
 40
0.28
 41
0.0
 71
     5
 72
     1
  1
\A1;FRAME
 73
     1
 44
1.0
1001
ACAD
1000
MTEXTBEGIN
1070
    73
1070
     1
1070
    44
1040
1.0
1070
    74
1070
     0
1000
MTEXTEND
  0
SOLID
  5
5977
330
2513
100
AcDbEntity
  8
0
100
AcDbTrace
 10
23.01017803533063
 20
18.35503323505391
 30
0.0
 11
23.01017803533063
 21
18.28211656838725
 31
0.0
 12
22.79142803533062
 22
18.31857490172058
 32
0.0
 13
22.79142803533062
 23
18.31857490172058
 33
0.0
  0
POINT
  5
5978
330
2513
100
AcDbEntity
  8
Defpoints
 62
     0
100
AcDbPoint
 10
26.91642803533063
 20
19.82930009828179
 30
0.0
  0
POINT
  5
5979
330
2513
100
AcDbEntity
  8
Defpoints
 62
     0
100
AcDbPoint
 10
22.79142803533062
 20
20.68032858997411
 30
0.0
  0
POINT
  5
597A
330
2513
100
AcDbEntity
  8
Defpoints
 62
     0
100
AcDbPoint
 10
22.79142803533062
 20
18.31857490172058
 30
0.0
  0
ENDBLK
  5
251C
330
2513
100
AcDbEntity
  8
0
100
AcDbBlockEnd
  0
BLOCK
  5
2525
330
251D
100
AcDbEntity
  8
0
100
AcDbBlockBegin
  2
*D10
 70
     1
 10
0.0
 20
0.0
 30
0.0
  3
*D10
  1

  0
LINE
  5
5982
330
251D
100
AcDbEntity
  8
0
100
AcDbLine
 10
22.54142803533063
 20
20.18032858997411
 30
0.0
 11
22.54142803533063
 21
17.06857490172058
 31
0.0
  0
LINE
  5
5983
330
251D
100
AcDbEntity
  8
0
100
AcDbLine
 10
26.91642803533063
 20
17.31857490172058
 30
0.0
 11
22.76017803533063
 21
17.31857490172058
 31
0.0
  0
MTEXT
  5
5984
330
251D
100
AcDbEntity
  8
0
 62
   255
100
AcDbMText
 10
25.17209093687481
 20
17.0487045060862
 30
0.0
 40
0.28
 41
0.0
 71
     5
 72
     1
  1
\A1;ROUGH OPENING
 73
     1
 44
1.0
1001
ACAD
1000
MTEXTBEGIN
1070
    73
1070
     1
1070
    44
1040
1.0
1070
    74
1070
     0
1000
MTEXTEND
  0
SOLID
  5
5985
330
251D
100
AcDbEntity
  8
0
100
AcDbTrace
 10
22.76017803533063
 20
17.35503323505392
 30
0.0
 11
22.76017803533063
 21
17.28211656838725
 31
0.0
 12
22.54142803533063
 22
17.31857490172058
 32
0.0
 13
22.54142803533063
 23
17.31857490172058
 33
0.0
  0
POINT
  5
5986
330
251D
100
AcDbEntity
  8
Defpoints
 62
     0
100
AcDbPoint
 10
26.91642803533063
 20
19.82930009828179
 30
0.0
  0
POINT
  5
5987
330
251D
100
AcDbEntity
  8
Defpoints
 62
     0
100
AcDbPoint
 10
22.54142803533063
 20
20.68032858997411
 30
0.0
  0
POINT
  5
5988
330
251D
100
AcDbEntity
  8
Defpoints
 62
     0
100
AcDbPoint
 10
22.54142803533063
 20
17.31857490172058
 30
0.0
  0
ENDBLK
  5
2526
330
251D
100
AcDbEntity
  8
0
100
AcDbBlockEnd
  0
BLOCK
  5
2599
330
2598
100
AcDbEntity
  8
0
100
AcDbBlockBegin
  2
*D11
 70
     1
 10
0.0
 20
0.0
 30
0.0
  3
*D11
  1

  0
LINE
  5
5993
330
2598
100
AcDbEntity
  8
0
100
AcDbLine
 10
22.79142803533062
 20
20.18032858997411
 30
0.0
 11
22.79142803533062
 21
18.06857490172058
 31
0.0
  0
LINE
  5
5994
330
2598
100
AcDbEntity
  8
0
100
AcDbLine
 10
22.54142803533063
 20
20.18032858997411
 30
0.0
 11
22.54142803533063
 21
18.06857490172058
 31
0.0
  0
LINE
  5
5995
330
2598
100
AcDbEntity
  8
0
100
AcDbLine
 10
23.01017803533063
 20
18.31857490172058
 30
0.0
 11
23.22892803533063
 21
18.31857490172058
 31
0.0
  0
LINE
  5
5996
330
2598
100
AcDbEntity
  8
0
100
AcDbLine
 10
22.32267803533062
 20
18.31857490172058
 30
0.0
 11
22.10392803533062
 21
18.31857490172058
 31
0.0
  0
MTEXT
  5
5997
330
2598
100
AcDbEntity
  8
0
 62
   255
100
AcDbMText
 10
21.50703385966895
 20
18.31857490172058
 30
0.0
 40
0.28
 41
0.0
 71
     5
 72
     1
  1
\A1;1/4"\P [6]
 73
     1
 44
1.0
1001
ACAD
1000
MTEXTBEGIN
1070
    73
1070
     1
1070
    44
1040
1.0
1070
    74
1070
     0
1000
MTEXTEND
  0
SOLID
  5
5998
330
2598
100
AcDbEntity
  8
0
100
AcDbTrace
 10
23.01017803533063
 20
18.35503323505391
 30
0.0
 11
23.01017803533063
 21
18.28211656838725
 31
0.0
 12
22.79142803533062
 22
18.31857490172058
 32
0.0
 13
22.79142803533062
 23
18.31857490172058
 33
0.0
  0
SOLID
  5
5999
330
2598
100
AcDbEntity
  8
0
100
AcDbTrace
 10
22.32267803533062
 20
18.35503323505391
 30
0.0
 11
22.32267803533062
 21
18.28211656838725
 31
0.0
 12
22.54142803533063
 22
18.31857490172058
 32
0.0
 13
22.54142803533063
 23
18.31857490172058
 33
0.0
  0
POINT
  5
599A
330
2598
100
AcDbEntity
  8
Defpoints
 62
     0
100
AcDbPoint
 10
22.79142803533062
 20
20.68032858997411
 30
0.0
  0
POINT
  5
599B
330
2598
100
AcDbEntity
  8
Defpoints
 62
     0
100
AcDbPoint
 10
22.54142803533063
 20
20.68032858997411
 30
0.0
  0
POINT
  5
599C
330
2598
100
AcDbEntity
  8
Defpoints
 62
     0
100
AcDbPoint
 10
22.54142803533063
 20
18.31857490172058
 30
0.0
  0
ENDBLK
  5
259A
330
2598
100
AcDbEntity
  8
0
100
AcDbBlockEnd
  0
BLOCK
  5
25C2
330
25C1
100
AcDbEntity
  8
0
100
AcDbBlockBegin
  2
*D12
 70
     1
 10
0.0
 20
0.0
 30
0.0
  3
*D12
  1

  0
LINE
  5
5947
330
25C1
100
AcDbEntity
  8
0
100
AcDbLine
 10
8.080503688253514
 20
27.73800000000118
 30
0.0
 11
5.968749999999982
 21
27.73800000000119
 31
0.0
  0
LINE
  5
5948
330
25C1
100
AcDbEntity
  8
0
100
AcDbLine
 10
8.080503688253514
 20
27.98800000000119
 30
0.0
 11
5.968749999999982
 21
27.9880000000012
 31
0.0
  0
LINE
  5
5949
330
25C1
100
AcDbEntity
  8
0
100
AcDbLine
 10
6.218749999999981
 20
27.51925000000118
 30
0.0
 11
6.218749999999981
 21
27.30050000000118
 31
0.0
  0
LINE
  5
594A
330
25C1
100
AcDbEntity
  8
0
100
AcDbLine
 10
6.218749999999982
 20
28.2067500000012
 30
0.0
 11
6.218749999999982
 21
28.4255000000012
 31
0.0
  0
MTEXT
  5
594B
330
25C1
100
AcDbEntity
  8
0
 62
   255
100
AcDbMText
 10
6.238077684694943
 20
29.06614900933686
 30
0.0
 40
0.28
 41
0.0
 71
     5
 72
     1
  1
\A1;1/4"\P [6]
 11
0.0000000000000001
 21
1.0
 31
0.0
 73
     1
 44
1.0
1001
ACAD
1000
MTEXTBEGIN
1070
    73
1070
     1
1070
    44
1040
1.0
1070
    74
1070
     0
1000
MTEXTEND
  0
SOLID
  5
594C
330
25C1
100
AcDbEntity
  8
0
100
AcDbTrace
 10
6.182291666666648
 20
27.51925000000118
 30
0.0
 11
6.255208333333314
 21
27.51925000000118
 31
0.0
 12
6.218749999999982
 22
27.73800000000119
 32
0.0
 13
6.218749999999982
 23
27.73800000000119
 33
0.0
  0
SOLID
  5
594D
330
25C1
100
AcDbEntity
  8
0
100
AcDbTrace
 10
6.182291666666649
 20
28.2067500000012
 30
0.0
 11
6.255208333333315
 21
28.2067500000012
 31
0.0
 12
6.218749999999982
 22
27.9880000000012
 32
0.0
 13
6.218749999999982
 23
27.9880000000012
 33
0.0
  0
POINT
  5
594E
330
25C1
100
AcDbEntity
  8
Defpoints
 62
     0
100
AcDbPoint
 10
8.580503688253514
 20
27.73800000000118
 30
0.0
  0
POINT
  5
594F
330
25C1
100
AcDbEntity
  8
Defpoints
 62
     0
100
AcDbPoint
 10
8.580503688253514
 20
27.98800000000119
 30
0.0
  0
POINT
  5
5950
330
25C1
100
AcDbEntity
  8
Defpoints
 62
     0
100
AcDbPoint
 10
6.218749999999982
 20
27.9880000000012
 30
0.0
  0
ENDBLK
  5
25C3
330
25C1
100
AcDbEntity
  8
0
100
AcDbBlockEnd
  0
BLOCK
  5
25CF
330
25CE
100
AcDbEntity
  8
0
100
AcDbBlockBegin
  2
*D13
 70
     1
 10
0.0
 20
0.0
 30
0.0
  3
*D13
  1

  0
LINE
  5
5958
330
25CE
100
AcDbEntity
  8
0
100
AcDbLine
 10
8.080503688253514
 20
27.98800000000119
 30
0.0
 11
4.968749999999982
 21
27.9880000000012
 31
0.0
  0
LINE
  5
5959
330
25CE
100
AcDbEntity
  8
0
100
AcDbLine
 10
5.218749999999981
 20
23.73800000000119
 30
0.0
 11
5.218749999999982
 21
27.7692500000012
 31
0.0
  0
MTEXT
  5
595A
330
25CE
100
AcDbEntity
  8
0
 62
   255
100
AcDbMText
 10
4.9488796043656
 20
25.62189007198303
 30
0.0
 40
0.28
 41
0.0
 71
     5
 72
     1
  1
\A1;ROUGH OPENING
 11
0.0000000000000001
 21
1.0
 31
0.0
 73
     1
 44
1.0
1001
ACAD
1000
MTEXTBEGIN
1070
    73
1070
     1
1070
    44
1040
1.0
1070
    74
1070
     0
1000
MTEXTEND
  0
SOLID
  5
595B
330
25CE
100
AcDbEntity
  8
0
100
AcDbTrace
 10
5.182291666666649
 20
27.7692500000012
 30
0.0
 11
5.255208333333315
 21
27.7692500000012
 31
0.0
 12
5.218749999999982
 22
27.9880000000012
 32
0.0
 13
5.218749999999982
 23
27.9880000000012
 33
0.0
  0
POINT
  5
595C
330
25CE
100
AcDbEntity
  8
Defpoints
 62
     0
100
AcDbPoint
 10
6.935050098280611
 20
23.73800000000119
 30
0.0
  0
POINT
  5
595D
330
25CE
100
AcDbEntity
  8
Defpoints
 62
     0
100
AcDbPoint
 10
8.580503688253514
 20
27.98800000000119
 30
0.0
  0
POINT
  5
595E
330
25CE
100
AcDbEntity
  8
Defpoints
 62
     0
100
AcDbPoint
 10
5.218749999999982
 20
27.9880000000012
 30
0.0
  0
ENDBLK
  5
25D0
330
25CE
100
AcDbEntity
  8
0
100
AcDbBlockEnd
  0
BLOCK
  5
25D9
330
25D8
100
AcDbEntity
  8
0
100
AcDbBlockBegin
  2
*D14
 70
     1
 10
0.0
 20
0.0
 30
0.0
  3
*D14
  1

  0
LINE
  5
5966
330
25D8
100
AcDbEntity
  8
0
100
AcDbLine
 10
8.080503688253514
 20
27.73800000000119
 30
0.0
 11
5.968749999999982
 21
27.73800000000119
 31
0.0
  0
LINE
  5
5967
330
25D8
100
AcDbEntity
  8
0
100
AcDbLine
 10
6.218749999999981
 20
23.73800000000119
 30
0.0
 11
6.218749999999981
 21
27.51925000000119
 31
0.0
  0
MTEXT
  5
5968
330
25D8
100
AcDbEntity
  8
0
 62
   255
100
AcDbMText
 10
5.953749999999985
 20
24.63049629228523
 30
0.0
 40
0.28
 41
0.0
 71
     5
 72
     1
  1
\A1;FRAME
 11
0.0000000000000001
 21
1.0
 31
0.0
 73
     1
 44
1.0
1001
ACAD
1000
MTEXTBEGIN
1070
    73
1070
     1
1070
    44
1040
1.0
1070
    74
1070
     0
1000
MTEXTEND
  0
SOLID
  5
5969
330
25D8
100
AcDbEntity
  8
0
100
AcDbTrace
 10
6.182291666666648
 20
27.51925000000119
 30
0.0
 11
6.255208333333314
 21
27.51925000000119
 31
0.0
 12
6.218749999999982
 22
27.73800000000119
 32
0.0
 13
6.218749999999982
 23
27.73800000000119
 33
0.0
  0
POINT
  5
596A
330
25D8
100
AcDbEntity
  8
Defpoints
 62
     0
100
AcDbPoint
 10
6.935050098280611
 20
23.73800000000119
 30
0.0
  0
POINT
  5
596B
330
25D8
100
AcDbEntity
  8
Defpoints
 62
     0
100
AcDbPoint
 10
8.580503688253514
 20
27.73800000000119
 30
0.0
  0
POINT
  5
596C
330
25D8
100
AcDbEntity
  8
Defpoints
 62
     0
100
AcDbPoint
 10
6.218749999999982
 20
27.73800000000119
 30
0.0
  0
ENDBLK
  5
25DA
330
25D8
100
AcDbEntity
  8
0
100
AcDbBlockEnd
  0
BLOCK
  5
25E3
330
25E2
100
AcDbEntity
  8
0
100
AcDbBlockBegin
  2
*D15
 70
     1
 10
0.0
 20
0.0
 30
0.0
  3
*D15
  1

  0
LINE
  5
59A7
330
25E2
100
AcDbEntity
  8
0
100
AcDbLine
 10
8.080503688253543
 20
18.23800000000119
 30
0.0
 11
5.968749999999996
 21
18.23800000000119
 31
0.0
  0
LINE
  5
59A8
330
25E2
100
AcDbEntity
  8
0
100
AcDbLine
 10
8.081739034701058
 20
18.48800610447363
 30
0.0
 11
5.968749999999996
 21
18.48800610447363
 31
0.0
  0
LINE
  5
59A9
330
25E2
100
AcDbEntity
  8
0
100
AcDbLine
 10
6.218749999999996
 20
18.01925000000119
 30
0.0
 11
6.218749999999996
 21
17.8005000000012
 31
0.0
  0
LINE
  5
59AA
330
25E2
100
AcDbEntity
  8
0
100
AcDbLine
 10
6.218749999999996
 20
18.70675610447364
 30
0.0
 11
6.218749999999996
 21
18.92550610447363
 31
0.0
  0
MTEXT
  5
59AB
330
25E2
100
AcDbEntity
  8
0
 62
   255
100
AcDbMText
 10
6.21875
 20
17.17067806816195
 30
0.0
 40
0.28
 41
0.0
 71
     5
 72
     1
  1
\A1;1/4"\P [6]
 11
0.0000000000000001
 21
1.0
 31
0.0
 73
     1
 44
1.0
1001
ACAD
1000
MTEXTBEGIN
1070
    73
1070
     1
1070
    44
1040
1.0
1070
    74
1070
     0
1000
MTEXTEND
  0
SOLID
  5
59AC
330
25E2
100
AcDbEntity
  8
0
100
AcDbTrace
 10
6.182291666666663
 20
18.01925000000119
 30
0.0
 11
6.255208333333329
 21
18.01925000000119
 31
0.0
 12
6.218749999999996
 22
18.23800000000119
 32
0.0
 13
6.218749999999996
 23
18.23800000000119
 33
0.0
  0
SOLID
  5
59AD
330
25E2
100
AcDbEntity
  8
0
100
AcDbTrace
 10
6.182291666666663
 20
18.70675610447364
 30
0.0
 11
6.255208333333329
 21
18.70675610447364
 31
0.0
 12
6.218749999999996
 22
18.48800610447363
 32
0.0
 13
6.218749999999996
 23
18.48800610447363
 33
0.0
  0
POINT
  5
59AE
330
25E2
100
AcDbEntity
  8
Defpoints
 62
     0
100
AcDbPoint
 10
8.580503688253543
 20
18.23800000000119
 30
0.0
  0
POINT
  5
59AF
330
25E2
100
AcDbEntity
  8
Defpoints
 62
     0
100
AcDbPoint
 10
8.581739034701058
 20
18.48800610447363
 30
0.0
  0
POINT
  5
59B0
330
25E2
100
AcDbEntity
  8
Defpoints
 62
     0
100
AcDbPoint
 10
6.218749999999996
 20
18.48800610447363
 30
0.0
  0
ENDBLK
  5
25E4
330
25E2
100
AcDbEntity
  8
0
100
AcDbBlockEnd
  0
BLOCK
  5
25F0
330
25EF
100
AcDbEntity
  8
0
100
AcDbBlockBegin
  2
*D16
 70
     1
 10
0.0
 20
0.0
 30
0.0
  3
*D16
  1

  0
LINE
  5
59B8
330
25EF
100
AcDbEntity
  8
0
100
AcDbLine
 10
8.081739034701058
 20
18.48800610447363
 30
0.0
 11
5.968749999999992
 21
18.48800610447363
 31
0.0
  0
LINE
  5
59B9
330
25EF
100
AcDbEntity
  8
0
100
AcDbLine
 10
6.218749999999992
 20
18.70675610447364
 30
0.0
 11
6.218749999999992
 21
22.4880000000012
 31
0.0
  0
MTEXT
  5
59BA
330
25EF
100
AcDbEntity
  8
0
 62
   255
100
AcDbMText
 10
5.953749999999999
 20
21.58449386623634
 30
0.0
 40
0.28
 41
0.0
 71
     5
 72
     1
  1
\A1;FRAME
 11
0.0000000000000001
 21
1.0
 31
0.0
 73
     1
 44
1.0
1001
ACAD
1000
MTEXTBEGIN
1070
    73
1070
     1
1070
    44
1040
1.0
1070
    74
1070
     0
1000
MTEXTEND
  0
SOLID
  5
59BB
330
25EF
100
AcDbEntity
  8
0
100
AcDbTrace
 10
6.182291666666659
 20
18.70675610447364
 30
0.0
 11
6.255208333333325
 21
18.70675610447364
 31
0.0
 12
6.218749999999992
 22
18.48800610447363
 32
0.0
 13
6.218749999999992
 23
18.48800610447363
 33
0.0
  0
POINT
  5
59BC
330
25EF
100
AcDbEntity
  8
Defpoints
 62
     0
100
AcDbPoint
 10
8.581739034701058
 20
18.48800610447363
 30
0.0
  0
POINT
  5
59BD
330
25EF
100
AcDbEntity
  8
Defpoints
 62
     0
100
AcDbPoint
 10
6.935050098280624
 20
22.4880000000012
 30
0.0
  0
POINT
  5
59BE
330
25EF
100
AcDbEntity
  8
Defpoints
 62
     0
100
AcDbPoint
 10
6.218749999999992
 20
22.4880000000012
 30
0.0
  0
ENDBLK
  5
25F1
330
25EF
100
AcDbEntity
  8
0
100
AcDbBlockEnd
  0
BLOCK
  5
25FA
330
25F9
100
AcDbEntity
  8
0
100
AcDbBlockBegin
  2
*D17
 70
     1
 10
0.0
 20
0.0
 30
0.0
  3
*D17
  1

  0
LINE
  5
59C6
330
25F9
100
AcDbEntity
  8
0
100
AcDbLine
 10
8.080503688253543
 20
18.23800000000119
 30
0.0
 11
4.968749999999996
 21
18.23800000000119
 31
0.0
  0
LINE
  5
59C7
330
25F9
100
AcDbEntity
  8
0
100
AcDbLine
 10
5.218749999999996
 20
22.4880000000012
 30
0.0
 11
5.218749999999996
 21
18.4567500000012
 31
0.0
  0
MTEXT
  5
59C8
330
25F9
100
AcDbEntity
  8
0
 62
   255
100
AcDbMText
 10
4.948879604365615
 20
20.58675396943708
 30
0.0
 40
0.28
 41
0.0
 71
     5
 72
     1
  1
\A1;ROUGH OPENING
 11
0.0000000000000001
 21
1.0
 31
0.0
 73
     1
 44
1.0
1001
ACAD
1000
MTEXTBEGIN
1070
    73
1070
     1
1070
    44
1040
1.0
1070
    74
1070
     0
1000
MTEXTEND
  0
SOLID
  5
59C9
330
25F9
100
AcDbEntity
  8
0
100
AcDbTrace
 10
5.182291666666663
 20
18.4567500000012
 30
0.0
 11
5.255208333333329
 21
18.4567500000012
 31
0.0
 12
5.218749999999996
 22
18.23800000000119
 32
0.0
 13
5.218749999999996
 23
18.23800000000119
 33
0.0
  0
POINT
  5
59CA
330
25F9
100
AcDbEntity
  8
Defpoints
 62
     0
100
AcDbPoint
 10
6.935050098280624
 20
22.4880000000012
 30
0.0
  0
POINT
  5
59CB
330
25F9
100
AcDbEntity
  8
Defpoints
 62
     0
100
AcDbPoint
 10
8.580503688253543
 20
18.23800000000119
 30
0.0
  0
POINT
  5
59CC
330
25F9
100
AcDbEntity
  8
Defpoints
 62
     0
100
AcDbPoint
 10
5.218749999999996
 20
18.23800000000119
 30
0.0
  0
ENDBLK
  5
25FB
330
25F9
100
AcDbEntity
  8
0
100
AcDbBlockEnd
  0
BLOCK
  5
4DDA
330
4DD3
100
AcDbEntity
  8
0
100
AcDbBlockBegin
  2
30AY
 70
     0
 10
0.0
 20
0.0
 30
0.0
  3
30AY
  1

  0
POINT
  5
4DD4
330
4DD3
100
AcDbEntity
  8
Pel_Points
100
AcDbPoint
 10
0.0
 20
0.0
 30
0.0
  0
LWPOLYLINE
  5
4DD5
102
{ACAD_REACTORS
330
4DD6
102
}
330
4DD3
100
AcDbEntity
  8
Pel_CS-Cross Section
 62
     3
100
AcDbPolyline
 90
       10
 70
     1
 43
0.0
 10
-0.0856840005828126
 20
0.3440206771484231
 10
-2.329824243307291
 20
0.6486369363310365
 42
0.4543042462927113
 10
-2.5
 20
0.5
 10
-2.5
 20
0.0
 10
-1.952999999999999
 20
0.0
 42
-0.4142135623730951
 10
-1.902999999999998
 20
0.0499999999999998
 10
-0.6199999999999993
 20
0.0499999999999998
 42
-0.4142135623730848
 10
-0.5700000000000003
 20
0.0
 10
0.0
 20
0.0
 10
0.0
 20
0.245920299169939
 42
0.3752280549949348
  0
HATCH
  5
4DD6
330
4DD3
100
AcDbEntity
  8
Pel_Hatch
 62
     2
100
AcDbHatch
 10
0.0
 20
0.0
 30
0.0
210
0.0
220
0.0
230
1.0
  2
WOOD
 70
     0
 71
     1
 91
        1
 92
        1
 93
       10
 72
     1
 10
-0.0856840005828126
 20
0.3440206771484231
 11
-2.329824243307291
 21
0.6486369363310365
 72
     2
 10
-2.35
 20
0.4999999999999999
 40
0.1500000000000001
 50
82.26999999999978
 51
179.9999999999999
 73
     1
 72
     1
 10
-2.5
 20
0.5
 11
-2.5
 21
0.0
 72
     1
 10
-2.5
 20
0.0
 11
-1.952999999999999
 21
0.0
 72
     2
 10
-1.902999999999999
 20
-0.0000000000000004
 40
0.0500000000000003
 50
180.0000000000005
 51
270.0000000000005
 73
     0
 72
     1
 10
-1.902999999999998
 20
0.0499999999999998
 11
-0.6199999999999993
 21
0.0499999999999998
 72
     2
 10
-0.6200000000000006
 20
-0.0000000000000004
 40
0.0500000000000003
 50
270.0000000000015
 51
359.9999999999995
 73
     0
 72
     1
 10
-0.5700000000000003
 20
0.0
 11
0.0
 21
0.0
 72
     1
 10
0.0
 20
0.0
 11
0.0
 21
0.245920299169939
 72
     2
 10
-0.0990000000000001
 20
0.2459202991699388
 40
0.0990000000000001
 50
0.0000000000000803
 51
82.27000000000002
 73
     1
 97
        1
330
4DD5
 75
     0
 76
     1
 52
315.0
 41
0.14
 77
     0
 78
    12
 53
45.0
 43
1.684312581847876
 44
1.505394773761148
 45
0.7919595949289332
 46
-0.0000000000000003
 79
     2
 49
0.5600000000000001
 49
-5.04
 53
45.0
 43
2.971246923607393
 44
2.594339216788431
 45
0.7919595949289332
 46
-0.0000000000000003
 79
     2
 49
0.5600000000000001
 49
-2.24
 53
18.43494881999999
 43
1.28833278438341
 44
1.901374571225614
 45
0.7919595586260603
 46
0.0000000442314982
 79
     2
 49
1.25219808
 49
-11.26978258
 53
59.03624347000002
 43
-0.0975965067422236
 44
0.1194654826355155
 45
0.7919596908495017
 46
0.0000000240384626
 79
     2
 49
0.5772348400000001
 49
-4.04064346
 53
59.03624347000002
 43
0.5953681388205931
 44
1.010420026930565
 45
0.7919596908495017
 46
0.0000000240384626
 79
     2
 49
0.5772348400000001
 49
-4.04064346
 53
59.03624347000002
 43
0.1993883413561261
 44
-0.969478960391768
 45
0.7919596908495017
 46
0.0000000240384626
 79
     2
 49
0.5772348400000001
 49
-4.04064346
 53
30.96375652999997
 43
2.476272176776809
 44
2.297354368690081
 45
0.7919596908495016
 46
-0.000000024038463
 79
     2
 49
0.5772348400000001
 49
-22.51215666
 53
30.96375652999997
 43
9.603908531137211
 44
6.257152343334746
 45
0.7919596908495016
 46
-0.000000024038463
 79
     2
 49
0.5772348400000001
 49
-22.51215666
 53
30.96375652999997
 43
15.93958529056868
 44
10.21695031797941
 45
0.7919596908495016
 46
-0.000000024038463
 79
     2
 49
0.5772348400000001
 49
-22.51215666
 53
71.56505118000001
 43
3.66421156917021
 44
3.485293761083481
 45
0.7919595586260603
 46
-0.0000000442314985
 79
     2
 49
0.6260990400000001
 49
-11.89588162
 53
71.56505118000001
 43
1.288332784383408
 44
-4.434302188205851
 45
0.7919595586260603
 46
-0.0000000442314985
 79
     2
 49
0.6260990400000001
 49
-11.89588162
 53
71.56505118000001
 43
2.872251974241276
 44
-0.4745042135611853
 45
0.7919595586260603
 46
-0.0000000442314985
 79
     2
 49
0.6260990400000001
 49
-11.89588162
 98
        1
 10
1.88230248058011
 20
2.099364469957848
1001
ACAD
1010
0.0
1020
0.0
1030
0.0
  0
ENDBLK
  5
4DDB
330
4DD3
100
AcDbEntity
  8
0
100
AcDbBlockEnd
  0
BLOCK
  5
4DE2
330
4DDD
100
AcDbEntity
  8
0
100
AcDbBlockBegin
  2
Nail
 70
     0
 10
0.0
 20
0.0
 30
0.0
  3
Nail
  1

  0
LINE
  5
4DDE
330
4DDD
100
AcDbEntity
  8
Pel_Wall
100
AcDbLine
 10
-0.03125
 20
-0.125
 30
0.0
 11
-0.03125
 21
0.125
 31
0.0
  0
LINE
  5
4DDF
330
4DDD
100
AcDbEntity
  8
Pel_Wall
100
AcDbLine
 10
-0.0625
 20
0.0
 30
0.0
 11
0.375
 21
0.0
 31
0.0
  0
LINE
  5
4DE0
330
4DDD
100
AcDbEntity
  8
Pel_Wall
100
AcDbLine
 10
0.625
 20
0.0
 30
0.0
 11
1.0
 21
0.0
 31
0.0
  0
LINE
  5
4DE1
330
4DDD
100
AcDbEntity
  8
Pel_Wall
100
AcDbLine
 10
0.4375
 20
0.0
 30
0.0
 11
0.5625
 21
0.0
 31
0.0
  0
ENDBLK
  5
4DE3
330
4DDD
100
AcDbEntity
  8
0
100
AcDbBlockEnd
  0
BLOCK
  5
50E6
330
50BF
100
AcDbEntity
  8
0
100
AcDbBlockBegin
  2
FOAM1
 70
     0
 10
0.0
 20
0.0
 30
0.0
  3
FOAM1
  1

  0
CIRCLE
  5
50C0
330
50BF
100
AcDbEntity
  8
Pel_Wall
100
AcDbCircle
 10
-0.9176706554390658
 20
0.1871400087258763
 30
0.0
 40
0.0339494177336776
  0
POLYLINE
  5
50C1
330
50BF
100
AcDbEntity
  8
Pel_Wall
100
AcDb2dPolyline
 66
     1
 10
0.0
 20
0.0
 30
0.0
 70
     1
  0
VERTEX
  5
5239
330
50C1
100
AcDbEntity
  8
Pel_Wall
100
AcDbVertex
100
AcDb2dVertex
 10
-0.9663340791021148
 20
0.25
 30
0.0
  0
VERTEX
  5
523A
330
50C1
100
AcDbEntity
  8
Pel_Wall
100
AcDbVertex
100
AcDb2dVertex
 10
-0.0913340791021149
 20
0.25
 30
0.0
 42
-0.5
  0
VERTEX
  5
523B
330
50C1
100
AcDbEntity
  8
Pel_Wall
100
AcDbVertex
100
AcDb2dVertex
 10
-0.0913340791021149
 20
0.0
 30
0.0
  0
VERTEX
  5
523C
330
50C1
100
AcDbEntity
  8
Pel_Wall
100
AcDbVertex
100
AcDb2dVertex
 10
-0.9663340791021148
 20
0.0
 30
0.0
 42
-0.5
  0
VERTEX
  5
523D
330
50C1
100
AcDbEntity
  8
Pel_Wall
100
AcDbVertex
100
AcDb2dVertex
 10
-0.9663340791021148
 20
0.25
 30
0.0
  0
SEQEND
  5
523E
330
50C1
100
AcDbEntity
  8
Pel_Wall
  0
CIRCLE
  5
50C8
330
50BF
100
AcDbEntity
  8
Pel_Wall
100
AcDbCircle
 10
-0.7845446424229561
 20
0.0427072008606757
 30
0.0
 40
0.0339494177336776
  0
CIRCLE
  5
50C9
330
50BF
100
AcDbEntity
  8
Pel_Wall
100
AcDbCircle
 10
-0.5856673697262576
 20
0.1498146771560975
 30
0.0
 40
0.0339494177336776
  0
CIRCLE
  5
50CA
330
50BF
100
AcDbEntity
  8
Pel_Wall
100
AcDbCircle
 10
-0.496375532261208
 20
0.0735411711552665
 30
0.0
 40
0.0339494177336776
  0
CIRCLE
  5
50CB
330
50BF
100
AcDbEntity
  8
Pel_Wall
100
AcDbCircle
 10
-0.3535085913448626
 20
0.2058026762057494
 30
0.0
 40
0.0339494177336776
  0
CIRCLE
  5
50CC
330
50BF
100
AcDbEntity
  8
Pel_Wall
100
AcDbCircle
 10
-0.1315291001929619
 20
0.1782143865487491
 30
0.0
 40
0.0339494177336776
  0
CIRCLE
  5
50CD
330
50BF
100
AcDbEntity
  8
Pel_Wall
100
AcDbCircle
 10
-0.2623088377093943
 20
0.0661543561877913
 30
0.0
 40
0.0339494177336776
  0
CIRCLE
  5
50CE
330
50BF
100
AcDbEntity
  8
Pel_Wall
100
AcDbCircle
 10
-0.1302906661175172
 20
0.0272807915978639
 30
0.0
 40
0.0166728848683996
  0
CIRCLE
  5
50CF
330
50BF
100
AcDbEntity
  8
Pel_Wall
100
AcDbCircle
 10
-0.0750272454511478
 20
0.0988899909540315
 30
0.0
 40
0.0166728848683996
  0
CIRCLE
  5
50D0
330
50BF
100
AcDbEntity
  8
Pel_Wall
100
AcDbCircle
 10
-0.1620159615462811
 20
0.0968440137811442
 30
0.0
 40
0.0166728848683996
  0
CIRCLE
  5
50D1
330
50BF
100
AcDbEntity
  8
Pel_Wall
100
AcDbCircle
 10
-0.1988582419905249
 20
0.2257405739782321
 30
0.0
 40
0.0166728848683996
  0
CIRCLE
  5
50D2
330
50BF
100
AcDbEntity
  8
Pel_Wall
100
AcDbCircle
 10
-0.283800167968538
 20
0.1940279286459265
 30
0.0
 40
0.0166728848683996
  0
CIRCLE
  5
50D3
330
50BF
100
AcDbEntity
  8
Pel_Wall
100
AcDbCircle
 10
-0.2346771273762123
 20
0.1295796485473843
 30
0.0
 40
0.0166728848683996
  0
CIRCLE
  5
50D4
330
50BF
100
AcDbEntity
  8
Pel_Wall
100
AcDbCircle
 10
-0.3646485039896294
 20
0.1295796485473843
 30
0.0
 40
0.0166728848683996
  0
CIRCLE
  5
50D5
330
50BF
100
AcDbEntity
  8
Pel_Wall
100
AcDbCircle
 10
-0.3564613313677984
 20
0.0426256195470494
 30
0.0
 40
0.0166728848683996
  0
CIRCLE
  5
50D6
330
50BF
100
AcDbEntity
  8
Pel_Wall
100
AcDbCircle
 10
-0.4311692897455189
 20
0.0344417108554893
 30
0.0
 40
0.0166728848683996
  0
CIRCLE
  5
50D7
330
50BF
100
AcDbEntity
  8
Pel_Wall
100
AcDbCircle
 10
-0.4352628748411007
 20
0.1561773517949554
 30
0.0
 40
0.0166728848683996
  0
CIRCLE
  5
50D8
330
50BF
100
AcDbEntity
  8
Pel_Wall
100
AcDbCircle
 10
-0.5007602631077593
 20
0.227786551151123
 30
0.0
 40
0.0166728848683996
  0
CIRCLE
  5
50D9
330
50BF
100
AcDbEntity
  8
Pel_Wall
100
AcDbCircle
 10
-0.5969595517446234
 20
0.0364876880283767
 30
0.0
 40
0.0166728848683996
  0
CIRCLE
  5
50DA
330
50BF
100
AcDbEntity
  8
Pel_Wall
100
AcDbCircle
 10
-0.6675739225960946
 20
0.1786831006967446
 30
0.0
 40
0.0166728848683996
  0
CIRCLE
  5
50DB
330
50BF
100
AcDbEntity
  8
Pel_Wall
100
AcDbCircle
 10
-0.7365519852960567
 20
0.2308906056383861
 30
0.0
 40
0.0166728848683996
  0
CIRCLE
  5
50DC
330
50BF
100
AcDbEntity
  8
Pel_Wall
100
AcDbCircle
 10
-0.6911224000607259
 20
0.0964900534943816
 30
0.0
 40
0.0166728848683996
  0
CIRCLE
  5
50DD
330
50BF
100
AcDbEntity
  8
Pel_Wall
100
AcDbCircle
 10
-0.7042203711842828
 20
0.0326629073573948
 30
0.0
 40
0.0166728848683996
  0
CIRCLE
  5
50DE
330
50BF
100
AcDbEntity
  8
Pel_Wall
100
AcDbCircle
 10
-0.7746219659734006
 20
0.1390414859473594
 30
0.0
 40
0.0166728848683996
  0
CIRCLE
  5
50DF
330
50BF
100
AcDbEntity
  8
Pel_Wall
100
AcDbCircle
 10
-0.8646705150171847
 20
0.2208711606123437
 30
0.0
 40
0.0166728848683996
  0
CIRCLE
  5
50E0
330
50BF
100
AcDbEntity
  8
Pel_Wall
100
AcDbCircle
 10
-0.9989247190336421
 20
0.1374048916743682
 30
0.0
 40
0.0166728848683996
  0
CIRCLE
  5
50E1
330
50BF
100
AcDbEntity
  8
Pel_Wall
100
AcDbCircle
 10
-0.8630332686267401
 20
0.1308585179723671
 30
0.0
 40
0.0166728848683996
  0
CIRCLE
  5
50E2
330
50BF
100
AcDbEntity
  8
Pel_Wall
100
AcDbCircle
 10
-0.941621095368081
 20
0.0883070872143748
 30
0.0
 40
0.0166728848683996
  0
CIRCLE
  5
50E3
330
50BF
100
AcDbEntity
  8
Pel_Wall
100
AcDbCircle
 10
-0.8630332686267401
 20
0.031026314779389
 30
0.0
 40
0.0166728848683996
  0
CIRCLE
  5
50E4
330
50BF
100
AcDbEntity
  8
Pel_Wall
100
AcDbCircle
 10
-0.9465328345394148
 20
0.0326629073573948
 30
0.0
 40
0.0166728848683996
  0
ENDBLK
  5
50E7
330
50BF
100
AcDbEntity
  8
0
100
AcDbBlockEnd
  0
ENDSEC
  0
SECTION
  2
ENTITIES
  0
INSERT
  5
33
330
2
100
AcDbEntity
  8
0
100
AcDbBlockReference
  2
Td--2xwstuc-fS2
 10
8.71875
 20
18.48800000000119
 30
0.0
  0
INSERT
  5
1BF
330
2
100
AcDbEntity
  8
0
100
AcDbBlockReference
  2
clip
 10
22.94042803533061
 20
23.21013447258662
 30
0.0
 41
-1.0
  0
INSERT
  5
1D2
330
2
100
AcDbEntity
  8
0
100
AcDbBlockReference
  2
TSE 10 SH VLJ
 10
22.79142803533062
 20
20.78013447258662
 30
0.0
 50
90.0
  0
INSERT
  5
284
330
2
100
AcDbEntity
  8
0
100
AcDbBlockReference
  2
clip
 10
11.14875
 20
18.63700000000119
 30
0.0
 50
270.0
  0
INSERT
  5
29F
330
2
100
AcDbEntity
  8
0
100
AcDbBlockReference
  2
TSE 10 SW VS
 10
8.71875
 20
18.48800000000119
 30
0.0
  0
INSERT
  5
32A
330
2
100
AcDbEntity
  8
0
100
AcDbBlockReference
  2
TSE 10 SH FH
 10
8.698121004366289
 20
27.73800000000119
 30
0.0
  0
INSERT
  5
343
330
2
100
AcDbEntity
  8
0
100
AcDbBlockReference
  2
clip
 10
11.12812100436629
 20
27.58900000000118
 30
0.0
 41
-1.0
 50
270.0
  0
MTEXT
  5
391
330
2
100
AcDbEntity
  8
0
100
AcDbMText
 10
11.28178636547852
 20
23.125
 30
0.0
 40
0.28
 41
1.40369753947796
 71
     5
 72
     5
  1
HEAD
 73
     1
 44
1.0
1001
ACAD
1000
MTEXTBEGIN
1070
    73
1070
     1
1070
    44
1040
1.0
1070
    74
1070
     0
1000
MTEXTEND
  0
INSERT
  5
393
330
2
100
AcDbEntity
  8
0
100
AcDbBlockReference
  2
Td--2xwstuc-fJ
 10
22.79142803533062
 20
20.78013447258662
 30
0.0
 50
90.0
  0
DIMENSION
  5
62F
330
2
100
AcDbEntity
  8
0
100
AcDbDimension
  2
*D17
 10
5.218749999999996
 20
18.23800000000119
 30
0.0
 11
4.948879604365615
 21
20.58675396943708
 31
0.0
 70
   160
  1
ROUGH OPENING
 71
     5
 42
4.249999999999996
  3
3 inch Scale
100
AcDbAlignedDimension
 13
6.935050098280626
 23
22.4880000000012
 33
0.0
 14
8.580503688253543
 24
18.23800000000119
 34
0.0
 50
90.0
100
AcDbRotatedDimension
1001
ACAD
1000
DSTYLE
1002
{
1070
    75
1070
     1
1070
   343
1005
631
1070
   173
1070
     1
1070
   344
1005
0
1002
}
  0
DIMENSION
  5
63F
330
2
100
AcDbEntity
  8
0
100
AcDbDimension
  2
*D16
 10
6.218749999999992
 20
22.4880000000012
 30
0.0
 11
5.953749999999999
 21
21.58449386623634
 31
0.0
 70
   160
  1
FRAME
 71
     5
 42
3.999993895527556
  3
3 inch Scale
100
AcDbAlignedDimension
 13
8.581739034701058
 23
18.48800610447363
 33
0.0
 14
6.935050098280626
 24
22.4880000000012
 34
0.0
 50
90.0
100
AcDbRotatedDimension
1001
ACAD
1000
DSTYLE
1002
{
1070
    76
1070
     1
1070
    75
1070
     0
1070
   343
1005
0
1070
   173
1070
     1
1070
   344
1005
631
1002
}
  0
DIMENSION
  5
64A
330
2
100
AcDbEntity
  8
0
100
AcDbDimension
  2
*D15
 10
6.218749999999996
 20
18.48800610447363
 30
0.0
 11
6.21875
 21
17.17067806816195
 31
0.0
 70
   160
 71
     5
 42
0.2500061044724404
  3
3 inch Scale
100
AcDbAlignedDimension
 13
8.580503688253543
 23
18.23800000000119
 33
0.0
 14
8.581739034701058
 24
18.48800610447363
 34
0.0
 50
90.0
100
AcDbRotatedDimension
  0
DIMENSION
  5
658
330
2
100
AcDbEntity
  8
0
100
AcDbDimension
  2
*D11
 10
22.54142803533063
 20
18.31857490172058
 30
0.0
 11
21.50703385966895
 21
18.31857490172058
 31
0.0
 70
   160
 71
     5
 42
0.25
  3
3 inch Scale
100
AcDbAlignedDimension
 13
22.79142803533062
 23
20.68032858997411
 33
0.0
 14
22.54142803533063
 24
20.68032858997411
 34
0.0
 50
180.0
100
AcDbRotatedDimension
  0
DIMENSION
  5
666
330
2
100
AcDbEntity
  8
0
100
AcDbDimension
  2
*D10
 10
22.54142803533063
 20
17.31857490172058
 30
0.0
 11
25.17209093687481
 21
17.0487045060862
 31
0.0
 70
   160
  1
ROUGH OPENING
 71
     5
 42
4.375
  3
3 inch Scale
100
AcDbAlignedDimension
 13
26.91642803533063
 23
19.82930009828179
 33
0.0
 14
22.54142803533063
 24
20.68032858997411
 34
0.0
 50
180.0
100
AcDbRotatedDimension
1001
ACAD
1000
DSTYLE
1002
{
1070
    75
1070
     1
1070
   173
1070
     1
1070
   343
1005
631
1002
}
  0
DIMENSION
  5
671
330
2
100
AcDbEntity
  8
0
100
AcDbDimension
  2
*D9
 10
22.79142803533062
 20
18.31857490172058
 30
0.0
 11
26.16271442357248
 21
18.05357490172058
 31
0.0
 70
   160
  1
FRAME
 71
     5
 42
4.125
  3
3 inch Scale
100
AcDbAlignedDimension
 13
26.91642803533063
 23
19.82930009828179
 33
0.0
 14
22.79142803533062
 24
20.68032858997411
 34
0.0
 50
180.0
100
AcDbRotatedDimension
1001
ACAD
1000
DSTYLE
1002
{
1070
    75
1070
     1
1070
   173
1070
     1
1070
   343
1005
631
1002
}
  0
DIMENSION
  5
67C
330
2
100
AcDbEntity
  8
0
100
AcDbDimension
  2
*D14
 10
6.218749999999982
 20
27.73800000000119
 30
0.0
 11
5.953749999999985
 21
24.63049629228523
 31
0.0
 70
   160
  1
FRAME
 71
     5
 42
4.000000000000007
  3
3 inch Scale
100
AcDbAlignedDimension
 13
6.935050098280612
 23
23.73800000000119
 33
0.0
 14
8.580503688253514
 24
27.73800000000119
 34
0.0
 50
90.0
100
AcDbRotatedDimension
1001
ACAD
1000
DSTYLE
1002
{
1070
    75
1070
     1
1070
   343
1005
631
1070
   173
1070
     1
1070
   344
1005
0
1002
}
  0
DIMENSION
  5
687
330
2
100
AcDbEntity
  8
0
100
AcDbDimension
  2
*D13
 10
5.218749999999982
 20
27.9880000000012
 30
0.0
 11
4.9488796043656
 21
25.62189007198303
 31
0.0
 70
   160
  1
ROUGH OPENING
 71
     5
 42
4.25000000000001
  3
3 inch Scale
100
AcDbAlignedDimension
 13
6.935050098280612
 23
23.73800000000119
 33
0.0
 14
8.580503688253514
 24
27.9880000000012
 34
0.0
 50
90.0
100
AcDbRotatedDimension
1001
ACAD
1000
DSTYLE
1002
{
1070
    75
1070
     1
1070
   343
1005
631
1070
   173
1070
     1
1070
   344
1005
0
1002
}
  0
DIMENSION
  5
692
330
2
100
AcDbEntity
  8
0
100
AcDbDimension
  2
*D12
 10
6.218749999999982
 20
27.9880000000012
 30
0.0
 11
6.238077684694943
 21
29.06614900933686
 31
0.0
 70
   160
 71
     5
 42
0.2500000000000142
  3
3 inch Scale
100
AcDbAlignedDimension
 13
8.580503688253514
 23
27.73800000000119
 33
0.0
 14
8.580503688253514
 24
27.9880000000012
 34
0.0
 50
90.0
100
AcDbRotatedDimension
  0
MTEXT
  5
6A0
330
2
100
AcDbEntity
  8
0
100
AcDbMText
 10
20.63281735555563
 20
19.46096235056097
 30
0.0
 40
0.28
 41
1.40369753947796
 71
     5
 72
     5
  1
JAMB
 73
     1
 44
1.0
1001
ACAD
1000
MTEXTBEGIN
1070
    73
1070
     1
1070
    44
1040
1.0
1070
    74
1070
     0
1000
MTEXTEND
  0
MTEXT
  5
6A1
330
2
100
AcDbEntity
  8
0
100
AcDbMText
 10
11.28178636547852
 20
13.56424897789638
 30
0.0
 40
0.28
 41
1.40369753947796
 71
     2
 72
     5
  1
SILL
 73
     1
 44
1.0
1001
ACAD
1000
MTEXTBEGIN
1070
    73
1070
     1
1070
    44
1040
1.0
1070
    74
1070
     0
1000
MTEXTEND
  0
INSERT
  5
867
330
2
100
AcDbEntity
  8
0
100
AcDbBlockReference
  2
10headstuc
 10
8.72737100436629
 20
27.73800000000119
 30
0.0
  0
POLYLINE
  5
1B64
330
2
100
AcDbEntity
  8
0
100
AcDb2dPolyline
 66
     1
 10
0.0
 20
0.0
 30
0.0
  0
VERTEX
  5
1B65
330
1B64
100
AcDbEntity
  8
0
100
AcDbVertex
100
AcDb2dVertex
 10
7.060288987606256
 20
31.98800000000118
 30
0.0
  0
VERTEX
  5
1B66
330
1B64
100
AcDbEntity
  8
0
100
AcDbVertex
100
AcDb2dVertex
 10
7.867960397633353
 20
31.98800000000118
 30
0.0
  0
VERTEX
  5
1B67
330
1B64
100
AcDbEntity
  8
0
100
AcDbVertex
100
AcDb2dVertex
 10
7.930460397633353
 20
32.23800000000118
 30
0.0
  0
VERTEX
  5
1B68
330
1B64
100
AcDbEntity
  8
0
100
AcDbVertex
100
AcDb2dVertex
 10
8.055460397633353
 20
31.73800000000118
 30
0.0
  0
VERTEX
  5
1B69
330
1B64
100
AcDbEntity
  8
0
100
AcDbVertex
100
AcDb2dVertex
 10
8.117960397633353
 20
31.98800000000118
 30
0.0
  0
VERTEX
  5
1B6A
330
1B64
100
AcDbEntity
  8
0
100
AcDbVertex
100
AcDb2dVertex
 10
13.34482790091801
 20
31.98800000000118
 30
0.0
  0
VERTEX
  5
1B6B
330
1B64
100
AcDbEntity
  8
0
100
AcDbVertex
100
AcDb2dVertex
 10
13.40732790091801
 20
32.23800000000118
 30
0.0
  0
VERTEX
  5
1B6C
330
1B64
100
AcDbEntity
  8
0
100
AcDbVertex
100
AcDb2dVertex
 10
13.53232790091801
 20
31.73800000000118
 30
0.0
  0
VERTEX
  5
1B6D
330
1B64
100
AcDbEntity
  8
0
100
AcDbVertex
100
AcDb2dVertex
 10
13.59482790091801
 20
31.98800000000118
 30
0.0
  0
VERTEX
  5
1B6E
330
1B64
100
AcDbEntity
  8
0
100
AcDbVertex
100
AcDb2dVertex
 10
15.07362100436629
 20
31.98800000000118
 30
0.0
  0
SEQEND
  5
1B6F
330
1B64
100
AcDbEntity
  8
0
  0
POLYLINE
  5
1B70
330
2
100
AcDbEntity
  8
0
100
AcDb2dPolyline
 66
     1
 10
0.0
 20
0.0
 30
0.0
  0
VERTEX
  5
1B71
330
1B70
100
AcDbEntity
  8
0
100
AcDbVertex
100
AcDb2dVertex
 10
4.990617316112746
 20
23.73800000000121
 30
0.0
  0
VERTEX
  5
1B72
330
1B70
100
AcDbEntity
  8
0
100
AcDbVertex
100
AcDb2dVertex
 10
8.006206709379853
 20
23.73800000000118
 30
0.0
  0
VERTEX
  5
1B73
330
1B70
100
AcDbEntity
  8
0
100
AcDbVertex
100
AcDb2dVertex
 10
8.068706709379853
 20
23.98800000000119
 30
0.0
  0
VERTEX
  5
1B74
330
1B70
100
AcDbEntity
  8
0
100
AcDbVertex
100
AcDb2dVertex
 10
8.193706709379853
 20
23.48800000000118
 30
0.0
  0
VERTEX
  5
1B75
330
1B70
100
AcDbEntity
  8
0
100
AcDbVertex
100
AcDb2dVertex
 10
8.256206709379853
 20
23.73800000000118
 30
0.0
  0
VERTEX
  5
1B76
330
1B70
100
AcDbEntity
  8
0
100
AcDbVertex
100
AcDb2dVertex
 10
13.34482790091801
 20
23.73800000000118
 30
0.0
  0
VERTEX
  5
1B77
330
1B70
100
AcDbEntity
  8
0
100
AcDbVertex
100
AcDb2dVertex
 10
13.40732790091801
 20
23.98800000000119
 30
0.0
  0
VERTEX
  5
1B78
330
1B70
100
AcDbEntity
  8
0
100
AcDbVertex
100
AcDb2dVertex
 10
13.53232790091801
 20
23.48800000000118
 30
0.0
  0
VERTEX
  5
1B79
330
1B70
100
AcDbEntity
  8
0
100
AcDbVertex
100
AcDb2dVertex
 10
13.59482790091801
 20
23.73800000000118
 30
0.0
  0
VERTEX
  5
1B7A
330
1B70
100
AcDbEntity
  8
0
100
AcDbVertex
100
AcDb2dVertex
 10
15.07362100436629
 20
23.73800000000118
 30
0.0
  0
SEQEND
  5
1B7B
330
1B70
100
AcDbEntity
  8
0
  0
POLYLINE
  5
2061
330
2
100
AcDbEntity
  8
0
100
AcDb2dPolyline
 66
     1
 10
0.0
 20
0.0
 30
0.0
  0
VERTEX
  5
2062
330
2061
100
AcDbEntity
  8
0
100
AcDbVertex
100
AcDb2dVertex
 10
4.981996311746442
 20
22.4880000000012
 30
0.0
  0
VERTEX
  5
2063
330
2061
100
AcDbEntity
  8
0
100
AcDbVertex
100
AcDb2dVertex
 10
7.997585705013534
 20
22.4880000000012
 30
0.0
  0
VERTEX
  5
2064
330
2061
100
AcDbEntity
  8
0
100
AcDbVertex
100
AcDb2dVertex
 10
8.060085705013534
 20
22.73800000000119
 30
0.0
  0
VERTEX
  5
2065
330
2061
100
AcDbEntity
  8
0
100
AcDbVertex
100
AcDb2dVertex
 10
8.185085705013534
 20
22.23800000000119
 30
0.0
  0
VERTEX
  5
2066
330
2061
100
AcDbEntity
  8
0
100
AcDbVertex
100
AcDb2dVertex
 10
8.247585705013534
 20
22.4880000000012
 30
0.0
  0
VERTEX
  5
2067
330
2061
100
AcDbEntity
  8
0
100
AcDbVertex
100
AcDb2dVertex
 10
13.34482790091801
 20
22.48800000000119
 30
0.0
  0
VERTEX
  5
2068
330
2061
100
AcDbEntity
  8
0
100
AcDbVertex
100
AcDb2dVertex
 10
13.40732790091801
 20
22.73800000000119
 30
0.0
  0
VERTEX
  5
2069
330
2061
100
AcDbEntity
  8
0
100
AcDbVertex
100
AcDb2dVertex
 10
13.53232790091801
 20
22.23800000000119
 30
0.0
  0
VERTEX
  5
206A
330
2061
100
AcDbEntity
  8
0
100
AcDbVertex
100
AcDb2dVertex
 10
13.59482790091801
 20
22.48800000000119
 30
0.0
  0
VERTEX
  5
206B
330
2061
100
AcDbEntity
  8
0
100
AcDbVertex
100
AcDb2dVertex
 10
15.07362100436629
 20
22.4880000000012
 30
0.0
  0
SEQEND
  5
206C
330
2061
100
AcDbEntity
  8
0
  0
POLYLINE
  5
206E
330
2
100
AcDbEntity
  8
0
100
AcDb2dPolyline
 66
     1
 10
0.0
 20
0.0
 30
0.0
  0
VERTEX
  5
206F
330
206E
100
AcDbEntity
  8
0
100
AcDbVertex
100
AcDb2dVertex
 10
7.051667983240008
 20
14.2380000000012
 30
0.0
  0
VERTEX
  5
2070
330
206E
100
AcDbEntity
  8
0
100
AcDbVertex
100
AcDb2dVertex
 10
7.859339393267077
 20
14.2380000000012
 30
0.0
  0
VERTEX
  5
2071
330
206E
100
AcDbEntity
  8
0
100
AcDbVertex
100
AcDb2dVertex
 10
7.921839393267077
 20
14.48800000000119
 30
0.0
  0
VERTEX
  5
2072
330
206E
100
AcDbEntity
  8
0
100
AcDbVertex
100
AcDb2dVertex
 10
8.046839393267077
 20
13.98800000000119
 30
0.0
  0
VERTEX
  5
2073
330
206E
100
AcDbEntity
  8
0
100
AcDbVertex
100
AcDb2dVertex
 10
8.109339393267077
 20
14.2380000000012
 30
0.0
  0
VERTEX
  5
2074
330
206E
100
AcDbEntity
  8
0
100
AcDbVertex
100
AcDb2dVertex
 10
13.34482790091801
 20
14.2380000000012
 30
0.0
  0
VERTEX
  5
2075
330
206E
100
AcDbEntity
  8
0
100
AcDbVertex
100
AcDb2dVertex
 10
13.40732790091801
 20
14.48800000000119
 30
0.0
  0
VERTEX
  5
2076
330
206E
100
AcDbEntity
  8
0
100
AcDbVertex
100
AcDb2dVertex
 10
13.53232790091801
 20
13.98800000000119
 30
0.0
  0
VERTEX
  5
2077
330
206E
100
AcDbEntity
  8
0
100
AcDbVertex
100
AcDb2dVertex
 10
13.59482790091801
 20
14.2380000000012
 30
0.0
  0
VERTEX
  5
2078
330
206E
100
AcDbEntity
  8
0
100
AcDbVertex
100
AcDb2dVertex
 10
15.07362100436629
 20
14.2380000000012
 30
0.0
  0
SEQEND
  5
2079
330
206E
100
AcDbEntity
  8
0
  0
POLYLINE
  5
24FA
330
2
100
AcDbEntity
  8
0
100
AcDb2dPolyline
 66
     1
 10
0.0
 20
0.0
 30
0.0
  0
VERTEX
  5
24FB
330
24FA
100
AcDbEntity
  8
0
100
AcDbVertex
100
AcDb2dVertex
 10
26.91642803533063
 20
17.08182121346706
 30
0.0
  0
VERTEX
  5
24FC
330
24FA
100
AcDbEntity
  8
0
100
AcDbVertex
100
AcDb2dVertex
 10
26.9164280353306
 20
19.95916429498766
 30
0.0
  0
VERTEX
  5
24FD
330
24FA
100
AcDbEntity
  8
0
100
AcDbVertex
100
AcDb2dVertex
 10
26.6664280353306
 20
20.02166429498766
 30
0.0
  0
VERTEX
  5
24FE
330
24FA
100
AcDbEntity
  8
0
100
AcDbVertex
100
AcDb2dVertex
 10
27.1664280353306
 20
20.14666429498766
 30
0.0
  0
VERTEX
  5
24FF
330
24FA
100
AcDbEntity
  8
0
100
AcDbVertex
100
AcDb2dVertex
 10
26.9164280353306
 20
20.20916429498766
 30
0.0
  0
VERTEX
  5
2500
330
24FA
100
AcDbEntity
  8
0
100
AcDbVertex
100
AcDb2dVertex
 10
26.91642803533062
 20
24.96232490172058
 30
0.0
  0
VERTEX
  5
2501
330
24FA
100
AcDbEntity
  8
0
100
AcDbVertex
100
AcDb2dVertex
 10
26.66642803533062
 20
25.02482490172059
 30
0.0
  0
VERTEX
  5
2502
330
24FA
100
AcDbEntity
  8
0
100
AcDbVertex
100
AcDb2dVertex
 10
27.16642803533062
 20
25.14982490172059
 30
0.0
  0
VERTEX
  5
2503
330
24FA
100
AcDbEntity
  8
0
100
AcDbVertex
100
AcDb2dVertex
 10
26.91642803533062
 20
25.21232490172059
 30
0.0
  0
VERTEX
  5
2504
330
24FA
100
AcDbEntity
  8
0
100
AcDbVertex
100
AcDb2dVertex
 10
26.91642803533062
 20
27.16482490172059
 30
0.0
  0
SEQEND
  5
2505
330
24FA
100
AcDbEntity
  8
0
  0
POLYLINE
  5
2506
330
2
100
AcDbEntity
  8
0
100
AcDb2dPolyline
 66
     1
 10
0.0
 20
0.0
 30
0.0
  0
VERTEX
  5
2507
330
2506
100
AcDbEntity
  8
0
100
AcDbVertex
100
AcDb2dVertex
 10
18.54142803533062
 20
19.1514928849606
 30
0.0
  0
VERTEX
  5
2508
330
2506
100
AcDbEntity
  8
0
100
AcDbVertex
100
AcDb2dVertex
 10
18.54142803533062
 20
19.95916429498766
 30
0.0
  0
VERTEX
  5
2509
330
2506
100
AcDbEntity
  8
0
100
AcDbVertex
100
AcDb2dVertex
 10
18.29142803533062
 20
20.02166429498766
 30
0.0
  0
VERTEX
  5
250A
330
2506
100
AcDbEntity
  8
0
100
AcDbVertex
100
AcDb2dVertex
 10
18.79142803533062
 20
20.14666429498766
 30
0.0
  0
VERTEX
  5
250B
330
2506
100
AcDbEntity
  8
0
100
AcDbVertex
100
AcDb2dVertex
 10
18.54142803533062
 20
20.20916429498766
 30
0.0
  0
VERTEX
  5
250C
330
2506
100
AcDbEntity
  8
0
100
AcDbVertex
100
AcDb2dVertex
 10
18.54142803533062
 20
24.96232490172058
 30
0.0
  0
VERTEX
  5
250D
330
2506
100
AcDbEntity
  8
0
100
AcDbVertex
100
AcDb2dVertex
 10
18.29142803533062
 20
25.02482490172059
 30
0.0
  0
VERTEX
  5
250E
330
2506
100
AcDbEntity
  8
0
100
AcDbVertex
100
AcDb2dVertex
 10
18.79142803533062
 20
25.14982490172059
 30
0.0
  0
VERTEX
  5
250F
330
2506
100
AcDbEntity
  8
0
100
AcDbVertex
100
AcDb2dVertex
 10
18.54142803533062
 20
25.21232490172059
 30
0.0
  0
VERTEX
  5
2510
330
2506
100
AcDbEntity
  8
0
100
AcDbVertex
100
AcDb2dVertex
 10
18.54142803533062
 20
27.16482490172059
 30
0.0
  0
SEQEND
  5
2511
330
2506
100
AcDbEntity
  8
0
  0
INSERT
  5
4DDC
330
2
100
AcDbEntity
  8
0
100
AcDbBlockReference
  2
30AY
 10
14.40425
 20
18.9482227314172
 30
0.0
 42
-1.0
 50
90.0
  0
INSERT
  5
53FC
330
2
100
AcDbEntity
  8
0
100
AcDbBlockReference
  2
30AY
 10
14.38362100436629
 20
27.01380866619917
 30
0.0
 50
270.0
  0
INSERT
  5
53FD
330
2
100
AcDbEntity
  8
0
100
AcDbBlockReference
  2
30AY
 10
23.51561936913263
 20
26.46563447258662
 30
0.0
  0
ENDSEC
  0
SECTION
  2
OBJECTS
  0
DICTIONARY
  5
8
330
0
100
AcDbDictionary
281
     1
  3
ACAD_COLOR
350
30
  3
ACAD_GROUP
350
2C
  3
ACAD_LAYOUT
350
D
  3
ACAD_MATERIAL
350
2F
  3
ACAD_MLEADERSTYLE
350
257F
  3
ACAD_MLINESTYLE
350
2D
  3
ACAD_PLOTSETTINGS
350
2E
  3
ACAD_PLOTSTYLENAME
350
7
  3
ACAD_SCALELIST
350
255D
  3
ACAD_TABLESTYLE
350
255B
  3
ACAD_VISUALSTYLE
350
254A
  3
ACDB_RECOMPOSE_DATA
350
58D5
  3
AcDbVariableDictionary
350
882
  3
AEC_PROPERTY_SET_DEFS
350
5914
  3
AVAT_FILE_STORE
350
6D8
  3
DWGPROPS
350
59D0
1001
ADE
1000
ADE02C004
1000
[Query]
1000
CaseSensitiveMatch=0
1000
SaveCurrQueryInSession=1
1000
MkSelSetWithQryObj=0
1000
ShowBlockAsInsPt=0
1000
CreateAssociativeHatchObjects=0
1000
ReferenceBoundaryForAreaLocation=1
1000
ShowImageAsBoundary=1
1000
DefaultJoinOperator=2
1000
ColorForAdd=red
1000
ColorForRemove=red
1000
BlockLocnForQuery=1
1000
TextLocnForQuery=1
1000
[Save Back]
1000
RedefineBlockDefinitions=1
1000
RedefineLayerDefinitions=1
1000
RedefineTextStyleDefinitions=1
1000
RemoveUnusedGroups=1
1000
EraseSavedBackObjects=1
1000
RemoveLockAfterSave=1
1000
CreateHistoryFileOfChanges=0
1000
CreateBackupFileOfSourceDwg=1
1000
DontAddObjectsToSaveSet=0
1000
MarkObjectsForEditingWithoutPrompting=0
1000
[Coordinate Transformation]
1000
RestoreLastActiveDwgsOnStartup=1
1000
ActivateDwgsOnAttach=1
1000
AdjustSizesAndScalesForChangesInUnits=1
1000
AdjustRotationsForMapDistortions=1
1000
AdjustSizesAndScalesForMapDistortions=1
1000
AdjustElevations=1
1000
AdjustZeroRotationObjects=1
1000
ReconnectDbOnWSOpen=1
1000
NoOfSQLConditionsInHistory=10
  0
DICTIONARY
  5
58D6
330
20
100
AcDbDictionary
280
     1
281
     1
  0
DICTIONARY
  5
14
330
13
100
AcDbDictionary
280
     1
281
     1
  3
ACAD_LAYERFILTERS
360
15
  3
ACAD_LAYERSTATES
360
16
  0
DICTIONARY
  5
58B6
330
5
100
AcDbDictionary
280
     1
281
     1
  3
ADSK_XREC_LAYER_RECONCILED
360
58B7
  0
DICTIONARY
  5
58BE
330
34
100
AcDbDictionary
280
     1
281
     1
  3
ADSK_XREC_LAYER_RECONCILED
360
58BF
  0
DICTIONARY
  5
58C2
330
255
100
AcDbDictionary
280
     1
281
     1
  3
ADSK_XREC_LAYER_RECONCILED
360
58C3
  0
DICTIONARY
  5
58C4
330
21E
100
AcDbDictionary
280
     1
281
     1
  3
ADSK_XREC_LAYER_RECONCILED
360
58C5
  0
DICTIONARY
  5
58C6
330
20C
100
AcDbDictionary
280
     1
281
     1
  3
ADSK_XREC_LAYER_RECONCILED
360
58C7
  0
DICTIONARY
  5
58C8
330
223
100
AcDbDictionary
280
     1
281
     1
  3
ADSK_XREC_LAYER_RECONCILED
360
58C9
  0
DICTIONARY
  5
58CA
330
154
100
AcDbDictionary
280
     1
281
     1
  3
ADSK_XREC_LAYER_RECONCILED
360
58CB
  0
DICTIONARY
  5
58CC
330
1D8
100
AcDbDictionary
280
     1
281
     1
  3
ADSK_XREC_LAYER_RECONCILED
360
58CD
  0
DICTIONARY
  5
58CE
330
221
100
AcDbDictionary
280
     1
281
     1
  3
ADSK_XREC_LAYER_RECONCILED
360
58CF
  0
DICTIONARY
  5
58D0
330
20A2
100
AcDbDictionary
280
     1
281
     1
  3
ADSK_XREC_LAYER_RECONCILED
360
58D1
  0
DICTIONARY
  5
36C3
330
36C2
100
AcDbDictionary
280
     1
281
     1
  3
ADSK_XREC_LAYER_RECONCILED
360
58D2
  0
DICTIONARY
  5
3
330
2
100
AcDbDictionary
280
     1
281
     1
  3
ACAD_SORTENTS
360
869
  0
DICTIONARY
  5
157
330
156
100
AcDbDictionary
280
     1
281
     1
  3
ACAD_SORTENTS
360
862
  0
DICTIONARY
  5
395
330
394
100
AcDbDictionary
280
     1
281
     1
  3
ACAD_SORTENTS
360
566B
  0
DICTIONARY
  5
1C1
330
1C0
100
AcDbDictionary
280
     1
281
     1
  3
ACAD_SORTENTS
360
5012
  0
DICTIONARY
  5
46C8
330
1D3
100
AcDbDictionary
280
     1
281
     1
  3
ACAD_SORTENTS
360
499D
  0
DICTIONARY
  5
32C
330
32B
100
AcDbDictionary
280
     1
281
     1
  3
ACAD_SORTENTS
360
4A63
  0
DICTIONARY
  5
2A1
330
2A0
100
AcDbDictionary
280
     1
281
     1
  3
ACAD_SORTENTS
360
4058
  0
DICTIONARY
  5
36
330
35
100
AcDbDictionary
280
     1
281
     1
  3
ACAD_SORTENTS
360
53FB
  0
DICTIONARY
  5
6E6
330
6E5
100
AcDbDictionary
280
     1
281
     1
  3
ACAD_SORTENTS
360
58B5
  0
DICTIONARY
  5
4DD8
330
4DD3
100
AcDbDictionary
280
     1
281
     1
  3
ACAD_SORTENTS
360
4DD9
  0
DICTIONARY
  5
50E5
330
50BF
100
AcDbDictionary
280
     1
281
     1
  3
ACAD_SORTENTS
360
525C
  0
DICTIONARY
  5
30
102
{ACAD_REACTORS
330
8
102
}
330
8
100
AcDbDictionary
281
     1
  0
DICTIONARY
  5
2C
102
{ACAD_REACTORS
330
8
102
}
330
8
100
AcDbDictionary
281
     1
  3
*A1
350
3224
  3
*A10
350
322C
  3
*A11
350
322D
  3
*A12
350
322E
  3
*A13
350
322F
  3
*A14
350
3230
  3
*A15
350
3231
  3
*A16
350
3232
  3
*A17
350
3233
  3
*A18
350
36C5
  3
*A2
350
4DD2
  3
*A3
350
3225
  3
*A4
350
3226
  3
*A5
350
3227
  3
*A6
350
3228
  3
*A7
350
3229
  3
*A8
350
322A
  3
*A9
350
322B
  0
DICTIONARY
  5
D
102
{ACAD_REACTORS
330
8
102
}
330
8
100
AcDbDictionary
281
     1
  3
Layout1
350
58E8
  3
Model
350
C
  0
DICTIONARY
  5
2F
102
{ACAD_REACTORS
330
8
102
}
330
8
100
AcDbDictionary
281
     1
  3
ByBlock
350
253A
  3
ByLayer
350
2532
  3
Global
350
2542
  0
DICTIONARY
  5
257F
102
{ACAD_REACTORS
330
8
102
}
330
8
100
AcDbDictionary
281
     1
  3
Standard
350
2580
  0
DICTIONARY
  5
2D
102
{ACAD_REACTORS
330
8
102
}
330
8
100
AcDbDictionary
281
     1
  3
Standard
350
31
  0
DICTIONARY
  5
2E
102
{ACAD_REACTORS
330
8
102
}
330
8
100
AcDbDictionary
281
     1
  3
22 X 17 XES8830
350
3234
  3
22 X 34 XES8830
350
3235
  3
8.5  X 11 WEST
350
3236
  3
8.5 x 11 center
350
3237
  3
8.5 X 11 EAST
350
3238
  3
8.5 X 11 WEST
350
3239
  3
PDF
350
323A
  0
ACDBDICTIONARYWDFLT
  5
7
102
{ACAD_REACTORS
330
8
102
}
330
8
100
AcDbDictionary
281
     1
  3
Normal
350
6
100
AcDbDictionaryWithDefault
340
6
  0
DICTIONARY
  5
255D
102
{ACAD_REACTORS
330
8
102
}
330
8
100
AcDbDictionary
281
     1
  3
*A1
350
323B
  3
A0
350
255E
  3
A1
350
255F
  3
A2
350
2560
  3
A3
350
2561
  3
A4
350
2562
  3
A5
350
2563
  3
A6
350
2564
  3
A7
350
2565
  3
A8
350
2566
  3
A9
350
2567
  3
B0
350
2568
  3
B1
350
2569
  3
B2
350
256A
  3
B3
350
256B
  3
B4
350
256C
  3
B5
350
256D
  3
B6
350
256E
  3
B7
350
256F
  3
B8
350
2570
  3
B9
350
2571
  3
C0
350
2572
  3
C1
350
2573
  3
C2
350
2574
  3
C3
350
2575
  3
C4
350
2576
  3
C5
350
2577
  3
C6
350
2578
  3
C7
350
2579
  3
C8
350
257A
  3
C9
350
257B
  3
D0
350
257C
  3
D1
350
257D
  3
D2
350
257E
  0
DICTIONARY
  5
255B
102
{ACAD_REACTORS
330
8
102
}
330
8
100
AcDbDictionary
281
     1
  3
Standard
350
255C
  0
DICTIONARY
  5
254A
102
{ACAD_REACTORS
330
8
102
}
330
8
100
AcDbDictionary
281
     1
  3
2dWireframe
350
2550
  3
3D Hidden
350
2552
  3
3dWireframe
350
2551
  3
Basic
350
254F
  3
Brighten
350
2556
  3
ColorChange
350
255A
  3
Conceptual
350
2553
  3
Dim
350
2555
  3
Facepattern
350
2559
  3
Flat
350
254B
  3
FlatWithEdges
350
254C
  3
Gouraud
350
254D
  3
GouraudWithEdges
350
254E
  3
Linepattern
350
2558
  3
Realistic
350
2554
  3
Thicken
350
2557
  0
XRECORD
  5
58D5
102
{ACAD_REACTORS
330
8
102
}
330
8
100
AcDbXrecord
280
     1
 90
        1
330
255C
  0
DICTIONARY
  5
882
102
{ACAD_REACTORS
330
8
102
}
330
8
100
AcDbDictionary
281
     1
  3
CANNOSCALE
350
58E0
  3
CMLEADERSTYLE
350
58DF
  3
CTABLESTYLE
350
58DE
  3
DIMASSOC
350
884
  3
HIDETEXT
350
883
  3
INDEXCTL
350
59CE
  3
PROJECTNAME
350
885
  3
SORTENTS
350
59CD
  0
DICTIONARY
  5
5914
102
{ACAD_REACTORS
330
8
102
}
330
8
100
AcDbDictionary
281
     1
  0
DICTIONARY
  5
6D8
102
{ACAD_REACTORS
330
8
102
}
330
8
100
AcDbDictionary
281
     1
  0
XRECORD
  5
59D0
102
{ACAD_REACTORS
330
8
102
}
330
8
100
AcDbXrecord
280
     1
  1
DWGPROPS COOKIE
  2

  3

  4

  6

  7

  8
rohwertl
  9

300
=
301
=
302
=
303
=
304
=
305
=
306
=
307
=
308
=
309
=
 40
1.529166412037036
 41
2453963.430150475
 42
2455447.478215579
  1

 90
        0
  0
DICTIONARY
  5
15
102
{ACAD_REACTORS
330
14
102
}
330
14
100
AcDbDictionary
281
     1
  0
DICTIONARY
  5
16
102
{ACAD_REACTORS
330
14
102
}
330
14
100
AcDbDictionary
281
     1
  0
XRECORD
  5
58B7
102
{ACAD_REACTORS
330
58B6
102
}
330
58B6
100
AcDbXrecord
280
     1
290
     1
  0
XRECORD
  5
58BF
102
{ACAD_REACTORS
330
58BE
102
}
330
58BE
100
AcDbXrecord
280
     1
290
     1
  0
XRECORD
  5
58C3
102
{ACAD_REACTORS
330
58C2
102
}
330
58C2
100
AcDbXrecord
280
     1
290
     1
  0
XRECORD
  5
58C5
102
{ACAD_REACTORS
330
58C4
102
}
330
58C4
100
AcDbXrecord
280
     1
290
     1
  0
XRECORD
  5
58C7
102
{ACAD_REACTORS
330
58C6
102
}
330
58C6
100
AcDbXrecord
280
     1
290
     1
  0
XRECORD
  5
58C9
102
{ACAD_REACTORS
330
58C8
102
}
330
58C8
100
AcDbXrecord
280
     1
290
     1
  0
XRECORD
  5
58CB
102
{ACAD_REACTORS
330
58CA
102
}
330
58CA
100
AcDbXrecord
280
     1
290
     1
  0
XRECORD
  5
58CD
102
{ACAD_REACTORS
330
58CC
102
}
330
58CC
100
AcDbXrecord
280
     1
290
     1
  0
XRECORD
  5
58CF
102
{ACAD_REACTORS
330
58CE
102
}
330
58CE
100
AcDbXrecord
280
     1
290
     1
  0
XRECORD
  5
58D1
102
{ACAD_REACTORS
330
58D0
102
}
330
58D0
100
AcDbXrecord
280
     1
290
     1
  0
XRECORD
  5
58D2
102
{ACAD_REACTORS
330
36C3
102
}
330
36C3
100
AcDbXrecord
280
     1
290
     1
  0
SORTENTSTABLE
  5
869
102
{ACAD_REACTORS
330
3
102
}
330
3
100
AcDbSortentsTable
330
2
331
24FA
  5
24FA
331
671
  5
64A
331
1D2
  5
1BF
331
666
  5
63F
331
33
  5
33
331
2506
  5
2506
331
29F
  5
29D
331
63F
  5
391
331
1B64
  5
1B64
331
206E
  5
206E
331
1BF
  5
6A2
331
6A0
  5
67C
331
687
  5
666
331
867
  5
6A1
331
1B70
  5
1B70
331
284
  5
6C5
331
2061
  5
2061
331
32A
  5
328
331
62F
  5
390
331
67C
  5
658
331
343
  5
867
331
64A
  5
393
331
391
  5
389
331
6A1
  5
687
331
393
  5
38A
331
658
  5
62F
331
692
  5
671
  0
SORTENTSTABLE
  5
862
102
{ACAD_REACTORS
330
157
102
}
330
157
100
AcDbSortentsTable
330
156
  0
SORTENTSTABLE
  5
566B
102
{ACAD_REACTORS
330
395
102
}
330
395
100
AcDbSortentsTable
330
394
331
3A8
  5
3AF
331
3C5
  5
3CF
331
3E4
  5
3EE
331
3A3
  5
3A8
331
3B0
  5
3B1
331
3EA
  5
3EF
331
3B2
  5
3B3
331
5665
  5
5667
331
3EE
  5
4AA
331
5667
  5
398
331
4AB
  5
1659
331
5669
  5
5668
331
3BA
  5
3BE
331
4AD
  5
165F
331
3BE
  5
3BF
331
398
  5
39E
331
3CF
  5
3E4
331
39E
  5
3A3
331
1659
  5
5665
331
3AF
  5
3B0
331
3B1
  5
3B2
331
165F
  5
5666
331
3B3
  5
3BA
331
4AA
  5
4AD
331
3EF
  5
4AB
331
5666
  5
5669
331
5668
  5
566A
331
566A
  5
3EA
331
3BF
  5
3C5
  0
SORTENTSTABLE
  5
5012
102
{ACAD_REACTORS
330
1C1
102
}
330
1C1
100
AcDbSortentsTable
330
1C0
  0
SORTENTSTABLE
  5
499D
102
{ACAD_REACTORS
330
46C8
102
}
330
46C8
100
AcDbSortentsTable
330
1D3
  0
SORTENTSTABLE
  5
4A63
102
{ACAD_REACTORS
330
32C
102
}
330
32C
100
AcDbSortentsTable
330
32B
  0
SORTENTSTABLE
  5
4058
102
{ACAD_REACTORS
330
2A1
102
}
330
2A1
100
AcDbSortentsTable
330
2A0
  0
SORTENTSTABLE
  5
53FB
102
{ACAD_REACTORS
330
36
102
}
330
36
100
AcDbSortentsTable
330
35
331
53EA
  5
53
331
5149
  5
53F5
331
4FCE
  5
4FCF
331
63
  5
67
331
67
  5
89
331
1195
  5
4FC5
331
4F71
  5
53E5
331
119B
  5
4FCD
331
7D
  5
153
331
54
  5
5C
331
4FC5
  5
4FCE
331
5C
  5
64
331
53E5
  5
54
331
191
  5
19F
331
4FCD
  5
1A3
331
64
  5
7D
331
4FCF
  5
5149
331
89
  5
155
331
53EF
  5
4F70
331
4F70
  5
53EF
331
199
  5
1195
331
53F5
  5
4F71
331
19F
  5
119B
331
153
  5
191
331
53
  5
55
331
155
  5
199
331
55
  5
63
331
1A3
  5
4F6F
331
4F6F
  5
53EA
  0
SORTENTSTABLE
  5
58B5
102
{ACAD_REACTORS
330
6E6
102
}
330
6E6
100
AcDbSortentsTable
330
6E5
331
768
  5
769
331
764
  5
765
331
754
  5
75A
331
761
  5
762
331
5892
  5
5894
331
76C
  5
828
331
75B
  5
761
331
74E
  5
754
331
765
  5
767
331
769
  5
76A
331
762
  5
763
331
828
  5
829
331
5893
  5
5891
331
588F
  5
5890
331
83A
  5
EB3
331
5890
  5
5892
331
76A
  5
76B
331
EB9
  5
588F
331
763
  5
764
331
829
  5
83A
331
5894
  5
74E
331
EB3
  5
EB9
331
76B
  5
76C
331
75A
  5
75B
331
767
  5
768
331
5891
  5
5893
  0
SORTENTSTABLE
  5
4DD9
102
{ACAD_REACTORS
330
4DD8
102
}
330
4DD8
100
AcDbSortentsTable
330
4DD3
331
4DD5
  5
4DD7
331
4DD6
  5
4DD5
  0
SORTENTSTABLE
  5
525C
102
{ACAD_REACTORS
330
50E5
102
}
330
50E5
100
AcDbSortentsTable
330
50BF
  0
GROUP
  5
3224
102
{ACAD_REACTORS
330
2C
102
}
330
2C
100
AcDbGroup
300

 70
     3
 71
     1
  0
GROUP
  5
322C
102
{ACAD_REACTORS
330
2C
102
}
330
2C
100
AcDbGroup
300

 70
     3
 71
     1
  0
GROUP
  5
322D
102
{ACAD_REACTORS
330
2C
102
}
330
2C
100
AcDbGroup
300

 70
     3
 71
     1
  0
GROUP
  5
322E
102
{ACAD_REACTORS
330
2C
102
}
330
2C
100
AcDbGroup
300

 70
     3
 71
     1
  0
GROUP
  5
322F
102
{ACAD_REACTORS
330
2C
102
}
330
2C
100
AcDbGroup
300

 70
     1
 71
     1
  0
GROUP
  5
3230
102
{ACAD_REACTORS
330
2C
102
}
330
2C
100
AcDbGroup
300

 70
     1
 71
     1
  0
GROUP
  5
3231
102
{ACAD_REACTORS
330
2C
102
}
330
2C
100
AcDbGroup
300

 70
     1
 71
     1
  0
GROUP
  5
3232
102
{ACAD_REACTORS
330
2C
102
}
330
2C
100
AcDbGroup
300

 70
     3
 71
     1
  0
GROUP
  5
3233
102
{ACAD_REACTORS
330
2C
102
}
330
2C
100
AcDbGroup
300

 70
     3
 71
     1
  0
GROUP
  5
36C5
102
{ACAD_REACTORS
330
2C
102
}
330
2C
100
AcDbGroup
300

 70
     1
 71
     1
  0
GROUP
  5
4DD2
102
{ACAD_REACTORS
330
2C
102
}
330
2C
100
AcDbGroup
300

 70
     1
 71
     1
  0
GROUP
  5
3225
102
{ACAD_REACTORS
330
2C
102
}
330
2C
100
AcDbGroup
300

 70
     3
 71
     1
  0
GROUP
  5
3226
102
{ACAD_REACTORS
330
2C
102
}
330
2C
100
AcDbGroup
300

 70
     1
 71
     1
  0
GROUP
  5
3227
102
{ACAD_REACTORS
330
2C
102
}
330
2C
100
AcDbGroup
300

 70
     1
 71
     1
  0
GROUP
  5
3228
102
{ACAD_REACTORS
330
2C
102
}
330
2C
100
AcDbGroup
300

 70
     1
 71
     1
  0
GROUP
  5
3229
102
{ACAD_REACTORS
330
2C
102
}
330
2C
100
AcDbGroup
300

 70
     1
 71
     1
  0
GROUP
  5
322A
102
{ACAD_REACTORS
330
2C
102
}
330
2C
100
AcDbGroup
300

 70
     1
 71
     1
  0
GROUP
  5
322B
102
{ACAD_REACTORS
330
2C
102
}
330
2C
100
AcDbGroup
300

 70
     3
 71
     1
  0
LAYOUT
  5
58E8
102
{ACAD_XDICTIONARY
360
59E5
102
}
102
{ACAD_REACTORS
330
D
102
}
330
D
100
AcDbPlotSettings
  1

  2
pdfFactory Pro
  4

  6

 40
0.0
 41
0.0
 42
0.0
 43
0.0
 44
0.0
 45
0.0
 46
0.0
 47
0.0
 48
0.0
 49
0.0
140
0.0
141
0.0
142
1.0
143
1.0
 70
   688
 72
     0
 73
     0
 74
     5
  7
PellaCAD 2000.ctb
 75
    16
147
1.0
148
0.0
149
0.0
100
AcDbLayout
  1
Layout1
 70
     1
 71
     1
 10
0.0
 20
0.0
 11
12.0
 21
9.0
 12
0.0
 22
0.0
 32
0.0
 14
0.0
 24
0.0
 34
0.0
 15
0.0
 25
0.0
 35
0.0
146
0.0
 13
0.0
 23
0.0
 33
0.0
 16
1.0
 26
0.0
 36
0.0
 17
0.0
 27
1.0
 37
0.0
 76
     0
330
58E7
  0
LAYOUT
  5
C
102
{ACAD_XDICTIONARY
360
59D1
102
}
102
{ACAD_REACTORS
330
D
102
}
330
D
100
AcDbPlotSettings
  1

  2
pdfFactory Pro
  4
Letter
  6

 40
7.143749713897705
 41
7.143756389617919
 42
7.14373779296875
 43
7.14373779296875
 44
215.8999938964844
 45
279.3999938964844
 46
-5114.216318644388
 47
-4004.504255472169
 48
0.0
 49
0.0
140
0.0
141
0.0
142
1.0
143
1.0
 70
 11956
 72
     0
 73
     0
 74
     1
  7
PellaCAD 2000.ctb
 75
    16
147
1.0
148
5184.779528771089
149
464.5374802517002
100
AcDbLayout
  1
Model
 70
     1
 71
     0
 10
0.0
 20
0.0
 11
12.0
 21
9.0
 12
0.0
 22
0.0
 32
0.0
 14
0.0
 24
0.0
 34
0.0
 15
0.0
 25
0.0
 35
0.0
146
0.0
 13
0.0
 23
0.0
 33
0.0
 16
1.0
 26
0.0
 36
0.0
 17
0.0
 27
1.0
 37
0.0
 76
     0
330
2
331
2529
  0
MATERIAL
  5
253A
102
{ACAD_XDICTIONARY
360
253B
102
}
102
{ACAD_REACTORS
330
2F
102
}
330
2F
100
AcDbMaterial
  1
ByBlock
 72
     0
 43
0.0208333333333333
 43
0.0
 43
0.0
 43
0.0
 43
0.0
 43
0.0208333333333333
 43
0.0
 43
0.0
 43
0.0
 43
0.0
 43
1.0
 43
0.0
 43
0.0
 43
0.0
 43
0.0
 43
1.0
 77
     0
 47
0.0208333333333333
 47
0.0
 47
0.0
 47
0.0
 47
0.0
 47
0.0208333333333333
 47
0.0
 47
0.0
 47
0.0
 47
0.0
 47
1.0
 47
0.0
 47
0.0
 47
0.0
 47
0.0
 47
1.0
171
     0
 49
0.0208333333333333
 49
0.0
 49
0.0
 49
0.0
 49
0.0
 49
0.0208333333333333
 49
0.0
 49
0.0
 49
0.0
 49
0.0
 49
1.0
 49
0.0
 49
0.0
 49
0.0
 49
0.0
 49
1.0
175
     0
142
0.0208333333333333
142
0.0
142
0.0
142
0.0
142
0.0
142
0.0208333333333333
142
0.0
142
0.0
142
0.0
142
0.0
142
1.0
142
0.0
142
0.0
142
0.0
142
0.0
142
1.0
179
     0
144
0.0208333333333333
144
0.0
144
0.0
144
0.0
144
0.0
144
0.0208333333333333
144
0.0
144
0.0
144
0.0
144
0.0
144
1.0
144
0.0
144
0.0
144
0.0
144
0.0
144
1.0
147
0.0208333333333333
147
0.0
147
0.0
147
0.0
147
0.0
147
0.0208333333333333
147
0.0
147
0.0
147
0.0
147
0.0
147
1.0
147
0.0
147
0.0
147
0.0
147
0.0
147
1.0
  0
MATERIAL
  5
2532
102
{ACAD_XDICTIONARY
360
2533
102
}
102
{ACAD_REACTORS
330
2F
102
}
330
2F
100
AcDbMaterial
  1
ByLayer
 72
     0
 43
0.0208333333333333
 43
0.0
 43
0.0
 43
0.0
 43
0.0
 43
0.0208333333333333
 43
0.0
 43
0.0
 43
0.0
 43
0.0
 43
1.0
 43
0.0
 43
0.0
 43
0.0
 43
0.0
 43
1.0
 77
     0
 47
0.0208333333333333
 47
0.0
 47
0.0
 47
0.0
 47
0.0
 47
0.0208333333333333
 47
0.0
 47
0.0
 47
0.0
 47
0.0
 47
1.0
 47
0.0
 47
0.0
 47
0.0
 47
0.0
 47
1.0
171
     0
 49
0.0208333333333333
 49
0.0
 49
0.0
 49
0.0
 49
0.0
 49
0.0208333333333333
 49
0.0
 49
0.0
 49
0.0
 49
0.0
 49
1.0
 49
0.0
 49
0.0
 49
0.0
 49
0.0
 49
1.0
175
     0
142
0.0208333333333333
142
0.0
142
0.0
142
0.0
142
0.0
142
0.0208333333333333
142
0.0
142
0.0
142
0.0
142
0.0
142
1.0
142
0.0
142
0.0
142
0.0
142
0.0
142
1.0
179
     0
144
0.0208333333333333
144
0.0
144
0.0
144
0.0
144
0.0
144
0.0208333333333333
144
0.0
144
0.0
144
0.0
144
0.0
144
1.0
144
0.0
144
0.0
144
0.0
144
0.0
144
1.0
147
0.0208333333333333
147
0.0
147
0.0
147
0.0
147
0.0
147
0.0208333333333333
147
0.0
147
0.0
147
0.0
147
0.0
147
1.0
147
0.0
147
0.0
147
0.0
147
0.0
147
1.0
  0
MATERIAL
  5
2542
102
{ACAD_XDICTIONARY
360
2543
102
}
102
{ACAD_REACTORS
330
2F
102
}
330
2F
100
AcDbMaterial
  1
Global
 72
     0
 43
0.0208333333333333
 43
0.0
 43
0.0
 43
0.0
 43
0.0
 43
0.0208333333333333
 43
0.0
 43
0.0
 43
0.0
 43
0.0
 43
1.0
 43
0.0
 43
0.0
 43
0.0
 43
0.0
 43
1.0
 77
     0
 47
0.0208333333333333
 47
0.0
 47
0.0
 47
0.0
 47
0.0
 47
0.0208333333333333
 47
0.0
 47
0.0
 47
0.0
 47
0.0
 47
1.0
 47
0.0
 47
0.0
 47
0.0
 47
0.0
 47
1.0
171
     0
 49
0.0208333333333333
 49
0.0
 49
0.0
 49
0.0
 49
0.0
 49
0.0208333333333333
 49
0.0
 49
0.0
 49
0.0
 49
0.0
 49
1.0
 49
0.0
 49
0.0
 49
0.0
 49
0.0
 49
1.0
175
     0
142
0.0208333333333333
142
0.0
142
0.0
142
0.0
142
0.0
142
0.0208333333333333
142
0.0
142
0.0
142
0.0
142
0.0
142
1.0
142
0.0
142
0.0
142
0.0
142
0.0
142
1.0
179
     0
144
0.0208333333333333
144
0.0
144
0.0
144
0.0
144
0.0
144
0.0208333333333333
144
0.0
144
0.0
144
0.0
144
0.0
144
1.0
144
0.0
144
0.0
144
0.0
144
0.0
144
1.0
147
0.0208333333333333
147
0.0
147
0.0
147
0.0
147
0.0
147
0.0208333333333333
147
0.0
147
0.0
147
0.0
147
0.0
147
1.0
147
0.0
147
0.0
147
0.0
147
0.0
147
1.0
  0
MLEADERSTYLE
  5
2580
102
{ACAD_REACTORS
330
257F
102
}
330
257F
100
AcDbMLeaderStyle
170
     2
171
     1
172
     0
 90
        2
 40
0.0
 41
0.0
173
     1
 91
-1056964608
340
1C
 92
       -2
290
     1
 42
0.09
291
     1
 43
0.36
  3
Standard
 44
0.18
300

342
18
174
     1
178
     6
175
     1
176
     0
 93
-1056964608
 45
0.18
292
     0
297
     0
 46
0.18
 94
-1056964608
 47
1.0
 49
1.0
140
1.0
293
     1
141
0.0
294
     1
177
     0
142
1.0
295
     0
296
     0
143
0.125
1001
ACAD_MLEADERVER
1070
     2
  0
MLINESTYLE
  5
31
102
{ACAD_REACTORS
330
2D
102
}
330
2D
100
AcDbMlineStyle
  2
STANDARD
 70
     0
  3

 62
   256
 51
90.0
 52
90.0
 71
     2
 49
0.5
 62
   256
  6
BYLAYER
 49
-0.5
 62
   256
  6
BYLAYER
  0
PLOTSETTINGS
  5
3234
102
{ACAD_XDICTIONARY
360
59D7
102
}
102
{ACAD_REACTORS
330
2E
102
}
330
2E
100
AcDbPlotSettings
  1
22 X 17 XES8830
  2
XES8830.pc3
  4
ANSI_expand_C_(22.00_x_17.00_Inches)
  6

 40
0.7937499880790711
 41
0.7937499880790711
 42
0.79376220703125
 43
0.79376220703125
 44
558.7999877929687
 45
431.7999877929687
 46
0.0
 47
38.1
 48
0.0
 49
0.0
140
0.0
141
0.0
142
1.0
143
1.463042279109227
 70
   692
 72
     0
 73
     0
 74
     1
  7
PellaCAD 2000.ctb
 75
     0
147
0.6835072467002452
148
-21.56253300643131
149
-6.211877762854459
  0
PLOTSETTINGS
  5
3235
102
{ACAD_XDICTIONARY
360
59D9
102
}
102
{ACAD_REACTORS
330
2E
102
}
330
2E
100
AcDbPlotSettings
  1
22 X 34 XES8830
  2
XES8830.pc3
  4
ANSI_expand_D_(22.00_x_34.00_Inches)
  6

 40
0.7937499880790711
 41
0.7937499880790711
 42
0.79376220703125
 43
0.79376220703125
 44
558.7999877929687
 45
863.5999755859375
 46
19.558
 47
23.368
 48
0.0
 49
0.0
140
0.0
141
0.0
142
1.0
143
1.0
 70
   692
 72
     0
 73
     1
 74
     1
  7
PellaCAD 2000.ctb
 75
    16
147
1.0
148
-21.56253300643131
149
-6.211877762854459
  0
PLOTSETTINGS
  5
3236
102
{ACAD_XDICTIONARY
360
59DB
102
}
102
{ACAD_REACTORS
330
2E
102
}
330
2E
100
AcDbPlotSettings
  1
8.5  X 11 WEST
  2
\\PELSPRNT01\peasp1-bw
  4
Letter
  6

 40
6.349999904632568
 41
4.233341693878173
 42
6.349990844726562
 43
4.23333740234375
 44
215.8999938964844
 45
279.3999938964844
 46
3.047999999999999
 47
4.318
 48
0.0
 49
0.0
140
0.0
141
0.0
142
1.0
143
1.0
 70
   692
 72
     0
 73
     0
 74
     1
  7
PellaCAD 2000.ctb
 75
    16
147
1.0
148
-4.157587650552661
149
-3.607303566952467
  0
PLOTSETTINGS
  5
3237
102
{ACAD_XDICTIONARY
360
59DD
102
}
102
{ACAD_REACTORS
330
2E
102
}
330
2E
100
AcDbPlotSettings
  1
8.5 x 11 center
  2
\\PELSPRNT01\PEASP5
  4
User169
  6

 40
6.349999904632568
 41
4.233341693878173
 42
6.349990844726562
 43
4.23333740234375
 44
215.8999938964844
 45
279.3999938964844
 46
3.047999999999999
 47
4.318
 48
0.0
 49
0.0
140
0.0
141
0.0
142
1.0
143
1.0
 70
   692
 72
     0
 73
     0
 74
     1
  7
PellaCAD 2000.ctb
 75
    16
147
1.0
148
-4.157587650552661
149
-3.607303566952467
  0
PLOTSETTINGS
  5
3238
102
{ACAD_XDICTIONARY
360
59DF
102
}
102
{ACAD_REACTORS
330
2E
102
}
330
2E
100
AcDbPlotSettings
  1
8.5 X 11 EAST
  2
\\PELSPRNT01\peslp0
  4
Letter
  6

 40
5.365749835968017
 41
5.408084392547607
 42
5.4080810546875
 43
5.365753173828125
 44
215.8999938964844
 45
279.3999938964844
 46
4.064
 47
3.302
 48
0.0
 49
0.0
140
0.0
141
0.0
142
1.0
143
1.0
 70
   692
 72
     0
 73
     0
 74
     1
  7
PellaCAD 2000.ctb
 75
    16
147
1.0
148
-4.157587650552661
149
-3.607303566952467
  0
PLOTSETTINGS
  5
3239
102
{ACAD_XDICTIONARY
360
59E1
102
}
102
{ACAD_REACTORS
330
2E
102
}
330
2E
100
AcDbPlotSettings
  1
8.5 X 11 WEST
  2
\\PELSPRNT01\peasp1
  4
Letter
  6

 40
5.450416564941406
 41
5.450400352478027
 42
5.154083251953125
 43
4.9847412109375
 44
215.8999938964844
 45
279.3999938964844
 46
4.064
 47
3.302
 48
0.0
 49
0.0
140
0.0
141
0.0
142
1.0
143
1.0
 70
   692
 72
     0
 73
     0
 74
     1
  7
PellaCAD 2000.ctb
 75
    16
147
1.0
148
-4.157587650552661
149
-3.607303566952467
  0
PLOTSETTINGS
  5
323A
102
{ACAD_XDICTIONARY
360
59E3
102
}
102
{ACAD_REACTORS
330
2E
102
}
330
2E
100
AcDbPlotSettings
  1
PDF
  2
Acrobat Distiller.pc3
  4
Letter
  6

 40
2.032000064849853
 41
2.032000064849853
 42
2.539993286132812
 43
2.540008544921875
 44
215.8999938964844
 45
279.3999938964844
 46
7.112
 47
6.349999999999999
 48
0.0
 49
0.0
140
0.0
141
0.0
142
1.0
143
1.0
 70
   692
 72
     0
 73
     0
 74
     1
  7
PellaCAD 2000.ctb
 75
    16
147
1.0
148
-4.157587650552661
149
-3.607303566952467
  0
ACDBPLACEHOLDER
  5
6
102
{ACAD_REACTORS
330
7
102
}
330
7
  0
SCALE
  5
323B
102
{ACAD_REACTORS
330
255D
102
}
330
255D
100
AcDbScale
 70
     0
300
1" = 1'
140
1.0
141
1.0
290
     0
  0
SCALE
  5
255E
102
{ACAD_REACTORS
330
255D
102
}
330
255D
100
AcDbScale
 70
     0
300
1:1
140
1.0
141
1.0
290
     1
  0
SCALE
  5
255F
102
{ACAD_REACTORS
330
255D
102
}
330
255D
100
AcDbScale
 70
     0
300
1:2
140
1.0
141
2.0
290
     0
  0
SCALE
  5
2560
102
{ACAD_REACTORS
330
255D
102
}
330
255D
100
AcDbScale
 70
     0
300
1:4
140
1.0
141
4.0
290
     0
  0
SCALE
  5
2561
102
{ACAD_REACTORS
330
255D
102
}
330
255D
100
AcDbScale
 70
     0
300
1:5
140
1.0
141
5.0
290
     0
  0
SCALE
  5
2562
102
{ACAD_REACTORS
330
255D
102
}
330
255D
100
AcDbScale
 70
     0
300
1:8
140
1.0
141
8.0
290
     0
  0
SCALE
  5
2563
102
{ACAD_REACTORS
330
255D
102
}
330
255D
100
AcDbScale
 70
     0
300
1:10
140
1.0
141
10.0
290
     0
  0
SCALE
  5
2564
102
{ACAD_REACTORS
330
255D
102
}
330
255D
100
AcDbScale
 70
     0
300
1:16
140
1.0
141
16.0
290
     0
  0
SCALE
  5
2565
102
{ACAD_REACTORS
330
255D
102
}
330
255D
100
AcDbScale
 70
     0
300
1:20
140
1.0
141
20.0
290
     0
  0
SCALE
  5
2566
102
{ACAD_REACTORS
330
255D
102
}
330
255D
100
AcDbScale
 70
     0
300
1:30
140
1.0
141
30.0
290
     0
  0
SCALE
  5
2567
102
{ACAD_REACTORS
330
255D
102
}
330
255D
100
AcDbScale
 70
     0
300
1:40
140
1.0
141
40.0
290
     0
  0
SCALE
  5
2568
102
{ACAD_REACTORS
330
255D
102
}
330
255D
100
AcDbScale
 70
     0
300
1:50
140
1.0
141
50.0
290
     0
  0
SCALE
  5
2569
102
{ACAD_REACTORS
330
255D
102
}
330
255D
100
AcDbScale
 70
     0
300
1:100
140
1.0
141
100.0
290
     0
  0
SCALE
  5
256A
102
{ACAD_REACTORS
330
255D
102
}
330
255D
100
AcDbScale
 70
     0
300
2:1
140
2.0
141
1.0
290
     0
  0
SCALE
  5
256B
102
{ACAD_REACTORS
330
255D
102
}
330
255D
100
AcDbScale
 70
     0
300
4:1
140
4.0
141
1.0
290
     0
  0
SCALE
  5
256C
102
{ACAD_REACTORS
330
255D
102
}
330
255D
100
AcDbScale
 70
     0
300
8:1
140
8.0
141
1.0
290
     0
  0
SCALE
  5
256D
102
{ACAD_REACTORS
330
255D
102
}
330
255D
100
AcDbScale
 70
     0
300
10:1
140
10.0
141
1.0
290
     0
  0
SCALE
  5
256E
102
{ACAD_REACTORS
330
255D
102
}
330
255D
100
AcDbScale
 70
     0
300
100:1
140
100.0
141
1.0
290
     0
  0
SCALE
  5
256F
102
{ACAD_REACTORS
330
255D
102
}
330
255D
100
AcDbScale
 70
     0
300
1/128" = 1'-0"
140
0.0078125
141
12.0
290
     0
  0
SCALE
  5
2570
102
{ACAD_REACTORS
330
255D
102
}
330
255D
100
AcDbScale
 70
     0
300
1/64" = 1'-0"
140
0.015625
141
12.0
290
     0
  0
SCALE
  5
2571
102
{ACAD_REACTORS
330
255D
102
}
330
255D
100
AcDbScale
 70
     0
300
1/32" = 1'-0"
140
0.03125
141
12.0
290
     0
  0
SCALE
  5
2572
102
{ACAD_REACTORS
330
255D
102
}
330
255D
100
AcDbScale
 70
     0
300
1/16" = 1'-0"
140
0.0625
141
12.0
290
     0
  0
SCALE
  5
2573
102
{ACAD_REACTORS
330
255D
102
}
330
255D
100
AcDbScale
 70
     0
300
3/32" = 1'-0"
140
0.09375
141
12.0
290
     0
  0
SCALE
  5
2574
102
{ACAD_REACTORS
330
255D
102
}
330
255D
100
AcDbScale
 70
     0
300
1/8" = 1'-0"
140
0.125
141
12.0
290
     0
  0
SCALE
  5
2575
102
{ACAD_REACTORS
330
255D
102
}
330
255D
100
AcDbScale
 70
     0
300
3/16" = 1'-0"
140
0.1875
141
12.0
290
     0
  0
SCALE
  5
2576
102
{ACAD_REACTORS
330
255D
102
}
330
255D
100
AcDbScale
 70
     0
300
1/4" = 1'-0"
140
0.25
141
12.0
290
     0
  0
SCALE
  5
2577
102
{ACAD_REACTORS
330
255D
102
}
330
255D
100
AcDbScale
 70
     0
300
3/8" = 1'-0"
140
0.375
141
12.0
290
     0
  0
SCALE
  5
2578
102
{ACAD_REACTORS
330
255D
102
}
330
255D
100
AcDbScale
 70
     0
300
1/2" = 1'-0"
140
0.5
141
12.0
290
     0
  0
SCALE
  5
2579
102
{ACAD_REACTORS
330
255D
102
}
330
255D
100
AcDbScale
 70
     0
300
3/4" = 1'-0"
140
0.75
141
12.0
290
     0
  0
SCALE
  5
257A
102
{ACAD_REACTORS
330
255D
102
}
330
255D
100
AcDbScale
 70
     0
300
1" = 1'-0"
140
1.0
141
12.0
290
     0
  0
SCALE
  5
257B
102
{ACAD_REACTORS
330
255D
102
}
330
255D
100
AcDbScale
 70
     0
300
1-1/2" = 1'-0"
140
1.5
141
12.0
290
     0
  0
SCALE
  5
257C
102
{ACAD_REACTORS
330
255D
102
}
330
255D
100
AcDbScale
 70
     0
300
3" = 1'-0"
140
3.0
141
12.0
290
     0
  0
SCALE
  5
257D
102
{ACAD_REACTORS
330
255D
102
}
330
255D
100
AcDbScale
 70
     0
300
6" = 1'-0"
140
6.0
141
12.0
290
     0
  0
SCALE
  5
257E
102
{ACAD_REACTORS
330
255D
102
}
330
255D
100
AcDbScale
 70
     0
300
1'-0" = 1'-0"
140
12.0
141
12.0
290
     0
  0
TABLESTYLE
  5
255C
102
{ACAD_XDICTIONARY
360
58D3
102
}
102
{ACAD_REACTORS
330
255B
102
}
330
255B
100
AcDbTableStyle
  3
Standard
 70
     0
 71
     0
 40
0.06
 41
0.06
280
     0
281
     0
  7
Standard
140
0.18
170
     2
 62
     0
 63
     7
283
     0
274
    -2
284
     1
 64
     0
275
    -2
285
     1
 65
     0
276
    -2
286
     1
 66
     0
277
    -2
287
     1
 67
     0
278
    -2
288
     1
 68
     0
279
    -2
289
     1
 69
     0
  7
Standard
140
0.25
170
     5
 62
     0
 63
     7
283
     0
274
    -2
284
     1
 64
     0
275
    -2
285
     1
 65
     0
276
    -2
286
     1
 66
     0
277
    -2
287
     1
 67
     0
278
    -2
288
     1
 68
     0
279
    -2
289
     1
 69
     0
  7
Standard
140
0.18
170
     5
 62
     0
 63
     7
283
     0
274
    -2
284
     1
 64
     0
275
    -2
285
     1
 65
     0
276
    -2
286
     1
 66
     0
277
    -2
287
     1
 67
     0
278
    -2
288
     1
 68
     0
279
    -2
289
     1
 69
     0
  0
VISUALSTYLE
  5
2550
102
{ACAD_REACTORS
330
254A
102
}
330
254A
100
AcDbVisualStyle
  2
2dWireframe
 70
     4
 71
     0
 72
     2
 73
     0
 90
        0
 40
-0.6
 41
-30.0
 62
     5
 63
     7
 74
     1
 91
        4
 64
     7
 65
   257
 75
     1
175
     1
 42
1.0
 92
        0
 66
   257
 43
1.0
 76
     1
 77
     6
 78
     2
 67
     7
 79
     5
170
     0
171
     0
290
     0
174
     0
 93
        1
 44
0.0
173
     0
291
     0
 45
0.0
1001
ACAD
1000
AcDbSavedByObjectVersion
1070
     0
  0
VISUALSTYLE
  5
2552
102
{ACAD_REACTORS
330
254A
102
}
330
254A
100
AcDbVisualStyle
  2
3D Hidden
 70
     6
 71
     1
 72
     2
 73
     2
 90
        0
 40
-0.6
 41
-30.0
 62
     5
 63
     7
 74
     2
 91
        2
 64
     7
 65
   257
 75
     2
175
     1
 42
40.0
 92
        0
 66
   257
 43
1.0
 76
     1
 77
     6
 78
     2
 67
     7
 79
     3
170
     0
171
     0
290
     0
174
     0
 93
        1
 44
0.0
173
     0
291
     0
 45
0.0
1001
ACAD
1000
AcDbSavedByObjectVersion
1070
     0
  0
VISUALSTYLE
  5
2551
102
{ACAD_REACTORS
330
254A
102
}
330
254A
100
AcDbVisualStyle
  2
3dWireframe
 70
     5
 71
     0
 72
     2
 73
     0
 90
        0
 40
-0.6
 41
-30.0
 62
     5
 63
     7
 74
     1
 91
        4
 64
     7
 65
   257
 75
     1
175
     1
 42
1.0
 92
        0
 66
   257
 43
1.0
 76
     1
 77
     6
 78
     2
 67
     7
 79
     5
170
     0
171
     0
290
     0
174
     0
 93
        1
 44
0.0
173
     0
291
     0
 45
0.0
1001
ACAD
1000
AcDbSavedByObjectVersion
1070
     0
  0
VISUALSTYLE
  5
254F
102
{ACAD_REACTORS
330
254A
102
}
330
254A
100
AcDbVisualStyle
  2
Basic
 70
     7
 71
     1
 72
     0
 73
     1
 90
        0
 40
-0.6
 41
-30.0
 62
     5
 63
     7
 74
     0
 91
        4
 64
     7
 65
   257
 75
     1
175
     1
 42
1.0
 92
        8
 66
     7
 43
1.0
 76
     1
 77
     6
 78
     2
 67
     7
 79
     5
170
     0
171
     0
290
     0
174
     0
 93
        1
 44
0.0
173
     0
291
     1
 45
0.0
1001
ACAD
1000
AcDbSavedByObjectVersion
1070
     0
  0
VISUALSTYLE
  5
2556
102
{ACAD_REACTORS
330
254A
102
}
330
254A
100
AcDbVisualStyle
  2
Brighten
 70
    12
 71
     2
 72
     2
 73
     0
 90
        0
 40
-0.6
 41
-30.0
 62
     5
 63
     7
 74
     1
 91
        4
 64
     7
 65
   257
 75
     1
175
     1
 42
1.0
 92
        8
 66
     7
 43
1.0
 76
     1
 77
     6
 78
     2
 67
     7
 79
     5
170
     0
171
     0
290
     0
174
     0
 93
        1
 44
50.0
173
     0
291
     1
 45
0.0
1001
ACAD
1000
AcDbSavedByObjectVersion
1070
     0
  0
VISUALSTYLE
  5
255A
102
{ACAD_REACTORS
330
254A
102
}
330
254A
100
AcDbVisualStyle
  2
ColorChange
 70
    16
 71
     2
 72
     2
 73
     3
 90
        0
 40
-0.6
 41
-30.0
 62
     5
 63
     8
 74
     1
 91
        4
 64
     7
 65
   257
 75
     1
175
     1
 42
1.0
 92
        8
 66
     8
 43
1.0
 76
     1
 77
     6
 78
     2
 67
     7
 79
     5
170
     0
171
     0
290
     0
174
     0
 93
        1
 44
0.0
173
     0
291
     1
 45
0.0
1001
ACAD
1000
AcDbSavedByObjectVersion
1070
     0
  0
VISUALSTYLE
  5
2553
102
{ACAD_REACTORS
330
254A
102
}
330
254A
100
AcDbVisualStyle
  2
Conceptual
 70
     9
 71
     3
 72
     2
 73
     0
 90
        0
 40
-0.6
 41
-30.0
 62
     5
 63
     7
 74
     2
 91
        2
 64
     7
 65
   257
 75
     1
175
     1
 42
40.0
 92
        8
 66
     7
 43
1.0
 76
     1
 77
     6
 78
     2
 67
     7
 79
     3
170
     0
171
     0
290
     0
174
     0
 93
        1
 44
0.0
173
     0
291
     0
 45
0.0
1001
ACAD
1000
AcDbSavedByObjectVersion
1070
     0
  0
VISUALSTYLE
  5
2555
102
{ACAD_REACTORS
330
254A
102
}
330
254A
100
AcDbVisualStyle
  2
Dim
 70
    11
 71
     2
 72
     2
 73
     0
 90
        0
 40
-0.6
 41
-30.0
 62
     5
 63
     7
 74
     1
 91
        4
 64
     7
 65
   257
 75
     1
175
     1
 42
1.0
 92
        8
 66
     7
 43
1.0
 76
     1
 77
     6
 78
     2
 67
     7
 79
     5
170
     0
171
     0
290
     0
174
     0
 93
        1
 44
-50.0
173
     0
291
     1
 45
0.0
1001
ACAD
1000
AcDbSavedByObjectVersion
1070
     0
  0
VISUALSTYLE
  5
2559
102
{ACAD_REACTORS
330
254A
102
}
330
254A
100
AcDbVisualStyle
  2
Facepattern
 70
    15
 71
     2
 72
     2
 73
     0
 90
        0
 40
-0.6
 41
-30.0
 62
     5
 63
     7
 74
     1
 91
        4
 64
     7
 65
   257
 75
     1
175
     1
 42
1.0
 92
        8
 66
     7
 43
1.0
 76
     1
 77
     6
 78
     2
 67
     7
 79
     5
170
     0
171
     0
290
     0
174
     0
 93
        1
 44
0.0
173
     0
291
     1
 45
0.0
1001
ACAD
1000
AcDbSavedByObjectVersion
1070
     0
  0
VISUALSTYLE
  5
254B
102
{ACAD_REACTORS
330
254A
102
}
330
254A
100
AcDbVisualStyle
  2
Flat
 70
     0
 71
     2
 72
     1
 73
     1
 90
        2
 40
-0.6
 41
30.0
 62
     5
 63
     7
 74
     0
 91
        4
 64
     7
 65
   257
 75
     1
175
     1
 42
1.0
 92
        8
 66
     7
 43
1.0
 76
     1
 77
     6
 78
     2
 67
     7
 79
     5
170
     0
171
     0
290
     0
174
     0
 93
       13
 44
0.0
173
     0
291
     1
 45
0.0
1001
ACAD
1000
AcDbSavedByObjectVersion
1070
     0
  0
VISUALSTYLE
  5
254C
102
{ACAD_REACTORS
330
254A
102
}
330
254A
100
AcDbVisualStyle
  2
FlatWithEdges
 70
     1
 71
     2
 72
     1
 73
     1
 90
        2
 40
-0.6
 41
30.0
 62
     5
 63
     7
 74
     1
 91
        4
 64
     7
 65
   257
 75
     1
175
     1
 42
1.0
 92
        0
 66
   257
 43
1.0
 76
     1
 77
     6
 78
     2
 67
     7
 79
     5
170
     0
171
     0
290
     0
174
     0
 93
       13
 44
0.0
173
     0
291
     1
 45
0.0
1001
ACAD
1000
AcDbSavedByObjectVersion
1070
     0
  0
VISUALSTYLE
  5
254D
102
{ACAD_REACTORS
330
254A
102
}
330
254A
100
AcDbVisualStyle
  2
Gouraud
 70
     2
 71
     2
 72
     2
 73
     1
 90
        2
 40
-0.6
 41
30.0
 62
     5
 63
     7
 74
     0
 91
        4
 64
     7
 65
   257
 75
     1
175
     1
 42
1.0
 92
        0
 66
     7
 43
1.0
 76
     1
 77
     6
 78
     2
 67
     7
 79
     5
170
     0
171
     0
290
     0
174
     0
 93
       13
 44
0.0
173
     0
291
     1
 45
0.0
1001
ACAD
1000
AcDbSavedByObjectVersion
1070
     0
  0
VISUALSTYLE
  5
254E
102
{ACAD_REACTORS
330
254A
102
}
330
254A
100
AcDbVisualStyle
  2
GouraudWithEdges
 70
     3
 71
     2
 72
     2
 73
     1
 90
        2
 40
-0.6
 41
30.0
 62
     5
 63
     7
 74
     1
 91
        4
 64
     7
 65
   257
 75
     1
175
     1
 42
1.0
 92
        0
 66
   257
 43
1.0
 76
     1
 77
     6
 78
     2
 67
     7
 79
     5
170
     0
171
     0
290
     0
174
     0
 93
       13
 44
0.0
173
     0
291
     1
 45
0.0
1001
ACAD
1000
AcDbSavedByObjectVersion
1070
     0
  0
VISUALSTYLE
  5
2558
102
{ACAD_REACTORS
330
254A
102
}
330
254A
100
AcDbVisualStyle
  2
Linepattern
 70
    14
 71
     2
 72
     2
 73
     0
 90
        0
 40
-0.6
 41
-30.0
 62
     5
 63
     7
 74
     1
 91
        4
 64
     7
 65
   257
 75
     7
175
     7
 42
1.0
 92
        8
 66
     7
 43
1.0
 76
     1
 77
     6
 78
     2
 67
     7
 79
     5
170
     0
171
     0
290
     0
174
     0
 93
        1
 44
0.0
173
     0
291
     1
 45
0.0
1001
ACAD
1000
AcDbSavedByObjectVersion
1070
     0
  0
VISUALSTYLE
  5
2554
102
{ACAD_REACTORS
330
254A
102
}
330
254A
100
AcDbVisualStyle
  2
Realistic
 70
     8
 71
     2
 72
     2
 73
     0
 90
        0
 40
-0.6
 41
-30.0
 62
     5
 63
     7
 74
     1
 91
        0
 64
     7
 65
   257
 75
     1
175
     1
 42
1.0
 92
        8
 66
     8
 43
1.0
 76
     1
 77
     6
 78
     2
 67
     7
 79
     5
170
     0
171
     0
290
     0
174
     0
 93
       13
 44
0.0
173
     0
291
     0
 45
0.0
1001
ACAD
1000
AcDbSavedByObjectVersion
1070
     0
  0
VISUALSTYLE
  5
2557
102
{ACAD_REACTORS
330
254A
102
}
330
254A
100
AcDbVisualStyle
  2
Thicken
 70
    13
 71
     2
 72
     2
 73
     0
 90
        0
 40
-0.6
 41
-30.0
 62
     5
 63
     7
 74
     1
 91
        4
 64
     7
 65
   257
 75
     1
175
     1
 42
1.0
 92
       12
 66
     7
 43
1.0
 76
     1
 77
     6
 78
     2
 67
     7
 79
     5
170
     0
171
     0
290
     0
174
     0
 93
        1
 44
0.0
173
     0
291
     1
 45
0.0
1001
ACAD
1000
AcDbSavedByObjectVersion
1070
     0
  0
DICTIONARYVAR
  5
58E0
102
{ACAD_REACTORS
330
882
102
}
330
882
100
DictionaryVariables
280
     0
  1
1:1
  0
DICTIONARYVAR
  5
58DF
102
{ACAD_REACTORS
330
882
102
}
330
882
100
DictionaryVariables
280
     0
  1
STANDARD
  0
DICTIONARYVAR
  5
58DE
102
{ACAD_REACTORS
330
882
102
}
330
882
100
DictionaryVariables
280
     0
  1
STANDARD
  0
DICTIONARYVAR
  5
884
102
{ACAD_REACTORS
330
882
102
}
330
882
100
DictionaryVariables
280
     0
  1
2
  0
DICTIONARYVAR
  5
883
102
{ACAD_REACTORS
330
882
102
}
330
882
100
DictionaryVariables
280
     0
  1
1
  0
DICTIONARYVAR
  5
59CE
102
{ACAD_REACTORS
330
882
102
}
330
882
100
DictionaryVariables
280
     0
  1
0
  0
DICTIONARYVAR
  5
885
102
{ACAD_REACTORS
330
882
102
}
330
882
100
DictionaryVariables
280
     0
  1

  0
DICTIONARYVAR
  5
59CD
102
{ACAD_REACTORS
330
882
102
}
330
882
100
DictionaryVariables
280
     0
  1
127
  0
DICTIONARY
  5
59E5
330
58E8
100
AcDbDictionary
280
     1
281
     1
  3
ACAD_XREC_ROUNDTRIP
360
59E6
  0
DICTIONARY
  5
59D1
330
C
100
AcDbDictionary
280
     1
281
     1
  3
ACAD_XREC_ROUNDTRIP
360
59D2
  0
DICTIONARY
  5
253B
330
253A
100
AcDbDictionary
280
     1
281
     1
  3
ACAD_XREC_ROUNDTRIP
360
59D4
  3
BUMPTILE
360
253D
  3
DIFFUSETILE
360
253C
  3
OPACITYTILE
360
2540
  3
REFLECTIONTILE
360
253F
  3
REFRACTIONTILE
360
2541
  3
SPECULARTILE
360
253E
  0
DICTIONARY
  5
2533
330
2532
100
AcDbDictionary
280
     1
281
     1
  3
ACAD_XREC_ROUNDTRIP
360
59D3
  3
BUMPTILE
360
2535
  3
DIFFUSETILE
360
2534
  3
OPACITYTILE
360
2538
  3
REFLECTIONTILE
360
2537
  3
REFRACTIONTILE
360
2539
  3
SPECULARTILE
360
2536
  0
DICTIONARY
  5
2543
330
2542
100
AcDbDictionary
280
     1
281
     1
  3
ACAD_XREC_ROUNDTRIP
360
59D5
  3
BUMPTILE
360
2545
  3
DIFFUSETILE
360
2544
  3
OPACITYTILE
360
2548
  3
REFLECTIONTILE
360
2547
  3
REFRACTIONTILE
360
2549
  3
SPECULARTILE
360
2546
  0
DICTIONARY
  5
59D7
330
3234
100
AcDbDictionary
280
     1
281
     1
  3
ACAD_XREC_ROUNDTRIP
360
59D8
  0
DICTIONARY
  5
59D9
330
3235
100
AcDbDictionary
280
     1
281
     1
  3
ACAD_XREC_ROUNDTRIP
360
59DA
  0
DICTIONARY
  5
59DB
330
3236
100
AcDbDictionary
280
     1
281
     1
  3
ACAD_XREC_ROUNDTRIP
360
59DC
  0
DICTIONARY
  5
59DD
330
3237
100
AcDbDictionary
280
     1
281
     1
  3
ACAD_XREC_ROUNDTRIP
360
59DE
  0
DICTIONARY
  5
59DF
330
3238
100
AcDbDictionary
280
     1
281
     1
  3
ACAD_XREC_ROUNDTRIP
360
59E0
  0
DICTIONARY
  5
59E1
330
3239
100
AcDbDictionary
280
     1
281
     1
  3
ACAD_XREC_ROUNDTRIP
360
59E2
  0
DICTIONARY
  5
59E3
330
323A
100
AcDbDictionary
280
     1
281
     1
  3
ACAD_XREC_ROUNDTRIP
360
59E4
  0
DICTIONARY
  5
58D3
330
255C
100
AcDbDictionary
280
     1
281
     1
  3
ACAD_ROUNDTRIP_2008_TABLESTYLE_CELLSTYLEMAP
360
59CF
  3
ACAD_XREC_ROUNDTRIP
360
59D6
  0
XRECORD
  5
59E6
102
{ACAD_REACTORS
330
59E5
102
}
330
59E5
100
AcDbXrecord
280
     1
102
SHADEPLOT
 70
     0
102
SHADEPLOTRESLEVEL
 70
     2
102
SHADEPLOTCUSTOMDPI
 70
   300
  0
XRECORD
  5
59D2
102
{ACAD_REACTORS
330
59D1
102
}
330
59D1
100
AcDbXrecord
280
     1
102
SHADEPLOT
 70
     0
102
SHADEPLOTRESLEVEL
 70
     2
102
SHADEPLOTCUSTOMDPI
 70
   300
  0
XRECORD
  5
59D4
102
{ACAD_REACTORS
330
253B
102
}
330
253B
100
AcDbXrecord
280
     1
102
MATERIAL
148
0.0
149
0.0
149
0.0
 93
        0
 94
      127
282
     0
 72
     0
 77
     0
171
     0
175
     0
179
     0
273
     0
  0
XRECORD
  5
253D
102
{ACAD_REACTORS
330
253B
102
}
330
253B
100
AcDbXrecord
280
     1
270
     1
271
     1
  0
XRECORD
  5
253C
102
{ACAD_REACTORS
330
253B
102
}
330
253B
100
AcDbXrecord
280
     1
270
     1
271
     1
  0
XRECORD
  5
2540
102
{ACAD_REACTORS
330
253B
102
}
330
253B
100
AcDbXrecord
280
     1
270
     1
271
     1
  0
XRECORD
  5
253F
102
{ACAD_REACTORS
330
253B
102
}
330
253B
100
AcDbXrecord
280
     1
270
     1
271
     1
  0
XRECORD
  5
2541
102
{ACAD_REACTORS
330
253B
102
}
330
253B
100
AcDbXrecord
280
     1
270
     1
271
     1
  0
XRECORD
  5
253E
102
{ACAD_REACTORS
330
253B
102
}
330
253B
100
AcDbXrecord
280
     1
270
     1
271
     1
  0
XRECORD
  5
59D3
102
{ACAD_REACTORS
330
2533
102
}
330
2533
100
AcDbXrecord
280
     1
102
MATERIAL
148
0.0
149
0.0
149
0.0
 93
        0
 94
      127
282
     0
 72
     0
 77
     0
171
     0
175
     0
179
     0
273
     0
  0
XRECORD
  5
2535
102
{ACAD_REACTORS
330
2533
102
}
330
2533
100
AcDbXrecord
280
     1
270
     1
271
     1
  0
XRECORD
  5
2534
102
{ACAD_REACTORS
330
2533
102
}
330
2533
100
AcDbXrecord
280
     1
270
     1
271
     1
  0
XRECORD
  5
2538
102
{ACAD_REACTORS
330
2533
102
}
330
2533
100
AcDbXrecord
280
     1
270
     1
271
     1
  0
XRECORD
  5
2537
102
{ACAD_REACTORS
330
2533
102
}
330
2533
100
AcDbXrecord
280
     1
270
     1
271
     1
  0
XRECORD
  5
2539
102
{ACAD_REACTORS
330
2533
102
}
330
2533
100
AcDbXrecord
280
     1
270
     1
271
     1
  0
XRECORD
  5
2536
102
{ACAD_REACTORS
330
2533
102
}
330
2533
100
AcDbXrecord
280
     1
270
     1
271
     1
  0
XRECORD
  5
59D5
102
{ACAD_REACTORS
330
2543
102
}
330
2543
100
AcDbXrecord
280
     1
102
MATERIAL
148
0.0
149
0.0
149
0.0
 93
        0
 94
      127
282
     0
 72
     0
 77
     0
171
     0
175
     0
179
     0
273
     0
  0
XRECORD
  5
2545
102
{ACAD_REACTORS
330
2543
102
}
330
2543
100
AcDbXrecord
280
     1
270
     1
271
     1
  0
XRECORD
  5
2544
102
{ACAD_REACTORS
330
2543
102
}
330
2543
100
AcDbXrecord
280
     1
270
     1
271
     1
  0
XRECORD
  5
2548
102
{ACAD_REACTORS
330
2543
102
}
330
2543
100
AcDbXrecord
280
     1
270
     1
271
     1
  0
XRECORD
  5
2547
102
{ACAD_REACTORS
330
2543
102
}
330
2543
100
AcDbXrecord
280
     1
270
     1
271
     1
  0
XRECORD
  5
2549
102
{ACAD_REACTORS
330
2543
102
}
330
2543
100
AcDbXrecord
280
     1
270
     1
271
     1
  0
XRECORD
  5
2546
102
{ACAD_REACTORS
330
2543
102
}
330
2543
100
AcDbXrecord
280
     1
270
     1
271
     1
  0
XRECORD
  5
59D8
102
{ACAD_REACTORS
330
59D7
102
}
330
59D7
100
AcDbXrecord
280
     1
102
SHADEPLOT
 70
     0
102
SHADEPLOTRESLEVEL
 70
     2
102
SHADEPLOTCUSTOMDPI
 70
   300
  0
XRECORD
  5
59DA
102
{ACAD_REACTORS
330
59D9
102
}
330
59D9
100
AcDbXrecord
280
     1
102
SHADEPLOT
 70
     0
102
SHADEPLOTRESLEVEL
 70
     2
102
SHADEPLOTCUSTOMDPI
 70
   300
  0
XRECORD
  5
59DC
102
{ACAD_REACTORS
330
59DB
102
}
330
59DB
100
AcDbXrecord
280
     1
102
SHADEPLOT
 70
     0
102
SHADEPLOTRESLEVEL
 70
     2
102
SHADEPLOTCUSTOMDPI
 70
   300
  0
XRECORD
  5
59DE
102
{ACAD_REACTORS
330
59DD
102
}
330
59DD
100
AcDbXrecord
280
     1
102
SHADEPLOT
 70
     0
102
SHADEPLOTRESLEVEL
 70
     2
102
SHADEPLOTCUSTOMDPI
 70
   300
  0
XRECORD
  5
59E0
102
{ACAD_REACTORS
330
59DF
102
}
330
59DF
100
AcDbXrecord
280
     1
102
SHADEPLOT
 70
     0
102
SHADEPLOTRESLEVEL
 70
     2
102
SHADEPLOTCUSTOMDPI
 70
   300
  0
XRECORD
  5
59E2
102
{ACAD_REACTORS
330
59E1
102
}
330
59E1
100
AcDbXrecord
280
     1
102
SHADEPLOT
 70
     0
102
SHADEPLOTRESLEVEL
 70
     2
102
SHADEPLOTCUSTOMDPI
 70
   300
  0
XRECORD
  5
59E4
102
{ACAD_REACTORS
330
59E3
102
}
330
59E3
100
AcDbXrecord
280
     1
102
SHADEPLOT
 70
     0
102
SHADEPLOTRESLEVEL
 70
     2
102
SHADEPLOTCUSTOMDPI
 70
   300
  0
CELLSTYLEMAP
  5
59CF
102
{ACAD_REACTORS
330
58D3
102
}
330
58D3
100
AcDbCellStyleMap
 90
        3
300
CELLSTYLE
  1
TABLEFORMAT_BEGIN
 90
        5
170
     1
 91
        0
 92
    32768
 62
   257
 93
        1
300
CONTENTFORMAT
  1
CONTENTFORMAT_BEGIN
 90
        0
 91
        0
 92
      512
 93
        0
300

 40
0.0
140
1.0
 94
        5
 62
     0
340
18
144
0.25
309
CONTENTFORMAT_END
171
     0
 94
        0
309
TABLEFORMAT_END
  1
CELLSTYLE_BEGIN
 90
        1
 91
        1
300
_TITLE
309
CELLSTYLE_END
300
CELLSTYLE
  1
TABLEFORMAT_BEGIN
 90
        5
170
     1
 91
        0
 92
        0
 62
   257
 93
        1
300
CONTENTFORMAT
  1
CONTENTFORMAT_BEGIN
 90
        0
 91
        0
 92
      512
 93
        0
300

 40
0.0
140
1.0
 94
        5
 62
     0
340
18
144
0.18
309
CONTENTFORMAT_END
171
     0
 94
        0
309
TABLEFORMAT_END
  1
CELLSTYLE_BEGIN
 90
        2
 91
        1
300
_HEADER
309
CELLSTYLE_END
300
CELLSTYLE
  1
TABLEFORMAT_BEGIN
 90
        5
170
     1
 91
        0
 92
        0
 62
   257
 93
        1
300
CONTENTFORMAT
  1
CONTENTFORMAT_BEGIN
 90
        0
 91
        0
 92
      512
 93
        0
300

 40
0.0
140
1.0
 94
        2
 62
     0
340
18
144
0.18
309
CONTENTFORMAT_END
171
     0
 94
        0
309
TABLEFORMAT_END
  1
CELLSTYLE_BEGIN
 90
        3
 91
        2
300
_DATA
309
CELLSTYLE_END
  0
XRECORD
  5
59D6
102
{ACAD_REACTORS
330
58D3
102
}
330
58D3
100
AcDbXrecord
280
     1
102
ACAD_ROUNDTRIP_PRE2007_TABLESTYLE
 90
      512
 91
        0
  1

 92
      512
 93
        0
  2

 94
      512
 95
        0
  3

  0
ENDSEC
  0
EOF
