  0
SECTION
  2
HEADER
  9
$ACADVER
  1
AC1015
  9
$ACADMAINTVER
 70
    18
  9
$DWGCODEPAGE
  3
ANSI_1252
  9
$INSBASE
 10
0.0
 20
0.0
 30
0.0
  9
$EXTMIN
 10
4.066063000664656
 20
11.80920419912926
 30
-0.0015258207003612
  9
$EXTMAX
 10
26.1271439246218
 20
31.62579353575804
 30
0.0000000349246008
  9
$LIMMIN
 10
0.0
 20
0.0
  9
$LIMMAX
 10
12.0
 20
9.0
  9
$ORTHOMODE
 70
     1
  9
$REGENMODE
 70
     1
  9
$FILLMODE
 70
     1
  9
$QTEXTMODE
 70
     0
  9
$MIRRTEXT
 70
     0
  9
$LTSCALE
 40
0.5
  9
$ATTMODE
 70
     1
  9
$TEXTSIZE
 40
1.9375
  9
$TRACEWID
 40
0.05
  9
$TEXTSTYLE
  7
ARCHQUIK
  9
$CLAYER
  8
0
  9
$CELTYPE
  6
ByLayer
  9
$CECOLOR
 62
   256
  9
$CELTSCALE
 40
1.0
  9
$DISPSILH
 70
     0
  9
$DIMSCALE
 40
1.0
  9
$DIMASZ
 40
2.0
  9
$DIMEXO
 40
0.0625
  9
$DIMDLI
 40
0.0625
  9
$DIMRND
 40
0.0
  9
$DIMDLE
 40
0.0
  9
$DIMEXE
 40
0.0625
  9
$DIMTP
 40
0.0
  9
$DIMTM
 40
0.0
  9
$DIMTXT
 40
1.919999999999999
  9
$DIMCEN
 40
0.09
  9
$DIMTSZ
 40
0.0
  9
$DIMTOL
 70
     0
  9
$DIMLIM
 70
     0
  9
$DIMTIH
 70
     0
  9
$DIMTOH
 70
     0
  9
$DIMSE1
 70
     0
  9
$DIMSE2
 70
     0
  9
$DIMTAD
 70
     1
  9
$DIMZIN
 70
     2
  9
$DIMBLK
  1

  9
$DIMASO
 70
     1
  9
$DIMSHO
 70
     1
  9
$DIMPOST
  1

  9
$DIMAPOST
  1

  9
$DIMALT
 70
     0
  9
$DIMALTD
 70
     2
  9
$DIMALTF
 40
25.4
  9
$DIMLFAC
 40
1.0
  9
$DIMTOFL
 70
     0
  9
$DIMTVP
 40
0.0
  9
$DIMTIX
 70
     0
  9
$DIMSOXD
 70
     0
  9
$DIMSAH
 70
     0
  9
$DIMBLK1
  1

  9
$DIMBLK2
  1

  9
$DIMSTYLE
  2
Standard
  9
$DIMCLRD
 70
   256
  9
$DIMCLRE
 70
   256
  9
$DIMCLRT
 70
     7
  9
$DIMTFAC
 40
0.75
  9
$DIMGAP
 40
0.0625
  9
$DIMJUST
 70
     0
  9
$DIMSD1
 70
     0
  9
$DIMSD2
 70
     0
  9
$DIMTOLJ
 70
     1
  9
$DIMTZIN
 70
     0
  9
$DIMALTZ
 70
     0
  9
$DIMALTTZ
 70
     0
  9
$DIMUPT
 70
     0
  9
$DIMDEC
 70
     4
  9
$DIMTDEC
 70
     4
  9
$DIMALTU
 70
     2
  9
$DIMALTTD
 70
     2
  9
$DIMTXSTY
  7
Standard
  9
$DIMAUNIT
 70
     0
  9
$DIMADEC
 70
     3
  9
$DIMALTRND
 40
0.0
  9
$DIMAZIN
 70
     0
  9
$DIMDSEP
 70
    46
  9
$DIMATFIT
 70
     3
  9
$DIMFRAC
 70
     1
  9
$DIMLDRBLK
  1

  9
$DIMLUNIT
 70
     5
  9
$DIMLWD
 70
    -2
  9
$DIMLWE
 70
    -2
  9
$DIMTMOVE
 70
     0
  9
$LUNITS
 70
     2
  9
$LUPREC
 70
     4
  9
$SKETCHINC
 40
0.1
  9
$FILLETRAD
 40
0.0
  9
$AUNITS
 70
     0
  9
$AUPREC
 70
     3
  9
$MENU
  1
.
  9
$ELEVATION
 40
0.0
  9
$PELEVATION
 40
0.0
  9
$THICKNESS
 40
0.0
  9
$LIMCHECK
 70
     0
  9
$CHAMFERA
 40
0.5
  9
$CHAMFERB
 40
0.5
  9
$CHAMFERC
 40
1.0
  9
$CHAMFERD
 40
0.0
  9
$SKPOLY
 70
     0
  9
$TDCREATE
 40
2453963.430150475
  9
$TDUCREATE
 40
2453963.638483808
  9
$TDUPDATE
 40
2455447.477992592
  9
$TDUUPDATE
 40
2455447.686325926
  9
$TDINDWG
 40
1.6830907870
  9
$TDUSRTIMER
 40
1.6830906019
  9
$USRTIMER
 70
     1
  9
$ANGBASE
 50
0.0
  9
$ANGDIR
 70
     0
  9
$PDMODE
 70
    33
  9
$PDSIZE
 40
0.016
  9
$PLINEWID
 40
0.0
  9
$SPLFRAME
 70
     0
  9
$SPLINETYPE
 70
     6
  9
$SPLINESEGS
 70
     8
  9
$HANDSEED
  5
1D49
  9
$SURFTAB1
 70
     6
  9
$SURFTAB2
 70
     6
  9
$SURFTYPE
 70
     6
  9
$SURFU
 70
     6
  9
$SURFV
 70
     6
  9
$UCSBASE
  2

  9
$UCSNAME
  2

  9
$UCSORG
 10
0.0
 20
0.0
 30
0.0
  9
$UCSXDIR
 10
1.0
 20
0.0
 30
0.0
  9
$UCSYDIR
 10
0.0
 20
1.0
 30
0.0
  9
$UCSORTHOREF
  2

  9
$UCSORTHOVIEW
 70
     0
  9
$UCSORGTOP
 10
0.0
 20
0.0
 30
0.0
  9
$UCSORGBOTTOM
 10
0.0
 20
0.0
 30
0.0
  9
$UCSORGLEFT
 10
0.0
 20
0.0
 30
0.0
  9
$UCSORGRIGHT
 10
0.0
 20
0.0
 30
0.0
  9
$UCSORGFRONT
 10
0.0
 20
0.0
 30
0.0
  9
$UCSORGBACK
 10
0.0
 20
0.0
 30
0.0
  9
$PUCSBASE
  2

  9
$PUCSNAME
  2

  9
$PUCSORG
 10
0.0
 20
0.0
 30
0.0
  9
$PUCSXDIR
 10
1.0
 20
0.0
 30
0.0
  9
$PUCSYDIR
 10
0.0
 20
1.0
 30
0.0
  9
$PUCSORTHOREF
  2

  9
$PUCSORTHOVIEW
 70
     0
  9
$PUCSORGTOP
 10
0.0
 20
0.0
 30
0.0
  9
$PUCSORGBOTTOM
 10
0.0
 20
0.0
 30
0.0
  9
$PUCSORGLEFT
 10
0.0
 20
0.0
 30
0.0
  9
$PUCSORGRIGHT
 10
0.0
 20
0.0
 30
0.0
  9
$PUCSORGFRONT
 10
0.0
 20
0.0
 30
0.0
  9
$PUCSORGBACK
 10
0.0
 20
0.0
 30
0.0
  9
$USERI1
 70
     0
  9
$USERI2
 70
     0
  9
$USERI3
 70
     0
  9
$USERI4
 70
     0
  9
$USERI5
 70
     0
  9
$USERR1
 40
24.0
  9
$USERR2
 40
0.0
  9
$USERR3
 40
22.0
  9
$USERR4
 40
0.0
  9
$USERR5
 40
0.0
  9
$WORLDVIEW
 70
     1
  9
$SHADEDGE
 70
     3
  9
$SHADEDIF
 70
    70
  9
$TILEMODE
 70
     1
  9
$MAXACTVP
 70
    64
  9
$PINSBASE
 10
0.0
 20
0.0
 30
0.0
  9
$PLIMCHECK
 70
     0
  9
$PEXTMIN
 10
0.0
 20
0.0
 30
0.0
  9
$PEXTMAX
 10
0.0
 20
0.0
 30
0.0
  9
$PLIMMIN
 10
0.0
 20
0.0
  9
$PLIMMAX
 10
12.0
 20
9.0
  9
$UNITMODE
 70
     0
  9
$VISRETAIN
 70
     1
  9
$PLINEGEN
 70
     0
  9
$PSLTSCALE
 70
     1
  9
$TREEDEPTH
 70
  3020
  9
$CMLSTYLE
  2
Standard
  9
$CMLJUST
 70
     0
  9
$CMLSCALE
 40
1.0
  9
$PROXYGRAPHICS
 70
     1
  9
$MEASUREMENT
 70
     0
  9
$CELWEIGHT
370
    -1
  9
$ENDCAPS
280
     0
  9
$JOINSTYLE
280
     0
  9
$LWDISPLAY
290
     0
  9
$INSUNITS
 70
     1
  9
$HYPERLINKBASE
  1

  9
$STYLESHEET
  1

  9
$XEDIT
290
     1
  9
$CEPSNTYPE
380
     0
  9
$PSTYLEMODE
290
     1
  9
$FINGERPRINTGUID
  2
{FDEAD576-A652-11D2-9A35-0060089B3A3F}
  9
$VERSIONGUID
  2
{2606A3C7-99AD-43D3-898D-96095637B0F9}
  9
$EXTNAMES
290
     1
  9
$PSVPSCALE
 40
0.0
  9
$OLESTARTUP
290
     0
  0
ENDSEC
  0
SECTION
  2
CLASSES
  0
CLASS
  1
ACDBDICTIONARYWDFLT
  2
AcDbDictionaryWithDefault
  3
ObjectDBX Classes
 90
        0
280
     0
281
     0
  0
CLASS
  1
ACDBPLACEHOLDER
  2
AcDbPlaceHolder
  3
ObjectDBX Classes
 90
        0
280
     0
281
     0
  0
CLASS
  1
LAYOUT
  2
AcDbLayout
  3
ObjectDBX Classes
 90
        0
280
     0
281
     0
  0
CLASS
  1
PLOTSETTINGS
  2
AcDbPlotSettings
  3
ObjectDBX Classes
 90
    32768
280
     0
281
     0
  0
CLASS
  1
AMLOADER
  2
AMLoader
  3
AMAcad
 90
    32768
280
     1
281
     0
  0
CLASS
  1
DICTIONARYVAR
  2
AcDbDictionaryVar
  3
ObjectDBX Classes
 90
        0
280
     0
281
     0
  0
CLASS
  1
SORTENTSTABLE
  2
AcDbSortentsTable
  3
ObjectDBX Classes
 90
        0
280
     0
281
     0
  0
CLASS
  1
DIMASSOC
  2
AcDbDimAssoc
  3
"AcDbDimAssoc|Product Desc:     AcDim ARX App For Dimension|Company:          Autodesk, Inc.|WEB Address:      www.autodesk.com"
 90
    32768
280
     0
281
     0
  0
CLASS
  1
MATERIAL
  2
AcDbMaterial
  3
ObjectDBX Classes
 90
     1153
280
     0
281
     0
  0
CLASS
  1
VISUALSTYLE
  2
AcDbVisualStyle
  3
ObjectDBX Classes
 90
     4095
280
     0
281
     0
  0
CLASS
  1
TABLESTYLE
  2
AcDbTableStyle
  3
ObjectDBX Classes
 90
     4095
280
     0
281
     0
  0
CLASS
  1
SCALE
  2
AcDbScale
  3
ObjectDBX Classes
 90
     1153
280
     0
281
     0
  0
CLASS
  1
MLEADERSTYLE
  2
AcDbMLeaderStyle
  3
ACDB_MLEADERSTYLE_CLASS
 90
     4095
280
     0
281
     0
  0
CLASS
  1
CELLSTYLEMAP
  2
AcDbCellStyleMap
  3
ObjectDBX Classes
 90
     1152
280
     0
281
     0
  0
ENDSEC
  0
SECTION
  2
TABLES
  0
TABLE
  2
VPORT
  5
20
102
{ACAD_XDICTIONARY
360
1C5B
102
}
330
0
100
AcDbSymbolTable
 70
     1
  0
VPORT
  5
1278
330
20
100
AcDbSymbolTableRecord
100
AcDbViewportTableRecord
  2
*Active
 70
     0
 10
0.0
 20
0.0
 11
1.0
 21
1.0
 12
15.09660346264323
 22
21.71749886744365
 13
0.0
 23
0.0
 14
0.0625
 24
0.0625
 15
0.5
 25
0.5
 16
0.0
 26
0.0
 36
1.0
 17
0.0
 27
0.0
 37
0.0
 40
19.97946541336819
 41
1.495198902606309
 42
50.0
 43
0.0
 44
0.0
 50
0.0
 51
0.0
 71
     0
 72
  5000
 73
     1
 74
     0
 75
     0
 76
     0
 77
     0
 78
     0
281
     0
 65
     1
110
0.0
120
0.0
130
0.0
111
1.0
121
0.0
131
0.0
112
0.0
122
1.0
132
0.0
 79
     0
146
0.0
  0
ENDTAB
  0
TABLE
  2
LTYPE
  5
1B
330
0
100
AcDbSymbolTable
 70
     1
  0
LTYPE
  5
1C
330
1B
100
AcDbSymbolTableRecord
100
AcDbLinetypeTableRecord
  2
ByBlock
 70
     0
  3

 72
    65
 73
     0
 40
0.0
  0
LTYPE
  5
1D
330
1B
100
AcDbSymbolTableRecord
100
AcDbLinetypeTableRecord
  2
ByLayer
 70
     0
  3

 72
    65
 73
     0
 40
0.0
  0
LTYPE
  5
A
330
1B
100
AcDbSymbolTableRecord
100
AcDbLinetypeTableRecord
  2
Continuous
 70
     0
  3
Solid line
 72
    65
 73
     0
 40
0.0
  0
ENDTAB
  0
TABLE
  2
LAYER
  5
13
102
{ACAD_XDICTIONARY
360
14
102
}
330
0
100
AcDbSymbolTable
 70
    15
  0
LAYER
  5
5
102
{ACAD_XDICTIONARY
360
1542
102
}
330
13
100
AcDbSymbolTableRecord
100
AcDbLayerTableRecord
  2
0
 70
     0
 62
     7
  6
Continuous
370
    -3
390
6
  0
LAYER
  5
34
102
{ACAD_XDICTIONARY
360
154A
102
}
330
13
100
AcDbSymbolTableRecord
100
AcDbLayerTableRecord
  2
Pel_Wall
 70
     0
 62
     9
  6
Continuous
370
    -3
390
6
  0
LAYER
  5
41
102
{ACAD_XDICTIONARY
360
154E
102
}
330
13
100
AcDbSymbolTableRecord
100
AcDbLayerTableRecord
  2
Pel_CS-IG
 70
     0
 62
     2
  6
Continuous
370
    -3
390
6
  0
LAYER
  5
A8
102
{ACAD_XDICTIONARY
360
1550
102
}
330
13
100
AcDbSymbolTableRecord
100
AcDbLayerTableRecord
  2
Pel_CS-Hardware
 70
     0
 62
    53
  6
Continuous
370
    -3
390
6
  0
LAYER
  5
96
102
{ACAD_XDICTIONARY
360
1552
102
}
330
13
100
AcDbSymbolTableRecord
100
AcDbLayerTableRecord
  2
Pel_CS-Sealant
 70
     0
 62
    40
  6
Continuous
370
    -3
390
6
  0
LAYER
  5
AD
102
{ACAD_XDICTIONARY
360
1554
102
}
330
13
100
AcDbSymbolTableRecord
100
AcDbLayerTableRecord
  2
Pel_CS-Cross Section
 70
     0
 62
     7
  6
Continuous
370
    -3
390
6
  0
LAYER
  5
2C5
102
{ACAD_XDICTIONARY
360
1556
102
}
330
13
100
AcDbSymbolTableRecord
100
AcDbLayerTableRecord
  2
Pel_Points
 70
     0
 62
     7
  6
Continuous
290
     0
370
    -3
390
6
  0
LAYER
  5
4A
102
{ACAD_XDICTIONARY
360
1558
102
}
330
13
100
AcDbSymbolTableRecord
100
AcDbLayerTableRecord
  2
Pel_CS-Weatherstrip
 70
     0
 62
     8
  6
Continuous
370
    -3
390
6
  0
LAYER
  5
AB
102
{ACAD_XDICTIONARY
360
155A
102
}
330
13
100
AcDbSymbolTableRecord
100
AcDbLayerTableRecord
  2
Pel_CS-Reinforcement
 70
     0
 62
   150
  6
Continuous
370
    -3
390
6
  0
LAYER
  5
10D3
102
{ACAD_XDICTIONARY
360
155E
102
}
330
13
100
AcDbSymbolTableRecord
100
AcDbLayerTableRecord
  2
Pel_Clad
 70
     0
 62
    63
  6
Continuous
370
    -3
390
6
  0
LAYER
  5
145A
102
{ACAD_XDICTIONARY
360
145B
102
}
330
13
100
AcDbSymbolTableRecord
100
AcDbLayerTableRecord
  2
Pel_Hatch
 70
     0
 62
     7
  6
Continuous
370
    -3
390
6
  0
LAYER
  5
1CAC
330
13
100
AcDbSymbolTableRecord
100
AcDbLayerTableRecord
  2
Defpoints
 70
     0
 62
     7
  6
Continuous
290
     0
370
    -3
390
6
  0
ENDTAB
  0
TABLE
  2
STYLE
  5
17
330
0
100
AcDbSymbolTable
 70
     2
  0
STYLE
  5
18
330
17
100
AcDbSymbolTableRecord
100
AcDbTextStyleTableRecord
  2
Standard
 70
     0
 40
0.0
 41
1.0
 50
0.0
 71
     0
 42
1.9375
  3
ARIAL.TTF
  4

1001
ACAD
1000
Arial
1071
       34
  0
STYLE
  5
25
330
17
100
AcDbSymbolTableRecord
100
AcDbTextStyleTableRecord
  2
ARCHQUIK
 70
     0
 40
0.0
 41
1.0
 50
0.0
 71
     0
 42
1.9375
  3
archquik.shx
  4

  0
ENDTAB
  0
TABLE
  2
VIEW
  5
1E
330
0
100
AcDbSymbolTable
 70
     0
  0
ENDTAB
  0
TABLE
  2
UCS
  5
1F
330
0
100
AcDbSymbolTable
 70
     0
  0
ENDTAB
  0
TABLE
  2
APPID
  5
22
330
0
100
AcDbSymbolTable
 70
    10
  0
APPID
  5
19
330
22
100
AcDbSymbolTableRecord
100
AcDbRegAppTableRecord
  2
ACAD
 70
     0
  0
APPID
  5
9
330
22
100
AcDbSymbolTableRecord
100
AcDbRegAppTableRecord
  2
ADE
 70
     0
  0
APPID
  5
12D0
330
22
100
AcDbSymbolTableRecord
100
AcDbRegAppTableRecord
  2
ACAD_MLEADERVER
 70
     0
  0
APPID
  5
145C
330
22
100
AcDbSymbolTableRecord
100
AcDbRegAppTableRecord
  2
ACAD_DSTYLE_DIMJAG
 70
     0
  0
APPID
  5
145D
330
22
100
AcDbSymbolTableRecord
100
AcDbRegAppTableRecord
  2
ACAD_DSTYLE_DIMTALN
 70
     0
  0
APPID
  5
145E
330
22
100
AcDbSymbolTableRecord
100
AcDbRegAppTableRecord
  2
AcDbBlockRepETag
 70
     0
  0
APPID
  5
145F
330
22
100
AcDbSymbolTableRecord
100
AcDbRegAppTableRecord
  2
AcDbDynamicBlockGUID
 70
     0
  0
APPID
  5
14DE
330
22
100
AcDbSymbolTableRecord
100
AcDbRegAppTableRecord
  2
ACAD_EXEMPT_FROM_CAD_STANDARDS
 70
     0
  0
APPID
  5
156D
330
22
100
AcDbSymbolTableRecord
100
AcDbRegAppTableRecord
  2
ACAD_PSEXT
 70
     0
  0
APPID
  5
156E
330
22
100
AcDbSymbolTableRecord
100
AcDbRegAppTableRecord
  2
AcadAnnoPO
 70
     0
  0
ENDTAB
  0
TABLE
  2
DIMSTYLE
  5
23
330
0
100
AcDbSymbolTable
 70
     2
100
AcDbDimStyleTable
 71
     2
340
1C88
340
2A
  0
DIMSTYLE
105
2A
102
{ACAD_REACTORS
330
324
330
32F
330
33A
330
348
330
356
330
361
330
2FB
330
30B
330
319
102
}
330
23
100
AcDbSymbolTableRecord
100
AcDbDimStyleTableRecord
  2
3 inch Scale
 70
     0
  3
"\X
 41
0.21875
 42
0.5
 43
0.2
 44
0.25
 73
     0
 74
     0
 77
     1
 78
    10
140
0.28
146
0.75
147
0.125
170
     1
171
     0
176
   256
177
   256
178
   255
179
     3
274
     0
276
     2
277
     5
279
     2
340
18
371
    -1
372
    -1
1001
ACAD_DSTYLE_DIMJAG
1070
   388
1040
1.5
1001
ACAD_DSTYLE_DIMTALN
1070
   392
1070
     0
  0
DIMSTYLE
105
1C88
330
23
100
AcDbSymbolTableRecord
100
AcDbDimStyleTableRecord
  2
Standard
 70
     0
 41
0.125
 43
0.0625
 44
0.0625
 73
     0
 74
     0
 77
     1
 78
     2
140
0.09375
146
0.75
147
0.0625
176
   256
177
   256
178
     7
179
     3
276
     1
277
     5
279
     2
340
18
1001
ACAD_DSTYLE_DIMJAG
1070
   388
1040
1.5
1001
ACAD_DSTYLE_DIMTALN
1070
   392
1070
     0
  0
ENDTAB
  0
TABLE
  2
BLOCK_RECORD
  5
1
330
0
100
AcDbSymbolTable
 70
    22
  0
BLOCK_RECORD
  5
2
102
{ACAD_XDICTIONARY
360
3
102
}
330
1
100
AcDbSymbolTableRecord
100
AcDbBlockTableRecord
  2
*Model_Space
340
C
  0
BLOCK_RECORD
  5
1269
330
1
100
AcDbSymbolTableRecord
100
AcDbBlockTableRecord
  2
*Paper_Space
340
126A
  0
BLOCK_RECORD
  5
30C
330
1
100
AcDbSymbolTableRecord
100
AcDbBlockTableRecord
  2
_None
340
0
  0
BLOCK_RECORD
  5
506
102
{ACAD_XDICTIONARY
360
507
102
}
330
1
100
AcDbSymbolTableRecord
100
AcDbBlockTableRecord
  2
2x
340
0
102
{BLKREFS
331
505
102
}
  0
BLOCK_RECORD
  5
514
102
{ACAD_XDICTIONARY
360
515
102
}
330
1
100
AcDbSymbolTableRecord
100
AcDbBlockTableRecord
  2
Insul1
340
0
102
{BLKREFS
331
513
102
}
  0
BLOCK_RECORD
  5
4CB
102
{ACAD_XDICTIONARY
360
4CC
102
}
330
1
100
AcDbSymbolTableRecord
100
AcDbBlockTableRecord
  2
10sillwoodsiding
340
0
102
{BLKREFS
331
4CA
102
}
  0
BLOCK_RECORD
  5
285
102
{ACAD_XDICTIONARY
360
286
102
}
330
1
100
AcDbSymbolTableRecord
100
AcDbBlockTableRecord
  2
Rodseal
340
0
102
{BLKREFS
331
284
331
482
331
526
102
}
  0
BLOCK_RECORD
  5
20E
102
{ACAD_XDICTIONARY
360
20F
102
}
330
1
100
AcDbSymbolTableRecord
100
AcDbBlockTableRecord
  2
10headwoodsiding
340
0
102
{BLKREFS
331
20D
102
}
  0
BLOCK_RECORD
  5
37A
102
{ACAD_XDICTIONARY
360
37B
102
}
330
1
100
AcDbSymbolTableRecord
100
AcDbBlockTableRecord
  2
10jambwoodsiding
340
0
102
{BLKREFS
331
379
102
}
  0
BLOCK_RECORD
  5
484
102
{ACAD_XDICTIONARY
360
485
102
}
330
1
100
AcDbSymbolTableRecord
100
AcDbBlockTableRecord
  2
FOAM
340
0
102
{BLKREFS
331
483
331
1B10
331
1C4A
102
}
  0
BLOCK_RECORD
  5
B4F
102
{ACAD_XDICTIONARY
360
B50
102
}
330
1
100
AcDbSymbolTableRecord
100
AcDbBlockTableRecord
  2
clip
340
0
102
{BLKREFS
331
CAD
331
D5E
331
1473
331
1474
102
}
  0
BLOCK_RECORD
  5
12D5
102
{ACAD_XDICTIONARY
360
12D6
102
}
330
1
100
AcDbSymbolTableRecord
100
AcDbBlockTableRecord
  2
TSE 10 SH VLJ
340
0
102
{BLKREFS
331
1470
102
}
1001
AcDbDynamicBlockGUID
1000
{187D04B0-90CD-425C-AC7E-AFDC0B1D9554}
1001
AcDbBlockRepETag
1070
     1
1071
       54
  0
BLOCK_RECORD
  5
1394
102
{ACAD_XDICTIONARY
360
1395
102
}
330
1
100
AcDbSymbolTableRecord
100
AcDbBlockTableRecord
  2
TSE 10 SH FH
340
0
102
{BLKREFS
331
1472
102
}
  0
BLOCK_RECORD
  5
13A7
102
{ACAD_XDICTIONARY
360
13A8
102
}
330
1
100
AcDbSymbolTableRecord
100
AcDbBlockTableRecord
  2
TSE 10 SW VS
340
0
102
{BLKREFS
331
1471
102
}
  0
BLOCK_RECORD
  5
1479
330
1
100
AcDbSymbolTableRecord
100
AcDbBlockTableRecord
  2
*D12
340
0
  0
BLOCK_RECORD
  5
1486
330
1
100
AcDbSymbolTableRecord
100
AcDbBlockTableRecord
  2
*D13
340
0
  0
BLOCK_RECORD
  5
1490
330
1
100
AcDbSymbolTableRecord
100
AcDbBlockTableRecord
  2
*D14
340
0
  0
BLOCK_RECORD
  5
149A
330
1
100
AcDbSymbolTableRecord
100
AcDbBlockTableRecord
  2
*D15
340
0
  0
BLOCK_RECORD
  5
14A4
330
1
100
AcDbSymbolTableRecord
100
AcDbBlockTableRecord
  2
*D16
340
0
  0
BLOCK_RECORD
  5
14AE
330
1
100
AcDbSymbolTableRecord
100
AcDbBlockTableRecord
  2
*D17
340
0
  0
BLOCK_RECORD
  5
14BB
330
1
100
AcDbSymbolTableRecord
100
AcDbBlockTableRecord
  2
*D18
340
0
  0
BLOCK_RECORD
  5
14C8
330
1
100
AcDbSymbolTableRecord
100
AcDbBlockTableRecord
  2
*D19
340
0
  0
BLOCK_RECORD
  5
14D2
330
1
100
AcDbSymbolTableRecord
100
AcDbBlockTableRecord
  2
*D20
340
0
  0
BLOCK_RECORD
  5
1570
102
{ACAD_XDICTIONARY
360
1575
102
}
330
1
100
AcDbSymbolTableRecord
100
AcDbBlockTableRecord
  2
30AX
340
0
102
{BLKREFS
331
1579
331
157A
331
157B
102
}
  0
ENDTAB
  0
ENDSEC
  0
SECTION
  2
BLOCKS
  0
BLOCK
  5
4
330
2
100
AcDbEntity
  8
0
100
AcDbBlockBegin
  2
*Model_Space
 70
     0
 10
0.0
 20
0.0
 30
0.0
  3
*Model_Space
  1

  0
ENDBLK
  5
B
330
2
100
AcDbEntity
  8
0
100
AcDbBlockEnd
  0
BLOCK
  5
126B
330
1269
100
AcDbEntity
 67
     1
  8
0
100
AcDbBlockBegin
  2
*Paper_Space
 70
     0
 10
0.0
 20
0.0
 30
0.0
  3
*Paper_Space
  1

  0
ENDBLK
  5
126C
330
1269
100
AcDbEntity
 67
     1
  8
0
100
AcDbBlockEnd
  0
BLOCK
  5
30D
330
30C
100
AcDbEntity
  8
0
100
AcDbBlockBegin
  2
_None
 70
     0
 10
0.0
 20
0.0
 30
0.0
  3
_None
  1

  0
ENDBLK
  5
30E
330
30C
100
AcDbEntity
  8
0
100
AcDbBlockEnd
  0
BLOCK
  5
509
330
506
100
AcDbEntity
  8
0
100
AcDbBlockBegin
  2
2x
 70
     0
 10
0.0
 20
0.0
 30
0.0
  3
2x
  1

  0
LINE
  5
50A
330
506
100
AcDbEntity
  8
Pel_Wall
100
AcDbLine
 10
0.0
 20
0.0
 30
0.0
 11
1.0
 21
1.0
 31
0.0
  0
LINE
  5
50B
330
506
100
AcDbEntity
  8
Pel_Wall
100
AcDbLine
 10
1.0
 20
0.0
 30
0.0
 11
0.0
 21
1.0
 31
0.0
  0
POLYLINE
  5
50C
330
506
100
AcDbEntity
  8
Pel_Wall
100
AcDb2dPolyline
 66
     1
 10
0.0
 20
0.0
 30
0.0
 70
     1
  0
VERTEX
  5
50D
330
50C
100
AcDbEntity
  8
Pel_Wall
100
AcDbVertex
100
AcDb2dVertex
 10
0.0
 20
0.0
 30
0.0
  0
VERTEX
  5
50E
330
50C
100
AcDbEntity
  8
Pel_Wall
100
AcDbVertex
100
AcDb2dVertex
 10
1.0
 20
0.0
 30
0.0
  0
VERTEX
  5
50F
330
50C
100
AcDbEntity
  8
Pel_Wall
100
AcDbVertex
100
AcDb2dVertex
 10
1.0
 20
1.0
 30
0.0
  0
VERTEX
  5
510
330
50C
100
AcDbEntity
  8
Pel_Wall
100
AcDbVertex
100
AcDb2dVertex
 10
0.0
 20
1.0
 30
0.0
  0
SEQEND
  5
511
330
50C
100
AcDbEntity
  8
Pel_Wall
  0
ENDBLK
  5
512
330
506
100
AcDbEntity
  8
0
100
AcDbBlockEnd
  0
BLOCK
  5
517
330
514
100
AcDbEntity
  8
0
100
AcDbBlockBegin
  2
Insul1
 70
     0
 10
0.0
 20
0.0
 30
0.0
  3
Insul1
  1

  0
POLYLINE
  5
518
330
514
100
AcDbEntity
  8
Pel_Wall
100
AcDb2dPolyline
 66
     1
 10
0.0
 20
0.0
 30
0.0
  0
VERTEX
  5
519
330
518
100
AcDbEntity
  8
Pel_Wall
100
AcDbVertex
100
AcDb2dVertex
 10
0.0
 20
1.0
 30
0.0
 42
0.6166658403406798
  0
VERTEX
  5
51A
330
518
100
AcDbEntity
  8
Pel_Wall
100
AcDbVertex
100
AcDb2dVertex
 10
0.3992063386936024
 20
0.7994072072739158
 30
0.0
  0
VERTEX
  5
51B
330
518
100
AcDbEntity
  8
Pel_Wall
100
AcDbVertex
100
AcDb2dVertex
 10
0.6000015638841063
 20
0.9500011729035229
 30
0.0
 42
-1.999090727876019
  0
VERTEX
  5
51C
330
518
100
AcDbEntity
  8
Pel_Wall
100
AcDbVertex
100
AcDb2dVertex
 10
0.6001440114443853
 20
0.5498920723858767
 30
0.0
  0
VERTEX
  5
51D
330
518
100
AcDbEntity
  8
Pel_Wall
100
AcDbVertex
100
AcDb2dVertex
 10
0.4005222086914984
 20
0.6996072761465229
 30
0.0
 42
1.99179774169564
  0
VERTEX
  5
51E
330
518
100
AcDbEntity
  8
Pel_Wall
100
AcDbVertex
100
AcDb2dVertex
 10
0.3992063386936024
 20
0.2994072072739158
 30
0.0
  0
VERTEX
  5
51F
330
518
100
AcDbEntity
  8
Pel_Wall
100
AcDbVertex
100
AcDb2dVertex
 10
0.6000015638841063
 20
0.450001172903523
 30
0.0
 42
-1.999090727876017
  0
VERTEX
  5
520
330
518
100
AcDbEntity
  8
Pel_Wall
100
AcDbVertex
100
AcDb2dVertex
 10
0.6001440114443853
 20
0.0498920723858767
 30
0.0
  0
VERTEX
  5
521
330
518
100
AcDbEntity
  8
Pel_Wall
100
AcDbVertex
100
AcDb2dVertex
 10
0.4005222086914984
 20
0.1996072761465228
 30
0.0
 42
0.6171288319215243
  0
VERTEX
  5
522
330
518
100
AcDbEntity
  8
Pel_Wall
100
AcDbVertex
100
AcDb2dVertex
 10
0.0
 20
0.0
 30
0.0
 42
1.002620720669957
  0
SEQEND
  5
523
330
518
100
AcDbEntity
  8
Pel_Wall
  0
ENDBLK
  5
524
330
514
100
AcDbEntity
  8
0
100
AcDbBlockEnd
  0
BLOCK
  5
4CE
330
4CB
100
AcDbEntity
  8
0
100
AcDbBlockBegin
  2
10sillwoodsiding
 70
     0
 10
0.0
 20
0.0
 30
0.0
  3
10sillwoodsiding
  1

  0
HATCH
  5
4CF
330
4CB
100
AcDbEntity
  8
Pel_Wall
100
AcDbHatch
 10
0.0
 20
0.0
 30
0.0
210
0.0
220
0.0
230
1.0
  2
PLY
 70
     0
 71
     1
 91
        1
 92
        1
 93
        4
 72
     1
 10
1.315861401447939
 20
-5.261999999998803
 11
1.670861401447943
 21
-5.261999999998801
 72
     1
 10
1.670861401447943
 20
-5.261999999998801
 11
1.670861401447943
 21
-0.3869999999988032
 72
     1
 10
1.670861401447943
 20
-0.3869999999988032
 11
1.315861401447939
 21
-0.3869999999988032
 72
     1
 10
1.315861401447939
 20
-0.3869999999988032
 11
1.315861401447939
 21
-5.261999999998803
 97
        1
330
4D0
 75
     0
 76
     1
 52
90.0
 41
1.0
 77
     0
 78
     2
 53
270.0
 43
-827.4371769745256
 44
153.6685555555559
 45
-0.125
 46
0.0
 79
     0
 53
225.0
 43
-827.3121769745255
 44
153.6685555555559
 45
-0.3535533905932738
 46
0.3535533905932737
 79
     0
 98
        1
 10
-827.3121769745255
 20
153.6685555555559
  0
POLYLINE
  5
4D0
102
{ACAD_REACTORS
330
4CF
102
}
330
4CB
100
AcDbEntity
  8
Pel_Wall
100
AcDb2dPolyline
 66
     1
 10
0.0
 20
0.0
 30
0.0
 70
     1
  0
VERTEX
  5
1B13
330
4D0
100
AcDbEntity
  8
Pel_Wall
100
AcDbVertex
100
AcDb2dVertex
 10
1.315861401447939
 20
-5.261999999998803
 30
0.0
  0
VERTEX
  5
1B14
330
4D0
100
AcDbEntity
  8
Pel_Wall
100
AcDbVertex
100
AcDb2dVertex
 10
1.670861401447943
 20
-5.261999999998801
 30
0.0
  0
VERTEX
  5
1B15
330
4D0
100
AcDbEntity
  8
Pel_Wall
100
AcDbVertex
100
AcDb2dVertex
 10
1.670861401447943
 20
-0.3869999999988032
 30
0.0
  0
VERTEX
  5
1B16
330
4D0
100
AcDbEntity
  8
Pel_Wall
100
AcDbVertex
100
AcDb2dVertex
 10
1.315861401447939
 20
-0.3869999999988032
 30
0.0
  0
SEQEND
  5
1B17
330
4D0
100
AcDbEntity
  8
Pel_Wall
  0
POLYLINE
  5
4D6
102
{ACAD_REACTORS
330
4DE
102
}
330
4CB
100
AcDbEntity
  8
Pel_Wall
100
AcDb2dPolyline
 66
     1
 10
0.0
 20
0.0
 30
0.0
 70
     1
  0
VERTEX
  5
1B19
330
4D6
100
AcDbEntity
  8
Pel_Wall
100
AcDbVertex
100
AcDb2dVertex
 10
5.170861401447943
 20
-5.261999999998803
 30
0.0
  0
VERTEX
  5
1B1A
330
4D6
100
AcDbEntity
  8
Pel_Wall
100
AcDbVertex
100
AcDb2dVertex
 10
5.670861401447943
 20
-5.261999999998799
 30
0.0
  0
VERTEX
  5
1B1B
330
4D6
100
AcDbEntity
  8
Pel_Wall
100
AcDbVertex
100
AcDb2dVertex
 10
5.670861401447943
 20
-0.3869999999988032
 30
0.0
  0
VERTEX
  5
1B1C
330
4D6
100
AcDbEntity
  8
Pel_Wall
100
AcDbVertex
100
AcDb2dVertex
 10
5.670861401447943
 20
-0.3869999999988032
 30
0.0
  0
VERTEX
  5
1B1D
330
4D6
100
AcDbEntity
  8
Pel_Wall
100
AcDbVertex
100
AcDb2dVertex
 10
5.170861401447943
 20
-0.3869999999988067
 30
0.0
  0
VERTEX
  5
1B1E
330
4D6
100
AcDbEntity
  8
Pel_Wall
100
AcDbVertex
100
AcDb2dVertex
 10
5.170861401447943
 20
-0.3869999999988067
 30
0.0
  0
SEQEND
  5
1B1F
330
4D6
100
AcDbEntity
  8
Pel_Wall
  0
HATCH
  5
4DE
330
4CB
100
AcDbEntity
  8
Pel_Wall
100
AcDbHatch
 10
0.0
 20
0.0
 30
0.0
210
0.0
220
0.0
230
1.0
  2
GYP
 70
     0
 71
     1
 91
        1
 92
        1
 93
        4
 72
     1
 10
5.170861401447943
 20
-5.261999999998803
 11
5.670861401447943
 21
-5.261999999998799
 72
     1
 10
5.670861401447943
 20
-5.261999999998799
 11
5.670861401447943
 21
-0.3869999999988032
 72
     1
 10
5.670861401447943
 20
-0.3869999999988032
 11
5.170861401447943
 21
-0.3869999999988067
 72
     1
 10
5.170861401447943
 20
-0.3869999999988067
 11
5.170861401447943
 21
-5.261999999998803
 97
        1
330
4D6
 75
     0
 76
     1
 52
0.0
 41
1.0
 77
     0
 78
     3
 53
0.0
 43
-3.672888598552056
 44
0.5131504765564081
 45
0.18
 46
0.5
 79
     2
 49
0.0
 49
-0.3
 53
30.0
 43
-3.642888598552055
 44
0.6331504765564091
 45
-0.094115427318801
 46
0.5230127018922194
 79
     2
 49
0.0
 49
-0.3
 53
60.0
 43
-3.612888598552054
 44
0.6931504765564079
 45
-0.3430127018922193
 46
0.405884572681199
 79
     2
 49
0.0
 49
-0.3
 98
        1
 10
-3.672888598552056
 20
0.5131504765564081
  0
LINE
  5
4DF
330
4CB
100
AcDbEntity
  8
Pel_Wall
  6
Continuous
100
AcDbLine
 10
0.9569181622531104
 20
-0.9172660863951271
 30
0.0
 11
1.83191816225311
 21
-0.9172660863951271
 31
0.0
  0
LINE
  5
4E0
330
4CB
100
AcDbEntity
  8
Pel_Wall
  6
Continuous
100
AcDbLine
 10
1.01941816225311
 20
-1.042266086395127
 30
0.0
 11
1.01941816225311
 21
-0.7922660863951272
 31
0.0
  0
LINE
  5
4E1
330
4CB
100
AcDbEntity
  8
Pel_Wall
  6
Continuous
100
AcDbLine
 10
2.33191816225311
 20
-0.9172660863951271
 30
0.0
 11
3.08191816225311
 21
-0.9172660863951271
 31
0.0
  0
LINE
  5
4E2
330
4CB
100
AcDbEntity
  8
Pel_Wall
  6
Continuous
100
AcDbLine
 10
1.95691816225311
 20
-0.9172660863951271
 30
0.0
 11
2.20691816225311
 21
-0.9172660863951271
 31
0.0
  0
HATCH
  5
4FB
330
4CB
100
AcDbEntity
  8
Pel_Wall
100
AcDbHatch
 10
0.0
 20
0.0
 30
0.0
210
0.0
220
0.0
230
1.0
  2
WOOD
 70
     0
 71
     1
 91
        1
 92
        1
 93
        4
 72
     1
 10
0.0664363031673325
 20
-3.741999999998803
 11
0.9858614014479449
 21
-3.741999999998803
 72
     1
 10
0.9858614014479449
 20
-3.741999999998803
 11
0.9858614014479449
 21
-0.2419999999988036
 72
     1
 10
0.9858614014479449
 20
-0.2419999999988036
 11
0.0664363031673325
 21
-0.2419999999988036
 72
     1
 10
0.0664363031673325
 20
-0.2419999999988036
 11
0.0664363031673325
 21
-3.741999999998803
 97
        1
330
4FC
 75
     0
 76
     1
 52
45.0
 41
0.2
 77
     0
 78
    12
 53
135.0
 43
-7.933614149381714
 44
-18.78279271247664
 45
0.0000000000000002
 46
1.131370849898476
 79
     2
 49
0.8
 49
-7.2
 53
135.0
 43
-9.489249067992123
 44
-16.94431508139162
 45
0.0000000000000002
 46
1.131370849898476
 79
     2
 49
0.8
 49
-3.2
 53
108.43494882
 43
-8.499299574330958
 44
-19.34847813742588
 45
-0.0000000631878547
 46
1.131370798037228
 79
     2
 49
1.788854399999999
 49
-16.0996894
 53
149.03624347
 43
-5.953715162059385
 44
-21.32837712474822
 45
-0.000000034340661
 46
1.131370986927859
 79
     2
 49
0.8246211999999999
 49
-5.7723478
 53
149.03624347
 43
-7.226507368195168
 44
-20.33842763108705
 45
-0.000000034340661
 46
1.131370986927859
 79
     2
 49
0.8246211999999999
 49
-5.7723478
 53
149.03624347
 43
-4.398080243448976
 44
-20.90411305603629
 45
-0.000000034340661
 46
1.131370986927859
 79
     2
 49
0.8246211999999999
 49
-5.7723478
 53
120.96375653
 43
-9.064984999280195
 44
-17.65142186257816
 45
0.0000000343406613
 46
1.131370986927859
 79
     2
 49
0.8246211999999999
 49
-32.1602238
 53
120.96375653
 43
-14.72183924877257
 44
-7.469084213491882
 45
0.0000000343406613
 46
1.131370986927859
 79
     2
 49
0.8246211999999999
 49
-32.1602238
 53
120.96375653
 43
-20.37869349826495
 44
1.581882585695929
 45
0.0000000343406613
 46
1.131370986927859
 79
     2
 49
0.8246211999999999
 49
-32.1602238
 53
161.56505118
 43
-10.7620412741279
 44
-15.95436558773045
 45
0.0000000631878548
 46
1.131370798037228
 79
     2
 49
0.8944271999999999
 49
-16.9941166
 53
161.56505118
 43
0.5516672248568533
 44
-19.34847813742588
 45
0.0000000631878548
 46
1.131370798037228
 79
     2
 49
0.8944271999999999
 49
-16.9941166
 53
161.56505118
 43
-5.105187024635529
 44
-17.08573643762893
 45
0.0000000631878548
 46
1.131370798037228
 79
     2
 49
0.8944271999999999
 49
-16.9941166
 98
        1
 10
-8.782142286805576
 20
-18.49995000000202
  0
LWPOLYLINE
  5
4FC
102
{ACAD_REACTORS
330
4FB
102
}
330
4CB
100
AcDbEntity
  8
Pel_Wall
100
AcDbPolyline
 90
        4
 70
     1
 43
0.0
 10
0.0664363031673325
 20
-3.741999999998803
 10
0.9858614014479449
 20
-3.741999999998803
 10
0.9858614014479449
 20
-0.2419999999988036
 10
0.0664363031673325
 20
-0.2419999999988036
  0
HATCH
  5
4FD
330
4CB
100
AcDbEntity
  8
Pel_Wall
100
AcDbHatch
 10
0.0
 20
0.0
 30
0.0
210
0.0
220
0.0
230
1.0
  2
WOOD
 70
     0
 71
     1
 91
        1
 92
        1
 93
        4
 72
     1
 10
0.3090364997285562
 20
-5.261999999998803
 11
0.9340364997285561
 21
-5.261999999998803
 72
     1
 10
0.9340364997285561
 20
-5.261999999998803
 11
0.9340364997285561
 21
-3.991999999998803
 72
     1
 10
0.9340364997285561
 20
-3.991999999998803
 11
0.4965364997285562
 21
-3.991999999998803
 72
     1
 10
0.4965364997285562
 20
-3.991999999998803
 11
0.3090364997285562
 21
-5.261999999998803
 97
        1
330
504
 75
     0
 76
     1
 52
135.0
 41
0.1
 77
     0
 78
    12
 53
225.0
 43
-8.692545832287656
 44
-18.07568593129009
 45
-0.565685424949238
 46
0.0000000000000001
 79
     2
 49
0.4
 49
-3.6
 53
225.0
 43
-9.61178464783017
 44
-18.85350339059529
 45
-0.565685424949238
 46
0.0000000000000001
 79
     2
 49
0.4
 49
-1.6
 53
198.43494882
 43
-8.409703119813038
 44
-18.35852864376471
 45
-0.5656853990186145
 46
-0.0000000315939274
 79
     2
 49
0.8944271999999999
 49
-8.049844699999999
 53
239.03624347
 43
-7.419753626151866
 44
-17.08573643762893
 45
-0.5656854934639299
 46
-0.0000000171703305
 79
     2
 49
0.4123106
 49
-2.8861739
 53
239.03624347
 43
-7.914728372982452
 44
-17.72213254069682
 45
-0.5656854934639299
 46
-0.0000000171703305
 79
     2
 49
0.4123106
 49
-2.8861739
 53
239.03624347
 43
-7.631885660507833
 44
-16.30791897832372
 45
-0.5656854934639299
 46
-0.0000000171703305
 79
     2
 49
0.4123106
 49
-2.8861739
 53
210.96375653
 43
-9.258231257236893
 44
-18.64137135623933
 45
-0.5656854934639297
 46
0.0000000171703306
 79
     2
 49
0.4123106
 49
-16.0801119
 53
210.96375653
 43
-14.34940008178003
 44
-21.46979848098552
 45
-0.5656854934639297
 46
0.0000000171703306
 79
     2
 49
0.4123106
 49
-16.0801119
 53
210.96375653
 43
-18.87488348137394
 44
-24.29822560573172
 45
-0.5656854934639297
 46
0.0000000171703306
 79
     2
 49
0.4123106
 49
-16.0801119
 53
251.56505118
 43
-10.10675939466075
 44
-19.48989949366319
 45
-0.5656853990186145
 46
0.0000000315939274
 79
     2
 49
0.4472136
 49
-8.4970583
 53
251.56505118
 43
-8.409703119813038
 44
-13.83304524417081
 45
-0.5656853990186145
 46
0.0000000315939274
 79
     2
 49
0.4472136
 49
-8.4970583
 53
251.56505118
 43
-9.541073969711511
 44
-16.661472368917
 45
-0.5656853990186145
 46
0.0000000315939274
 79
     2
 49
0.4472136
 49
-8.4970583
 98
        1
 10
-8.833967188524965
 20
-18.49995000000202
  0
ARC
  5
4FE
330
4CB
100
AcDbEntity
  8
Pel_Wall
100
AcDbCircle
 10
0.9024864997285533
 20
-3.866999999998803
 30
0.0
 40
0.25
100
AcDbArc
 50
150.0
 51
209.9999999999998
  0
ARC
  5
4FF
330
4CB
100
AcDbEntity
  8
Pel_Wall
100
AcDbCircle
 10
0.8088864997285512
 20
-3.866999999998803
 30
0.0
 40
0.25
100
AcDbArc
 50
150.0
 51
209.9999999999998
  0
ARC
  5
500
330
4CB
100
AcDbEntity
  8
Pel_Wall
100
AcDbCircle
 10
0.528086499728552
 20
-3.866999999998803
 30
0.0
 40
0.25
100
AcDbArc
 50
330.0000000000002
 51
29.99999999999976
  0
ARC
  5
501
330
4CB
100
AcDbEntity
  8
Pel_Wall
100
AcDbCircle
 10
0.6216864997285541
 20
-3.866999999998803
 30
0.0
 40
0.25
100
AcDbArc
 50
330.0000000000002
 51
29.99999999999976
  0
ARC
  5
502
330
4CB
100
AcDbEntity
  8
Pel_Wall
100
AcDbCircle
 10
0.7152864997285562
 20
-3.866999999998803
 30
0.0
 40
0.25
100
AcDbArc
 50
330.0000000000002
 51
29.99999999999976
  0
ARC
  5
503
330
4CB
100
AcDbEntity
  8
Pel_Wall
100
AcDbCircle
 10
0.7152864997285562
 20
-3.866999999998803
 30
0.0
 40
0.25
100
AcDbArc
 50
150.0
 51
209.9999999999998
  0
LWPOLYLINE
  5
504
102
{ACAD_REACTORS
330
4FD
102
}
330
4CB
100
AcDbEntity
  8
Pel_Wall
100
AcDbPolyline
 90
        4
 70
     1
 43
0.0
 10
0.3090364997285562
 20
-5.261999999998803
 10
0.9340364997285561
 20
-5.261999999998803
 10
0.9340364997285561
 20
-3.991999999998803
 10
0.4965364997285562
 20
-3.991999999998803
  0
INSERT
  5
505
330
4CB
100
AcDbEntity
  8
Pel_Wall
100
AcDbBlockReference
  2
2x
 10
5.170861401447943
 20
-1.886999999998803
 30
0.0
 41
-3.5
 42
1.5
 43
3.358038375973576
  0
INSERT
  5
513
330
4CB
100
AcDbEntity
  8
Pel_Wall
100
AcDbBlockReference
  2
Insul1
 10
5.170861401447943
 20
-1.886999999998803
 30
0.0
 41
3.5
 42
3.375
 43
3.358038375973576
 50
180.0
  0
INSERT
  5
526
330
4CB
100
AcDbEntity
  8
Pel_Wall
100
AcDbBlockReference
  2
Rodseal
 10
0.0664363031673325
 20
-0.2419999999988036
 30
0.0
 41
0.921170377479461
 42
0.2419999999988036
 43
0.921170377479461
  0
POINT
  5
527
330
4CB
100
AcDbEntity
  8
Pel_Points
100
AcDbPoint
 10
-0.0146385985520556
 20
0.0
 30
0.0
  0
POLYLINE
  5
528
330
4CB
100
AcDbEntity
  8
Pel_Wall
100
AcDb2dPolyline
 66
     1
 10
0.0
 20
0.0
 30
0.0
  0
VERTEX
  5
1B34
330
528
100
AcDbEntity
  8
Pel_Wall
100
AcDbVertex
100
AcDb2dVertex
 10
1.248622395216917
 20
-0.2813911332934715
 30
0.0
  0
VERTEX
  5
1B35
330
528
100
AcDbEntity
  8
Pel_Wall
100
AcDbVertex
100
AcDb2dVertex
 10
1.248622395216917
 20
-0.0938911332934716
 30
0.0
  0
VERTEX
  5
1B36
330
528
100
AcDbEntity
  8
Pel_Wall
100
AcDbVertex
100
AcDb2dVertex
 10
2.373622395216917
 20
-0.0938911332934716
 30
0.0
  0
VERTEX
  5
1B37
330
528
100
AcDbEntity
  8
Pel_Wall
100
AcDbVertex
100
AcDb2dVertex
 10
2.373622395216917
 20
-0.2813911332934715
 30
0.0
  0
VERTEX
  5
1B38
330
528
100
AcDbEntity
  8
Pel_Wall
100
AcDbVertex
100
AcDb2dVertex
 10
1.248622395216917
 20
-0.2813911332934715
 30
0.0
  0
VERTEX
  5
1B39
330
528
100
AcDbEntity
  8
Pel_Wall
100
AcDbVertex
100
AcDb2dVertex
 10
2.373622395216917
 20
-0.0938911332934716
 30
0.0
  0
SEQEND
  5
1B3A
330
528
100
AcDbEntity
  8
Pel_Wall
  0
INSERT
  5
1B10
330
4CB
100
AcDbEntity
  8
0
100
AcDbBlockReference
  2
FOAM
 10
5.670861401447943
 20
-0.3869999999988032
 30
0.0
 41
-1.0
 42
1.5625
  0
POLYLINE
  5
1B3B
330
4CB
100
AcDbEntity
  8
Pel_Wall
  6
Continuous
100
AcDb2dPolyline
 66
     1
 10
0.0
 20
0.0
 30
0.0
  0
VERTEX
  5
1B3C
330
1B3B
100
AcDbEntity
  8
Pel_Wall
  6
Continuous
100
AcDbVertex
100
AcDb2dVertex
 10
1.253361401447939
 20
-0.3869999999988032
 30
0.0
  0
VERTEX
  5
1B3D
330
1B3B
100
AcDbEntity
  8
Pel_Wall
  6
Continuous
100
AcDbVertex
100
AcDb2dVertex
 10
1.253361401447939
 20
-5.261999999998803
 30
0.0
  0
SEQEND
  5
1B3E
330
1B3B
100
AcDbEntity
  8
Pel_Wall
  6
Continuous
  0
POLYLINE
  5
1B3F
330
4CB
100
AcDbEntity
  8
Pel_Wall
  6
Continuous
100
AcDb2dPolyline
 66
     1
 10
0.0
 20
0.0
 30
0.0
  0
VERTEX
  5
1B40
330
1B3F
100
AcDbEntity
  8
Pel_Wall
  6
Continuous
100
AcDbVertex
100
AcDb2dVertex
 10
1.233361401447943
 20
-0.3869999999988032
 30
0.0
  0
VERTEX
  5
1B41
330
1B3F
100
AcDbEntity
  8
Pel_Wall
  6
Continuous
100
AcDbVertex
100
AcDb2dVertex
 10
1.233361401447943
 20
-5.261999999998803
 30
0.0
  0
SEQEND
  5
1B42
330
1B3F
100
AcDbEntity
  8
Pel_Wall
  6
Continuous
  0
POLYLINE
  5
1B43
330
4CB
100
AcDbEntity
  8
Pel_Wall
  6
Continuous
100
AcDb2dPolyline
 66
     1
 10
0.0
 20
0.0
 30
0.0
  0
VERTEX
  5
1B44
330
1B43
100
AcDbEntity
  8
Pel_Wall
  6
Continuous
100
AcDbVertex
100
AcDb2dVertex
 10
3.170861401447943
 20
-0.3044999999988036
 30
0.0
  0
VERTEX
  5
1B45
330
1B43
100
AcDbEntity
  8
Pel_Wall
  6
Continuous
100
AcDbVertex
100
AcDb2dVertex
 10
1.170861401447943
 20
-0.3044999999988036
 30
0.0
  0
VERTEX
  5
1B46
330
1B43
100
AcDbEntity
  8
Pel_Wall
  6
Continuous
100
AcDbVertex
100
AcDb2dVertex
 10
1.170861401447943
 20
-1.304499999998803
 30
0.0
  0
SEQEND
  5
1B47
330
1B43
100
AcDbEntity
  8
Pel_Wall
  6
Continuous
  0
POLYLINE
  5
1B48
330
4CB
100
AcDbEntity
  8
Pel_Wall
  6
Continuous
100
AcDb2dPolyline
 66
     1
 10
0.0
 20
0.0
 30
0.0
  0
VERTEX
  5
1B49
330
1B48
100
AcDbEntity
  8
Pel_Wall
  6
Continuous
100
AcDbVertex
100
AcDb2dVertex
 10
3.170861401447943
 20
-0.3244999999988032
 30
0.0
  0
VERTEX
  5
1B4A
330
1B48
100
AcDbEntity
  8
Pel_Wall
  6
Continuous
100
AcDbVertex
100
AcDb2dVertex
 10
1.190861401447939
 20
-0.3244999999988032
 30
0.0
  0
VERTEX
  5
1B4B
330
1B48
100
AcDbEntity
  8
Pel_Wall
  6
Continuous
100
AcDbVertex
100
AcDb2dVertex
 10
1.190861401447939
 20
-1.304499999998803
 30
0.0
  0
SEQEND
  5
1B4C
330
1B48
100
AcDbEntity
  8
Pel_Wall
  6
Continuous
  0
POLYLINE
  5
1B4D
330
4CB
100
AcDbEntity
  8
Pel_Wall
100
AcDb2dPolyline
 66
     1
 10
0.0
 20
0.0
 30
0.0
  0
VERTEX
  5
1B4E
330
1B4D
100
AcDbEntity
  8
Pel_Wall
100
AcDbVertex
100
AcDb2dVertex
 10
4.324963094959889
 20
-0.3244999999988032
 30
0.0
  0
VERTEX
  5
1B4F
330
1B4D
100
AcDbEntity
  8
Pel_Wall
100
AcDbVertex
100
AcDb2dVertex
 10
4.324963094959889
 20
-0.0938911332934716
 30
0.0
  0
VERTEX
  5
1B50
330
1B4D
100
AcDbEntity
  8
Pel_Wall
100
AcDbVertex
100
AcDb2dVertex
 10
5.449963094959889
 20
-0.0938911332934716
 30
0.0
  0
VERTEX
  5
1B51
330
1B4D
100
AcDbEntity
  8
Pel_Wall
100
AcDbVertex
100
AcDb2dVertex
 10
5.449963094959889
 20
-0.3244999999988032
 30
0.0
  0
VERTEX
  5
1B52
330
1B4D
100
AcDbEntity
  8
Pel_Wall
100
AcDbVertex
100
AcDb2dVertex
 10
4.324963094959889
 20
-0.3244999999988032
 30
0.0
  0
VERTEX
  5
1B53
330
1B4D
100
AcDbEntity
  8
Pel_Wall
100
AcDbVertex
100
AcDb2dVertex
 10
5.449963094959889
 20
-0.0938911332934716
 30
0.0
  0
SEQEND
  5
1B54
330
1B4D
100
AcDbEntity
  8
Pel_Wall
  0
ENDBLK
  5
530
330
4CB
100
AcDbEntity
  8
0
100
AcDbBlockEnd
  0
BLOCK
  5
288
330
285
100
AcDbEntity
  8
0
100
AcDbBlockBegin
  2
Rodseal
 70
     0
 10
0.0
 20
0.0
 30
0.0
  3
Rodseal
  1

  0
ARC
  5
289
330
285
100
AcDbEntity
  8
Pel_Wall
100
AcDbCircle
 10
-0.5625
 20
0.5
 30
0.0
 40
1.0625
100
AcDbArc
 50
17.99029647599074
 51
28.07248693585249
  0
ARC
  5
28A
330
285
100
AcDbEntity
  8
Pel_Wall
100
AcDbCircle
 10
-0.5625
 20
0.5
 30
0.0
 40
1.0625
100
AcDbArc
 50
331.9275130641475
 51
340.7928957547761
  0
ARC
  5
28B
330
285
100
AcDbEntity
  8
Pel_Wall
100
AcDbCircle
 10
-0.9375
 20
0.5
 30
0.0
 40
1.0625
100
AcDbArc
 50
331.9275130641475
 51
28.07248693585249
  0
ARC
  5
28C
330
285
100
AcDbEntity
  8
Pel_Wall
100
AcDbCircle
 10
-0.8125
 20
0.5
 30
0.0
 40
1.0625
100
AcDbArc
 50
331.9275130641475
 51
28.07248693585249
  0
ARC
  5
28D
330
285
100
AcDbEntity
  8
Pel_Wall
100
AcDbCircle
 10
-0.6875
 20
0.5
 30
0.0
 40
1.0625
100
AcDbArc
 50
331.9275130641475
 51
28.07248693585249
  0
CIRCLE
  5
28E
330
285
100
AcDbEntity
  8
Pel_Wall
100
AcDbCircle
 10
0.7708146583002531
 20
0.2987804878048763
 30
0.0
 40
0.0182801895249072
  0
ARC
  5
28F
330
285
100
AcDbEntity
  8
Pel_Wall
100
AcDbCircle
 10
-0.4375
 20
0.5
 30
0.0
 40
1.0625
100
AcDbArc
 50
331.9275130641475
 51
335.4550269558484
  0
CIRCLE
  5
290
330
285
100
AcDbEntity
  8
Pel_Wall
100
AcDbCircle
 10
0.5880127630511823
 20
0.189024390243901
 30
0.0
 40
0.0182926829268291
  0
ARC
  5
291
330
285
100
AcDbEntity
  8
Pel_Wall
100
AcDbCircle
 10
-0.4375
 20
0.5
 30
0.0
 40
1.0625
100
AcDbArc
 50
24.773340356527
 51
28.07248693585249
  0
CIRCLE
  5
292
330
285
100
AcDbEntity
  8
Pel_Wall
100
AcDbCircle
 10
0.8165151321125279
 20
0.4939024390243958
 30
0.0
 40
0.027420284287361
  0
CIRCLE
  5
293
330
285
100
AcDbEntity
  8
Pel_Wall
100
AcDbCircle
 10
0.560592478763823
 20
0.4969512195121979
 30
0.0
 40
0.0274390243902443
  0
CIRCLE
  5
294
330
285
100
AcDbEntity
  8
Pel_Wall
100
AcDbCircle
 10
0.6855071071840087
 20
0.7835365853658516
 30
0.0
 40
0.0243735860332097
  0
ELLIPSE
  5
295
330
285
100
AcDbEntity
  8
Pel_Wall
100
AcDbEllipse
 10
0.6875
 20
0.5
 30
0.0
 11
0.0
 21
0.5
 31
0.0
210
0.0
220
0.0
230
1.0
 40
0.625
 41
4.712388980384689
 42
10.99557428756427
  0
ENDBLK
  5
296
330
285
100
AcDbEntity
  8
0
100
AcDbBlockEnd
  0
BLOCK
  5
211
330
20E
100
AcDbEntity
  8
0
100
AcDbBlockBegin
  2
10headwoodsiding
 70
     0
 10
0.0
 20
0.0
 30
0.0
  3
10headwoodsiding
  1

  0
HATCH
  5
212
330
20E
100
AcDbEntity
  8
Pel_Wall
100
AcDbHatch
 10
0.0
 20
0.0
 30
0.0
210
0.0
220
0.0
230
1.0
  2
WOOD
 70
     0
 71
     1
 91
        1
 92
        7
 72
     0
 73
     1
 93
        4
 10
0.7514363031673402
 20
3.761999999998806
 10
0.0014363031673383
 20
3.761999999998803
 10
0.0014363031673366
 20
0.2619999999988067
 10
0.7514363031673384
 20
0.2619999999988067
 97
        1
330
22B
 75
     0
 76
     1
 52
135.0
 41
0.25
 77
     0
 78
    12
 53
225.0
 43
0.1362396937606078
 44
-24.80233982822137
 45
-1.414213562373094
 46
0.0000000000000002
 79
     2
 49
1.0
 49
-9.0
 53
225.0
 43
-2.161857345095668
 44
-26.74688347648438
 45
-1.414213562373094
 46
0.0000000000000002
 79
     2
 49
1.0
 49
-4.0
 53
198.43494882
 43
0.843346474947161
 44
-25.50944660940792
 45
-1.414213497546535
 46
-0.0000000789848184
 79
     2
 49
2.236067999999999
 49
-20.12461175
 53
239.03624347
 43
3.318220209100076
 44
-22.32746609406845
 45
-1.414213733659824
 46
-0.0000000429258262
 79
     2
 49
1.030776499999999
 49
-7.21543475
 53
239.03624347
 43
2.080783342023615
 44
-23.91845635173819
 45
-1.414213733659824
 46
-0.0000000429258262
 79
     2
 49
1.030776499999999
 49
-7.21543475
 53
239.03624347
 43
2.787890123210168
 44
-20.38292244580545
 45
-1.414213733659824
 46
-0.0000000429258262
 79
     2
 49
1.030776499999999
 49
-7.21543475
 53
210.96375653
 43
-1.277973868612484
 44
-26.21655339059447
 45
-1.414213733659824
 46
0.0000000429258266
 79
     2
 49
1.030776499999999
 49
-40.20027975
 53
210.96375653
 43
-14.00589592997034
 44
-33.28762120245994
 45
-1.414213733659824
 46
0.0000000429258266
 79
     2
 49
1.030776499999999
 49
-40.20027975
 53
210.96375653
 43
-25.3196044289551
 44
-40.35868901432541
 45
-1.414213733659824
 46
0.0000000429258266
 79
     2
 49
1.030776499999999
 49
-40.20027975
 53
251.56505118
 43
-3.399294212172122
 44
-28.33787373415411
 45
-1.414213497546535
 46
0.0000000789848185
 79
     2
 49
1.118033999999999
 49
-21.24264575
 53
251.56505118
 43
0.843346474947161
 44
-14.19573811042316
 45
-1.414213497546535
 46
0.0000000789848185
 79
     2
 49
1.118033999999999
 49
-21.24264575
 53
251.56505118
 43
-1.98508064979903
 44
-21.26680592228863
 45
-1.414213497546535
 46
0.0000000789848185
 79
     2
 49
1.118033999999999
 49
-21.24264575
 47
0.0173535917977504
 98
        1
 10
0.3958963946251401
 20
2.130537072030875
  0
POLYLINE
  5
213
330
20E
100
AcDbEntity
  8
Pel_Wall
  6
Continuous
100
AcDb2dPolyline
 66
     1
 10
0.0
 20
0.0
 30
0.0
  0
VERTEX
  5
1BD4
330
213
100
AcDbEntity
  8
Pel_Wall
  6
Continuous
100
AcDbVertex
100
AcDb2dVertex
 10
0.7514363031673384
 20
4.261999999998806
 30
0.0
  0
VERTEX
  5
1BD5
330
213
100
AcDbEntity
  8
Pel_Wall
  6
Continuous
100
AcDbVertex
100
AcDb2dVertex
 10
0.7514363031673384
 20
3.842237445967668
 30
0.0
  0
VERTEX
  5
1BD6
330
213
100
AcDbEntity
  8
Pel_Wall
  6
Continuous
100
AcDbVertex
100
AcDb2dVertex
 10
0.1264363031673383
 20
3.842237445967668
 30
0.0
  0
VERTEX
  5
1BD7
330
213
100
AcDbEntity
  8
Pel_Wall
  6
Continuous
100
AcDbVertex
100
AcDb2dVertex
 10
0.1518764579571012
 20
4.261999999998806
 30
0.0
  0
SEQEND
  5
1BD8
330
213
100
AcDbEntity
  8
Pel_Wall
  6
Continuous
  0
POLYLINE
  5
219
330
20E
100
AcDbEntity
  8
Pel_Wall
  6
Continuous
100
AcDb2dPolyline
 66
     1
 10
0.0
 20
0.0
 30
0.0
  0
VERTEX
  5
1BDA
330
219
100
AcDbEntity
  8
Pel_Wall
  6
Continuous
100
AcDbVertex
100
AcDb2dVertex
 10
0.7704363031673367
 20
4.261999999998806
 30
0.0
  0
VERTEX
  5
1BDB
330
219
100
AcDbEntity
  8
Pel_Wall
  6
Continuous
100
AcDbVertex
100
AcDb2dVertex
 10
0.7704363031673367
 20
3.838237445967763
 30
0.0
 42
-0.4142135623730951
  0
VERTEX
  5
1BDC
330
219
100
AcDbEntity
  8
Pel_Wall
  6
Continuous
100
AcDbVertex
100
AcDb2dVertex
 10
0.7554363031670093
 20
3.823237445967436
 30
0.0
  0
VERTEX
  5
1BDD
330
219
100
AcDbEntity
  8
Pel_Wall
  6
Continuous
100
AcDbVertex
100
AcDb2dVertex
 10
-0.103728347678242
 20
3.823237445967436
 30
0.0
 42
0.4142135623730951
  0
VERTEX
  5
1BDE
330
219
100
AcDbEntity
  8
Pel_Wall
  6
Continuous
100
AcDbVertex
100
AcDb2dVertex
 10
-0.1187283476781147
 20
3.808237445967563
 30
0.0
  0
VERTEX
  5
1BDF
330
219
100
AcDbEntity
  8
Pel_Wall
  6
Continuous
100
AcDbVertex
100
AcDb2dVertex
 10
-0.1187283476782426
 20
3.601737445967344
 30
0.0
 42
1.0
  0
VERTEX
  5
1BE0
330
219
100
AcDbEntity
  8
Pel_Wall
  6
Continuous
100
AcDbVertex
100
AcDb2dVertex
 10
-0.0997283476778464
 20
3.601737445967344
 30
0.0
  0
VERTEX
  5
1BE1
330
219
100
AcDbEntity
  8
Pel_Wall
  6
Continuous
100
AcDbVertex
100
AcDb2dVertex
 10
-0.0997283476782443
 20
3.698237445967343
 30
0.0
  0
VERTEX
  5
1BE2
330
219
100
AcDbEntity
  8
Pel_Wall
  6
Continuous
100
AcDbVertex
100
AcDb2dVertex
 10
-0.0807283476781464
 20
3.698237445967343
 30
0.0
  0
VERTEX
  5
1BE3
330
219
100
AcDbEntity
  8
Pel_Wall
  6
Continuous
100
AcDbVertex
100
AcDb2dVertex
 10
-0.080728347677848
 20
3.601737445967344
 30
0.0
 42
-1.0
  0
VERTEX
  5
1BE4
330
219
100
AcDbEntity
  8
Pel_Wall
  6
Continuous
100
AcDbVertex
100
AcDb2dVertex
 10
-0.137728347678248
 20
3.601737445967344
 30
0.0
  0
VERTEX
  5
1BE5
330
219
100
AcDbEntity
  8
Pel_Wall
  6
Continuous
100
AcDbVertex
100
AcDb2dVertex
 10
-0.1377283476784683
 20
3.827237445967348
 30
0.0
 42
-0.4142135623730951
  0
VERTEX
  5
1BE6
330
219
100
AcDbEntity
  8
Pel_Wall
  6
Continuous
100
AcDbVertex
100
AcDb2dVertex
 10
-0.122728347678148
 20
3.842237445967661
 30
0.0
  0
VERTEX
  5
1BE7
330
219
100
AcDbEntity
  8
Pel_Wall
  6
Continuous
100
AcDbVertex
100
AcDb2dVertex
 10
0.736436303167011
 20
3.842237445967668
 30
0.0
 42
0.4142135623730951
  0
VERTEX
  5
1BE8
330
219
100
AcDbEntity
  8
Pel_Wall
  6
Continuous
100
AcDbVertex
100
AcDb2dVertex
 10
0.7514363031673384
 20
3.857237445967996
 30
0.0
  0
VERTEX
  5
1BE9
330
219
100
AcDbEntity
  8
Pel_Wall
  6
Continuous
100
AcDbVertex
100
AcDb2dVertex
 10
0.7514363031673384
 20
4.261999999998806
 30
0.0
 42
-1.0
  0
SEQEND
  5
1BEA
330
219
100
AcDbEntity
  8
Pel_Wall
  6
Continuous
  0
POLYLINE
  5
22B
102
{ACAD_REACTORS
330
212
102
}
330
20E
100
AcDbEntity
  8
Pel_Wall
  6
Continuous
100
AcDb2dPolyline
 66
     1
 10
0.0
 20
0.0
 30
0.0
  0
VERTEX
  5
1BEC
330
22B
100
AcDbEntity
  8
Pel_Wall
  6
Continuous
100
AcDbVertex
100
AcDb2dVertex
 10
0.7514363031673384
 20
0.2619999999988067
 30
0.0
  0
VERTEX
  5
1BED
330
22B
100
AcDbEntity
  8
Pel_Wall
  6
Continuous
100
AcDbVertex
100
AcDb2dVertex
 10
0.0014363031673383
 20
0.2619999999988067
 30
0.0
  0
VERTEX
  5
1BEE
330
22B
100
AcDbEntity
  8
Pel_Wall
  6
Continuous
100
AcDbVertex
100
AcDb2dVertex
 10
0.0014363031673383
 20
3.761999999998806
 30
0.0
  0
VERTEX
  5
1BEF
330
22B
100
AcDbEntity
  8
Pel_Wall
  6
Continuous
100
AcDbVertex
100
AcDb2dVertex
 10
0.7514363031673384
 20
3.761999999998806
 30
0.0
  0
VERTEX
  5
1BF0
330
22B
100
AcDbEntity
  8
Pel_Wall
  6
Continuous
100
AcDbVertex
100
AcDb2dVertex
 10
0.7514363031673384
 20
0.2619999999988067
 30
0.0
  0
SEQEND
  5
1BF1
330
22B
100
AcDbEntity
  8
Pel_Wall
  6
Continuous
  0
LINE
  5
232
330
20E
100
AcDbEntity
  8
Pel_Wall
  6
Continuous
100
AcDbLine
 10
0.510319607947217
 20
4.115208904123775
 30
0.0
 11
0.289348718757239
 21
4.247791437626894
 31
0.0
  0
LINE
  5
233
330
20E
100
AcDbEntity
  8
Pel_Wall
  6
Continuous
100
AcDbLine
 10
0.3760163265695837
 20
3.842237445967661
 30
0.0
 11
0.2893487294886938
 21
3.894238004211935
 31
0.0
  0
LINE
  5
234
330
20E
100
AcDbEntity
  8
Pel_Wall
  6
Continuous
100
AcDbLine
 10
0.2893489105297249
 20
3.894237349856062
 30
0.0
 11
0.1387170180959529
 21
4.044869242289834
 31
0.0
  0
LINE
  5
235
330
20E
100
AcDbEntity
  8
Pel_Wall
  6
Continuous
100
AcDbLine
 10
0.2893489105297249
 20
4.247790740449339
 30
0.0
 11
0.2751396509802575
 21
4.261999999998806
 31
0.0
  0
POLYLINE
  5
236
330
20E
100
AcDbEntity
  8
Pel_Wall
  6
Continuous
100
AcDb2dPolyline
 66
     1
 10
0.0
 20
0.0
 30
0.0
  0
VERTEX
  5
1BF7
330
236
100
AcDbEntity
  8
Pel_Wall
  6
Continuous
100
AcDbVertex
100
AcDb2dVertex
 10
3.657686303167338
 20
4.261999999998806
 30
0.0
  0
VERTEX
  5
1BF8
330
236
100
AcDbEntity
  8
Pel_Wall
  6
Continuous
100
AcDbVertex
100
AcDb2dVertex
 10
3.657686303167338
 20
0.2619999999988067
 30
0.0
  0
VERTEX
  5
1BF9
330
236
100
AcDbEntity
  8
Pel_Wall
  6
Continuous
100
AcDbVertex
100
AcDb2dVertex
 10
5.157686303167338
 20
0.2619999999988067
 30
0.0
  0
VERTEX
  5
1BFA
330
236
100
AcDbEntity
  8
Pel_Wall
  6
Continuous
100
AcDbVertex
100
AcDb2dVertex
 10
5.157686303167338
 20
4.261999999998806
 30
0.0
  0
SEQEND
  5
1BFB
330
236
100
AcDbEntity
  8
Pel_Wall
  6
Continuous
  0
LINE
  5
23C
330
20E
100
AcDbEntity
  8
Pel_Wall
  6
Continuous
100
AcDbLine
 10
3.657686303167338
 20
0.2619999999988067
 30
0.0
 11
4.485272510063893
 21
4.261999999998806
 31
0.0
  0
POLYLINE
  5
23D
330
20E
100
AcDbEntity
  8
Pel_Wall
  6
Continuous
100
AcDb2dPolyline
 66
     1
 10
0.0
 20
0.0
 30
0.0
  0
VERTEX
  5
1BFE
330
23D
100
AcDbEntity
  8
Pel_Wall
  6
Continuous
100
AcDbVertex
100
AcDb2dVertex
 10
0.8451863031673383
 20
0.2619999999988067
 30
0.0
  0
VERTEX
  5
1BFF
330
23D
100
AcDbEntity
  8
Pel_Wall
  6
Continuous
100
AcDbVertex
100
AcDb2dVertex
 10
0.8451863031673383
 20
1.556367805544322
 30
0.0
  0
VERTEX
  5
1C00
330
23D
100
AcDbEntity
  8
Pel_Wall
  6
Continuous
100
AcDbVertex
100
AcDb2dVertex
 10
0.9076863031673383
 20
1.681367805544322
 30
0.0
  0
VERTEX
  5
1C01
330
23D
100
AcDbEntity
  8
Pel_Wall
  6
Continuous
100
AcDbVertex
100
AcDb2dVertex
 10
0.9076863031673383
 20
4.261999999998806
 30
0.0
  0
SEQEND
  5
1C02
330
23D
100
AcDbEntity
  8
Pel_Wall
  6
Continuous
  0
POLYLINE
  5
243
330
20E
100
AcDbEntity
  8
Pel_Wall
  6
Continuous
100
AcDb2dPolyline
 66
     1
 10
0.0
 20
0.0
 30
0.0
  0
VERTEX
  5
1C04
330
243
100
AcDbEntity
  8
Pel_Wall
  6
Continuous
100
AcDbVertex
100
AcDb2dVertex
 10
0.8251863031673423
 20
0.2619999999988067
 30
0.0
  0
VERTEX
  5
1C05
330
243
100
AcDbEntity
  8
Pel_Wall
  6
Continuous
100
AcDbVertex
100
AcDb2dVertex
 10
0.8251863031673423
 20
1.561089165094319
 30
0.0
  0
VERTEX
  5
1C06
330
243
100
AcDbEntity
  8
Pel_Wall
  6
Continuous
100
AcDbVertex
100
AcDb2dVertex
 10
0.8876863031673423
 20
1.686089165094319
 30
0.0
  0
VERTEX
  5
1C07
330
243
100
AcDbEntity
  8
Pel_Wall
  6
Continuous
100
AcDbVertex
100
AcDb2dVertex
 10
0.8876863031673423
 20
4.261999999998806
 30
0.0
  0
SEQEND
  5
1C08
330
243
100
AcDbEntity
  8
Pel_Wall
  6
Continuous
  0
POLYLINE
  5
249
330
20E
100
AcDbEntity
  8
Pel_Wall
  6
Continuous
100
AcDb2dPolyline
 66
     1
 10
0.0
 20
0.0
 30
0.0
  0
VERTEX
  5
1C0A
330
249
100
AcDbEntity
  8
Pel_Wall
  6
Continuous
100
AcDbVertex
100
AcDb2dVertex
 10
1.157686303167338
 20
4.261999999998806
 30
0.0
  0
VERTEX
  5
1C0B
330
249
100
AcDbEntity
  8
Pel_Wall
  6
Continuous
100
AcDbVertex
100
AcDb2dVertex
 10
1.157686303167338
 20
0.2619999999988067
 30
0.0
  0
VERTEX
  5
1C0C
330
249
100
AcDbEntity
  8
Pel_Wall
  6
Continuous
100
AcDbVertex
100
AcDb2dVertex
 10
1.657686303167338
 20
0.2619999999988067
 30
0.0
  0
VERTEX
  5
1C0D
330
249
100
AcDbEntity
  8
Pel_Wall
  6
Continuous
100
AcDbVertex
100
AcDb2dVertex
 10
1.657686303167338
 20
4.136916666665474
 30
0.0
  0
SEQEND
  5
1C0E
330
249
100
AcDbEntity
  8
Pel_Wall
  6
Continuous
  0
POLYLINE
  5
24F
330
20E
100
AcDbEntity
  8
Pel_Wall
  6
Continuous
100
AcDb2dPolyline
 66
     1
 10
0.0
 20
0.0
 30
0.0
  0
VERTEX
  5
1C10
330
24F
100
AcDbEntity
  8
Pel_Wall
  6
Continuous
100
AcDbVertex
100
AcDb2dVertex
 10
1.657686303167338
 20
4.261999999998806
 30
0.0
  0
VERTEX
  5
1C11
330
24F
100
AcDbEntity
  8
Pel_Wall
  6
Continuous
100
AcDbVertex
100
AcDb2dVertex
 10
1.657686303167338
 20
0.2619999999988067
 30
0.0
  0
VERTEX
  5
1C12
330
24F
100
AcDbEntity
  8
Pel_Wall
  6
Continuous
100
AcDbVertex
100
AcDb2dVertex
 10
3.157686303167338
 20
0.2619999999988067
 30
0.0
  0
VERTEX
  5
1C13
330
24F
100
AcDbEntity
  8
Pel_Wall
  6
Continuous
100
AcDbVertex
100
AcDb2dVertex
 10
3.157686303167338
 20
4.261999999998806
 30
0.0
  0
SEQEND
  5
1C14
330
24F
100
AcDbEntity
  8
Pel_Wall
  6
Continuous
  0
POLYLINE
  5
255
330
20E
100
AcDbEntity
  8
Pel_Wall
  6
Continuous
100
AcDb2dPolyline
 66
     1
 10
0.0
 20
0.0
 30
0.0
  0
VERTEX
  5
1C16
330
255
100
AcDbEntity
  8
Pel_Wall
  6
Continuous
100
AcDbVertex
100
AcDb2dVertex
 10
3.157686303167338
 20
4.261999999998806
 30
0.0
  0
VERTEX
  5
1C17
330
255
100
AcDbEntity
  8
Pel_Wall
  6
Continuous
100
AcDbVertex
100
AcDb2dVertex
 10
3.157686303167338
 20
0.2619999999988067
 30
0.0
  0
VERTEX
  5
1C18
330
255
100
AcDbEntity
  8
Pel_Wall
  6
Continuous
100
AcDbVertex
100
AcDb2dVertex
 10
3.657686303167338
 20
0.2619999999988067
 30
0.0
  0
VERTEX
  5
1C19
330
255
100
AcDbEntity
  8
Pel_Wall
  6
Continuous
100
AcDbVertex
100
AcDb2dVertex
 10
3.657686303167338
 20
4.261999999998806
 30
0.0
  0
SEQEND
  5
1C1A
330
255
100
AcDbEntity
  8
Pel_Wall
  6
Continuous
  0
LINE
  5
25B
330
20E
100
AcDbEntity
  8
Pel_Wall
  6
Continuous
100
AcDbLine
 10
3.282686303167338
 20
0.2619999999988067
 30
0.0
 11
3.282686303167338
 21
4.261999999998806
 31
0.0
  0
LINE
  5
25C
330
20E
100
AcDbEntity
  8
Pel_Wall
  6
Continuous
100
AcDbLine
 10
3.407686303167338
 20
0.2619999999988067
 30
0.0
 11
3.407686303167338
 21
4.261999999998806
 31
0.0
  0
LINE
  5
25D
330
20E
100
AcDbEntity
  8
Pel_Wall
  6
Continuous
100
AcDbLine
 10
3.532686303167338
 20
0.2619999999988067
 30
0.0
 11
3.532686303167338
 21
4.261999999998806
 31
0.0
  0
LINE
  5
25E
330
20E
100
AcDbEntity
  8
Pel_Wall
  6
Continuous
100
AcDbLine
 10
3.657686303167338
 20
3.288911934579999
 30
0.0
 11
3.157686303167338
 21
3.788911934579999
 31
0.0
  0
LINE
  5
25F
330
20E
100
AcDbEntity
  8
Pel_Wall
  6
Continuous
100
AcDbLine
 10
1.657686303167338
 20
3.288911934579999
 30
0.0
 11
1.157686303167338
 21
3.788911934579999
 31
0.0
  0
LINE
  5
260
330
20E
100
AcDbEntity
  8
Pel_Wall
  6
Continuous
100
AcDbLine
 10
1.532686303167338
 20
0.2619999999988067
 30
0.0
 11
1.532686303167338
 21
4.261999999998806
 31
0.0
  0
LINE
  5
261
330
20E
100
AcDbEntity
  8
Pel_Wall
  6
Continuous
100
AcDbLine
 10
1.407686303167338
 20
0.2619999999988067
 30
0.0
 11
1.407686303167338
 21
4.261999999998806
 31
0.0
  0
LINE
  5
262
330
20E
100
AcDbEntity
  8
Pel_Wall
  6
Continuous
100
AcDbLine
 10
1.282686303167338
 20
0.2619999999988067
 30
0.0
 11
1.282686303167338
 21
4.261999999998806
 31
0.0
  0
LINE
  5
263
330
20E
100
AcDbEntity
  8
Pel_Wall
  6
Continuous
100
AcDbLine
 10
3.157686303167338
 20
0.2619999999988067
 30
0.0
 11
2.330100096270783
 21
4.261999999998806
 31
0.0
  0
LINE
  5
264
330
20E
100
AcDbEntity
  8
Pel_Wall
  6
Continuous
100
AcDbLine
 10
1.657686303167338
 20
0.2619999999988067
 30
0.0
 11
2.485272510063893
 21
4.261999999998806
 31
0.0
  0
POLYLINE
  5
265
330
20E
100
AcDbEntity
  8
Pel_Wall
  6
Continuous
100
AcDb2dPolyline
 66
     1
 10
0.0
 20
0.0
 30
0.0
  0
VERTEX
  5
1C26
330
265
100
AcDbEntity
  8
Pel_Wall
  6
Continuous
100
AcDbVertex
100
AcDb2dVertex
 10
0.9762766590144877
 20
0.2816695291009523
 30
0.0
  0
VERTEX
  5
1C27
330
265
100
AcDbEntity
  8
Pel_Wall
  6
Continuous
100
AcDbVertex
100
AcDb2dVertex
 10
0.9762766590144877
 20
1.473890888650949
 30
0.0
  0
VERTEX
  5
1C28
330
265
100
AcDbEntity
  8
Pel_Wall
  6
Continuous
100
AcDbVertex
100
AcDb2dVertex
 10
1.038776659014487
 20
1.598890888650949
 30
0.0
  0
VERTEX
  5
1C29
330
265
100
AcDbEntity
  8
Pel_Wall
  6
Continuous
100
AcDbVertex
100
AcDb2dVertex
 10
1.038776659014487
 20
3.281669529100952
 30
0.0
  0
SEQEND
  5
1C2A
330
265
100
AcDbEntity
  8
Pel_Wall
  6
Continuous
  0
POLYLINE
  5
26B
330
20E
100
AcDbEntity
  8
Pel_Wall
  6
Continuous
100
AcDb2dPolyline
 66
     1
 10
0.0
 20
0.0
 30
0.0
  0
VERTEX
  5
1C2C
330
26B
100
AcDbEntity
  8
Pel_Wall
  6
Continuous
100
AcDbVertex
100
AcDb2dVertex
 10
0.9962766590144838
 20
0.2816695291009523
 30
0.0
  0
VERTEX
  5
1C2D
330
26B
100
AcDbEntity
  8
Pel_Wall
  6
Continuous
100
AcDbVertex
100
AcDb2dVertex
 10
0.9962766590144838
 20
1.469169529100952
 30
0.0
  0
VERTEX
  5
1C2E
330
26B
100
AcDbEntity
  8
Pel_Wall
  6
Continuous
100
AcDbVertex
100
AcDb2dVertex
 10
1.058776659014483
 20
1.594169529100952
 30
0.0
  0
VERTEX
  5
1C2F
330
26B
100
AcDbEntity
  8
Pel_Wall
  6
Continuous
100
AcDbVertex
100
AcDb2dVertex
 10
1.058776659014483
 20
3.281669529100952
 30
0.0
  0
SEQEND
  5
1C30
330
26B
100
AcDbEntity
  8
Pel_Wall
  6
Continuous
  0
LINE
  5
271
330
20E
100
AcDbEntity
  8
Pel_Wall
  6
Continuous
100
AcDbLine
 10
1.657686303167338
 20
0.6369999999988068
 30
0.0
 11
1.157686303167338
 21
1.13699999999881
 31
0.0
  0
LINE
  5
272
330
20E
100
AcDbEntity
  8
Pel_Wall
  6
Continuous
100
AcDbLine
 10
1.657686303167338
 20
2.58180515339345
 30
0.0
 11
1.157686303167338
 21
3.081805153393446
 31
0.0
  0
LINE
  5
273
330
20E
100
AcDbEntity
  8
Pel_Wall
  6
Continuous
100
AcDbLine
 10
1.657686303167338
 20
2.1246983722069
 30
0.0
 11
1.157686303167338
 21
2.6246983722069
 31
0.0
  0
LINE
  5
274
330
20E
100
AcDbEntity
  8
Pel_Wall
  6
Continuous
100
AcDbLine
 10
1.657686303167338
 20
1.292591591020354
 30
0.0
 11
1.157686303167338
 21
1.79259159102035
 31
0.0
  0
LINE
  5
275
330
20E
100
AcDbEntity
  8
Pel_Wall
  6
Continuous
100
AcDbLine
 10
3.657686303167338
 20
0.6369999999988068
 30
0.0
 11
3.157686303167338
 21
1.13699999999881
 31
0.0
  0
LINE
  5
276
330
20E
100
AcDbEntity
  8
Pel_Wall
  6
Continuous
100
AcDbLine
 10
3.657686303167338
 20
2.58180515339345
 30
0.0
 11
3.157686303167338
 21
3.081805153393446
 31
0.0
  0
LINE
  5
277
330
20E
100
AcDbEntity
  8
Pel_Wall
  6
Continuous
100
AcDbLine
 10
3.657686303167338
 20
1.292591591020354
 30
0.0
 11
3.157686303167338
 21
1.79259159102035
 31
0.0
  0
LINE
  5
278
330
20E
100
AcDbEntity
  8
Pel_Wall
  6
Continuous
100
AcDbLine
 10
3.657686303167338
 20
2.1246983722069
 30
0.0
 11
3.157686303167338
 21
2.6246983722069
 31
0.0
  0
LINE
  5
279
330
20E
100
AcDbEntity
  8
Pel_Wall
  6
Continuous
100
AcDbLine
 10
0.7514363031673384
 20
4.034835928975034
 30
0.0
 11
0.5103200139322724
 21
4.115208025373057
 31
0.0
  0
LINE
  5
27A
330
20E
100
AcDbEntity
  8
Pel_Wall
  6
Continuous
100
AcDbLine
 10
1.657686303167338
 20
3.996018715766545
 30
0.0
 11
1.403144031481929
 21
4.250560987451947
 31
0.0
  0
LINE
  5
27B
330
20E
100
AcDbEntity
  8
Pel_Wall
  6
Continuous
100
AcDbLine
 10
3.657686303167338
 20
3.996018715766545
 30
0.0
 11
3.391705018935077
 21
4.261999999998806
 31
0.0
  0
HATCH
  5
27C
330
20E
100
AcDbEntity
  8
Pel_Wall
100
AcDbHatch
 10
0.0
 20
0.0
 30
0.0
210
0.0
220
0.0
230
1.0
  2
GYP
 70
     0
 71
     0
 91
        1
 92
        7
 72
     0
 73
     1
 93
        6
 10
5.157686303167338
 20
0.2619999999988067
 10
5.657686303167338
 20
0.2619999999988067
 10
5.657686303167338
 20
4.261999999998806
 10
5.282686303167338
 20
4.261999999998806
 10
5.220186303167338
 20
4.011999999998806
 10
5.157686303167338
 20
4.261999999998806
 97
        0
 75
     0
 76
     1
 52
0.0
 41
1.0
 77
     0
 78
     3
 53
0.0
 43
-0.2173136968326617
 44
-25.86300000000119
 45
0.18
 46
0.5
 79
     2
 49
0.0
 49
-0.3
 53
30.0
 43
-0.1873136968326605
 44
-25.74300000000119
 45
-0.094115427318801
 46
0.5230127018922194
 79
     2
 49
0.0
 49
-0.3
 53
60.0
 43
-0.1573136968326594
 44
-25.6830000000012
 45
-0.3430127018922193
 46
0.405884572681199
 79
     2
 49
0.0
 49
-0.3
 47
0.0173535917977504
 98
        1
 10
5.345493122495582
 20
2.894095144162207
  0
POLYLINE
  5
27D
330
20E
100
AcDbEntity
  8
Pel_Wall
  6
Continuous
100
AcDb2dPolyline
 66
     1
 10
0.0
 20
0.0
 30
0.0
  0
VERTEX
  5
1C3E
330
27D
100
AcDbEntity
  8
Pel_Wall
  6
Continuous
100
AcDbVertex
100
AcDb2dVertex
 10
5.157686303167338
 20
4.261999999998806
 30
0.0
  0
VERTEX
  5
1C3F
330
27D
100
AcDbEntity
  8
Pel_Wall
  6
Continuous
100
AcDbVertex
100
AcDb2dVertex
 10
5.157686303167338
 20
0.2619999999988067
 30
0.0
  0
VERTEX
  5
1C40
330
27D
100
AcDbEntity
  8
Pel_Wall
  6
Continuous
100
AcDbVertex
100
AcDb2dVertex
 10
5.657686303167338
 20
0.2619999999988067
 30
0.0
  0
VERTEX
  5
1C41
330
27D
100
AcDbEntity
  8
Pel_Wall
  6
Continuous
100
AcDbVertex
100
AcDb2dVertex
 10
5.657686303167338
 20
4.261999999998806
 30
0.0
  0
SEQEND
  5
1C42
330
27D
100
AcDbEntity
  8
Pel_Wall
  6
Continuous
  0
LINE
  5
283
330
20E
100
AcDbEntity
  8
Pel_Wall
  6
Continuous
100
AcDbLine
 10
5.157686303167338
 20
0.2619999999988067
 30
0.0
 11
4.330100096270783
 21
4.261999999998806
 31
0.0
  0
INSERT
  5
284
330
20E
100
AcDbEntity
  8
Pel_Wall
100
AcDbBlockReference
  2
Rodseal
 10
0.0014363031673383
 20
0.0119999999988068
 30
0.0
 41
0.875
 42
0.25
  0
LINE
  5
2C0
330
20E
100
AcDbEntity
  8
Pel_Wall
  6
Continuous
100
AcDbLine
 10
0.9437430639725086
 20
0.8977787598217972
 30
0.0
 11
1.818743063972508
 21
0.8977787598217972
 31
0.0
  0
LINE
  5
2C1
330
20E
100
AcDbEntity
  8
Pel_Wall
  6
Continuous
100
AcDbLine
 10
1.006243063972508
 20
0.7727787598217973
 30
0.0
 11
1.006243063972508
 21
1.022778759821797
 31
0.0
  0
LINE
  5
2C2
330
20E
100
AcDbEntity
  8
Pel_Wall
  6
Continuous
100
AcDbLine
 10
2.318743063972508
 20
0.8977787598217972
 30
0.0
 11
3.068743063972508
 21
0.8977787598217972
 31
0.0
  0
LINE
  5
2C3
330
20E
100
AcDbEntity
  8
Pel_Wall
  6
Continuous
100
AcDbLine
 10
1.943743063972508
 20
0.8977787598217972
 30
0.0
 11
2.193743063972508
 21
0.8977787598217972
 31
0.0
  0
POINT
  5
2C4
330
20E
100
AcDbEntity
  8
Pel_Points
100
AcDbPoint
 10
0.0014363031673366
 20
0.0
 30
0.0
  0
INSERT
  5
1C4A
330
20E
100
AcDbEntity
  8
0
100
AcDbBlockReference
  2
FOAM
 10
5.657686303167341
 20
0.0001471230092847
 30
0.0
 41
-1.0
  0
ENDBLK
  5
2C6
330
20E
100
AcDbEntity
  8
0
100
AcDbBlockEnd
  0
BLOCK
  5
37D
330
37A
100
AcDbEntity
  8
0
100
AcDbBlockBegin
  2
10jambwoodsiding
 70
     0
 10
0.0
 20
0.0
 30
0.0
  3
10jambwoodsiding
  1

  0
LINE
  5
37E
330
37A
100
AcDbEntity
  8
Pel_Wall
  6
Continuous
100
AcDbLine
 10
5.465283847373932
 20
4.187450000002056
 30
0.0
 11
5.465283847373932
 21
4.187450000002056
 31
0.0
  0
LINE
  5
37F
330
37A
100
AcDbEntity
  8
Pel_Wall
  6
Continuous
100
AcDbLine
 10
5.615283847373937
 20
4.187450000002056
 30
0.0
 11
5.615283847373937
 21
4.187450000002056
 31
0.0
  0
LINE
  5
380
330
37A
100
AcDbEntity
  8
Pel_Wall
  6
Continuous
100
AcDbLine
 10
5.455280146411176
 20
4.205299302038089
 30
0.0
 11
5.455280146411176
 21
4.205299302038089
 31
0.0
  0
LINE
  5
381
330
37A
100
AcDbEntity
  8
Pel_Wall
  6
Continuous
100
AcDbLine
 10
5.541182232236181
 20
4.142406712977529
 30
0.0
 11
5.541182232236181
 21
4.142406712977529
 31
0.0
  0
LINE
  5
382
330
37A
100
AcDbEntity
  8
Pel_Wall
  6
Continuous
100
AcDbLine
 10
5.315283847373933
 20
4.187450000002056
 30
0.0
 11
5.315283847373933
 21
4.187450000002056
 31
0.0
  0
LINE
  5
383
330
37A
100
AcDbEntity
  8
Pel_Wall
  6
Continuous
100
AcDbLine
 10
5.325376335843508
 20
4.130299302038086
 30
0.0
 11
5.325376335843508
 21
4.130299302038086
 31
0.0
  0
LINE
  5
384
330
37A
100
AcDbEntity
  8
Pel_Wall
  6
Continuous
100
AcDbLine
 10
5.294675881290075
 20
4.215445188750469
 30
0.0
 11
5.294675881290075
 21
4.215445188750469
 31
0.0
  0
LINE
  5
385
330
37A
100
AcDbEntity
  8
Pel_Wall
  6
Continuous
100
AcDbLine
 10
5.67528384737394
 20
3.812450000002056
 30
0.0
 11
5.67528384737394
 21
3.812450000002056
 31
0.0
  0
LINE
  5
386
330
37A
100
AcDbEntity
  8
Pel_Wall
  6
Continuous
100
AcDbLine
 10
5.632241670638244
 20
3.893792951091978
 30
0.0
 11
5.632241670638244
 21
3.893792951091978
 31
0.0
  0
LINE
  5
387
330
37A
100
AcDbEntity
  8
Pel_Wall
  6
Continuous
100
AcDbLine
 10
5.679299384297643
 20
3.632286600145865
 30
0.0
 11
5.679299384297643
 21
3.632286600145865
 31
0.0
  0
LINE
  5
388
330
37A
100
AcDbEntity
  8
Pel_Wall
  6
Continuous
100
AcDbLine
 10
5.637688583182289
 20
3.684560616069266
 30
0.0
 11
5.637688583182289
 21
3.684560616069266
 31
0.0
  0
LINE
  5
389
330
37A
100
AcDbEntity
  8
Pel_Wall
  6
Continuous
100
AcDbLine
 10
5.645283847373939
 20
3.312450000002056
 30
0.0
 11
5.645283847373939
 21
3.312450000002056
 31
0.0
  0
LINE
  5
38A
330
37A
100
AcDbEntity
  8
Pel_Wall
  6
Continuous
100
AcDbLine
 10
5.643511001048779
 20
3.034273898253649
 30
0.0
 11
5.643511001048779
 21
3.034273898253649
 31
0.0
  0
LINE
  5
38B
330
37A
100
AcDbEntity
  8
Pel_Wall
  6
Continuous
100
AcDbLine
 10
5.659194934128401
 20
3.221810708593335
 30
0.0
 11
5.659194934128401
 21
3.221810708593335
 31
0.0
  0
LINE
  5
38C
330
37A
100
AcDbEntity
  8
Pel_Wall
  6
Continuous
100
AcDbLine
 10
5.675283847373933
 20
2.562450000002056
 30
0.0
 11
5.675283847373933
 21
2.562450000002056
 31
0.0
  0
LINE
  5
38D
330
37A
100
AcDbEntity
  8
Pel_Wall
  6
Continuous
100
AcDbLine
 10
5.645283847373939
 20
2.062450000002056
 30
0.0
 11
5.645283847373939
 21
2.062450000002056
 31
0.0
  0
LINE
  5
38E
330
37A
100
AcDbEntity
  8
Pel_Wall
  6
Continuous
100
AcDbLine
 10
5.654780331459314
 20
2.174754845415319
 30
0.0
 11
5.654780331459314
 21
2.174754845415319
 31
0.0
  0
LINE
  5
38F
330
37A
100
AcDbEntity
  8
Pel_Wall
  6
Continuous
100
AcDbLine
 10
5.627207636020622
 20
2.166407083073811
 30
0.0
 11
5.627207636020622
 21
2.166407083073811
 31
0.0
  0
LINE
  5
390
330
37A
100
AcDbEntity
  8
Pel_Wall
  6
Continuous
100
AcDbLine
 10
5.648713986966733
 20
1.703657175597872
 30
0.0
 11
5.648713986966733
 21
1.703657175597872
 31
0.0
  0
LINE
  5
391
330
37A
100
AcDbEntity
  8
Pel_Wall
  6
Continuous
100
AcDbLine
 10
5.525283847373934
 20
3.937450000002056
 30
0.0
 11
5.525283847373934
 21
3.937450000002056
 31
0.0
  0
LINE
  5
392
330
37A
100
AcDbEntity
  8
Pel_Wall
  6
Continuous
100
AcDbLine
 10
5.435283847373939
 20
3.687450000002056
 30
0.0
 11
5.435283847373939
 21
3.687450000002056
 31
0.0
  0
LINE
  5
393
330
37A
100
AcDbEntity
  8
Pel_Wall
  6
Continuous
100
AcDbLine
 10
5.585283847373937
 20
3.687450000002056
 30
0.0
 11
5.585283847373937
 21
3.687450000002056
 31
0.0
  0
LINE
  5
394
330
37A
100
AcDbEntity
  8
Pel_Wall
  6
Continuous
100
AcDbLine
 10
5.502337860070575
 20
3.943792951091976
 30
0.0
 11
5.502337860070575
 21
3.943792951091976
 31
0.0
  0
LINE
  5
395
330
37A
100
AcDbEntity
  8
Pel_Wall
  6
Continuous
100
AcDbLine
 10
5.419491763162313
 20
3.607286600145866
 30
0.0
 11
5.419491763162313
 21
3.607286600145866
 31
0.0
  0
LINE
  5
396
330
37A
100
AcDbEntity
  8
Pel_Wall
  6
Continuous
100
AcDbLine
 10
5.549395573729982
 20
3.682286600145869
 30
0.0
 11
5.549395573729982
 21
3.682286600145869
 31
0.0
  0
LINE
  5
397
330
37A
100
AcDbEntity
  8
Pel_Wall
  6
Continuous
100
AcDbLine
 10
5.466182232236185
 20
4.012502902409868
 30
0.0
 11
5.466182232236185
 21
4.012502902409868
 31
0.0
  0
LINE
  5
398
330
37A
100
AcDbEntity
  8
Pel_Wall
  6
Continuous
100
AcDbLine
 10
5.487688583182291
 20
3.549752994933936
 30
0.0
 11
5.487688583182291
 21
3.549752994933936
 31
0.0
  0
LINE
  5
399
330
37A
100
AcDbEntity
  8
Pel_Wall
  6
Continuous
100
AcDbLine
 10
5.562688583182294
 20
3.679656805501598
 30
0.0
 11
5.562688583182294
 21
3.679656805501598
 31
0.0
  0
LINE
  5
39A
330
37A
100
AcDbEntity
  8
Pel_Wall
  6
Continuous
100
AcDbLine
 10
5.225283847373937
 20
3.937450000002056
 30
0.0
 11
5.225283847373937
 21
3.937450000002056
 31
0.0
  0
LINE
  5
39B
330
37A
100
AcDbEntity
  8
Pel_Wall
  6
Continuous
100
AcDbLine
 10
5.375283847373935
 20
3.937450000002056
 30
0.0
 11
5.375283847373935
 21
3.937450000002056
 31
0.0
  0
LINE
  5
39C
330
37A
100
AcDbEntity
  8
Pel_Wall
  6
Continuous
100
AcDbLine
 10
5.285283847373933
 20
3.687450000002056
 30
0.0
 11
5.285283847373933
 21
3.687450000002056
 31
0.0
  0
LINE
  5
39D
330
37A
100
AcDbEntity
  8
Pel_Wall
  6
Continuous
100
AcDbLine
 10
5.195472525275846
 20
4.055299302038066
 30
0.0
 11
5.195472525275846
 21
4.055299302038066
 31
0.0
  0
LINE
  5
39E
330
37A
100
AcDbEntity
  8
Pel_Wall
  6
Continuous
100
AcDbLine
 10
5.242530238935245
 20
3.793792951091977
 30
0.0
 11
5.242530238935245
 21
3.793792951091977
 31
0.0
  0
LINE
  5
39F
330
37A
100
AcDbEntity
  8
Pel_Wall
  6
Continuous
100
AcDbLine
 10
5.372434049502913
 20
3.86879295109198
 30
0.0
 11
5.372434049502913
 21
3.86879295109198
 31
0.0
  0
LINE
  5
3A0
330
37A
100
AcDbEntity
  8
Pel_Wall
  6
Continuous
100
AcDbLine
 10
5.289587952594644
 20
3.53228660014587
 30
0.0
 11
5.289587952594644
 21
3.53228660014587
 31
0.0
  0
LINE
  5
3A1
330
37A
100
AcDbEntity
  8
Pel_Wall
  6
Continuous
100
AcDbLine
 10
5.219675881290072
 20
4.0855413781828
 30
0.0
 11
5.219675881290072
 21
4.0855413781828
 31
0.0
  0
LINE
  5
3A2
330
37A
100
AcDbEntity
  8
Pel_Wall
  6
Continuous
100
AcDbLine
 10
5.241182232236185
 20
3.622791470706869
 30
0.0
 11
5.241182232236185
 21
3.622791470706869
 31
0.0
  0
LINE
  5
3A3
330
37A
100
AcDbEntity
  8
Pel_Wall
  6
Continuous
100
AcDbLine
 10
5.31618223223618
 20
3.752695281274537
 30
0.0
 11
5.31618223223618
 21
3.752695281274537
 31
0.0
  0
LINE
  5
3A4
330
37A
100
AcDbEntity
  8
Pel_Wall
  6
Continuous
100
AcDbLine
 10
5.391182232236182
 20
3.882599091842199
 30
0.0
 11
5.391182232236182
 21
3.882599091842199
 31
0.0
  0
LINE
  5
3A5
330
37A
100
AcDbEntity
  8
Pel_Wall
  6
Continuous
100
AcDbLine
 10
5.495283847373934
 20
3.437450000002056
 30
0.0
 11
5.495283847373934
 21
3.437450000002056
 31
0.0
  0
LINE
  5
3A6
330
37A
100
AcDbEntity
  8
Pel_Wall
  6
Continuous
100
AcDbLine
 10
5.405283847373937
 20
3.187450000002056
 30
0.0
 11
5.405283847373937
 21
3.187450000002056
 31
0.0
  0
LINE
  5
3A7
330
37A
100
AcDbEntity
  8
Pel_Wall
  6
Continuous
100
AcDbLine
 10
5.555283847373936
 20
3.187450000002056
 30
0.0
 11
5.555283847373936
 21
3.187450000002056
 31
0.0
  0
LINE
  5
3A8
330
37A
100
AcDbEntity
  8
Pel_Wall
  6
Continuous
100
AcDbLine
 10
5.465283847373933
 20
2.937450000002056
 30
0.0
 11
5.465283847373933
 21
2.937450000002056
 31
0.0
  0
LINE
  5
3A9
330
37A
100
AcDbEntity
  8
Pel_Wall
  6
Continuous
100
AcDbLine
 10
5.615283847373938
 20
2.937450000002056
 30
0.0
 11
5.615283847373938
 21
2.937450000002056
 31
0.0
  0
LINE
  5
3AA
330
37A
100
AcDbEntity
  8
Pel_Wall
  6
Continuous
100
AcDbLine
 10
5.466549476821719
 20
3.345780249199759
 30
0.0
 11
5.466549476821719
 21
3.345780249199759
 31
0.0
  0
LINE
  5
3AB
330
37A
100
AcDbEntity
  8
Pel_Wall
  6
Continuous
100
AcDbLine
 10
5.596453287389381
 20
3.420780249199755
 30
0.0
 11
5.596453287389381
 21
3.420780249199755
 31
0.0
  0
LINE
  5
3AC
330
37A
100
AcDbEntity
  8
Pel_Wall
  6
Continuous
100
AcDbLine
 10
5.513607190481118
 20
3.084273898253646
 30
0.0
 11
5.513607190481118
 21
3.084273898253646
 31
0.0
  0
LINE
  5
3AD
330
37A
100
AcDbEntity
  8
Pel_Wall
  6
Continuous
100
AcDbLine
 10
5.412688583182295
 20
3.419849184366268
 30
0.0
 11
5.412688583182295
 21
3.419849184366268
 31
0.0
  0
LINE
  5
3AE
330
37A
100
AcDbEntity
  8
Pel_Wall
  6
Continuous
100
AcDbLine
 10
5.434194934128407
 20
2.957099276890336
 30
0.0
 11
5.434194934128407
 21
2.957099276890336
 31
0.0
  0
LINE
  5
3AF
330
37A
100
AcDbEntity
  8
Pel_Wall
  6
Continuous
100
AcDbLine
 10
5.509194934128402
 20
3.087003087458005
 30
0.0
 11
5.509194934128402
 21
3.087003087458005
 31
0.0
  0
LINE
  5
3B0
330
37A
100
AcDbEntity
  8
Pel_Wall
  6
Continuous
100
AcDbLine
 10
5.584194934128405
 20
3.216906898025666
 30
0.0
 11
5.584194934128405
 21
3.216906898025666
 31
0.0
  0
LINE
  5
3B1
330
37A
100
AcDbEntity
  8
Pel_Wall
  6
Continuous
100
AcDbLine
 10
5.195283847373937
 20
3.437450000002031
 30
0.0
 11
5.195283847373937
 21
3.437450000002031
 31
0.0
  0
LINE
  5
3B2
330
37A
100
AcDbEntity
  8
Pel_Wall
  6
Continuous
100
AcDbLine
 10
5.345283847373935
 20
3.437450000002056
 30
0.0
 11
5.345283847373935
 21
3.437450000002056
 31
0.0
  0
LINE
  5
3B3
330
37A
100
AcDbEntity
  8
Pel_Wall
  6
Continuous
100
AcDbLine
 10
5.255283847373939
 20
3.187450000002056
 30
0.0
 11
5.255283847373939
 21
3.187450000002056
 31
0.0
  0
LINE
  5
3B4
330
37A
100
AcDbEntity
  8
Pel_Wall
  6
Continuous
100
AcDbLine
 10
5.315283847373934
 20
2.937450000002056
 30
0.0
 11
5.315283847373934
 21
2.937450000002056
 31
0.0
  0
LINE
  5
3B5
330
37A
100
AcDbEntity
  8
Pel_Wall
  6
Continuous
100
AcDbLine
 10
5.206741855686382
 20
3.195780249199761
 30
0.0
 11
5.206741855686382
 21
3.195780249199761
 31
0.0
  0
LINE
  5
3B6
330
37A
100
AcDbEntity
  8
Pel_Wall
  6
Continuous
100
AcDbLine
 10
5.33664566625405
 20
3.270780249199757
 30
0.0
 11
5.33664566625405
 21
3.270780249199757
 31
0.0
  0
LINE
  5
3B7
330
37A
100
AcDbEntity
  8
Pel_Wall
  6
Continuous
100
AcDbLine
 10
5.253799569345781
 20
2.934273898253647
 30
0.0
 11
5.253799569345781
 21
2.934273898253647
 31
0.0
  0
LINE
  5
3B8
330
37A
100
AcDbEntity
  8
Pel_Wall
  6
Continuous
100
AcDbLine
 10
5.383703379913449
 20
3.00927389825365
 30
0.0
 11
5.383703379913449
 21
3.00927389825365
 31
0.0
  0
LINE
  5
3B9
330
37A
100
AcDbEntity
  8
Pel_Wall
  6
Continuous
100
AcDbLine
 10
5.187688583182294
 20
3.030137752663251
 30
0.0
 11
5.187688583182294
 21
3.030137752663251
 31
0.0
  0
LINE
  5
3BA
330
37A
100
AcDbEntity
  8
Pel_Wall
  6
Continuous
100
AcDbLine
 10
5.262688583182289
 20
3.160041563230937
 30
0.0
 11
5.262688583182289
 21
3.160041563230937
 31
0.0
  0
LINE
  5
3BB
330
37A
100
AcDbEntity
  8
Pel_Wall
  6
Continuous
100
AcDbLine
 10
5.337688583182292
 20
3.289945373798606
 30
0.0
 11
5.337688583182292
 21
3.289945373798606
 31
0.0
  0
LINE
  5
3BC
330
37A
100
AcDbEntity
  8
Pel_Wall
  6
Continuous
100
AcDbLine
 10
5.525283847373935
 20
2.687450000002056
 30
0.0
 11
5.525283847373935
 21
2.687450000002056
 31
0.0
  0
LINE
  5
3BD
330
37A
100
AcDbEntity
  8
Pel_Wall
  6
Continuous
100
AcDbLine
 10
5.435283847373939
 20
2.437450000002056
 30
0.0
 11
5.435283847373939
 21
2.437450000002056
 31
0.0
  0
LINE
  5
3BE
330
37A
100
AcDbEntity
  8
Pel_Wall
  6
Continuous
100
AcDbLine
 10
5.585283847373937
 20
2.437450000002056
 30
0.0
 11
5.585283847373937
 21
2.437450000002056
 31
0.0
  0
LINE
  5
3BF
330
37A
100
AcDbEntity
  8
Pel_Wall
  6
Continuous
100
AcDbLine
 10
5.430761093572848
 20
2.747767547307536
 30
0.0
 11
5.430761093572848
 21
2.747767547307536
 31
0.0
  0
LINE
  5
3C0
330
37A
100
AcDbEntity
  8
Pel_Wall
  6
Continuous
100
AcDbLine
 10
5.560664904140517
 20
2.822767547307539
 30
0.0
 11
5.560664904140517
 21
2.822767547307539
 31
0.0
  0
LINE
  5
3C1
330
37A
100
AcDbEntity
  8
Pel_Wall
  6
Continuous
100
AcDbLine
 10
5.477818807232254
 20
2.48626119636143
 30
0.0
 11
5.477818807232254
 21
2.48626119636143
 31
0.0
  0
LINE
  5
3C2
330
37A
100
AcDbEntity
  8
Pel_Wall
  6
Continuous
100
AcDbLine
 10
5.607722617799915
 20
2.561261196361425
 30
0.0
 11
5.607722617799915
 21
2.561261196361425
 31
0.0
  0
LINE
  5
3C3
330
37A
100
AcDbEntity
  8
Pel_Wall
  6
Continuous
100
AcDbLine
 10
5.455701285074511
 20
2.494349369414405
 30
0.0
 11
5.455701285074511
 21
2.494349369414405
 31
0.0
  0
LINE
  5
3C4
330
37A
100
AcDbEntity
  8
Pel_Wall
  6
Continuous
100
AcDbLine
 10
5.530701285074514
 20
2.624253179982074
 30
0.0
 11
5.530701285074514
 21
2.624253179982074
 31
0.0
  0
LINE
  5
3C5
330
37A
100
AcDbEntity
  8
Pel_Wall
  6
Continuous
100
AcDbLine
 10
5.60570128507451
 20
2.754156990549735
 30
0.0
 11
5.60570128507451
 21
2.754156990549735
 31
0.0
  0
LINE
  5
3C6
330
37A
100
AcDbEntity
  8
Pel_Wall
  6
Continuous
100
AcDbLine
 10
5.225283847373938
 20
2.687450000002056
 30
0.0
 11
5.225283847373938
 21
2.687450000002056
 31
0.0
  0
LINE
  5
3C7
330
37A
100
AcDbEntity
  8
Pel_Wall
  6
Continuous
100
AcDbLine
 10
5.375283847373936
 20
2.687450000002056
 30
0.0
 11
5.375283847373936
 21
2.687450000002056
 31
0.0
  0
LINE
  5
3C8
330
37A
100
AcDbEntity
  8
Pel_Wall
  6
Continuous
100
AcDbLine
 10
5.285283847373933
 20
2.437450000002056
 30
0.0
 11
5.285283847373933
 21
2.437450000002056
 31
0.0
  0
LINE
  5
3C9
330
37A
100
AcDbEntity
  8
Pel_Wall
  6
Continuous
100
AcDbLine
 10
5.300857283005186
 20
2.67276754730754
 30
0.0
 11
5.300857283005186
 21
2.67276754730754
 31
0.0
  0
LINE
  5
3CA
330
37A
100
AcDbEntity
  8
Pel_Wall
  6
Continuous
100
AcDbLine
 10
5.218011186096924
 20
2.336261196361431
 30
0.0
 11
5.218011186096924
 21
2.336261196361431
 31
0.0
  0
LINE
  5
3CB
330
37A
100
AcDbEntity
  8
Pel_Wall
  6
Continuous
100
AcDbLine
 10
5.347914996664585
 20
2.411261196361427
 30
0.0
 11
5.347914996664585
 21
2.411261196361427
 31
0.0
  0
LINE
  5
3CC
330
37A
100
AcDbEntity
  8
Pel_Wall
  6
Continuous
100
AcDbLine
 10
5.209194934128405
 20
2.567387845187345
 30
0.0
 11
5.209194934128405
 21
2.567387845187345
 31
0.0
  0
LINE
  5
3CD
330
37A
100
AcDbEntity
  8
Pel_Wall
  6
Continuous
100
AcDbLine
 10
5.284194934128401
 20
2.697291655755006
 30
0.0
 11
5.284194934128401
 21
2.697291655755006
 31
0.0
  0
LINE
  5
3CE
330
37A
100
AcDbEntity
  8
Pel_Wall
  6
Continuous
100
AcDbLine
 10
5.359194934128404
 20
2.827195466322675
 30
0.0
 11
5.359194934128404
 21
2.827195466322675
 31
0.0
  0
LINE
  5
3CF
330
37A
100
AcDbEntity
  8
Pel_Wall
  6
Continuous
100
AcDbLine
 10
5.380701285074509
 20
2.364445558846743
 30
0.0
 11
5.380701285074509
 21
2.364445558846743
 31
0.0
  0
LINE
  5
3D0
330
37A
100
AcDbEntity
  8
Pel_Wall
  6
Continuous
100
AcDbLine
 10
5.495283847373934
 20
2.187450000002056
 30
0.0
 11
5.495283847373934
 21
2.187450000002056
 31
0.0
  0
LINE
  5
3D1
330
37A
100
AcDbEntity
  8
Pel_Wall
  6
Continuous
100
AcDbLine
 10
5.405283847373937
 20
1.937450000002056
 30
0.0
 11
5.405283847373937
 21
1.937450000002056
 31
0.0
  0
LINE
  5
3D2
330
37A
100
AcDbEntity
  8
Pel_Wall
  6
Continuous
100
AcDbLine
 10
5.555283847373936
 20
1.937450000002056
 30
0.0
 11
5.555283847373936
 21
1.937450000002056
 31
0.0
  0
LINE
  5
3D3
330
37A
100
AcDbEntity
  8
Pel_Wall
  6
Continuous
100
AcDbLine
 10
5.465283847373933
 20
1.687450000002056
 30
0.0
 11
5.465283847373933
 21
1.687450000002056
 31
0.0
  0
LINE
  5
3D4
330
37A
100
AcDbEntity
  8
Pel_Wall
  6
Continuous
100
AcDbLine
 10
5.615283847373938
 20
1.687450000002056
 30
0.0
 11
5.615283847373938
 21
1.687450000002056
 31
0.0
  0
LINE
  5
3D5
330
37A
100
AcDbEntity
  8
Pel_Wall
  6
Continuous
100
AcDbLine
 10
5.394972710323984
 20
2.14975484541532
 30
0.0
 11
5.394972710323984
 21
2.14975484541532
 31
0.0
  0
LINE
  5
3D6
330
37A
100
AcDbEntity
  8
Pel_Wall
  6
Continuous
100
AcDbLine
 10
5.524876520891653
 20
2.224754845415323
 30
0.0
 11
5.524876520891653
 21
2.224754845415323
 31
0.0
  0
LINE
  5
3D7
330
37A
100
AcDbEntity
  8
Pel_Wall
  6
Continuous
100
AcDbLine
 10
5.44203042398339
 20
1.888248494469206
 30
0.0
 11
5.44203042398339
 21
1.888248494469206
 31
0.0
  0
LINE
  5
3D8
330
37A
100
AcDbEntity
  8
Pel_Wall
  6
Continuous
100
AcDbLine
 10
5.571934234551052
 20
1.963248494469209
 30
0.0
 11
5.571934234551052
 21
1.963248494469209
 31
0.0
  0
LINE
  5
3D9
330
37A
100
AcDbEntity
  8
Pel_Wall
  6
Continuous
100
AcDbLine
 10
5.618991948210457
 20
1.701742143523095
 30
0.0
 11
5.618991948210457
 21
1.701742143523095
 31
0.0
  0
LINE
  5
3DA
330
37A
100
AcDbEntity
  8
Pel_Wall
  6
Continuous
100
AcDbLine
 10
5.40220763602062
 20
1.901695651370812
 30
0.0
 11
5.40220763602062
 21
1.901695651370812
 31
0.0
  0
LINE
  5
3DB
330
37A
100
AcDbEntity
  8
Pel_Wall
  6
Continuous
100
AcDbLine
 10
5.477207636020623
 20
2.031599461938481
 30
0.0
 11
5.477207636020623
 21
2.031599461938481
 31
0.0
  0
LINE
  5
3DC
330
37A
100
AcDbEntity
  8
Pel_Wall
  6
Continuous
100
AcDbLine
 10
5.552207636020626
 20
2.161503272506142
 30
0.0
 11
5.552207636020626
 21
2.161503272506142
 31
0.0
  0
LINE
  5
3DD
330
37A
100
AcDbEntity
  8
Pel_Wall
  6
Continuous
100
AcDbLine
 10
5.573713986966731
 20
1.698753365030211
 30
0.0
 11
5.573713986966731
 21
1.698753365030211
 31
0.0
  0
LINE
  5
3DE
330
37A
100
AcDbEntity
  8
Pel_Wall
  6
Continuous
100
AcDbLine
 10
5.195283847373937
 20
2.187450000002031
 30
0.0
 11
5.195283847373937
 21
2.187450000002031
 31
0.0
  0
LINE
  5
3DF
330
37A
100
AcDbEntity
  8
Pel_Wall
  6
Continuous
100
AcDbLine
 10
5.345283847373935
 20
2.187450000002056
 30
0.0
 11
5.345283847373935
 21
2.187450000002056
 31
0.0
  0
LINE
  5
3E0
330
37A
100
AcDbEntity
  8
Pel_Wall
  6
Continuous
100
AcDbLine
 10
5.255283847373939
 20
1.937450000002056
 30
0.0
 11
5.255283847373939
 21
1.937450000002056
 31
0.0
  0
LINE
  5
3E1
330
37A
100
AcDbEntity
  8
Pel_Wall
  6
Continuous
100
AcDbLine
 10
5.315283847373934
 20
1.687450000002056
 30
0.0
 11
5.315283847373934
 21
1.687450000002056
 31
0.0
  0
LINE
  5
3E2
330
37A
100
AcDbEntity
  8
Pel_Wall
  6
Continuous
100
AcDbLine
 10
5.265068899756315
 20
2.074754845415324
 30
0.0
 11
5.265068899756315
 21
2.074754845415324
 31
0.0
  0
LINE
  5
3E3
330
37A
100
AcDbEntity
  8
Pel_Wall
  6
Continuous
100
AcDbLine
 10
5.182222802848053
 20
1.738248494469183
 30
0.0
 11
5.182222802848053
 21
1.738248494469183
 31
0.0
  0
LINE
  5
3E4
330
37A
100
AcDbEntity
  8
Pel_Wall
  6
Continuous
100
AcDbLine
 10
5.312126613415721
 20
1.81324849446921
 30
0.0
 11
5.312126613415721
 21
1.81324849446921
 31
0.0
  0
LINE
  5
3E5
330
37A
100
AcDbEntity
  8
Pel_Wall
  6
Continuous
100
AcDbLine
 10
5.23070128507451
 20
2.104637937711413
 30
0.0
 11
5.23070128507451
 21
2.104637937711413
 31
0.0
  0
LINE
  5
3E6
330
37A
100
AcDbEntity
  8
Pel_Wall
  6
Continuous
100
AcDbLine
 10
5.305701285074513
 20
2.234541748279075
 30
0.0
 11
5.305701285074513
 21
2.234541748279075
 31
0.0
  0
LINE
  5
3E7
330
37A
100
AcDbEntity
  8
Pel_Wall
  6
Continuous
100
AcDbLine
 10
5.252207636020622
 20
1.641888030235482
 30
0.0
 11
5.252207636020622
 21
1.641888030235482
 31
0.0
  0
LINE
  5
3E8
330
37A
100
AcDbEntity
  8
Pel_Wall
  6
Continuous
100
AcDbLine
 10
5.327207636020625
 20
1.77179184080315
 30
0.0
 11
5.327207636020625
 21
1.77179184080315
 31
0.0
  0
LINE
  5
3E9
330
37A
100
AcDbEntity
  8
Pel_Wall
  6
Continuous
100
AcDbLine
 10
5.66028384737394
 20
1.355868639161006
 30
0.0
 11
5.66028384737394
 21
1.355868639161006
 31
0.0
  0
LINE
  5
3EA
330
37A
100
AcDbEntity
  8
Pel_Wall
  6
Continuous
100
AcDbLine
 10
5.669321953050599
 20
1.573213070636033
 30
0.0
 11
5.669321953050599
 21
1.573213070636033
 31
0.0
  0
LINE
  5
3EB
330
37A
100
AcDbEntity
  8
Pel_Wall
  6
Continuous
100
AcDbLine
 10
5.675283847373941
 20
1.312450000002056
 30
0.0
 11
5.675283847373941
 21
1.312450000002056
 31
0.0
  0
LINE
  5
3EC
330
37A
100
AcDbEntity
  8
Pel_Wall
  6
Continuous
100
AcDbLine
 10
5.666049661869856
 20
1.315235792576989
 30
0.0
 11
5.666049661869856
 21
1.315235792576989
 31
0.0
  0
LINE
  5
3ED
330
37A
100
AcDbEntity
  8
Pel_Wall
  6
Continuous
100
AcDbLine
 10
5.670220337912845
 20
1.365907268121941
 30
0.0
 11
5.670220337912845
 21
1.365907268121941
 31
0.0
  0
LINE
  5
3EE
330
37A
100
AcDbEntity
  8
Pel_Wall
  6
Continuous
100
AcDbLine
 10
5.645283847373939
 20
0.937450000002056
 30
0.0
 11
5.645283847373939
 21
0.937450000002056
 31
0.0
  0
LINE
  5
3EF
330
37A
100
AcDbEntity
  8
Pel_Wall
  6
Continuous
100
AcDbLine
 10
5.630261278620985
 20
0.842223090684773
 30
0.0
 11
5.630261278620985
 21
0.842223090684773
 31
0.0
  0
LINE
  5
3F0
330
37A
100
AcDbEntity
  8
Pel_Wall
  6
Continuous
100
AcDbLine
 10
5.677318992280384
 20
0.5807167397386594
 30
0.0
 11
5.677318992280384
 21
0.5807167397386594
 31
0.0
  0
LINE
  5
3F1
330
37A
100
AcDbEntity
  8
Pel_Wall
  6
Continuous
100
AcDbLine
 10
5.525283847373935
 20
1.437450000002056
 30
0.0
 11
5.525283847373935
 21
1.437450000002056
 31
0.0
  0
LINE
  5
3F2
330
37A
100
AcDbEntity
  8
Pel_Wall
  6
Continuous
100
AcDbLine
 10
5.435283847373939
 20
1.187450000002056
 30
0.0
 11
5.435283847373939
 21
1.187450000002056
 31
0.0
  0
LINE
  5
3F3
330
37A
100
AcDbEntity
  8
Pel_Wall
  6
Continuous
100
AcDbLine
 10
5.585283847373937
 20
1.187450000002056
 30
0.0
 11
5.585283847373937
 21
1.187450000002056
 31
0.0
  0
LINE
  5
3F4
330
37A
100
AcDbEntity
  8
Pel_Wall
  6
Continuous
100
AcDbLine
 10
5.489088137642789
 20
1.626742143523099
 30
0.0
 11
5.489088137642789
 21
1.626742143523099
 31
0.0
  0
LINE
  5
3F5
330
37A
100
AcDbEntity
  8
Pel_Wall
  6
Continuous
100
AcDbLine
 10
5.406242040734519
 20
1.29023579257699
 30
0.0
 11
5.406242040734519
 21
1.29023579257699
 31
0.0
  0
LINE
  5
3F6
330
37A
100
AcDbEntity
  8
Pel_Wall
  6
Continuous
100
AcDbLine
 10
5.536145851302188
 20
1.365235792576986
 30
0.0
 11
5.536145851302188
 21
1.365235792576986
 31
0.0
  0
LINE
  5
3F7
330
37A
100
AcDbEntity
  8
Pel_Wall
  6
Continuous
100
AcDbLine
 10
5.453299754393918
 20
1.028729441630883
 30
0.0
 11
5.453299754393918
 21
1.028729441630883
 31
0.0
  0
LINE
  5
3F8
330
37A
100
AcDbEntity
  8
Pel_Wall
  6
Continuous
100
AcDbLine
 10
5.583203564961586
 20
1.103729441630879
 30
0.0
 11
5.583203564961586
 21
1.103729441630879
 31
0.0
  0
LINE
  5
3F9
330
37A
100
AcDbEntity
  8
Pel_Wall
  6
Continuous
100
AcDbLine
 10
5.423713986966732
 20
1.43894574389488
 30
0.0
 11
5.423713986966732
 21
1.43894574389488
 31
0.0
  0
LINE
  5
3FA
330
37A
100
AcDbEntity
  8
Pel_Wall
  6
Continuous
100
AcDbLine
 10
5.498713986966735
 20
1.568849554462542
 30
0.0
 11
5.498713986966735
 21
1.568849554462542
 31
0.0
  0
LINE
  5
3FB
330
37A
100
AcDbEntity
  8
Pel_Wall
  6
Continuous
100
AcDbLine
 10
5.52022033791284
 20
1.106099646986611
 30
0.0
 11
5.52022033791284
 21
1.106099646986611
 31
0.0
  0
LINE
  5
3FC
330
37A
100
AcDbEntity
  8
Pel_Wall
  6
Continuous
100
AcDbLine
 10
5.595220337912842
 20
1.236003457554279
 30
0.0
 11
5.595220337912842
 21
1.236003457554279
 31
0.0
  0
LINE
  5
3FD
330
37A
100
AcDbEntity
  8
Pel_Wall
  6
Continuous
100
AcDbLine
 10
5.225283847373938
 20
1.437450000002056
 30
0.0
 11
5.225283847373938
 21
1.437450000002056
 31
0.0
  0
LINE
  5
3FE
330
37A
100
AcDbEntity
  8
Pel_Wall
  6
Continuous
100
AcDbLine
 10
5.375283847373936
 20
1.437450000002056
 30
0.0
 11
5.375283847373936
 21
1.437450000002056
 31
0.0
  0
LINE
  5
3FF
330
37A
100
AcDbEntity
  8
Pel_Wall
  6
Continuous
100
AcDbLine
 10
5.285283847373933
 20
1.187450000002056
 30
0.0
 11
5.285283847373933
 21
1.187450000002056
 31
0.0
  0
LINE
  5
400
330
37A
100
AcDbEntity
  8
Pel_Wall
  6
Continuous
100
AcDbLine
 10
5.229280516507459
 20
1.476742143523101
 30
0.0
 11
5.229280516507459
 21
1.476742143523101
 31
0.0
  0
LINE
  5
401
330
37A
100
AcDbEntity
  8
Pel_Wall
  6
Continuous
100
AcDbLine
 10
5.35918432707512
 20
1.551742143523097
 30
0.0
 11
5.35918432707512
 21
1.551742143523097
 31
0.0
  0
LINE
  5
402
330
37A
100
AcDbEntity
  8
Pel_Wall
  6
Continuous
100
AcDbLine
 10
5.276338230166857
 20
1.215235792576987
 30
0.0
 11
5.276338230166857
 21
1.215235792576987
 31
0.0
  0
LINE
  5
403
330
37A
100
AcDbEntity
  8
Pel_Wall
  6
Continuous
100
AcDbLine
 10
5.198713986966731
 20
1.049234312191857
 30
0.0
 11
5.198713986966731
 21
1.049234312191857
 31
0.0
  0
LINE
  5
404
330
37A
100
AcDbEntity
  8
Pel_Wall
  6
Continuous
100
AcDbLine
 10
5.273713986966733
 20
1.17913812275955
 30
0.0
 11
5.273713986966733
 21
1.17913812275955
 31
0.0
  0
LINE
  5
405
330
37A
100
AcDbEntity
  8
Pel_Wall
  6
Continuous
100
AcDbLine
 10
5.348713986966729
 20
1.309041933327212
 30
0.0
 11
5.348713986966729
 21
1.309041933327212
 31
0.0
  0
LINE
  5
406
330
37A
100
AcDbEntity
  8
Pel_Wall
  6
Continuous
100
AcDbLine
 10
5.495283847373934
 20
0.937450000002056
 30
0.0
 11
5.495283847373934
 21
0.937450000002056
 31
0.0
  0
LINE
  5
407
330
37A
100
AcDbEntity
  8
Pel_Wall
  6
Continuous
100
AcDbLine
 10
5.405283847373937
 20
0.6874500000020562
 30
0.0
 11
5.405283847373937
 21
0.6874500000020562
 31
0.0
  0
LINE
  5
408
330
37A
100
AcDbEntity
  8
Pel_Wall
  6
Continuous
100
AcDbLine
 10
5.555283847373936
 20
0.6874500000020562
 30
0.0
 11
5.555283847373936
 21
0.6874500000020562
 31
0.0
  0
LINE
  5
409
330
37A
100
AcDbEntity
  8
Pel_Wall
  6
Continuous
100
AcDbLine
 10
5.500357468053324
 20
0.7672230906847703
 30
0.0
 11
5.500357468053324
 21
0.7672230906847703
 31
0.0
  0
LINE
  5
40A
330
37A
100
AcDbEntity
  8
Pel_Wall
  6
Continuous
100
AcDbLine
 10
5.547415181712723
 20
0.5057167397386637
 30
0.0
 11
5.547415181712723
 21
0.5057167397386637
 31
0.0
  0
LINE
  5
40B
330
37A
100
AcDbEntity
  8
Pel_Wall
  6
Continuous
100
AcDbLine
 10
5.445220337912844
 20
0.9761958364189496
 30
0.0
 11
5.445220337912844
 21
0.9761958364189496
 31
0.0
  0
LINE
  5
40C
330
37A
100
AcDbEntity
  8
Pel_Wall
  6
Continuous
100
AcDbLine
 10
5.466726688858948
 20
0.5134459289430184
 30
0.0
 11
5.466726688858948
 21
0.5134459289430184
 31
0.0
  0
LINE
  5
40D
330
37A
100
AcDbEntity
  8
Pel_Wall
  6
Continuous
100
AcDbLine
 10
5.541726688858951
 20
0.643349739510687
 30
0.0
 11
5.541726688858951
 21
0.643349739510687
 31
0.0
  0
LINE
  5
40E
330
37A
100
AcDbEntity
  8
Pel_Wall
  6
Continuous
100
AcDbLine
 10
5.616726688858954
 20
0.7732535500783486
 30
0.0
 11
5.616726688858954
 21
0.7732535500783486
 31
0.0
  0
LINE
  5
40F
330
37A
100
AcDbEntity
  8
Pel_Wall
  6
Continuous
100
AcDbLine
 10
5.195283847373937
 20
0.9374500000020312
 30
0.0
 11
5.195283847373937
 21
0.9374500000020312
 31
0.0
  0
LINE
  5
410
330
37A
100
AcDbEntity
  8
Pel_Wall
  6
Continuous
100
AcDbLine
 10
5.345283847373935
 20
0.937450000002056
 30
0.0
 11
5.345283847373935
 21
0.937450000002056
 31
0.0
  0
LINE
  5
411
330
37A
100
AcDbEntity
  8
Pel_Wall
  6
Continuous
100
AcDbLine
 10
5.255283847373939
 20
0.6874500000020561
 30
0.0
 11
5.255283847373939
 21
0.6874500000020561
 31
0.0
  0
LINE
  5
412
330
37A
100
AcDbEntity
  8
Pel_Wall
  6
Continuous
100
AcDbLine
 10
5.193492133258588
 20
0.8787294416308604
 30
0.0
 11
5.193492133258588
 21
0.8787294416308604
 31
0.0
  0
LINE
  5
413
330
37A
100
AcDbEntity
  8
Pel_Wall
  6
Continuous
100
AcDbLine
 10
5.323395943826256
 20
0.953729441630881
 30
0.0
 11
5.323395943826256
 21
0.953729441630881
 31
0.0
  0
LINE
  5
414
330
37A
100
AcDbEntity
  8
Pel_Wall
  6
Continuous
100
AcDbLine
 10
5.240549846917994
 20
0.6172230906847716
 30
0.0
 11
5.240549846917994
 21
0.6172230906847716
 31
0.0
  0
LINE
  5
415
330
37A
100
AcDbEntity
  8
Pel_Wall
  6
Continuous
100
AcDbLine
 10
5.370453657485655
 20
0.6922230906847746
 30
0.0
 11
5.370453657485655
 21
0.6922230906847746
 31
0.0
  0
LINE
  5
416
330
37A
100
AcDbEntity
  8
Pel_Wall
  6
Continuous
100
AcDbLine
 10
5.220220337912842
 20
0.5864844047159508
 30
0.0
 11
5.220220337912842
 21
0.5864844047159508
 31
0.0
  0
LINE
  5
417
330
37A
100
AcDbEntity
  8
Pel_Wall
  6
Continuous
100
AcDbLine
 10
5.295220337912845
 20
0.7163882152836195
 30
0.0
 11
5.295220337912845
 21
0.7163882152836195
 31
0.0
  0
LINE
  5
418
330
37A
100
AcDbEntity
  8
Pel_Wall
  6
Continuous
100
AcDbLine
 10
5.370220337912841
 20
0.8462920258512809
 30
0.0
 11
5.370220337912841
 21
0.8462920258512809
 31
0.0
  0
POLYLINE
  5
419
330
37A
100
AcDbEntity
  8
Pel_Wall
  6
Continuous
100
AcDb2dPolyline
 66
     1
 10
0.0
 20
0.0
 30
0.0
  0
VERTEX
  5
19BE
330
419
100
AcDbEntity
  8
Pel_Wall
  6
Continuous
100
AcDbVertex
100
AcDb2dVertex
 10
5.180283847373935
 20
4.25015000000203
 30
0.0
  0
VERTEX
  5
19BF
330
419
100
AcDbEntity
  8
Pel_Wall
  6
Continuous
100
AcDbVertex
100
AcDb2dVertex
 10
5.180283847373936
 20
0.3124500000020312
 30
0.0
  0
VERTEX
  5
19C0
330
419
100
AcDbEntity
  8
Pel_Wall
  6
Continuous
100
AcDbVertex
100
AcDb2dVertex
 10
5.680283847373936
 20
0.3124500000020562
 30
0.0
  0
VERTEX
  5
19C1
330
419
100
AcDbEntity
  8
Pel_Wall
  6
Continuous
100
AcDbVertex
100
AcDb2dVertex
 10
5.680283847373935
 20
4.250150000002055
 30
0.0
  0
SEQEND
  5
19C2
330
419
100
AcDbEntity
  8
Pel_Wall
  6
Continuous
  0
LINE
  5
420
330
37A
100
AcDbEntity
  8
Pel_Wall
  6
Continuous
100
AcDbLine
 10
0.8293145672986529
 20
4.25015000000203
 30
0.0
 11
0.7900639780107998
 21
4.184732351183569
 31
0.0
  0
LINE
  5
421
330
37A
100
AcDbEntity
  8
Pel_Wall
  6
Continuous
100
AcDbLine
 10
1.805283847373936
 20
3.339361934583223
 30
0.0
 11
1.305283847373936
 21
3.839361934583223
 31
0.0
  0
LINE
  5
422
330
37A
100
AcDbEntity
  8
Pel_Wall
  6
Continuous
100
AcDbLine
 10
1.805283847373936
 20
1.925148372210124
 30
0.0
 11
1.305283847373936
 21
2.425148372210124
 31
0.0
  0
LINE
  5
423
330
37A
100
AcDbEntity
  8
Pel_Wall
  6
Continuous
100
AcDbLine
 10
1.805283847373936
 20
2.63225515339667
 30
0.0
 11
1.305283847373936
 21
3.13225515339667
 31
0.0
  0
LINE
  5
424
330
37A
100
AcDbEntity
  8
Pel_Wall
  6
Continuous
100
AcDbLine
 10
1.976916960305403
 20
0.8846820337353877
 30
0.0
 11
2.226916960305403
 21
0.8846820337353877
 31
0.0
  0
LINE
  5
425
330
37A
100
AcDbEntity
  8
Pel_Wall
  6
Continuous
100
AcDbLine
 10
1.039416960305403
 20
0.7596820337353876
 30
0.0
 11
1.039416960305403
 21
1.009682033735387
 31
0.0
  0
LINE
  5
426
330
37A
100
AcDbEntity
  8
Pel_Wall
  6
Continuous
100
AcDbLine
 10
0.9769169603054034
 20
0.8846820337353875
 30
0.0
 11
1.851916960305403
 21
0.8846820337353877
 31
0.0
  0
LINE
  5
427
330
37A
100
AcDbEntity
  8
Pel_Wall
  6
Continuous
100
AcDbLine
 10
1.805283847373936
 20
0.5109348098370249
 30
0.0
 11
1.305283847373936
 21
1.010934809837031
 31
0.0
  0
LINE
  5
428
330
37A
100
AcDbEntity
  8
Pel_Wall
  6
Continuous
100
AcDbLine
 10
1.805283847373936
 20
1.218041591023578
 30
0.0
 11
1.305283847373936
 21
1.71804159102357
 31
0.0
  0
POLYLINE
  5
429
330
37A
100
AcDbEntity
  8
Pel_Wall
  6
Continuous
100
AcDb2dPolyline
 66
     1
 10
0.0
 20
0.0
 30
0.0
  0
VERTEX
  5
19CD
330
429
100
AcDbEntity
  8
Pel_Wall
  6
Continuous
100
AcDbVertex
100
AcDb2dVertex
 10
0.992783847373937
 20
-0.0000499999979696
 30
0.0
  0
VERTEX
  5
19CE
330
429
100
AcDbEntity
  8
Pel_Wall
  6
Continuous
100
AcDbVertex
100
AcDb2dVertex
 10
0.9927838473739367
 20
1.18745000000203
 30
0.0
  0
VERTEX
  5
19CF
330
429
100
AcDbEntity
  8
Pel_Wall
  6
Continuous
100
AcDbVertex
100
AcDb2dVertex
 10
1.055283847373936
 20
1.31245000000203
 30
0.0
  0
VERTEX
  5
19D0
330
429
100
AcDbEntity
  8
Pel_Wall
  6
Continuous
100
AcDbVertex
100
AcDb2dVertex
 10
1.055283847373936
 20
2.99995000000203
 30
0.0
  0
SEQEND
  5
19D1
330
429
100
AcDbEntity
  8
Pel_Wall
  6
Continuous
  0
POLYLINE
  5
42F
330
37A
100
AcDbEntity
  8
Pel_Wall
  6
Continuous
100
AcDb2dPolyline
 66
     1
 10
0.0
 20
0.0
 30
0.0
  0
VERTEX
  5
19D3
330
42F
100
AcDbEntity
  8
Pel_Wall
  6
Continuous
100
AcDbVertex
100
AcDb2dVertex
 10
0.9727838473739339
 20
-0.0000499999979696
 30
0.0
  0
VERTEX
  5
19D4
330
42F
100
AcDbEntity
  8
Pel_Wall
  6
Continuous
100
AcDbVertex
100
AcDb2dVertex
 10
0.9727838473739335
 20
1.192171359552027
 30
0.0
  0
VERTEX
  5
19D5
330
42F
100
AcDbEntity
  8
Pel_Wall
  6
Continuous
100
AcDbVertex
100
AcDb2dVertex
 10
1.035283847373933
 20
1.317171359552027
 30
0.0
  0
VERTEX
  5
19D6
330
42F
100
AcDbEntity
  8
Pel_Wall
  6
Continuous
100
AcDbVertex
100
AcDb2dVertex
 10
1.035283847373933
 20
2.99995000000203
 30
0.0
  0
SEQEND
  5
19D7
330
42F
100
AcDbEntity
  8
Pel_Wall
  6
Continuous
  0
LINE
  5
435
330
37A
100
AcDbEntity
  8
Pel_Wall
  6
Continuous
100
AcDbLine
 10
0.701675599571431
 20
3.919567317576351
 30
0.0
 11
0.6281176312568993
 21
3.796970703708737
 31
0.0
  0
LINE
  5
436
330
37A
100
AcDbEntity
  8
Pel_Wall
  6
Continuous
100
AcDbLine
 10
0.8990338473739363
 20
2.628328505750097
 30
0.0
 11
0.6645120802162773
 21
2.769041566033152
 31
0.0
  0
LINE
  5
437
330
37A
100
AcDbEntity
  8
Pel_Wall
  6
Continuous
100
AcDbLine
 10
0.6645123221171268
 20
2.76904086209447
 30
0.0
 11
-0.0149999999999965
 21
3.448553184211593
 31
0.0
  0
LINE
  5
438
330
37A
100
AcDbEntity
  8
Pel_Wall
  6
Continuous
100
AcDbLine
 10
0.8990338473739367
 20
1.270683346161945
 30
0.0
 11
0.6645121214250703
 21
1.411396381719718
 31
0.0
  0
LINE
  5
439
330
37A
100
AcDbEntity
  8
Pel_Wall
  6
Continuous
100
AcDbLine
 10
0.4681131444532282
 20
0.2501500000020299
 30
0.0
 11
-0.0149999999999959
 21
0.7332631444552432
 31
0.0
  0
POLYLINE
  5
43A
330
37A
100
AcDbEntity
  8
Pel_Wall
  6
Continuous
100
AcDb2dPolyline
 66
     1
 10
0.0
 20
0.0
 30
0.0
  0
VERTEX
  5
19DE
330
43A
100
AcDbEntity
  8
Pel_Wall
  6
Continuous
100
AcDbVertex
100
AcDb2dVertex
 10
-0.0149999999999958
 20
0.2501500000020334
 30
0.0
  0
VERTEX
  5
19DF
330
43A
100
AcDbEntity
  8
Pel_Wall
  6
Continuous
100
AcDbVertex
100
AcDb2dVertex
 10
0.8990338473739369
 20
0.25015000000203
 30
0.0
  0
VERTEX
  5
19E0
330
43A
100
AcDbEntity
  8
Pel_Wall
  6
Continuous
100
AcDbVertex
100
AcDb2dVertex
 10
0.899033847373936
 20
3.75015000000203
 30
0.0
  0
SEQEND
  5
19E1
330
43A
100
AcDbEntity
  8
Pel_Wall
  6
Continuous
  0
POLYLINE
  5
43F
330
37A
100
AcDbEntity
  8
Pel_Wall
  6
Continuous
100
AcDb2dPolyline
 66
     1
 10
0.0
 20
0.0
 30
0.0
  0
VERTEX
  5
19E3
330
43F
100
AcDbEntity
  8
Pel_Wall
  6
Continuous
100
AcDbVertex
100
AcDb2dVertex
 10
-0.0149999999999958
 20
0.2501500000020334
 30
0.0
  0
VERTEX
  5
19E4
330
43F
100
AcDbEntity
  8
Pel_Wall
  6
Continuous
100
AcDbVertex
100
AcDb2dVertex
 10
-0.0149999999999966
 20
3.750150000002033
 30
0.0
  0
VERTEX
  5
19E5
330
43F
100
AcDbEntity
  8
Pel_Wall
  6
Continuous
100
AcDbVertex
100
AcDb2dVertex
 10
0.899033847373936
 20
3.75015000000203
 30
0.0
  0
SEQEND
  5
19E6
330
43F
100
AcDbEntity
  8
Pel_Wall
  6
Continuous
  0
LINE
  5
444
330
37A
100
AcDbEntity
  8
Pel_Wall
  6
Continuous
100
AcDbLine
 10
0.6645123221171271
 20
1.4113958422163
 30
0.0
 11
-0.0149999999999962
 21
2.090908164333423
 31
0.0
  0
LINE
  5
445
330
37A
100
AcDbEntity
  8
Pel_Wall
  6
Continuous
100
AcDbLine
 10
0.7900642023488519
 20
4.184732419524294
 30
0.0
 11
0.7016758538246611
 21
3.91956737390663
 31
0.0
  0
LINE
  5
446
330
37A
100
AcDbEntity
  8
Pel_Wall
  6
Continuous
100
AcDbLine
 10
1.430283847373936
 20
0.3124500000020305
 30
0.0
 11
1.430283847373936
 21
4.24995000000203
 31
0.0
  0
LINE
  5
447
330
37A
100
AcDbEntity
  8
Pel_Wall
  6
Continuous
100
AcDbLine
 10
1.555283847373936
 20
0.3124500000020305
 30
0.0
 11
1.555283847373936
 21
4.25015000000203
 31
0.0
  0
LINE
  5
448
330
37A
100
AcDbEntity
  8
Pel_Wall
  6
Continuous
100
AcDbLine
 10
1.680283847373936
 20
0.3124500000020305
 30
0.0
 11
1.680283847373936
 21
4.25015000000203
 31
0.0
  0
LINE
  5
449
330
37A
100
AcDbEntity
  8
Pel_Wall
  6
Continuous
100
AcDbLine
 10
1.805283847373936
 20
4.046468715769769
 30
0.0
 11
1.640027289974242
 21
4.211725273169463
 31
0.0
  0
POLYLINE
  5
44A
330
37A
100
AcDbEntity
  8
Pel_Wall
  6
Continuous
100
AcDb2dPolyline
 66
     1
 10
0.0
 20
0.0
 30
0.0
  0
VERTEX
  5
19EE
330
44A
100
AcDbEntity
  8
Pel_Wall
  6
Continuous
100
AcDbVertex
100
AcDb2dVertex
 10
0.6281176312568993
 20
3.750150000002037
 30
0.0
  0
VERTEX
  5
19EF
330
44A
100
AcDbEntity
  8
Pel_Wall
  6
Continuous
100
AcDbVertex
100
AcDb2dVertex
 10
0.3495481340371787
 20
3.750150000002037
 30
0.0
  0
VERTEX
  5
19F0
330
44A
100
AcDbEntity
  8
Pel_Wall
  6
Continuous
100
AcDbVertex
100
AcDb2dVertex
 10
0.3495481340371786
 20
4.25015000000203
 30
0.0
  0
SEQEND
  5
19F1
330
44A
100
AcDbEntity
  8
Pel_Wall
  6
Continuous
  0
POLYLINE
  5
44F
330
37A
100
AcDbEntity
  8
Pel_Wall
  6
Continuous
100
AcDb2dPolyline
 66
     1
 10
0.0
 20
0.0
 30
0.0
  0
VERTEX
  5
19F3
330
44F
100
AcDbEntity
  8
Pel_Wall
  6
Continuous
100
AcDbVertex
100
AcDb2dVertex
 10
0.899033847373936
 20
4.25015000000203
 30
0.0
  0
VERTEX
  5
19F4
330
44F
100
AcDbEntity
  8
Pel_Wall
  6
Continuous
100
AcDbVertex
100
AcDb2dVertex
 10
0.899033847373936
 20
3.75015000000203
 30
0.0
  0
VERTEX
  5
19F5
330
44F
100
AcDbEntity
  8
Pel_Wall
  6
Continuous
100
AcDbVertex
100
AcDb2dVertex
 10
0.6281176312568993
 20
3.750150000002037
 30
0.0
  0
VERTEX
  5
19F6
330
44F
100
AcDbEntity
  8
Pel_Wall
  6
Continuous
100
AcDbVertex
100
AcDb2dVertex
 10
0.6281176312568992
 20
4.25015000000203
 30
0.0
  0
SEQEND
  5
19F7
330
44F
100
AcDbEntity
  8
Pel_Wall
  6
Continuous
  0
POLYLINE
  5
455
330
37A
100
AcDbEntity
  8
Pel_Wall
  6
Continuous
100
AcDb2dPolyline
 66
     1
 10
0.0
 20
0.0
 30
0.0
  0
VERTEX
  5
19F9
330
455
100
AcDbEntity
  8
Pel_Wall
  6
Continuous
100
AcDbVertex
100
AcDb2dVertex
 10
1.305283847373936
 20
4.25015000000203
 30
0.0
  0
VERTEX
  5
19FA
330
455
100
AcDbEntity
  8
Pel_Wall
  6
Continuous
100
AcDbVertex
100
AcDb2dVertex
 10
1.305283847373936
 20
0.3124500000020305
 30
0.0
  0
VERTEX
  5
19FB
330
455
100
AcDbEntity
  8
Pel_Wall
  6
Continuous
100
AcDbVertex
100
AcDb2dVertex
 10
1.805283847373936
 20
0.3124500000020306
 30
0.0
  0
VERTEX
  5
19FC
330
455
100
AcDbEntity
  8
Pel_Wall
  6
Continuous
100
AcDbVertex
100
AcDb2dVertex
 10
1.805283847373936
 20
4.25015000000203
 30
0.0
  0
SEQEND
  5
19FD
330
455
100
AcDbEntity
  8
Pel_Wall
  6
Continuous
  0
LINE
  5
45B
330
37A
100
AcDbEntity
  8
Pel_Wall
  6
Continuous
100
AcDbLine
 10
2.351916960305403
 20
0.8846820337353877
 30
0.0
 11
3.101916960305403
 21
0.8846820337353879
 31
0.0
  0
POLYLINE
  5
45C
330
37A
100
AcDbEntity
  8
Pel_Wall
  6
Continuous
100
AcDb2dPolyline
 66
     1
 10
0.0
 20
0.0
 30
0.0
  0
VERTEX
  5
1A00
330
45C
100
AcDbEntity
  8
Pel_Wall
  6
Continuous
100
AcDbVertex
100
AcDb2dVertex
 10
1.805283847373936
 20
0.3124500000020306
 30
0.0
  0
VERTEX
  5
1A01
330
45C
100
AcDbEntity
  8
Pel_Wall
  6
Continuous
100
AcDbVertex
100
AcDb2dVertex
 10
5.180283847373936
 20
0.3124500000020312
 30
0.0
  0
VERTEX
  5
1A02
330
45C
100
AcDbEntity
  8
Pel_Wall
  6
Continuous
100
AcDbVertex
100
AcDb2dVertex
 10
5.180283847373936
 20
1.812450000002031
 30
0.0
  0
VERTEX
  5
1A03
330
45C
100
AcDbEntity
  8
Pel_Wall
  6
Continuous
100
AcDbVertex
100
AcDb2dVertex
 10
1.805283847373936
 20
1.81245000000203
 30
0.0
  0
VERTEX
  5
1A04
330
45C
100
AcDbEntity
  8
Pel_Wall
  6
Continuous
100
AcDbVertex
100
AcDb2dVertex
 10
1.805283847373936
 20
0.3124500000020306
 30
0.0
  0
SEQEND
  5
1A05
330
45C
100
AcDbEntity
  8
Pel_Wall
  6
Continuous
  0
LINE
  5
463
330
37A
100
AcDbEntity
  8
Pel_Wall
  6
Continuous
100
AcDbLine
 10
1.805283847373936
 20
0.3124500000020306
 30
0.0
 11
5.180283847373936
 21
1.812450000002031
 31
0.0
  0
LINE
  5
464
330
37A
100
AcDbEntity
  8
Pel_Wall
  6
Continuous
100
AcDbLine
 10
1.805283847373936
 20
1.81245000000203
 30
0.0
 11
5.180283847373936
 21
0.3124500000020312
 31
0.0
  0
LINE
  5
465
330
37A
100
AcDbEntity
  8
Pel_Wall
  6
Continuous
100
AcDbLine
 10
1.805283847373936
 20
3.31245000000203
 30
0.0
 11
5.180283847373936
 21
1.812450000002031
 31
0.0
  0
LINE
  5
466
330
37A
100
AcDbEntity
  8
Pel_Wall
  6
Continuous
100
AcDbLine
 10
1.805283847373936
 20
1.81245000000203
 30
0.0
 11
5.180283847373936
 21
3.312450000002031
 31
0.0
  0
POLYLINE
  5
467
330
37A
100
AcDbEntity
  8
Pel_Wall
  6
Continuous
100
AcDb2dPolyline
 66
     1
 10
0.0
 20
0.0
 30
0.0
  0
VERTEX
  5
1A0B
330
467
100
AcDbEntity
  8
Pel_Wall
  6
Continuous
100
AcDbVertex
100
AcDb2dVertex
 10
1.805283847373936
 20
1.81245000000203
 30
0.0
  0
VERTEX
  5
1A0C
330
467
100
AcDbEntity
  8
Pel_Wall
  6
Continuous
100
AcDbVertex
100
AcDb2dVertex
 10
5.180283847373936
 20
1.812450000002031
 30
0.0
  0
VERTEX
  5
1A0D
330
467
100
AcDbEntity
  8
Pel_Wall
  6
Continuous
100
AcDbVertex
100
AcDb2dVertex
 10
5.180283847373936
 20
3.312450000002031
 30
0.0
  0
VERTEX
  5
1A0E
330
467
100
AcDbEntity
  8
Pel_Wall
  6
Continuous
100
AcDbVertex
100
AcDb2dVertex
 10
1.805283847373936
 20
3.31245000000203
 30
0.0
  0
VERTEX
  5
1A0F
330
467
100
AcDbEntity
  8
Pel_Wall
  6
Continuous
100
AcDbVertex
100
AcDb2dVertex
 10
1.805283847373936
 20
1.81245000000203
 30
0.0
  0
SEQEND
  5
1A10
330
467
100
AcDbEntity
  8
Pel_Wall
  6
Continuous
  0
POLYLINE
  5
46E
330
37A
100
AcDbEntity
  8
Pel_Wall
  6
Continuous
100
AcDb2dPolyline
 66
     1
 10
0.0
 20
0.0
 30
0.0
  0
VERTEX
  5
1A12
330
46E
100
AcDbEntity
  8
Pel_Wall
  6
Continuous
100
AcDbVertex
100
AcDb2dVertex
 10
1.180283847373936
 20
4.25015000000203
 30
0.0
  0
VERTEX
  5
1A13
330
46E
100
AcDbEntity
  8
Pel_Wall
  6
Continuous
100
AcDbVertex
100
AcDb2dVertex
 10
1.180283847373936
 20
0.2499500000020305
 30
0.0
  0
VERTEX
  5
1A14
330
46E
100
AcDbEntity
  8
Pel_Wall
  6
Continuous
100
AcDbVertex
100
AcDb2dVertex
 10
3.976496139131663
 20
0.2499500000020416
 30
0.0
  0
SEQEND
  5
1A15
330
46E
100
AcDbEntity
  8
Pel_Wall
  6
Continuous
  0
POLYLINE
  5
473
330
37A
100
AcDbEntity
  8
Pel_Wall
  6
Continuous
100
AcDb2dPolyline
 66
     1
 10
0.0
 20
0.0
 30
0.0
  0
VERTEX
  5
1A17
330
473
100
AcDbEntity
  8
Pel_Wall
  6
Continuous
100
AcDbVertex
100
AcDb2dVertex
 10
1.160283847373932
 20
4.25015000000203
 30
0.0
  0
VERTEX
  5
1A18
330
473
100
AcDbEntity
  8
Pel_Wall
  6
Continuous
100
AcDbVertex
100
AcDb2dVertex
 10
1.160283847373933
 20
0.2299500000020274
 30
0.0
  0
VERTEX
  5
1A19
330
473
100
AcDbEntity
  8
Pel_Wall
  6
Continuous
100
AcDbVertex
100
AcDb2dVertex
 10
3.976496139131663
 20
0.2299500000020385
 30
0.0
  0
SEQEND
  5
1A1A
330
473
100
AcDbEntity
  8
Pel_Wall
  6
Continuous
  0
POLYLINE
  5
478
330
37A
100
AcDbEntity
  8
Pel_Wall
  6
Continuous
100
AcDb2dPolyline
 66
     1
 10
0.0
 20
0.0
 30
0.0
  0
VERTEX
  5
1A1C
330
478
100
AcDbEntity
  8
Pel_Wall
  6
Continuous
100
AcDbVertex
100
AcDb2dVertex
 10
2.467446654771635
 20
4.25015000000203
 30
0.0
 42
0.1505968793853698
  0
VERTEX
  5
1A1D
330
478
100
AcDbEntity
  8
Pel_Wall
  6
Continuous
100
AcDbVertex
100
AcDb2dVertex
 10
2.968121039976239
 20
4.25015000000203
 30
0.0
  0
SEQEND
  5
1A1E
330
478
100
AcDbEntity
  8
Pel_Wall
  6
Continuous
  0
POLYLINE
  5
47C
330
37A
100
AcDbEntity
  8
Pel_Wall
  6
Continuous
100
AcDb2dPolyline
 66
     1
 10
0.0
 20
0.0
 30
0.0
  0
VERTEX
  5
1A20
330
47C
100
AcDbEntity
  8
Pel_Wall
  6
Continuous
100
AcDbVertex
100
AcDb2dVertex
 10
5.147424682415767
 20
4.25015000000203
 30
0.0
 42
-0.6732341392581576
  0
VERTEX
  5
1A21
330
47C
100
AcDbEntity
  8
Pel_Wall
  6
Continuous
100
AcDbVertex
100
AcDb2dVertex
 10
3.845773486284834
 20
3.53208304611401
 30
0.0
  0
VERTEX
  5
1A22
330
47C
100
AcDbEntity
  8
Pel_Wall
  6
Continuous
100
AcDbVertex
100
AcDb2dVertex
 10
3.167059356925016
 20
4.041114738900205
 30
0.0
 42
0.6394770868481389
  0
VERTEX
  5
1A23
330
47C
100
AcDbEntity
  8
Pel_Wall
  6
Continuous
100
AcDbVertex
100
AcDb2dVertex
 10
1.806755709950075
 20
3.31245000000203
 30
0.0
  0
SEQEND
  5
1A24
330
47C
100
AcDbEntity
  8
Pel_Wall
  6
Continuous
  0
INSERT
  5
482
330
37A
100
AcDbEntity
  8
Pel_Wall
100
AcDbBlockReference
  2
Rodseal
 10
0.0000000000000013
 20
-0.0000000000000002
 30
0.0
 41
0.75
 42
0.25
  0
INSERT
  5
483
330
37A
100
AcDbEntity
  8
Pel_Wall
100
AcDbBlockReference
  2
FOAM
 10
5.685500000000005
 20
0.0001471230092961
 30
0.0
 41
-1.0
 42
1.25
 50
0.0000000000000023
  0
LINE
  5
4AD
330
37A
100
AcDbEntity
  8
Pel_Wall
  6
Continuous
100
AcDbLine
 10
5.634813812222653
 20
0.6919252534586108
 30
0.0
 11
5.634813812222653
 21
0.6919252534586108
 31
0.0
  0
LINE
  5
4AE
330
37A
100
AcDbEntity
  8
Pel_Wall
  6
Continuous
100
AcDbLine
 10
5.457852287995586
 20
0.8784316044047216
 30
0.0
 11
5.457852287995586
 21
0.8784316044047216
 31
0.0
  0
LINE
  5
4AF
330
37A
100
AcDbEntity
  8
Pel_Wall
  6
Continuous
100
AcDbLine
 10
5.499836380975602
 20
0.7871521627758939
 30
0.0
 11
5.499836380975602
 21
0.7871521627758939
 31
0.0
  0
LINE
  5
4B0
330
37A
100
AcDbEntity
  8
Pel_Wall
  6
Continuous
100
AcDbLine
 10
5.409836380975606
 20
0.5371521627758939
 30
0.0
 11
5.409836380975606
 21
0.5371521627758939
 31
0.0
  0
LINE
  5
4B1
330
37A
100
AcDbEntity
  8
Pel_Wall
  6
Continuous
100
AcDbLine
 10
5.559836380975604
 20
0.5371521627758939
 30
0.0
 11
5.559836380975604
 21
0.5371521627758939
 31
0.0
  0
LINE
  5
4B2
330
37A
100
AcDbEntity
  8
Pel_Wall
  6
Continuous
100
AcDbLine
 10
5.504910001654992
 20
0.616925253458608
 30
0.0
 11
5.504910001654992
 21
0.616925253458608
 31
0.0
  0
LINE
  5
4B3
330
37A
100
AcDbEntity
  8
Pel_Wall
  6
Continuous
100
AcDbLine
 10
5.551967715314391
 20
0.3554189025125013
 30
0.0
 11
5.551967715314391
 21
0.3554189025125013
 31
0.0
  0
LINE
  5
4B4
330
37A
100
AcDbEntity
  8
Pel_Wall
  6
Continuous
100
AcDbLine
 10
5.449772871514512
 20
0.8258979991927873
 30
0.0
 11
5.449772871514512
 21
0.8258979991927873
 31
0.0
  0
LINE
  5
4B5
330
37A
100
AcDbEntity
  8
Pel_Wall
  6
Continuous
100
AcDbLine
 10
5.471279222460617
 20
0.363148091716856
 30
0.0
 11
5.471279222460617
 21
0.363148091716856
 31
0.0
  0
LINE
  5
4B6
330
37A
100
AcDbEntity
  8
Pel_Wall
  6
Continuous
100
AcDbLine
 10
5.546279222460619
 20
0.4930519022845247
 30
0.0
 11
5.546279222460619
 21
0.4930519022845247
 31
0.0
  0
LINE
  5
4B7
330
37A
100
AcDbEntity
  8
Pel_Wall
  6
Continuous
100
AcDbLine
 10
5.621279222460622
 20
0.6229557128521863
 30
0.0
 11
5.621279222460622
 21
0.6229557128521863
 31
0.0
  0
LINE
  5
4B8
330
37A
100
AcDbEntity
  8
Pel_Wall
  6
Continuous
100
AcDbLine
 10
5.349836380975603
 20
0.7871521627758939
 30
0.0
 11
5.349836380975603
 21
0.7871521627758939
 31
0.0
  0
LINE
  5
4B9
330
37A
100
AcDbEntity
  8
Pel_Wall
  6
Continuous
100
AcDbLine
 10
5.259836380975607
 20
0.5371521627758938
 30
0.0
 11
5.259836380975607
 21
0.5371521627758938
 31
0.0
  0
LINE
  5
4BA
330
37A
100
AcDbEntity
  8
Pel_Wall
  6
Continuous
100
AcDbLine
 10
5.327948477427924
 20
0.8034316044047187
 30
0.0
 11
5.327948477427924
 21
0.8034316044047187
 31
0.0
  0
LINE
  5
4BB
330
37A
100
AcDbEntity
  8
Pel_Wall
  6
Continuous
100
AcDbLine
 10
5.245102380519662
 20
0.4669252534586093
 30
0.0
 11
5.245102380519662
 21
0.4669252534586093
 31
0.0
  0
LINE
  5
4BC
330
37A
100
AcDbEntity
  8
Pel_Wall
  6
Continuous
100
AcDbLine
 10
5.375006191087323
 20
0.5419252534586123
 30
0.0
 11
5.375006191087323
 21
0.5419252534586123
 31
0.0
  0
LINE
  5
4BD
330
37A
100
AcDbEntity
  8
Pel_Wall
  6
Continuous
100
AcDbLine
 10
5.22477287151451
 20
0.4361865674897885
 30
0.0
 11
5.22477287151451
 21
0.4361865674897885
 31
0.0
  0
LINE
  5
4BE
330
37A
100
AcDbEntity
  8
Pel_Wall
  6
Continuous
100
AcDbLine
 10
5.299772871514513
 20
0.5660903780574572
 30
0.0
 11
5.299772871514513
 21
0.5660903780574572
 31
0.0
  0
LINE
  5
4BF
330
37A
100
AcDbEntity
  8
Pel_Wall
  6
Continuous
100
AcDbLine
 10
5.374772871514509
 20
0.6959941886251188
 30
0.0
 11
5.374772871514509
 21
0.6959941886251188
 31
0.0
  0
POINT
  5
4C0
330
37A
100
AcDbEntity
  8
Pel_Points
100
AcDbPoint
 10
0.0000000000000013
 20
0.0000000000000033
 30
0.0
 50
270.0
  0
POLYLINE
  5
4C1
330
37A
100
AcDbEntity
  8
Pel_Wall
100
AcDb2dPolyline
 66
     1
 10
0.0
 20
0.0
 30
0.0
  0
VERTEX
  5
1A3C
330
4C1
100
AcDbEntity
  8
Pel_Wall
100
AcDbVertex
100
AcDb2dVertex
 10
1.268008945651332
 20
0.0222000000020373
 30
0.0
  0
VERTEX
  5
1A3D
330
4C1
100
AcDbEntity
  8
Pel_Wall
100
AcDbVertex
100
AcDb2dVertex
 10
1.268008945651332
 20
0.2097000000020373
 30
0.0
  0
VERTEX
  5
1A3E
330
4C1
100
AcDbEntity
  8
Pel_Wall
100
AcDbVertex
100
AcDb2dVertex
 10
2.393008945651332
 20
0.2097000000020374
 30
0.0
  0
VERTEX
  5
1A3F
330
4C1
100
AcDbEntity
  8
Pel_Wall
100
AcDbVertex
100
AcDb2dVertex
 10
2.393008945651332
 20
0.0222000000020375
 30
0.0
  0
VERTEX
  5
1A40
330
4C1
100
AcDbEntity
  8
Pel_Wall
100
AcDbVertex
100
AcDb2dVertex
 10
1.268008945651332
 20
0.0222000000020373
 30
0.0
  0
VERTEX
  5
1A41
330
4C1
100
AcDbEntity
  8
Pel_Wall
100
AcDbVertex
100
AcDb2dVertex
 10
2.393008945651332
 20
0.2097000000020374
 30
0.0
  0
SEQEND
  5
1A42
330
4C1
100
AcDbEntity
  8
Pel_Wall
  0
ENDBLK
  5
4C9
330
37A
100
AcDbEntity
  8
0
100
AcDbBlockEnd
  0
BLOCK
  5
487
330
484
100
AcDbEntity
  8
0
100
AcDbBlockBegin
  2
FOAM
 70
     0
 10
0.0
 20
0.0
 30
0.0
  3
FOAM
  1

  0
CIRCLE
  5
D38
330
484
100
AcDbEntity
  8
Pel_Wall
100
AcDbCircle
 10
0.8888365763369534
 20
0.1871400087258773
 30
0.0
 40
0.0339494177336776
  0
POLYLINE
  5
D39
330
484
100
AcDbEntity
  8
Pel_Wall
100
AcDb2dPolyline
 66
     1
 10
0.0
 20
0.0
 30
0.0
 70
     1
  0
VERTEX
  5
1843
330
D39
100
AcDbEntity
  8
Pel_Wall
100
AcDbVertex
100
AcDb2dVertex
 10
0.9375000000000007
 20
0.2500000000000011
 30
0.0
  0
VERTEX
  5
1844
330
D39
100
AcDbEntity
  8
Pel_Wall
100
AcDbVertex
100
AcDb2dVertex
 10
0.0625000000000008
 20
0.2500000000000007
 30
0.0
 42
0.5
  0
VERTEX
  5
1845
330
D39
100
AcDbEntity
  8
Pel_Wall
100
AcDbVertex
100
AcDb2dVertex
 10
0.0625000000000009
 20
0.0000000000000007
 30
0.0
  0
VERTEX
  5
1846
330
D39
100
AcDbEntity
  8
Pel_Wall
100
AcDbVertex
100
AcDb2dVertex
 10
0.9375000000000008
 20
0.000000000000001
 30
0.0
 42
0.5
  0
VERTEX
  5
1847
330
D39
100
AcDbEntity
  8
Pel_Wall
100
AcDbVertex
100
AcDb2dVertex
 10
0.9375000000000007
 20
0.2500000000000011
 30
0.0
  0
SEQEND
  5
1848
330
D39
100
AcDbEntity
  8
Pel_Wall
  0
CIRCLE
  5
D40
330
484
100
AcDbEntity
  8
Pel_Wall
100
AcDbCircle
 10
0.7557105633208403
 20
0.0427072008606767
 30
0.0
 40
0.0339494177336776
  0
CIRCLE
  5
D41
330
484
100
AcDbEntity
  8
Pel_Wall
100
AcDbCircle
 10
0.5568332906241453
 20
0.1498146771560984
 30
0.0
 40
0.0339494177336776
  0
CIRCLE
  5
D42
330
484
100
AcDbEntity
  8
Pel_Wall
100
AcDbCircle
 10
0.467541453159094
 20
0.0735411711552674
 30
0.0
 40
0.0339494177336776
  0
CIRCLE
  5
D43
330
484
100
AcDbEntity
  8
Pel_Wall
100
AcDbCircle
 10
0.3246745122427485
 20
0.2058026762057502
 30
0.0
 40
0.0339494177336776
  0
CIRCLE
  5
D44
330
484
100
AcDbEntity
  8
Pel_Wall
100
AcDbCircle
 10
0.1026950210908496
 20
0.1782143865487498
 30
0.0
 40
0.0339494177336776
  0
CIRCLE
  5
D45
330
484
100
AcDbEntity
  8
Pel_Wall
100
AcDbCircle
 10
0.2334747586072802
 20
0.0661543561877921
 30
0.0
 40
0.0339494177336776
  0
CIRCLE
  5
D46
330
484
100
AcDbEntity
  8
Pel_Wall
100
AcDbCircle
 10
0.1014565870154031
 20
0.0272807915978646
 30
0.0
 40
0.0166728848683996
  0
CIRCLE
  5
D47
330
484
100
AcDbEntity
  8
Pel_Wall
100
AcDbCircle
 10
0.0461931663490356
 20
0.0988899909540323
 30
0.0
 40
0.0166728848683996
  0
CIRCLE
  5
D48
330
484
100
AcDbEntity
  8
Pel_Wall
100
AcDbCircle
 10
0.133181882444167
 20
0.0968440137811414
 30
0.0
 40
0.0166728848683996
  0
CIRCLE
  5
D49
330
484
100
AcDbEntity
  8
Pel_Wall
100
AcDbCircle
 10
0.1700241628884108
 20
0.2257405739782329
 30
0.0
 40
0.0166728848683996
  0
CIRCLE
  5
D4A
330
484
100
AcDbEntity
  8
Pel_Wall
100
AcDbCircle
 10
0.2549660888664257
 20
0.1940279286459273
 30
0.0
 40
0.0166728848683996
  0
CIRCLE
  5
D4B
330
484
100
AcDbEntity
  8
Pel_Wall
100
AcDbCircle
 10
0.2058430482740982
 20
0.1295796485473851
 30
0.0
 40
0.0166728848683996
  0
CIRCLE
  5
D4C
330
484
100
AcDbEntity
  8
Pel_Wall
100
AcDbCircle
 10
0.3358144248875172
 20
0.1295796485473852
 30
0.0
 40
0.0166728848683996
  0
CIRCLE
  5
D4D
330
484
100
AcDbEntity
  8
Pel_Wall
100
AcDbCircle
 10
0.3276272522656862
 20
0.0426256195470502
 30
0.0
 40
0.0166728848683996
  0
CIRCLE
  5
D4E
330
484
100
AcDbEntity
  8
Pel_Wall
100
AcDbCircle
 10
0.4023352106434049
 20
0.0344417108554866
 30
0.0
 40
0.0166728848683996
  0
CIRCLE
  5
D4F
330
484
100
AcDbEntity
  8
Pel_Wall
100
AcDbCircle
 10
0.4064287957389867
 20
0.1561773517949562
 30
0.0
 40
0.0166728848683996
  0
CIRCLE
  5
D50
330
484
100
AcDbEntity
  8
Pel_Wall
100
AcDbCircle
 10
0.471926184005647
 20
0.2277865511511238
 30
0.0
 40
0.0166728848683996
  0
CIRCLE
  5
D51
330
484
100
AcDbEntity
  8
Pel_Wall
100
AcDbCircle
 10
0.5681254726425112
 20
0.0364876880283776
 30
0.0
 40
0.0166728848683996
  0
CIRCLE
  5
D52
330
484
100
AcDbEntity
  8
Pel_Wall
100
AcDbCircle
 10
0.6387398434939806
 20
0.1786831006967456
 30
0.0
 40
0.0166728848683996
  0
CIRCLE
  5
D53
330
484
100
AcDbEntity
  8
Pel_Wall
100
AcDbCircle
 10
0.7077179061939427
 20
0.2308906056383871
 30
0.0
 40
0.0166728848683996
  0
CIRCLE
  5
D54
330
484
100
AcDbEntity
  8
Pel_Wall
100
AcDbCircle
 10
0.6622883209586137
 20
0.0964900534943825
 30
0.0
 40
0.0166728848683996
  0
CIRCLE
  5
D55
330
484
100
AcDbEntity
  8
Pel_Wall
100
AcDbCircle
 10
0.6753862920821705
 20
0.0326629073573957
 30
0.0
 40
0.0166728848683996
  0
CIRCLE
  5
D56
330
484
100
AcDbEntity
  8
Pel_Wall
100
AcDbCircle
 10
0.7457878868712883
 20
0.1390414859473604
 30
0.0
 40
0.0166728848683996
  0
CIRCLE
  5
D57
330
484
100
AcDbEntity
  8
Pel_Wall
100
AcDbCircle
 10
0.8358364359150705
 20
0.2208711606123447
 30
0.0
 40
0.0166728848683996
  0
CIRCLE
  5
D58
330
484
100
AcDbEntity
  8
Pel_Wall
100
AcDbCircle
 10
0.9700906399315279
 20
0.1374048916743693
 30
0.0
 40
0.0166728848683996
  0
CIRCLE
  5
D59
330
484
100
AcDbEntity
  8
Pel_Wall
100
AcDbCircle
 10
0.8341991895246259
 20
0.1308585179723681
 30
0.0
 40
0.0166728848683996
  0
CIRCLE
  5
D5A
330
484
100
AcDbEntity
  8
Pel_Wall
100
AcDbCircle
 10
0.912787016265967
 20
0.0883070872143758
 30
0.0
 40
0.0166728848683996
  0
CIRCLE
  5
D5B
330
484
100
AcDbEntity
  8
Pel_Wall
100
AcDbCircle
 10
0.8341991895246261
 20
0.03102631477939
 30
0.0
 40
0.0166728848683996
  0
CIRCLE
  5
D5C
330
484
100
AcDbEntity
  8
Pel_Wall
100
AcDbCircle
 10
0.9176987554373008
 20
0.0326629073573958
 30
0.0
 40
0.0166728848683996
  0
ENDBLK
  5
4AC
330
484
100
AcDbEntity
  8
0
100
AcDbBlockEnd
  0
BLOCK
  5
B52
330
B4F
100
AcDbEntity
  8
0
100
AcDbBlockBegin
  2
clip
 70
     0
 10
0.0
 20
0.0
 30
0.0
  3
clip
  1

  0
HATCH
  5
B53
330
B4F
100
AcDbEntity
  8
Pel_Wall
 62
     2
100
AcDbHatch
 10
0.0
 20
0.0
 30
0.0
210
0.0
220
0.0
230
1.0
  2
WOOD
 70
     0
 71
     1
 91
        1
 92
        1
 93
        4
 72
     1
 10
-0.600852876990718
 20
3.255500000000003
 11
-0.600852876990718
 21
0.2799999999999958
 72
     1
 10
-0.600852876990718
 20
0.2799999999999958
 11
0.1490000000000009
 21
0.2799999999999958
 72
     1
 10
0.1490000000000009
 20
0.2799999999999958
 11
0.149147123009282
 21
3.255500000000003
 72
     1
 10
0.149147123009282
 20
3.255500000000003
 11
-0.600852876990718
 21
3.255500000000003
 97
        1
330
B54
 75
     0
 76
     1
 52
135.0
 41
0.13
 77
     0
 78
    12
 53
225.0
 43
-26.89012466319734
 44
-16.82411218077044
 45
-0.0000000000000001
 46
-0.7353910524340094
 79
     2
 49
0.5200000000000001
 49
-4.679999999999998
 53
225.0
 43
-27.9012873602941
 44
-18.01912264097572
 45
-0.0000000000000001
 46
-0.7353910524340094
 79
     2
 49
0.5200000000000001
 49
-2.08
 53
251.56505118
 43
-27.25782018941434
 44
-16.45641665455343
 45
-0.0000000410721057
 46
-0.7353910187241987
 79
     2
 49
1.16275536
 49
-10.46479811
 53
210.96375653
 43
-25.60319032143782
 44
-15.16948231279391
 45
-0.0000000223214299
 46
-0.7353911415031087
 79
     2
 49
0.5360037800000002
 49
-3.752026069999999
 53
210.96375653
 43
-26.43050525542609
 44
-15.81294948367369
 45
-0.0000000223214299
 46
-0.7353911415031087
 79
     2
 49
0.5360037800000002
 49
-3.752026069999999
 53
210.96375653
 43
-24.59202762434106
 44
-15.44525395745668
 45
-0.0000000223214299
 46
-0.7353911415031087
 79
     2
 49
0.5360037800000002
 49
-3.752026069999999
 53
239.03624347
 43
-27.62551571563135
 44
-17.55950323320445
 45
0.0000000223214297
 46
-0.7353911415031087
 79
     2
 49
0.5360037800000002
 49
-20.90414547
 53
239.03624347
 43
-31.3024709778014
 44
-24.17802270511052
 45
0.0000000223214297
 46
-0.7353911415031087
 79
     2
 49
0.5360037800000002
 49
-20.90414547
 53
239.03624347
 43
-34.97942623997145
 44
-30.0611511245826
 45
0.0000000223214297
 46
-0.7353911415031087
 79
     2
 49
0.5360037800000002
 49
-20.90414547
 53
198.4349488199999
 43
-28.72860229428237
 44
-18.66258981185546
 45
0.0000000410721054
 46
-0.7353910187241988
 79
     2
 49
0.5813776800000002
 49
-11.04617579
 53
198.4349488199999
 43
-21.37469176994227
 44
-16.45641665455343
 45
0.0000000410721054
 46
-0.7353910187241988
 79
     2
 49
0.5813776800000002
 49
-11.04617579
 53
198.4349488199999
 43
-25.05164703211232
 44
-17.92719875942145
 45
0.0000000410721054
 46
-0.7353910187241988
 79
     2
 49
0.5813776800000002
 49
-11.04617579
 98
        1
 10
25.9815418035407
 20
-16.94063135390602
  0
POLYLINE
  5
B54
102
{ACAD_REACTORS
330
B53
102
}
330
B4F
100
AcDbEntity
  8
Pel_Wall
 62
     3
100
AcDb2dPolyline
 66
     1
 10
0.0
 20
0.0
 30
0.0
 70
     1
  0
VERTEX
  5
B55
330
B54
100
AcDbEntity
  8
Pel_Wall
 62
     3
100
AcDbVertex
100
AcDb2dVertex
 10
-0.600852876990718
 20
3.255500000000003
 30
0.0
  0
VERTEX
  5
B56
330
B54
100
AcDbEntity
  8
Pel_Wall
 62
     3
100
AcDbVertex
100
AcDb2dVertex
 10
-0.600852876990718
 20
0.2799999999999958
 30
0.0
  0
VERTEX
  5
B57
330
B54
100
AcDbEntity
  8
Pel_Wall
 62
     3
100
AcDbVertex
100
AcDb2dVertex
 10
0.1490000000000009
 20
0.2799999999999958
 30
0.0
  0
VERTEX
  5
B58
330
B54
100
AcDbEntity
  8
Pel_Wall
 62
     3
100
AcDbVertex
100
AcDb2dVertex
 10
0.149147123009282
 20
3.255500000000003
 30
0.0
  0
SEQEND
  5
B59
330
B54
100
AcDbEntity
  8
Pel_Wall
 62
     3
  0
POLYLINE
  5
B5A
330
B4F
100
AcDbEntity
  8
0
 62
     4
100
AcDb2dPolyline
 66
     1
 10
0.0
 20
0.0
 30
0.0
 70
     1
  0
VERTEX
  5
B5B
330
B5A
100
AcDbEntity
  8
0
 62
     4
100
AcDbVertex
100
AcDb2dVertex
 10
-0.0602668304258103
 20
0.2799999999999958
 30
0.0
  0
VERTEX
  5
B5C
330
B5A
100
AcDbEntity
  8
0
 62
     4
100
AcDbVertex
100
AcDb2dVertex
 10
0.1490000000000009
 20
0.2799999999999958
 30
0.0
  0
VERTEX
  5
B5D
330
B5A
100
AcDbEntity
  8
0
 62
     4
100
AcDbVertex
100
AcDb2dVertex
 10
0.1489999999999938
 20
0.8200000000000162
 30
0.0
  0
VERTEX
  5
B5E
330
B5A
100
AcDbEntity
  8
0
 62
     4
100
AcDbVertex
100
AcDb2dVertex
 10
0.209000000000394
 20
0.8200000000000162
 30
0.0
  0
VERTEX
  5
B5F
330
B5A
100
AcDbEntity
  8
0
 62
     4
100
AcDbVertex
100
AcDb2dVertex
 10
0.209000000000394
 20
-0.2600000000000247
 30
0.0
  0
VERTEX
  5
B60
330
B5A
100
AcDbEntity
  8
0
 62
     4
100
AcDbVertex
100
AcDb2dVertex
 10
0.1489999999999902
 20
-0.2600000000000247
 30
0.0
  0
VERTEX
  5
B61
330
B5A
100
AcDbEntity
  8
0
 62
     4
100
AcDbVertex
100
AcDb2dVertex
 10
0.1489999999999938
 20
0.2199999999999971
 30
0.0
  0
VERTEX
  5
B62
330
B5A
100
AcDbEntity
  8
0
 62
     4
100
AcDbVertex
100
AcDb2dVertex
 10
-0.0112178535658885
 20
0.2199999999999935
 30
0.0
  0
VERTEX
  5
B63
330
B5A
100
AcDbEntity
  8
0
 62
     4
100
AcDbVertex
100
AcDb2dVertex
 10
0.0145834821761284
 20
0.1200000000000276
 30
0.0
  0
VERTEX
  5
B64
330
B5A
100
AcDbEntity
  8
0
 62
     4
100
AcDbVertex
100
AcDb2dVertex
 10
0.0830000000001938
 20
0.1199999999999708
 30
0.0
  0
VERTEX
  5
B65
330
B5A
100
AcDbEntity
  8
0
 62
     4
100
AcDbVertex
100
AcDb2dVertex
 10
-0.008999999999908
 20
0.010000000000014
 30
0.0
  0
VERTEX
  5
B66
330
B5A
100
AcDbEntity
  8
0
 62
     4
100
AcDbVertex
100
AcDb2dVertex
 10
-0.0189999999996715
 20
0.010000000000014
 30
0.0
  0
VERTEX
  5
B67
330
B5A
100
AcDbEntity
  8
0
 62
     4
100
AcDbVertex
100
AcDb2dVertex
 10
-0.0815691952019577
 20
0.2525037053432246
 30
0.0
 42
-0.4902604554703356
  0
SEQEND
  5
B68
330
B5A
100
AcDbEntity
  8
0
 62
     4
  0
ENDBLK
  5
B69
330
B4F
100
AcDbEntity
  8
0
100
AcDbBlockEnd
  0
BLOCK
  5
12D8
330
12D5
100
AcDbEntity
  8
0
100
AcDbBlockBegin
  2
TSE 10 SH VLJ
 70
     0
 10
0.0
 20
0.0
 30
0.0
  3
TSE 10 SH VLJ
  1

  0
POINT
  5
12D9
330
12D5
100
AcDbEntity
  8
Pel_Points
100
AcDbPoint
 10
0.0000000000000015
 20
0.0000000000000037
 30
0.0
 50
360.0
  0
POLYLINE
  5
12DA
330
12D5
100
AcDbEntity
  8
Pel_CS-IG
100
AcDb2dPolyline
 66
     1
 10
0.0
 20
0.0
 30
0.0
  0
VERTEX
  5
12DB
330
12DA
100
AcDbEntity
  8
Pel_CS-IG
100
AcDbVertex
100
AcDb2dVertex
 10
2.367999999999986
 20
-4.124999999999981
 30
0.0
  0
VERTEX
  5
12DC
330
12DA
100
AcDbEntity
  8
Pel_CS-IG
100
AcDbVertex
100
AcDb2dVertex
 10
2.367999999999986
 20
-1.749999999999995
 30
0.0
  0
VERTEX
  5
12DD
330
12DA
100
AcDbEntity
  8
Pel_CS-IG
100
AcDbVertex
100
AcDb2dVertex
 10
2.249999999999987
 20
-1.749999999999996
 30
0.0
  0
VERTEX
  5
12DE
330
12DA
100
AcDbEntity
  8
Pel_CS-IG
100
AcDbVertex
100
AcDb2dVertex
 10
2.24999999999998
 20
-4.124999999999981
 30
0.0
  0
SEQEND
  5
12DF
330
12DA
100
AcDbEntity
  8
Pel_CS-IG
  0
POLYLINE
  5
12E0
330
12D5
100
AcDbEntity
  8
Pel_CS-IG
100
AcDb2dPolyline
 66
     1
 10
0.0
 20
0.0
 30
0.0
  0
VERTEX
  5
12E1
330
12E0
100
AcDbEntity
  8
Pel_CS-IG
100
AcDbVertex
100
AcDb2dVertex
 10
1.617750000000042
 20
-4.124999999999982
 30
0.0
  0
VERTEX
  5
12E2
330
12E0
100
AcDbEntity
  8
Pel_CS-IG
100
AcDbVertex
100
AcDb2dVertex
 10
1.617750000000041
 20
-1.749999999999996
 30
0.0
  0
VERTEX
  5
12E3
330
12E0
100
AcDbEntity
  8
Pel_CS-IG
100
AcDbVertex
100
AcDb2dVertex
 10
1.73575000000004
 20
-1.749999999999996
 30
0.0
  0
VERTEX
  5
12E4
330
12E0
100
AcDbEntity
  8
Pel_CS-IG
100
AcDbVertex
100
AcDb2dVertex
 10
1.735750000000048
 20
-4.124999999999981
 30
0.0
  0
SEQEND
  5
12E5
330
12E0
100
AcDbEntity
  8
Pel_CS-IG
  0
CIRCLE
  5
12E6
330
12D5
100
AcDbEntity
  8
Pel_CS-Weatherstrip
100
AcDbCircle
 10
0.6669999999999787
 20
-2.235000000000013
 30
0.0
 40
0.018
  0
CIRCLE
  5
12E7
330
12D5
100
AcDbEntity
  8
Pel_CS-Weatherstrip
100
AcDbCircle
 10
0.6669999999999787
 20
-2.110000000000013
 30
0.0
 40
0.018
  0
CIRCLE
  5
12E8
330
12D5
100
AcDbEntity
  8
Pel_CS-Weatherstrip
100
AcDbCircle
 10
0.6669999999999789
 20
-2.485000000000013
 30
0.0
 40
0.018
  0
CIRCLE
  5
12E9
330
12D5
100
AcDbEntity
  8
Pel_CS-Weatherstrip
100
AcDbCircle
 10
0.6669999999999789
 20
-2.735000000000013
 30
0.0
 40
0.018
  0
CIRCLE
  5
12EA
330
12D5
100
AcDbEntity
  8
Pel_CS-Weatherstrip
100
AcDbCircle
 10
0.6669999999999789
 20
-2.845000000000012
 30
0.0
 40
0.018
  0
CIRCLE
  5
12EB
330
12D5
100
AcDbEntity
  8
Pel_CS-Weatherstrip
100
AcDbCircle
 10
0.6669999999999789
 20
-2.610000000000013
 30
0.0
 40
0.018
  0
CIRCLE
  5
12EC
330
12D5
100
AcDbEntity
  8
Pel_CS-Weatherstrip
100
AcDbCircle
 10
0.6669999999999787
 20
-2.360000000000013
 30
0.0
 40
0.018
  0
CIRCLE
  5
12ED
330
12D5
100
AcDbEntity
  8
Pel_CS-Weatherstrip
100
AcDbCircle
 10
0.666999999999979
 20
-2.970000000000012
 30
0.0
 40
0.018
  0
CIRCLE
  5
12EE
330
12D5
100
AcDbEntity
  8
Pel_CS-Weatherstrip
100
AcDbCircle
 10
0.6669999999999786
 20
-1.610000000000013
 30
0.0
 40
0.018
  0
CIRCLE
  5
12EF
330
12D5
100
AcDbEntity
  8
Pel_CS-Weatherstrip
100
AcDbCircle
 10
0.6669999999999786
 20
-1.485000000000013
 30
0.0
 40
0.018
  0
CIRCLE
  5
12F0
330
12D5
100
AcDbEntity
  8
Pel_CS-Weatherstrip
100
AcDbCircle
 10
0.6669999999999787
 20
-1.985000000000013
 30
0.0
 40
0.018
  0
CIRCLE
  5
12F1
330
12D5
100
AcDbEntity
  8
Pel_CS-Weatherstrip
100
AcDbCircle
 10
0.6669999999999786
 20
-1.860000000000013
 30
0.0
 40
0.018
  0
CIRCLE
  5
12F2
330
12D5
100
AcDbEntity
  8
Pel_CS-Weatherstrip
100
AcDbCircle
 10
0.6669999999999786
 20
-1.735000000000013
 30
0.0
 40
0.018
  0
POINT
  5
12F3
330
12D5
100
AcDbEntity
  8
Pel_Points
100
AcDbPoint
 10
0.0000000000000015
 20
0.0000000000000001
 30
0.0
 50
360.0
  0
POLYLINE
  5
12F4
330
12D5
100
AcDbEntity
  8
Pel_Clad
100
AcDb2dPolyline
 66
     1
 10
0.0
 20
0.0
 30
0.0
 70
     1
  0
VERTEX
  5
12F5
330
12F4
100
AcDbEntity
  8
Pel_Clad
100
AcDbVertex
100
AcDb2dVertex
 10
0.7049999999999716
 20
-0.7650000000000004
 30
0.0
  0
VERTEX
  5
12F6
330
12F4
100
AcDbEntity
  8
Pel_Clad
100
AcDbVertex
100
AcDb2dVertex
 10
0.9649999999999836
 20
-0.7650000000000003
 30
0.0
 42
-0.4142135623732505
  0
VERTEX
  5
12F7
330
12F4
100
AcDbEntity
  8
Pel_Clad
100
AcDbVertex
100
AcDb2dVertex
 10
0.9849999999999832
 20
-0.7850000000000105
 30
0.0
  0
VERTEX
  5
12F8
330
12F4
100
AcDbEntity
  8
Pel_Clad
100
AcDbVertex
100
AcDb2dVertex
 10
0.9849999999999834
 20
-1.385000000000011
 30
0.0
 42
-0.4142135623731472
  0
VERTEX
  5
12F9
330
12F4
100
AcDbEntity
  8
Pel_Clad
100
AcDbVertex
100
AcDb2dVertex
 10
0.9649999999999838
 20
-1.405000000000015
 30
0.0
  0
VERTEX
  5
12FA
330
12F4
100
AcDbEntity
  8
Pel_Clad
100
AcDbVertex
100
AcDb2dVertex
 10
0.9249999999999811
 20
-1.405000000000015
 30
0.0
  0
VERTEX
  5
12FB
330
12F4
100
AcDbEntity
  8
Pel_Clad
100
AcDbVertex
100
AcDb2dVertex
 10
0.9249999999999813
 20
-1.495000000000011
 30
0.0
 42
-0.4142135623731472
  0
VERTEX
  5
12FC
330
12F4
100
AcDbEntity
  8
Pel_Clad
100
AcDbVertex
100
AcDb2dVertex
 10
0.9049999999999817
 20
-1.515000000000014
 30
0.0
  0
VERTEX
  5
12FD
330
12F4
100
AcDbEntity
  8
Pel_Clad
100
AcDbVertex
100
AcDb2dVertex
 10
0.7049999999999789
 20
-1.515000000000014
 30
0.0
 42
-0.4142135623730951
  0
VERTEX
  5
12FE
330
12F4
100
AcDbEntity
  8
Pel_Clad
100
AcDbVertex
100
AcDb2dVertex
 10
0.6849999999999793
 20
-1.495000000000011
 30
0.0
  0
VERTEX
  5
12FF
330
12F4
100
AcDbEntity
  8
Pel_Clad
100
AcDbVertex
100
AcDb2dVertex
 10
0.6849999999999793
 20
-1.475000000000015
 30
0.0
 42
-0.4142135623731472
  0
VERTEX
  5
1300
330
12F4
100
AcDbEntity
  8
Pel_Clad
100
AcDbVertex
100
AcDb2dVertex
 10
0.7049999999999788
 20
-1.455000000000012
 30
0.0
  0
VERTEX
  5
1301
330
12F4
100
AcDbEntity
  8
Pel_Clad
100
AcDbVertex
100
AcDb2dVertex
 10
0.7523836048657433
 20
-1.455000000000012
 30
0.0
 42
-0.0578233517657538
  0
VERTEX
  5
1302
330
12F4
100
AcDbEntity
  8
Pel_Clad
100
AcDbVertex
100
AcDb2dVertex
 10
0.7546734674554312
 20
-1.455265703450166
 30
0.0
  0
VERTEX
  5
1303
330
12F4
100
AcDbEntity
  8
Pel_Clad
100
AcDbVertex
100
AcDb2dVertex
 10
0.7546734674554313
 20
-1.475000000000015
 30
0.0
  0
VERTEX
  5
1304
330
12F4
100
AcDbEntity
  8
Pel_Clad
100
AcDbVertex
100
AcDb2dVertex
 10
0.7049999999999789
 20
-1.475000000000015
 30
0.0
  0
VERTEX
  5
1305
330
12F4
100
AcDbEntity
  8
Pel_Clad
100
AcDbVertex
100
AcDb2dVertex
 10
0.7049999999999789
 20
-1.495000000000004
 30
0.0
  0
VERTEX
  5
1306
330
12F4
100
AcDbEntity
  8
Pel_Clad
100
AcDbVertex
100
AcDb2dVertex
 10
0.9049999999999817
 20
-1.495000000000018
 30
0.0
  0
VERTEX
  5
1307
330
12F4
100
AcDbEntity
  8
Pel_Clad
100
AcDbVertex
100
AcDb2dVertex
 10
0.904999999999978
 20
-1.385000000000011
 30
0.0
  0
VERTEX
  5
1308
330
12F4
100
AcDbEntity
  8
Pel_Clad
100
AcDbVertex
100
AcDb2dVertex
 10
0.9649999999999767
 20
-1.385000000000011
 30
0.0
  0
VERTEX
  5
1309
330
12F4
100
AcDbEntity
  8
Pel_Clad
100
AcDbVertex
100
AcDb2dVertex
 10
0.9649999999999836
 20
-0.7850000000000105
 30
0.0
  0
VERTEX
  5
130A
330
12F4
100
AcDbEntity
  8
Pel_Clad
100
AcDbVertex
100
AcDb2dVertex
 10
0.7049999999999823
 20
-0.7850000000000107
 30
0.0
  0
VERTEX
  5
130B
330
12F4
100
AcDbEntity
  8
Pel_Clad
100
AcDbVertex
100
AcDb2dVertex
 10
0.7049999999999788
 20
-1.298750000000005
 30
0.0
  0
VERTEX
  5
130C
330
12F4
100
AcDbEntity
  8
Pel_Clad
100
AcDbVertex
100
AcDb2dVertex
 10
0.884999999999982
 20
-1.298750000000012
 30
0.0
 42
-0.4142135623731472
  0
VERTEX
  5
130D
330
12F4
100
AcDbEntity
  8
Pel_Clad
100
AcDbVertex
100
AcDb2dVertex
 10
0.9049999999999815
 20
-1.318750000000015
 30
0.0
  0
VERTEX
  5
130E
330
12F4
100
AcDbEntity
  8
Pel_Clad
100
AcDbVertex
100
AcDb2dVertex
 10
0.9049999999999817
 20
-1.495000000000018
 30
0.0
  0
VERTEX
  5
130F
330
12F4
100
AcDbEntity
  8
Pel_Clad
100
AcDbVertex
100
AcDb2dVertex
 10
0.7049999999999789
 20
-1.495000000000004
 30
0.0
  0
VERTEX
  5
1310
330
12F4
100
AcDbEntity
  8
Pel_Clad
100
AcDbVertex
100
AcDb2dVertex
 10
0.7049999999999789
 20
-1.475000000000015
 30
0.0
  0
VERTEX
  5
1311
330
12F4
100
AcDbEntity
  8
Pel_Clad
100
AcDbVertex
100
AcDb2dVertex
 10
0.8849999999999857
 20
-1.475000000000015
 30
0.0
  0
VERTEX
  5
1312
330
12F4
100
AcDbEntity
  8
Pel_Clad
100
AcDbVertex
100
AcDb2dVertex
 10
0.8849999999999784
 20
-1.318750000000015
 30
0.0
  0
VERTEX
  5
1313
330
12F4
100
AcDbEntity
  8
Pel_Clad
100
AcDbVertex
100
AcDb2dVertex
 10
0.7049999999999788
 20
-1.318750000000015
 30
0.0
 42
-0.4142135623730951
  0
VERTEX
  5
1314
330
12F4
100
AcDbEntity
  8
Pel_Clad
100
AcDbVertex
100
AcDb2dVertex
 10
0.6849999999999792
 20
-1.298750000000012
 30
0.0
  0
VERTEX
  5
1315
330
12F4
100
AcDbEntity
  8
Pel_Clad
100
AcDbVertex
100
AcDb2dVertex
 10
0.6849999999999791
 20
-0.7850000000000107
 30
0.0
 42
-0.4142135623731472
  0
SEQEND
  5
1316
330
12F4
100
AcDbEntity
  8
Pel_Clad
  0
HATCH
  5
1317
330
12D5
100
AcDbEntity
  8
Pel_CS-Weatherstrip
100
AcDbHatch
 10
0.0
 20
0.0
 30
0.0
210
0.0
220
0.0
230
1.0
  2
SOLID
 70
     1
 71
     0
 91
        1
 92
        1
 93
        1
 72
     2
 10
0.666999999999979
 20
-2.970000000000016
 40
0.018
 50
0.0
 51
360.0
 73
     1
 97
        0
 75
     0
 76
     1
 98
        1
 10
0.0000000000000018
 20
-1.484999999999999
  0
HATCH
  5
1318
330
12D5
100
AcDbEntity
  8
Pel_CS-Weatherstrip
100
AcDbHatch
 10
0.0
 20
0.0
 30
0.0
210
0.0
220
0.0
230
1.0
  2
SOLID
 70
     1
 71
     0
 91
        1
 92
        1
 93
        1
 72
     2
 10
0.6669999999999789
 20
-2.845000000000016
 40
0.018
 50
0.0
 51
360.0
 73
     1
 97
        0
 75
     0
 76
     1
 98
        1
 10
0.0000000000000018
 20
-1.359999999999999
  0
HATCH
  5
1319
330
12D5
100
AcDbEntity
  8
Pel_CS-Weatherstrip
100
AcDbHatch
 10
0.0
 20
0.0
 30
0.0
210
0.0
220
0.0
230
1.0
  2
SOLID
 70
     1
 71
     0
 91
        1
 92
        1
 93
        1
 72
     2
 10
0.6669999999999789
 20
-2.735000000000016
 40
0.018
 50
0.0
 51
360.0
 73
     1
 97
        0
 75
     0
 76
     1
 98
        1
 10
0.0000000000000018
 20
-1.249999999999999
  0
HATCH
  5
131A
330
12D5
100
AcDbEntity
  8
Pel_CS-Weatherstrip
100
AcDbHatch
 10
0.0
 20
0.0
 30
0.0
210
0.0
220
0.0
230
1.0
  2
SOLID
 70
     1
 71
     0
 91
        1
 92
        1
 93
        1
 72
     2
 10
0.6669999999999789
 20
-2.610000000000016
 40
0.018
 50
0.0
 51
360.0
 73
     1
 97
        0
 75
     0
 76
     1
 98
        1
 10
0.0000000000000018
 20
-1.124999999999999
  0
HATCH
  5
131B
330
12D5
100
AcDbEntity
  8
Pel_CS-Weatherstrip
100
AcDbHatch
 10
0.0
 20
0.0
 30
0.0
210
0.0
220
0.0
230
1.0
  2
SOLID
 70
     1
 71
     0
 91
        1
 92
        1
 93
        1
 72
     2
 10
0.6669999999999789
 20
-2.485000000000016
 40
0.018
 50
0.0
 51
360.0
 73
     1
 97
        0
 75
     0
 76
     1
 98
        1
 10
0.0000000000000017
 20
-0.9999999999999998
  0
HATCH
  5
131C
330
12D5
100
AcDbEntity
  8
Pel_CS-Weatherstrip
100
AcDbHatch
 10
0.0
 20
0.0
 30
0.0
210
0.0
220
0.0
230
1.0
  2
SOLID
 70
     1
 71
     0
 91
        1
 92
        1
 93
        1
 72
     2
 10
0.6669999999999787
 20
-2.360000000000016
 40
0.018
 50
0.0
 51
360.0
 73
     1
 97
        0
 75
     0
 76
     1
 98
        1
 10
0.0000000000000017
 20
-0.8749999999999998
  0
HATCH
  5
131D
330
12D5
100
AcDbEntity
  8
Pel_CS-Weatherstrip
100
AcDbHatch
 10
0.0
 20
0.0
 30
0.0
210
0.0
220
0.0
230
1.0
  2
SOLID
 70
     1
 71
     0
 91
        1
 92
        1
 93
        1
 72
     2
 10
0.6669999999999787
 20
-2.235000000000016
 40
0.018
 50
0.0
 51
360.0
 73
     1
 97
        0
 75
     0
 76
     1
 98
        1
 10
0.0000000000000017
 20
-0.75
  0
HATCH
  5
131E
330
12D5
100
AcDbEntity
  8
Pel_CS-Weatherstrip
100
AcDbHatch
 10
0.0
 20
0.0
 30
0.0
210
0.0
220
0.0
230
1.0
  2
SOLID
 70
     1
 71
     0
 91
        1
 92
        1
 93
        1
 72
     2
 10
0.6669999999999787
 20
-2.110000000000016
 40
0.018
 50
0.0
 51
360.0
 73
     1
 97
        0
 75
     0
 76
     1
 98
        1
 10
0.0000000000000016
 20
-0.625
  0
HATCH
  5
131F
330
12D5
100
AcDbEntity
  8
Pel_CS-Weatherstrip
100
AcDbHatch
 10
0.0
 20
0.0
 30
0.0
210
0.0
220
0.0
230
1.0
  2
SOLID
 70
     1
 71
     0
 91
        1
 92
        1
 93
        1
 72
     2
 10
0.6669999999999787
 20
-1.985000000000016
 40
0.018
 50
0.0
 51
360.0
 73
     1
 97
        0
 75
     0
 76
     1
 98
        1
 10
0.0000000000000016
 20
-0.5
  0
HATCH
  5
1320
330
12D5
100
AcDbEntity
  8
Pel_CS-Weatherstrip
100
AcDbHatch
 10
0.0
 20
0.0
 30
0.0
210
0.0
220
0.0
230
1.0
  2
SOLID
 70
     1
 71
     0
 91
        1
 92
        1
 93
        1
 72
     2
 10
0.6669999999999786
 20
-1.860000000000016
 40
0.018
 50
0.0
 51
360.0
 73
     1
 97
        0
 75
     0
 76
     1
 98
        1
 10
0.0000000000000016
 20
-0.3749999999999999
  0
HATCH
  5
1321
330
12D5
100
AcDbEntity
  8
Pel_CS-Weatherstrip
100
AcDbHatch
 10
0.0
 20
0.0
 30
0.0
210
0.0
220
0.0
230
1.0
  2
SOLID
 70
     1
 71
     0
 91
        1
 92
        1
 93
        1
 72
     2
 10
0.6669999999999786
 20
-1.735000000000016
 40
0.018
 50
0.0
 51
360.0
 73
     1
 97
        0
 75
     0
 76
     1
 98
        1
 10
0.0000000000000016
 20
-0.2499999999999999
  0
HATCH
  5
1322
330
12D5
100
AcDbEntity
  8
Pel_CS-Weatherstrip
100
AcDbHatch
 10
0.0
 20
0.0
 30
0.0
210
0.0
220
0.0
230
1.0
  2
SOLID
 70
     1
 71
     0
 91
        1
 92
        1
 93
        1
 72
     2
 10
0.6669999999999786
 20
-1.610000000000016
 40
0.018
 50
0.0
 51
360.0
 73
     1
 97
        0
 75
     0
 76
     1
 98
        1
 10
0.0000000000000015
 20
-0.1249999999999999
  0
HATCH
  5
1323
330
12D5
100
AcDbEntity
  8
Pel_CS-Weatherstrip
100
AcDbHatch
 10
0.0
 20
0.0
 30
0.0
210
0.0
220
0.0
230
1.0
  2
SOLID
 70
     1
 71
     0
 91
        1
 92
        1
 93
        1
 72
     2
 10
0.6669999999999786
 20
-1.485000000000016
 40
0.018
 50
0.0
 51
360.0
 73
     1
 97
        0
 75
     0
 76
     1
 98
        1
 10
0.0000000000000051
 20
0.0000000000000001
  0
LWPOLYLINE
  5
1324
330
12D5
100
AcDbEntity
  8
Pel_Clad
  6
Continuous
100
AcDbPolyline
 90
       12
 70
     1
 43
0.0
 10
1.699499999999984
 20
-0.2979999999999872
 10
1.699499999999984
 20
-0.7729999999999886
 42
0.4142135623730951
 10
1.731499999999988
 20
-0.8049999999999922
 10
2.173499999999981
 20
-0.804999999999992
 42
0.4142135623730951
 10
2.205499999999984
 20
-0.7729999999999956
 10
2.205499999999984
 20
-0.2979999999999871
 10
2.233499999999983
 20
-0.2979999999999871
 10
2.233499999999983
 20
-0.7729999999999956
 42
-0.4142135623730951
 10
2.173499999999981
 20
-0.8329999999999907
 10
1.731499999999988
 20
-0.8329999999999909
 42
-0.4142135623730951
 10
1.671499999999985
 20
-0.7729999999999886
 10
1.671499999999985
 20
-0.2979999999999872
  0
CIRCLE
  5
1325
330
12D5
100
AcDbEntity
  8
Pel_CS-Hardware
  6
Continuous
100
AcDbCircle
 10
1.952499999999984
 20
-0.5549999999999922
 30
0.0
 40
0.25
  0
CIRCLE
  5
1326
330
12D5
100
AcDbEntity
  8
Pel_CS-Hardware
  6
Continuous
100
AcDbCircle
 10
1.952499999999984
 20
-0.5549999999999922
 30
0.0
 40
0.21
  0
HATCH
  5
1327
330
12D5
100
AcDbEntity
  8
Pel_Hatch
 62
   254
100
AcDbHatch
 10
0.0
 20
0.0
 30
0.0
210
0.0
220
0.0
230
1.0
  2
PLAST
 70
     0
 71
     1
 91
        1
 92
        1
 93
       10
 72
     1
 10
1.78300000000002
 20
-1.481095283178809
 11
1.78300000000002
 21
-1.076095283178811
 72
     1
 10
1.78300000000002
 20
-1.076095283178811
 11
1.735000000000018
 21
-1.076095283178811
 72
     1
 10
1.735000000000018
 20
-1.076095283178811
 11
1.735000000000018
 21
-1.481095283178809
 72
     2
 10
1.783000000000018
 20
-1.481095283178808
 40
0.0479999999999998
 50
180.0000000000018
 51
270.0000000000024
 73
     1
 72
     1
 10
1.78300000000002
 20
-1.529095283178807
 11
2.351999999999987
 21
-1.529095283178804
 72
     2
 10
2.351999999999985
 20
-1.481095283178807
 40
0.0479999999999968
 50
270.0000000000027
 51
360.0000000000022
 73
     1
 72
     1
 10
2.399999999999982
 20
-1.481095283178805
 11
2.399999999999989
 21
-1.17109528317881
 72
     1
 10
2.399999999999989
 20
-1.17109528317881
 11
2.351999999999987
 21
-1.171095283178807
 72
     1
 10
2.351999999999987
 20
-1.171095283178807
 11
2.351999999999987
 21
-1.481095283178813
 72
     1
 10
2.351999999999987
 20
-1.481095283178813
 11
1.78300000000002
 21
-1.481095283178809
 97
        1
330
1328
 75
     0
 76
     1
 52
45.00000000000001
 41
1.0
 77
     0
 78
     3
 53
45.0
 43
0.0000000000000016
 44
-0.2150483505492494
 45
-0.1767766952966369
 46
0.1767766952966369
 79
     0
 53
45.0
 43
-0.0220970869120783
 44
-0.1929512636371696
 45
-0.1767766952966369
 46
0.1767766952966369
 79
     0
 53
45.0
 43
-0.044194173824158
 44
-0.1708541767250898
 45
-0.1767766952966369
 46
0.1767766952966369
 79
     0
 98
        1
 10
4.124305956116474
 20
-0.2150483505492487
1001
ACAD
1010
0.0
1020
0.0
1030
0.0
  0
LWPOLYLINE
  5
1328
102
{ACAD_REACTORS
330
1327
102
}
330
12D5
100
AcDbEntity
  8
Pel_CS-Reinforcement
100
AcDbPolyline
 90
       10
 70
     1
 43
0.0
 10
1.78300000000002
 20
-1.481095283178809
 10
1.78300000000002
 20
-1.076095283178811
 10
1.735000000000018
 20
-1.076095283178811
 10
1.735000000000018
 20
-1.481095283178809
 42
0.4142135623730969
 10
1.78300000000002
 20
-1.529095283178807
 10
2.351999999999987
 20
-1.529095283178804
 42
0.4142135623730925
 10
2.399999999999982
 20
-1.481095283178805
 10
2.399999999999989
 20
-1.17109528317881
 10
2.351999999999987
 20
-1.171095283178807
 10
2.351999999999987
 20
-1.481095283178813
  0
LWPOLYLINE
  5
1329
330
12D5
100
AcDbEntity
  8
Pel_CS-Cross Section
 62
     4
100
AcDbPolyline
 90
       59
 70
     1
 43
0.0
 10
2.262499999999993
 20
-0.9999999999999852
 10
1.474999999999992
 20
-0.9999999999999854
 42
0.4142135623730931
 10
1.41499999999999
 20
-1.059999999999987
 10
1.41499999999999
 20
-1.102499999999984
 10
1.459999999999991
 20
-1.10249999999998
 10
1.459999999999991
 20
-1.059999999999987
 10
1.509999999999989
 20
-1.059999999999987
 10
1.509999999999989
 20
-1.269999999999988
 10
1.459999999999991
 20
-1.269999999999977
 10
1.459999999999991
 20
-1.22749999999998
 10
1.414999999999986
 20
-1.227499999999984
 10
1.41499999999999
 20
-1.609999999999991
 42
0.4142135623729911
 10
1.429999999999983
 20
-1.624999999999985
 10
1.479999999999995
 20
-1.624999999999992
 42
0.8937924126323798
 10
1.486666666666662
 20
-1.565750118708627
 42
-0.3500011104185865
 10
1.474999999999992
 20
-1.55112517806297
 10
1.474999999999992
 20
-1.354999999999989
 42
-0.4142135623731026
 10
1.499999999999987
 20
-1.32999999999999
 10
1.505366523876693
 20
-1.32999999999999
 42
-0.0918870916679591
 10
1.51432572261533
 20
-1.331660489337557
 10
1.628959198738646
 20
-1.375664158032392
 42
-0.3105082534627774
 10
1.645000000000008
 20
-1.399003668694816
 10
1.645000000000008
 20
-1.609999999999984
 42
0.1044615359720018
 10
1.646281348233008
 20
-1.616066184442928
 10
1.706281348233007
 20
-1.556066184442925
 42
-0.1044615359719121
 10
1.70500000000001
 20
-1.549999999999989
 10
1.70500000000001
 20
-1.399003668694823
 42
0.3105082534628309
 10
1.650461275711363
 20
-1.319649332442558
 10
1.579624480756811
 20
-1.292457634502326
 42
-0.3105082534628289
 10
1.569999999999984
 20
-1.278453928104873
 10
1.569999999999984
 20
-1.074999999999988
 42
-0.4142135623730951
 10
1.584999999999984
 20
-1.059999999999987
 10
2.144999999999987
 20
-1.059999999999987
 42
-0.4142135623730778
 10
2.159999999999987
 20
-1.074999999999988
 10
2.159999999999987
 20
-1.094999999999984
 42
0.4142135623731038
 10
2.219999999999989
 20
-1.154999999999986
 10
2.41499999999999
 20
-1.154999999999986
 42
-0.4142135623730778
 10
2.42999999999999
 20
-1.169999999999986
 10
2.42999999999999
 20
-1.549999999999989
 42
-0.4142135623730604
 10
2.41499999999999
 20
-1.564999999999989
 10
1.720000000000011
 20
-1.56499999999999
 42
-0.2969051242860407
 10
1.706281348233007
 20
-1.556066184442925
 10
1.646281348233008
 20
-1.616066184442928
 42
0.2969051242859246
 10
1.660000000000009
 20
-1.624999999999985
 10
2.41499999999999
 20
-1.624999999999985
 42
-0.4142135623730866
 10
2.42999999999999
 20
-1.639999999999985
 10
2.429999999999991
 20
-2.234999999999988
 42
0.4142135623730258
 10
2.444999999999988
 20
-2.249999999999981
 10
2.474999999999992
 20
-2.249999999999981
 42
0.4142135623730171
 10
2.489999999999986
 20
-2.234999999999981
 10
2.489999999999993
 20
-1.059999999999987
 42
0.4142135623730298
 10
2.430000000000005
 20
-0.9999999999999923
 10
2.387499999999993
 20
-0.9999999999999852
 10
2.38749999999999
 20
-1.044999999999986
 10
2.42999999999999
 20
-1.044999999999986
 10
2.429999999999983
 20
-1.094999999999991
 10
2.219999999999989
 20
-1.094999999999984
 10
2.219999999999989
 20
-1.044999999999987
 10
2.262499999999993
 20
-1.044999999999987
  0
POLYLINE
  5
132A
330
12D5
100
AcDbEntity
  8
Pel_CS-Weatherstrip
100
AcDb2dPolyline
 66
     1
 10
0.0
 20
0.0
 30
0.0
  0
VERTEX
  5
132B
330
132A
100
AcDbEntity
  8
Pel_CS-Weatherstrip
100
AcDbVertex
100
AcDb2dVertex
 10
2.237062558138079
 20
-1.060000013999992
 30
0.0
  0
VERTEX
  5
132C
330
132A
100
AcDbEntity
  8
Pel_CS-Weatherstrip
100
AcDbVertex
100
AcDb2dVertex
 10
2.283307147776456
 20
-1.060000013999992
 30
0.0
  0
VERTEX
  5
132D
330
132A
100
AcDbEntity
  8
Pel_CS-Weatherstrip
100
AcDbVertex
100
AcDb2dVertex
 10
2.234520200544254
 20
-0.9222299250618307
 30
0.0
  0
VERTEX
  5
132E
330
132A
100
AcDbEntity
  8
Pel_CS-Weatherstrip
100
AcDbVertex
100
AcDb2dVertex
 10
2.266841641222628
 20
-0.9349320748756889
 30
0.0
  0
VERTEX
  5
132F
330
132A
100
AcDbEntity
  8
Pel_CS-Weatherstrip
100
AcDbVertex
100
AcDb2dVertex
 10
2.283307147776456
 20
-1.060000013999992
 30
0.0
  0
VERTEX
  5
1330
330
132A
100
AcDbEntity
  8
Pel_CS-Weatherstrip
100
AcDbVertex
100
AcDb2dVertex
 10
2.294149888925273
 20
-0.9199999999999976
 30
0.0
  0
VERTEX
  5
1331
330
132A
100
AcDbEntity
  8
Pel_CS-Weatherstrip
100
AcDbVertex
100
AcDb2dVertex
 10
2.324536130028187
 20
-0.9199999999999976
 30
0.0
  0
VERTEX
  5
1332
330
132A
100
AcDbEntity
  8
Pel_CS-Weatherstrip
100
AcDbVertex
100
AcDb2dVertex
 10
2.283307147776456
 20
-1.060000013999992
 30
0.0
  0
VERTEX
  5
1333
330
132A
100
AcDbEntity
  8
Pel_CS-Weatherstrip
100
AcDbVertex
100
AcDb2dVertex
 10
2.365765112279918
 20
-1.060000013999992
 30
0.0
  0
VERTEX
  5
1334
330
132A
100
AcDbEntity
  8
Pel_CS-Weatherstrip
100
AcDbVertex
100
AcDb2dVertex
 10
2.324536130028187
 20
-0.9199999999999976
 30
0.0
  0
VERTEX
  5
1335
330
132A
100
AcDbEntity
  8
Pel_CS-Weatherstrip
100
AcDbVertex
100
AcDb2dVertex
 10
2.354922371131108
 20
-0.9199999999999976
 30
0.0
  0
VERTEX
  5
1336
330
132A
100
AcDbEntity
  8
Pel_CS-Weatherstrip
100
AcDbVertex
100
AcDb2dVertex
 10
2.365765112279918
 20
-1.060000013999992
 30
0.0
  0
VERTEX
  5
1337
330
132A
100
AcDbEntity
  8
Pel_CS-Weatherstrip
100
AcDbVertex
100
AcDb2dVertex
 10
2.383902888581465
 20
-0.9199999999999976
 30
0.0
  0
VERTEX
  5
1338
330
132A
100
AcDbEntity
  8
Pel_CS-Weatherstrip
100
AcDbVertex
100
AcDb2dVertex
 10
2.41455205951213
 20
-0.9199999999999976
 30
0.0
  0
VERTEX
  5
1339
330
132A
100
AcDbEntity
  8
Pel_CS-Weatherstrip
100
AcDbVertex
100
AcDb2dVertex
 10
2.365765112279918
 20
-1.060000013999992
 30
0.0
  0
VERTEX
  5
133A
330
132A
100
AcDbEntity
  8
Pel_CS-Weatherstrip
100
AcDbVertex
100
AcDb2dVertex
 10
2.423840281824249
 20
-1.060000013999992
 30
0.0
  0
VERTEX
  5
133B
330
132A
100
AcDbEntity
  8
Pel_CS-Weatherstrip
100
AcDbVertex
100
AcDb2dVertex
 10
2.423840281824249
 20
-1.094999999999987
 30
0.0
  0
VERTEX
  5
133C
330
132A
100
AcDbEntity
  8
Pel_CS-Weatherstrip
100
AcDbVertex
100
AcDb2dVertex
 10
2.237062558138079
 20
-1.094999999999987
 30
0.0
  0
VERTEX
  5
133D
330
132A
100
AcDbEntity
  8
0
100
AcDbVertex
100
AcDb2dVertex
 10
2.237062558138079
 20
-1.060000013999992
 30
0.0
  0
SEQEND
  5
133E
330
132A
100
AcDbEntity
  8
Pel_CS-Weatherstrip
  0
POLYLINE
  5
133F
330
12D5
100
AcDbEntity
  8
Pel_CS-Weatherstrip
100
AcDb2dPolyline
 66
     1
 10
0.0
 20
0.0
 30
0.0
  0
VERTEX
  5
1340
330
133F
100
AcDbEntity
  8
Pel_CS-Weatherstrip
100
AcDbVertex
100
AcDb2dVertex
 10
1.472770088938139
 20
-1.253287128208618
 30
0.0
  0
VERTEX
  5
1341
330
133F
100
AcDbEntity
  8
Pel_CS-Weatherstrip
100
AcDbVertex
100
AcDb2dVertex
 10
1.472770088938139
 20
-1.207042538570241
 30
0.0
  0
VERTEX
  5
1342
330
133F
100
AcDbEntity
  8
Pel_CS-Weatherstrip
100
AcDbVertex
100
AcDb2dVertex
 10
1.355000000000002
 20
-1.248747114351821
 30
0.0
  0
VERTEX
  5
1343
330
133F
100
AcDbEntity
  8
Pel_CS-Weatherstrip
100
AcDbVertex
100
AcDb2dVertex
 10
1.355000000000002
 20
-1.222547264920041
 30
0.0
  0
VERTEX
  5
1344
330
133F
100
AcDbEntity
  8
Pel_CS-Weatherstrip
100
AcDbVertex
100
AcDb2dVertex
 10
1.472770088938139
 20
-1.207042538570241
 30
0.0
  0
VERTEX
  5
1345
330
133F
100
AcDbEntity
  8
Pel_CS-Weatherstrip
100
AcDbVertex
100
AcDb2dVertex
 10
1.355000000000002
 20
-1.19777383155792
 30
0.0
  0
VERTEX
  5
1346
330
133F
100
AcDbEntity
  8
Pel_CS-Weatherstrip
100
AcDbVertex
100
AcDb2dVertex
 10
1.355000000000002
 20
-1.16581355631851
 30
0.0
  0
VERTEX
  5
1347
330
133F
100
AcDbEntity
  8
Pel_CS-Weatherstrip
100
AcDbVertex
100
AcDb2dVertex
 10
1.472770088938139
 20
-1.207042538570241
 30
0.0
  0
VERTEX
  5
1348
330
133F
100
AcDbEntity
  8
Pel_CS-Weatherstrip
100
AcDbVertex
100
AcDb2dVertex
 10
1.472770088938139
 20
-1.124584574066779
 30
0.0
  0
VERTEX
  5
1349
330
133F
100
AcDbEntity
  8
Pel_CS-Weatherstrip
100
AcDbVertex
100
AcDb2dVertex
 10
1.355000000000002
 20
-1.16581355631851
 30
0.0
  0
VERTEX
  5
134A
330
133F
100
AcDbEntity
  8
Pel_CS-Weatherstrip
100
AcDbVertex
100
AcDb2dVertex
 10
1.355000000000002
 20
-1.133853281079097
 30
0.0
  0
VERTEX
  5
134B
330
133F
100
AcDbEntity
  8
Pel_CS-Weatherstrip
100
AcDbVertex
100
AcDb2dVertex
 10
1.472770088938139
 20
-1.124584574066779
 30
0.0
  0
VERTEX
  5
134C
330
133F
100
AcDbEntity
  8
Pel_CS-Weatherstrip
100
AcDbVertex
100
AcDb2dVertex
 10
1.355000000000002
 20
-1.109079847716987
 30
0.0
  0
VERTEX
  5
134D
330
133F
100
AcDbEntity
  8
Pel_CS-Weatherstrip
100
AcDbVertex
100
AcDb2dVertex
 10
1.355000000000002
 20
-1.082879998285189
 30
0.0
  0
VERTEX
  5
134E
330
133F
100
AcDbEntity
  8
Pel_CS-Weatherstrip
100
AcDbVertex
100
AcDb2dVertex
 10
1.472770088938139
 20
-1.124584574066779
 30
0.0
  0
VERTEX
  5
134F
330
133F
100
AcDbEntity
  8
Pel_CS-Weatherstrip
100
AcDbVertex
100
AcDb2dVertex
 10
1.472770088938139
 20
-1.066509404522448
 30
0.0
  0
VERTEX
  5
1350
330
133F
100
AcDbEntity
  8
Pel_CS-Weatherstrip
100
AcDbVertex
100
AcDb2dVertex
 10
1.507770074938134
 20
-1.066509404522448
 30
0.0
  0
VERTEX
  5
1351
330
133F
100
AcDbEntity
  8
Pel_CS-Weatherstrip
100
AcDbVertex
100
AcDb2dVertex
 10
1.507770074938134
 20
-1.253287128208618
 30
0.0
  0
VERTEX
  5
1352
330
133F
100
AcDbEntity
  8
0
100
AcDbVertex
100
AcDb2dVertex
 10
1.472770088938139
 20
-1.253287128208618
 30
0.0
  0
SEQEND
  5
1353
330
133F
100
AcDbEntity
  8
Pel_CS-Weatherstrip
  0
LWPOLYLINE
  5
1354
330
12D5
100
AcDbEntity
  8
Pel_CS-Cross Section
 62
     4
100
AcDbPolyline
 90
       14
 70
   129
 43
0.0
 10
1.613003333947675
 20
-2.234316146045727
 42
-0.0998807877076541
 10
1.443034925868333
 20
-1.648627546340172
 10
1.512775634119444
 20
-1.644972590695104
 42
0.398959545973707
 10
1.531728914994586
 20
-1.625000000000013
 10
1.531728914994586
 20
-1.519139017402025
 10
1.643966122543085
 20
-1.401900986668141
 42
1.0
 10
1.629519225492371
 20
-1.388070326322153
 10
1.49172891499459
 20
-1.532000000000017
 10
1.51172891499459
 20
-1.550008080885973
 10
1.511728914994586
 20
-1.62500000000001
 10
1.436190284944297
 20
-1.628958811851027
 42
0.4576894237555402
 10
1.422269823720531
 20
-1.646895999462735
 42
0.1008918840847244
 10
1.596606276904007
 20
-2.245767631552275
 42
0.9914914112673672
 10
1.613041875079721
 20
-2.234372812235455
  0
LINE
  5
1355
330
12D5
100
AcDbEntity
  8
Pel_CS-Weatherstrip
100
AcDbLine
 10
2.367999999999993
 20
-1.860000000000012
 30
0.0
 11
2.431728914994552
 21
-1.860000000000016
 31
0.0
  0
LINE
  5
1356
330
12D5
100
AcDbEntity
  8
Pel_CS-Weatherstrip
100
AcDbLine
 10
2.367999999999993
 20
-2.235000000000013
 30
0.0
 11
2.431728914994549
 21
-2.235000000000016
 31
0.0
  0
LWPOLYLINE
  5
1357
330
12D5
100
AcDbEntity
  8
Pel_CS-Cross Section
 62
     4
100
AcDbPolyline
 90
       14
 70
   129
 43
0.0
 10
1.613003333947675
 20
-2.234316146045727
 42
-0.0998807877076541
 10
1.443034925868333
 20
-1.648627546340172
 10
1.512775634119444
 20
-1.644972590695104
 42
0.398959545973707
 10
1.531728914994586
 20
-1.625000000000013
 10
1.531728914994586
 20
-1.519139017402025
 10
1.643966122543085
 20
-1.401900986668141
 42
1.0
 10
1.629519225492371
 20
-1.388070326322153
 10
1.49172891499459
 20
-1.532000000000017
 10
1.51172891499459
 20
-1.550008080885973
 10
1.511728914994586
 20
-1.62500000000001
 10
1.436190284944297
 20
-1.628958811851027
 42
0.4576894237555402
 10
1.422269823720531
 20
-1.646895999462735
 42
0.1008918840847244
 10
1.596606276904007
 20
-2.245767631552275
 42
0.9914914112673672
 10
1.613041875079721
 20
-2.234372812235455
  0
LINE
  5
1358
330
12D5
100
AcDbEntity
  8
Pel_CS-Sealant
100
AcDbLine
 10
1.76849999999998
 20
-1.872500000000005
 30
0.0
 11
1.73574999999998
 21
-1.872500000000005
 31
0.0
  0
LINE
  5
1359
330
12D5
100
AcDbEntity
  8
Pel_CS-Sealant
100
AcDbLine
 10
1.76849999999998
 20
-2.187500000000006
 30
0.0
 11
1.73574999999998
 21
-2.187500000000006
 31
0.0
  0
ARC
  5
135A
330
12D5
100
AcDbEntity
  8
Pel_CS-Sealant
100
AcDbCircle
 10
1.992874999999964
 20
-1.132983526488867
 30
0.0
 40
0.6684478993976424
100
AcDbArc
 50
247.37738141966
 51
292.6226185803421
  0
HATCH
  5
135B
330
12D5
100
AcDbEntity
  8
Pel_CS-Sealant
100
AcDbHatch
 10
0.0
 20
0.0
 30
0.0
210
0.0
220
0.0
230
1.0
  2
DASH
 70
     0
 71
     0
 91
        2
 92
        1
 93
        4
 72
     1
 10
1.77449999999998
 20
-1.938191049788844
 11
2.211249999999976
 21
-1.938191049788844
 72
     1
 10
2.211249999999976
 20
-1.938191049788844
 11
2.211249999999976
 21
-1.8885
 72
     1
 10
2.211249999999976
 20
-1.8885
 11
1.77449999999998
 21
-1.88850000000001
 72
     1
 10
1.77449999999998
 20
-1.88850000000001
 11
1.77449999999998
 21
-1.938191049788844
 97
        0
 92
       49
 93
        1
 72
     1
 10
1.77449999999998
 20
-1.938191049788844
 11
2.211249999999976
 21
-1.938191049788844
 97
        0
 75
     0
 76
     1
 52
30.0
 41
0.15
 77
     0
 78
     1
 53
330.0
 43
-3.851281177407609
 44
0.3483267997246026
 45
0.0068629763209582
 46
-0.0256129763209582
 79
     2
 49
0.01875
 49
-0.01875
 98
        1
 10
-3.851281177407609
 20
0.3483267997246026
  0
LWPOLYLINE
  5
135C
330
12D5
100
AcDbEntity
  8
Pel_CS-Sealant
100
AcDbPolyline
 90
        4
 70
     1
 43
0.0
 10
1.77449999999998
 20
-1.93819104978884
 10
2.211249999999976
 20
-1.93819104978884
 10
2.211249999999976
 20
-1.888499999999996
 10
1.77449999999998
 20
-1.888500000000007
  0
LWPOLYLINE
  5
135D
330
12D5
100
AcDbEntity
  8
Pel_CS-IG
100
AcDbPolyline
 90
       16
 70
   129
 43
0.0
 10
1.85849999999998
 20
-2.187500000000006
 10
1.76849999999998
 20
-2.187500000000006
 42
-0.4142135623731017
 10
1.758499999999975
 20
-2.177500000000008
 10
1.758499999999982
 20
-1.882500000000006
 42
-0.4142135623730873
 10
1.76849999999998
 20
-1.872500000000005
 10
2.217249999999976
 20
-1.872499999999994
 42
-0.4142135623731013
 10
2.227249999999978
 20
-1.882499999999996
 10
2.227249999999978
 20
-2.177499999999997
 42
-0.4142135623730894
 10
2.217249999999976
 20
-2.187499999999999
 10
2.127249999999976
 20
-2.187500000000006
 10
2.127249999999976
 20
-2.171500000000001
 10
2.211249999999976
 20
-2.171499999999997
 10
2.211249999999976
 20
-1.888499999999996
 10
1.77449999999998
 20
-1.888500000000007
 10
1.77449999999998
 20
-2.171500000000008
 10
1.85849999999998
 20
-2.171500000000004
  0
LINE
  5
135E
330
12D5
100
AcDbEntity
  8
Pel_CS-Sealant
100
AcDbLine
 10
2.217249999999976
 20
-1.872500000000005
 30
0.0
 11
2.249999999999976
 21
-1.872500000000005
 31
0.0
  0
LINE
  5
135F
330
12D5
100
AcDbEntity
  8
Pel_CS-Sealant
100
AcDbLine
 10
2.217249999999976
 20
-2.187500000000006
 30
0.0
 11
2.249999999999976
 21
-2.187500000000006
 31
0.0
  0
LWPOLYLINE
  5
1360
330
12D5
100
AcDbEntity
  8
Pel_CS-Cross Section
 62
     4
100
AcDbPolyline
 90
      137
 70
     1
 43
0.0
 10
2.645000000000004
 20
-0.0149999999999964
 42
0.4142135623731236
 10
2.630000000000003
 20
0.0000000000000042
 10
1.153000000000003
 20
0.0000000000000039
 42
-0.4142135623731095
 10
1.123000000000002
 20
0.030000000000005
 10
1.123000000000005
 20
1.095000000000002
 42
1.0
 10
1.063000000000007
 20
1.095000000000002
 10
1.063000000000003
 20
0.030000000000005
 42
-0.4142135623731149
 10
1.033000000000002
 20
0.0000000000000039
 10
0.0750000000000044
 20
0.0000000000000037
 42
-0.4142135623730982
 10
0.0600000000000038
 20
0.0150000000000043
 10
0.0600000000000038
 20
0.0310000000000025
 10
0.0000000000000051
 20
0.0310000000000025
 42
0.1672852476327882
 10
0.0048280133316553
 20
0.022513326882539
 42
-0.449515153603182
 10
0.0050000000000041
 20
-0.0223606797749943
 42
0.2134217652834015
 10
0.0000000000000015
 20
-0.0335410196624933
 10
0.0000000000000017
 20
-0.8599999999999921
 42
0.4142135623730951
 10
0.0150000000000023
 20
-0.8749999999999891
 10
0.070000000000002
 20
-0.8749999999999891
 42
0.9458235162656416
 10
0.0733333333333323
 20
-0.815185760299993
 42
-0.3819660112500369
 10
0.060000000000004
 20
-0.8002786404499955
 10
0.0600000000000039
 20
-0.6499999999999914
 42
-0.4142135623731042
 10
0.0850000000000061
 20
-0.6249999999999928
 10
0.2100000000000025
 20
-0.6249999999999928
 42
-0.414213562373099
 10
0.2350000000000047
 20
-0.6499999999999913
 10
0.2350000000000011
 20
-0.8599999999999921
 42
0.4142135623730843
 10
0.2500000000000017
 20
-0.8749999999999891
 10
0.6550000000000029
 20
-0.8749999999999962
 42
0.4142135623731017
 10
0.6700000000000034
 20
-0.8599999999999957
 10
0.6700000000000034
 20
-0.7649999999999969
 42
-0.414213562373106
 10
0.685000000000004
 20
-0.7499999999999963
 10
1.015000000000002
 20
-0.7499999999999961
 42
-0.2706623082387043
 10
1.028065604259344
 20
-0.7576318261870153
 10
1.070805157905608
 20
-0.7148922725407477
 42
0.2129176659484373
 10
1.015000000000002
 20
-0.6899999999999974
 10
0.9300000000000013
 20
-0.6899999999999974
 42
-0.4142135623730887
 10
0.9150000000000007
 20
-0.6749999999999968
 10
0.8750000000000015
 20
-0.6749999999999968
 42
-0.4142135623730887
 10
0.860000000000001
 20
-0.6899999999999974
 10
0.685000000000004
 20
-0.6899999999999976
 42
0.4142135623731033
 10
0.6100000000000047
 20
-0.7649999999999969
 10
0.6100000000000047
 20
-0.799999999999997
 42
-0.4142135623730539
 10
0.5950000000000041
 20
-0.8149999999999975
 10
0.310000000000004
 20
-0.8149999999999975
 42
-0.4142135623731061
 10
0.2950000000000034
 20
-0.799999999999997
 10
0.2950000000000034
 20
-0.6499999999999913
 42
0.4142135623730943
 10
0.210000000000006
 20
-0.5649999999999905
 10
0.0750000000000045
 20
-0.5649999999999906
 42
-0.4142135623731015
 10
0.0600000000000039
 20
-0.54999999999999
 10
0.0600000000000038
 20
-0.0749999999999956
 42
-0.4142135623731054
 10
0.0750000000000044
 20
-0.059999999999995
 10
0.8600000000000045
 20
-0.0599999999999949
 42
-0.4142135623730661
 10
0.8750000000000015
 20
-0.0749999999999955
 10
0.8750000000000015
 20
-0.6749999999999968
 10
0.9150000000000007
 20
-0.6749999999999968
 10
0.9150000000000042
 20
-0.0749999999999954
 42
-0.4142135623730708
 10
0.9300000000000013
 20
-0.0599999999999949
 10
1.377000000000003
 20
-0.0599999999999948
 42
-0.4142135623731067
 10
1.392000000000004
 20
-0.0749999999999954
 10
1.452000000000003
 20
-0.0749999999999954
 42
-0.4142135623731054
 10
1.467000000000003
 20
-0.0599999999999948
 10
2.355000000000001
 20
-0.0599999999999982
 42
-0.4142135623731241
 10
2.370000000000002
 20
-0.0749999999999988
 10
2.370000000000002
 20
-0.2229999999999984
 42
-0.4142135623730864
 10
2.355000000000002
 20
-0.237999999999999
 10
1.467000000000003
 20
-0.2379999999999956
 42
-0.4142135623731012
 10
1.452000000000003
 20
-0.222999999999995
 10
1.452000000000003
 20
-0.0749999999999954
 10
1.392000000000001
 20
-0.0749999999999954
 10
1.392000000000001
 20
-0.8449999999999949
 42
-0.4142135623730539
 10
1.377000000000004
 20
-0.8599999999999955
 10
1.3684846922835
 20
-0.8599999999999955
 42
0.317837245195789
 10
1.297774014164842
 20
-0.9099999999999962
 42
-0.3178372451957535
 10
1.283631878541113
 20
-0.9199999999999977
 10
1.105000000000002
 20
-0.9199999999999977
 10
1.105000000000002
 20
-0.9599999999999969
 10
1.280000000000002
 20
-0.9599999999999969
 42
-0.4142135623731234
 10
1.295000000000003
 20
-0.9749999999999975
 10
1.295000000000003
 20
-1.484999999999995
 42
-0.4142135623730735
 10
1.280000000000002
 20
-1.499999999999996
 10
1.105000000000002
 20
-1.499999999999996
 42
-0.4142135623730909
 10
1.090000000000001
 20
-1.484999999999995
 10
1.090000000000001
 20
-0.9749999999999975
 42
-0.4142135623730951
 10
1.105000000000002
 20
-0.9599999999999969
 10
1.105000000000002
 20
-0.9199999999999977
 42
-0.4142135623730777
 10
1.090000000000001
 20
-0.9049999999999972
 10
1.090000000000001
 20
-0.7649999999999967
 42
0.1849817313880213
 10
1.070805157905608
 20
-0.7148922725407477
 10
1.028065604259344
 20
-0.7576318261870153
 42
-0.1290798537170298
 10
1.030000000000002
 20
-0.7649999999999967
 10
1.030000000000002
 20
-1.544999999999997
 42
0.4142135623730909
 10
1.045000000000003
 20
-1.559999999999994
 10
1.325000000000004
 20
-1.559999999999998
 42
0.414213562373093
 10
1.355000000000002
 20
-1.529999999999997
 10
1.355000000000002
 20
-0.9349999999999983
 42
-0.4142135623730796
 10
1.370000000000002
 20
-0.9199999999999977
 10
1.608775010008011
 20
-0.9199999999999977
 42
-0.2277350772923663
 10
1.620484381255009
 20
-0.9256249999999962
 42
0.7088115080035261
 10
1.665000000000004
 20
-0.9099999999999962
 10
1.665000000000004
 20
-0.874999999999996
 42
0.414213562373106
 10
1.650000000000003
 20
-0.8599999999999955
 10
1.467
 20
-0.8599999999999955
 42
-0.4142135623730671
 10
1.452000000000003
 20
-0.8449999999999949
 10
1.452000000000003
 20
-0.3129999999999984
 42
-0.4142135623730897
 10
1.467000000000003
 20
-0.2979999999999979
 10
2.437000000000002
 20
-0.2979999999999977
 42
-0.4142135623731006
 10
2.452000000000003
 20
-0.3129999999999983
 10
2.452000000000003
 20
-0.8449999999999983
 10
2.512000000000002
 20
-0.8449999999999983
 10
2.512000000000002
 20
-0.3129999999999947
 42
-0.4142135623730897
 10
2.527000000000002
 20
-0.2979999999999976
 10
2.635000000000003
 20
-0.2979999999999976
 42
-0.4142135623730887
 10
2.650000000000003
 20
-0.3129999999999947
 10
2.650000000000003
 20
-0.8449999999999983
 42
-0.4142135623730887
 10
2.635000000000003
 20
-0.8599999999999953
 10
2.527000000000002
 20
-0.8599999999999953
 42
-0.4142135623730887
 10
2.512000000000002
 20
-0.8449999999999983
 10
2.452000000000003
 20
-0.8449999999999983
 42
-0.4142135623730539
 10
2.437000000000002
 20
-0.8599999999999953
 10
2.255000000000004
 20
-0.8599999999999953
 42
0.414213562373106
 10
2.240000000000003
 20
-0.8749999999999959
 10
2.240000000000003
 20
-0.909999999999996
 42
0.7088115080034561
 10
2.284515618744995
 20
-0.9256249999999996
 42
-0.2277350772923631
 10
2.296224989991992
 20
-0.9199999999999976
 10
2.695000000000002
 20
-0.9199999999999974
 42
0.4142135623731102
 10
2.710000000000002
 20
-0.9049999999999968
 10
2.710000000000002
 20
-0.2529999999999959
 42
0.4142135623730887
 10
2.695000000000005
 20
-0.2379999999999954
 10
2.470000000000004
 20
-0.2379999999999954
 42
-0.414213562373102
 10
2.430000000000004
 20
-0.1979999999999963
 10
2.430000000000004
 20
-0.0749999999999952
 42
-0.4142135623730542
 10
2.445000000000001
 20
-0.0599999999999982
 10
2.553000000000002
 20
-0.0599999999999981
 42
-0.414213562373089
 10
2.568000000000002
 20
-0.0749999999999952
 10
2.568000000000002
 20
-0.1049999999999963
 10
2.593000000000004
 20
-0.1049999999999963
 10
2.637500000000004
 20
-0.0793079130210573
 42
0.2679491924311337
 10
2.645000000000004
 20
-0.0663175319642904
  0
LWPOLYLINE
  5
1361
330
12D5
100
AcDbEntity
  8
Pel_CS-Weatherstrip
  6
Continuous
100
AcDbPolyline
 90
        4
 70
     1
 43
0.0
 10
2.42999999999999
 20
-1.860000000000012
 10
2.367999999999993
 20
-1.860000000000012
 10
2.367999999999993
 20
-2.235000000000013
 10
2.429999999999991
 20
-2.235000000000013
  0
POLYLINE
  5
1362
330
12D5
100
AcDbEntity
  8
Pel_CS-Sealant
100
AcDb2dPolyline
 66
     1
 10
0.0
 20
0.0
 30
0.0
 70
     1
  0
VERTEX
  5
1363
330
1362
100
AcDbEntity
  8
Pel_CS-Sealant
100
AcDbVertex
100
AcDb2dVertex
 10
0.869661841774354
 20
-1.433125000000014
 30
0.0
  0
VERTEX
  5
1364
330
1362
100
AcDbEntity
  8
Pel_CS-Sealant
100
AcDbVertex
100
AcDb2dVertex
 10
0.8618271592571158
 20
-1.411599386695303
 30
0.0
  0
VERTEX
  5
1365
330
1362
100
AcDbEntity
  8
Pel_CS-Sealant
100
AcDbVertex
100
AcDb2dVertex
 10
0.87937499999998
 20
-1.396875000000015
 30
0.0
  0
VERTEX
  5
1366
330
1362
100
AcDbEntity
  8
Pel_CS-Sealant
100
AcDbVertex
100
AcDb2dVertex
 10
0.8618271592571158
 20
-1.382150613304716
 30
0.0
  0
VERTEX
  5
1367
330
1362
100
AcDbEntity
  8
Pel_CS-Sealant
100
AcDbVertex
100
AcDb2dVertex
 10
0.869661841774354
 20
-1.360625000000009
 30
0.0
  0
VERTEX
  5
1368
330
1362
100
AcDbEntity
  8
Pel_CS-Sealant
100
AcDbVertex
100
AcDb2dVertex
 10
0.8471027725618203
 20
-1.356647227438173
 30
0.0
  0
VERTEX
  5
1369
330
1362
100
AcDbEntity
  8
Pel_CS-Sealant
100
AcDbVertex
100
AcDb2dVertex
 10
0.843124999999981
 20
-1.334088158225636
 30
0.0
  0
VERTEX
  5
136A
330
1362
100
AcDbEntity
  8
Pel_CS-Sealant
100
AcDbVertex
100
AcDb2dVertex
 10
0.8215993866952775
 20
-1.341922840742878
 30
0.0
  0
VERTEX
  5
136B
330
1362
100
AcDbEntity
  8
Pel_CS-Sealant
100
AcDbVertex
100
AcDb2dVertex
 10
0.8128278380373377
 20
-1.374658705995365
 30
0.0
 42
-0.3394542588633676
  0
VERTEX
  5
136C
330
1362
100
AcDbEntity
  8
Pel_CS-Sealant
100
AcDbVertex
100
AcDb2dVertex
 10
0.8298749999999781
 20
-1.396875000000011
 30
0.0
 42
-1.0
  0
VERTEX
  5
136D
330
1362
100
AcDbEntity
  8
Pel_CS-Sealant
100
AcDbVertex
100
AcDb2dVertex
 10
0.7838749999999788
 20
-1.396875000000011
 30
0.0
 42
-0.4931454260313062
  0
VERTEX
  5
136E
330
1362
100
AcDbEntity
  8
Pel_CS-Sealant
100
AcDbVertex
100
AcDb2dVertex
 10
0.8128278380373377
 20
-1.374658705995365
 30
0.0
  0
VERTEX
  5
136F
330
1362
100
AcDbEntity
  8
Pel_CS-Sealant
100
AcDbVertex
100
AcDb2dVertex
 10
0.8215993866952739
 20
-1.341922840742878
 30
0.0
  0
VERTEX
  5
1370
330
1362
100
AcDbEntity
  8
Pel_CS-Sealant
100
AcDbVertex
100
AcDb2dVertex
 10
0.8068749999999784
 20
-1.32437500000001
 30
0.0
  0
VERTEX
  5
1371
330
1362
100
AcDbEntity
  8
Pel_CS-Sealant
100
AcDbVertex
100
AcDb2dVertex
 10
0.792150613304683
 20
-1.341922840742878
 30
0.0
  0
VERTEX
  5
1372
330
1362
100
AcDbEntity
  8
Pel_CS-Sealant
100
AcDbVertex
100
AcDb2dVertex
 10
0.7706249999999795
 20
-1.334088158225639
 30
0.0
  0
VERTEX
  5
1373
330
1362
100
AcDbEntity
  8
Pel_CS-Sealant
100
AcDbVertex
100
AcDb2dVertex
 10
0.7666472274381402
 20
-1.356647227438177
 30
0.0
  0
VERTEX
  5
1374
330
1362
100
AcDbEntity
  8
Pel_CS-Sealant
100
AcDbVertex
100
AcDb2dVertex
 10
0.7440881582256065
 20
-1.360625000000012
 30
0.0
  0
VERTEX
  5
1375
330
1362
100
AcDbEntity
  8
Pel_CS-Sealant
100
AcDbVertex
100
AcDb2dVertex
 10
0.7519228407428447
 20
-1.382150613304723
 30
0.0
  0
VERTEX
  5
1376
330
1362
100
AcDbEntity
  8
Pel_CS-Sealant
100
AcDbVertex
100
AcDb2dVertex
 10
0.7343749999999769
 20
-1.396875000000015
 30
0.0
  0
VERTEX
  5
1377
330
1362
100
AcDbEntity
  8
Pel_CS-Sealant
100
AcDbVertex
100
AcDb2dVertex
 10
0.7519228407428482
 20
-1.41159938669531
 30
0.0
  0
VERTEX
  5
1378
330
1362
100
AcDbEntity
  8
Pel_CS-Sealant
100
AcDbVertex
100
AcDb2dVertex
 10
0.7440881582256065
 20
-1.433125000000017
 30
0.0
  0
VERTEX
  5
1379
330
1362
100
AcDbEntity
  8
Pel_CS-Sealant
100
AcDbVertex
100
AcDb2dVertex
 10
0.7666472274381438
 20
-1.437102772561853
 30
0.0
  0
VERTEX
  5
137A
330
1362
100
AcDbEntity
  8
Pel_CS-Sealant
100
AcDbVertex
100
AcDb2dVertex
 10
0.7706249999999795
 20
-1.45966184177439
 30
0.0
  0
VERTEX
  5
137B
330
1362
100
AcDbEntity
  8
Pel_CS-Sealant
100
AcDbVertex
100
AcDb2dVertex
 10
0.792150613304683
 20
-1.451827159257149
 30
0.0
  0
VERTEX
  5
137C
330
1362
100
AcDbEntity
  8
Pel_CS-Sealant
100
AcDbVertex
100
AcDb2dVertex
 10
0.8068749999999857
 20
-1.469375000000016
 30
0.0
  0
VERTEX
  5
137D
330
1362
100
AcDbEntity
  8
Pel_CS-Sealant
100
AcDbVertex
100
AcDb2dVertex
 10
0.821599386695281
 20
-1.451827159257145
 30
0.0
  0
VERTEX
  5
137E
330
1362
100
AcDbEntity
  8
Pel_CS-Sealant
100
AcDbVertex
100
AcDb2dVertex
 10
0.843124999999981
 20
-1.459661841774383
 30
0.0
  0
VERTEX
  5
137F
330
1362
100
AcDbEntity
  8
Pel_CS-Sealant
100
AcDbVertex
100
AcDb2dVertex
 10
0.8471027725618238
 20
-1.437102772561846
 30
0.0
  0
SEQEND
  5
1380
330
1362
100
AcDbEntity
  8
Pel_CS-Sealant
  0
CIRCLE
  5
1381
330
12D5
100
AcDbEntity
  8
Pel_CS-Weatherstrip
100
AcDbCircle
 10
0.6669999999999791
 20
-3.595000000000012
 30
0.0
 40
0.018
  0
CIRCLE
  5
1382
330
12D5
100
AcDbEntity
  8
Pel_CS-Weatherstrip
100
AcDbCircle
 10
0.6669999999999791
 20
-3.470000000000012
 30
0.0
 40
0.018
  0
CIRCLE
  5
1383
330
12D5
100
AcDbEntity
  8
Pel_CS-Weatherstrip
100
AcDbCircle
 10
0.6669999999999791
 20
-3.845000000000012
 30
0.0
 40
0.018
  0
CIRCLE
  5
1384
330
12D5
100
AcDbEntity
  8
Pel_CS-Weatherstrip
100
AcDbCircle
 10
0.6669999999999792
 20
-4.095000000000013
 30
0.0
 40
0.018
  0
CIRCLE
  5
1385
330
12D5
100
AcDbEntity
  8
Pel_CS-Weatherstrip
100
AcDbCircle
 10
0.6669999999999792
 20
-3.970000000000012
 30
0.0
 40
0.018
  0
CIRCLE
  5
1386
330
12D5
100
AcDbEntity
  8
Pel_CS-Weatherstrip
100
AcDbCircle
 10
0.6669999999999791
 20
-3.720000000000012
 30
0.0
 40
0.018
  0
CIRCLE
  5
1387
330
12D5
100
AcDbEntity
  8
Pel_CS-Weatherstrip
100
AcDbCircle
 10
0.666999999999979
 20
-3.345000000000012
 30
0.0
 40
0.018
  0
CIRCLE
  5
1388
330
12D5
100
AcDbEntity
  8
Pel_CS-Weatherstrip
100
AcDbCircle
 10
0.666999999999979
 20
-3.220000000000012
 30
0.0
 40
0.018
  0
CIRCLE
  5
1389
330
12D5
100
AcDbEntity
  8
Pel_CS-Weatherstrip
100
AcDbCircle
 10
0.666999999999979
 20
-3.095000000000012
 30
0.0
 40
0.018
  0
HATCH
  5
138A
330
12D5
100
AcDbEntity
  8
Pel_CS-Weatherstrip
100
AcDbHatch
 10
0.0
 20
0.0
 30
0.0
210
0.0
220
0.0
230
1.0
  2
SOLID
 70
     1
 71
     0
 91
        1
 92
        1
 93
        1
 72
     2
 10
0.6669999999999792
 20
-4.095000000000016
 40
0.018
 50
0.0
 51
360.0
 73
     1
 97
        0
 75
     0
 76
     1
 98
        1
 10
0.0000000000000021
 20
-2.609999999999999
  0
HATCH
  5
138B
330
12D5
100
AcDbEntity
  8
Pel_CS-Weatherstrip
100
AcDbHatch
 10
0.0
 20
0.0
 30
0.0
210
0.0
220
0.0
230
1.0
  2
SOLID
 70
     1
 71
     0
 91
        1
 92
        1
 93
        1
 72
     2
 10
0.6669999999999792
 20
-3.970000000000016
 40
0.018
 50
0.0
 51
360.0
 73
     1
 97
        0
 75
     0
 76
     1
 98
        1
 10
0.0000000000000021
 20
-2.484999999999999
  0
HATCH
  5
138C
330
12D5
100
AcDbEntity
  8
Pel_CS-Weatherstrip
100
AcDbHatch
 10
0.0
 20
0.0
 30
0.0
210
0.0
220
0.0
230
1.0
  2
SOLID
 70
     1
 71
     0
 91
        1
 92
        1
 93
        1
 72
     2
 10
0.6669999999999791
 20
-3.845000000000016
 40
0.018
 50
0.0
 51
360.0
 73
     1
 97
        0
 75
     0
 76
     1
 98
        1
 10
0.000000000000002
 20
-2.359999999999999
  0
HATCH
  5
138D
330
12D5
100
AcDbEntity
  8
Pel_CS-Weatherstrip
100
AcDbHatch
 10
0.0
 20
0.0
 30
0.0
210
0.0
220
0.0
230
1.0
  2
SOLID
 70
     1
 71
     0
 91
        1
 92
        1
 93
        1
 72
     2
 10
0.6669999999999791
 20
-3.720000000000016
 40
0.018
 50
0.0
 51
360.0
 73
     1
 97
        0
 75
     0
 76
     1
 98
        1
 10
0.000000000000002
 20
-2.234999999999999
  0
HATCH
  5
138E
330
12D5
100
AcDbEntity
  8
Pel_CS-Weatherstrip
100
AcDbHatch
 10
0.0
 20
0.0
 30
0.0
210
0.0
220
0.0
230
1.0
  2
SOLID
 70
     1
 71
     0
 91
        1
 92
        1
 93
        1
 72
     2
 10
0.6669999999999791
 20
-3.595000000000016
 40
0.018
 50
0.0
 51
360.0
 73
     1
 97
        0
 75
     0
 76
     1
 98
        1
 10
0.000000000000002
 20
-2.109999999999999
  0
HATCH
  5
138F
330
12D5
100
AcDbEntity
  8
Pel_CS-Weatherstrip
100
AcDbHatch
 10
0.0
 20
0.0
 30
0.0
210
0.0
220
0.0
230
1.0
  2
SOLID
 70
     1
 71
     0
 91
        1
 92
        1
 93
        1
 72
     2
 10
0.6669999999999791
 20
-3.470000000000016
 40
0.018
 50
0.0
 51
360.0
 73
     1
 97
        0
 75
     0
 76
     1
 98
        1
 10
0.0000000000000019
 20
-1.984999999999999
  0
HATCH
  5
1390
330
12D5
100
AcDbEntity
  8
Pel_CS-Weatherstrip
100
AcDbHatch
 10
0.0
 20
0.0
 30
0.0
210
0.0
220
0.0
230
1.0
  2
SOLID
 70
     1
 71
     0
 91
        1
 92
        1
 93
        1
 72
     2
 10
0.666999999999979
 20
-3.345000000000016
 40
0.018
 50
0.0
 51
360.0
 73
     1
 97
        0
 75
     0
 76
     1
 98
        1
 10
0.0000000000000019
 20
-1.859999999999999
  0
HATCH
  5
1391
330
12D5
100
AcDbEntity
  8
Pel_CS-Weatherstrip
100
AcDbHatch
 10
0.0
 20
0.0
 30
0.0
210
0.0
220
0.0
230
1.0
  2
SOLID
 70
     1
 71
     0
 91
        1
 92
        1
 93
        1
 72
     2
 10
0.666999999999979
 20
-3.220000000000016
 40
0.018
 50
0.0
 51
360.0
 73
     1
 97
        0
 75
     0
 76
     1
 98
        1
 10
0.0000000000000019
 20
-1.734999999999999
  0
HATCH
  5
1392
330
12D5
100
AcDbEntity
  8
Pel_CS-Weatherstrip
100
AcDbHatch
 10
0.0
 20
0.0
 30
0.0
210
0.0
220
0.0
230
1.0
  2
SOLID
 70
     1
 71
     0
 91
        1
 92
        1
 93
        1
 72
     2
 10
0.666999999999979
 20
-3.095000000000016
 40
0.018
 50
0.0
 51
360.0
 73
     1
 97
        0
 75
     0
 76
     1
 98
        1
 10
0.0000000000000019
 20
-1.609999999999999
  0
ENDBLK
  5
1393
330
12D5
100
AcDbEntity
  8
0
100
AcDbBlockEnd
  0
BLOCK
  5
1397
330
1394
100
AcDbEntity
  8
0
100
AcDbBlockBegin
  2
TSE 10 SH FH
 70
     0
 10
0.0
 20
0.0
 30
0.0
  3
TSE 10 SH FH
  1

  0
LWPOLYLINE
  5
1398
330
1394
100
AcDbEntity
  8
Pel_CS-IG
  6
Continuous
100
AcDbPolyline
 90
        4
 70
     0
 43
0.0
 10
0.3430000000000213
 20
-4.0
 10
0.3430000000000213
 20
-0.9999999999999893
 10
0.2180000000000284
 20
-0.9999999999999893
 10
0.2180000000000284
 20
-4.0
  0
LWPOLYLINE
  5
1399
330
1394
100
AcDbEntity
  8
Pel_CS-IG
  6
Continuous
100
AcDbPolyline
 90
        4
 70
     0
 43
0.0
 10
0.9680000000000283
 20
-4.0
 10
0.9680000000000283
 20
-0.9999999999999964
 10
0.8430000000000283
 20
-0.9999999999999893
 10
0.8430000000000283
 20
-4.0
  0
LWPOLYLINE
  5
139A
330
1394
100
AcDbEntity
  8
Pel_CS-Cross Section
 62
     4
100
AcDbPolyline
 90
       13
 70
     1
 43
0.0
 10
0.1350000000001419
 20
-0.7703907306372991
 10
0.2416421551932988
 20
-0.6560247286422616
 42
0.9999999999999996
 10
0.2233578448069853
 20
-0.6389752713577331
 10
0.0900000000001402
 20
-0.7819919191140308
 10
0.1100000000001433
 20
-0.7999999999999936
 10
0.1100000000001433
 20
-0.8749999999999964
 10
0.0320839747918047
 20
-0.8749999999999964
 42
0.4387364446152711
 10
0.0201252798601086
 20
-0.8879947942151851
 42
0.1028671740245727
 10
0.1936017249855855
 20
-1.473579765626947
 42
1.000000000000018
 10
0.2156243986745299
 20
-1.461747528155097
 42
-0.1004471373057855
 10
0.0462782269401085
 20
-0.8999999999999879
 10
0.1100000000001398
 20
-0.8999999999999879
 42
0.4142135623730847
 10
0.1350000000001419
 20
-0.8749999999999964
1001
AcDbBlockRepETag
1070
     1
1071
        3
1005
139A
  0
LINE
  5
139B
330
1394
100
AcDbEntity
  8
Pel_CS-Sealant
100
AcDbLine
 10
0.3757500000000213
 20
-1.437499999999996
 30
0.0
 11
0.3430000000000213
 21
-1.437499999999996
 31
0.0
1001
AcDbBlockRepETag
1070
     1
1071
        4
1005
139B
  0
LINE
  5
139C
330
1394
100
AcDbEntity
  8
Pel_CS-Sealant
100
AcDbLine
 10
0.8102500000000283
 20
-1.437499999999996
 30
0.0
 11
0.8430000000000283
 21
-1.437499999999996
 31
0.0
1001
AcDbBlockRepETag
1070
     1
1071
        5
1005
139C
  0
ARC
  5
139D
330
1394
100
AcDbEntity
  8
Pel_CS-Sealant
100
AcDbCircle
 10
0.5930000000000107
 20
-0.3182685958638096
 30
0.0
 40
0.7261251320437026
100
AcDbArc
 50
249.8613393576902
 51
290.1386606423122
1001
AcDbBlockRepETag
1070
     1
1071
        6
1005
139D
  0
LINE
  5
139E
330
1394
100
AcDbEntity
  8
Pel_CS-Sealant
100
AcDbLine
 10
0.3757500000000213
 20
-1.122499999999998
 30
0.0
 11
0.3430000000000213
 21
-1.122499999999998
 31
0.0
1001
AcDbBlockRepETag
1070
     1
1071
        7
1005
139E
  0
LINE
  5
139F
330
1394
100
AcDbEntity
  8
Pel_CS-Sealant
100
AcDbLine
 10
0.8102500000000283
 20
-1.122499999999998
 30
0.0
 11
0.8430000000000283
 21
-1.122499999999998
 31
0.0
1001
AcDbBlockRepETag
1070
     1
1071
        8
1005
139F
  0
LWPOLYLINE
  5
13A0
330
1394
100
AcDbEntity
  8
Pel_CS-Weatherstrip
  6
Continuous
100
AcDbPolyline
 90
        4
 70
     1
 43
0.0
 10
1.030000000000015
 20
-1.125000000000024
 10
0.9680000000000177
 20
-1.125000000000024
 10
0.9680000000000177
 20
-1.500000000000024
 10
1.030000000000015
 20
-1.500000000000024
1001
AcDbBlockRepETag
1070
     1
1071
        9
1005
13A0
  0
HATCH
  5
13A1
330
1394
100
AcDbEntity
  8
Pel_CS-Sealant
100
AcDbHatch
 10
0.0
 20
0.0
 30
0.0
210
0.0
220
0.0
230
1.0
  2
DASH
 70
     0
 71
     0
 91
        2
 92
        1
 93
        4
 72
     1
 10
0.3746250000000266
 20
-1.188191049788841
 11
0.811375000000023
 21
-1.188191049788841
 72
     1
 10
0.811375000000023
 20
-1.188191049788841
 11
0.811375000000023
 21
-1.138499999999996
 72
     1
 10
0.811375000000023
 20
-1.138499999999996
 11
0.3746250000000266
 21
-1.138500000000007
 72
     1
 10
0.3746250000000266
 20
-1.138500000000007
 11
0.3746250000000266
 21
-1.188191049788841
 97
        0
 92
       49
 93
        1
 72
     1
 10
0.3746250000000266
 20
-1.188191049788841
 11
0.811375000000023
 21
-1.188191049788841
 97
        0
 75
     0
 76
     1
 52
30.0
 41
0.15
 77
     0
 78
     1
 53
330.0
 43
-5.251156177407561
 44
1.098326799724603
 45
0.0068629763209582
 46
-0.0256129763209582
 79
     2
 49
0.01875
 49
-0.01875
 98
        1
 10
-5.251156177407561
 20
1.098326799724603
1001
AcDbBlockRepETag
1070
     1
1071
       10
1005
13A1
  0
LWPOLYLINE
  5
13A2
330
1394
100
AcDbEntity
  8
Pel_CS-Sealant
100
AcDbPolyline
 90
        4
 70
     1
 43
0.0
 10
0.3746250000000266
 20
-1.188191049788841
 10
0.811375000000023
 20
-1.188191049788841
 10
0.811375000000023
 20
-1.138499999999996
 10
0.3746250000000266
 20
-1.138500000000007
1001
AcDbBlockRepETag
1070
     1
1071
       11
1005
13A2
  0
LWPOLYLINE
  5
13A3
330
1394
100
AcDbEntity
  8
Pel_CS-IG
 62
     2
100
AcDbPolyline
 90
       16
 70
   129
 43
0.0
 10
0.4586250000000263
 20
-1.437500000000007
 10
0.3686250000000264
 20
-1.437500000000007
 42
-0.4142135623731017
 10
0.3586250000000213
 20
-1.427500000000009
 10
0.3586250000000284
 20
-1.132500000000007
 42
-0.4142135623730873
 10
0.3686250000000264
 20
-1.122500000000005
 10
0.8173750000000232
 20
-1.122499999999995
 42
-0.4142135623731013
 10
0.8273750000000248
 20
-1.132499999999996
 10
0.8273750000000248
 20
-1.427499999999998
 42
-0.4142135623730894
 10
0.8173750000000232
 20
-1.4375
 10
0.7273750000000235
 20
-1.437500000000007
 10
0.7273750000000235
 20
-1.421500000000001
 10
0.811375000000023
 20
-1.421499999999998
 10
0.811375000000023
 20
-1.138499999999996
 10
0.3746250000000266
 20
-1.138500000000007
 10
0.3746250000000266
 20
-1.421500000000008
 10
0.4586250000000263
 20
-1.421500000000005
1001
AcDbBlockRepETag
1070
     1
1071
       12
1005
13A3
  0
POINT
  5
13A4
330
1394
100
AcDbEntity
  8
Pel_Points
100
AcDbPoint
 10
0.0
 20
0.0
 30
0.0
1001
AcDbBlockRepETag
1070
     1
1071
       13
1005
13A4
  0
LWPOLYLINE
  5
13A5
330
1394
100
AcDbEntity
  8
Pel_CS-Cross Section
 62
     4
100
AcDbPolyline
 90
      113
 70
     1
 43
0.0
 10
2.644999999999999
 20
-0.0150000000000006
 42
0.4142135623730888
 10
2.63
 20
-0.0000000000000036
 10
1.153
 20
-0.0000000000000036
 42
-0.414213562373088
 10
1.123000000000001
 20
0.0299999999999976
 10
1.123000000000001
 20
1.094999999999998
 42
1.0
 10
1.063000000000002
 20
1.094999999999998
 10
1.063
 20
0.0299999999999976
 42
-0.4142135623730888
 10
1.033000000000001
 20
0.0
 10
0.0750000000000011
 20
0.0
 42
-0.4142135623730982
 10
0.0600000000000005
 20
0.0150000000000006
 10
0.0600000000000005
 20
0.0309999999999988
 10
0.0
 20
0.0309999999999988
 42
0.1672852476328086
 10
0.0048280133316538
 20
0.0225133268825353
 42
-0.4495151536031774
 10
0.0050000000000008
 20
-0.022360679774998
 42
0.2134217652834015
 10
0.0
 20
-0.033541019662497
 10
0.0
 20
-0.8599999999999958
 42
0.4142135623730951
 10
0.0150000000000006
 20
-0.8749999999999964
 10
0.0700000000000003
 20
-0.8749999999999964
 42
0.9458235162656128
 10
0.0733333333333306
 20
-0.8151857602999967
 42
-0.3819660112500411
 10
0.0600000000000005
 20
-0.8002786404499993
 10
0.0600000000000005
 20
-0.6499999999999951
 42
-0.4142135623731042
 10
0.0850000000000027
 20
-0.6249999999999965
 10
0.2100000000000008
 20
-0.6249999999999965
 42
-0.414213562373099
 10
0.2350000000000012
 20
-0.6499999999999951
 10
0.2349999999999994
 20
-0.8599999999999958
 42
0.1989123673797168
 10
0.2393933982822034
 20
-0.870606601717796
 10
0.2993933982822021
 20
-0.8106066017178008
 42
-0.1989123673796697
 10
0.2949999999999999
 20
-0.8000000000000007
 10
0.2949999999999999
 20
-0.6499999999999951
 42
0.4142135623730943
 10
0.2100000000000008
 20
-0.5649999999999942
 10
0.0750000000000011
 20
-0.5649999999999942
 42
-0.4142135623730843
 10
0.0600000000000005
 20
-0.5499999999999972
 10
0.0600000000000005
 20
-0.0749999999999993
 42
-0.414213562373088
 10
0.0750000000000011
 20
-0.0599999999999987
 10
0.8599999999999994
 20
-0.0600000000000023
 42
-0.4142135623731094
 10
0.875
 20
-0.0750000000000029
 10
0.875
 20
-0.6750000000000007
 10
0.9149999999999991
 20
-0.6750000000000007
 10
0.9149999999999991
 20
-0.0749999999999993
 42
-0.4142135623731055
 10
0.9299999999999997
 20
-0.0600000000000023
 10
1.382000000000001
 20
-0.0600000000000023
 42
-0.4142135623730925
 10
1.397
 20
-0.0750000000000029
 10
1.397000000000002
 20
-0.8450000000000024
 10
1.447
 20
-0.8450000000000024
 10
1.446999999999999
 20
-0.0749999999999993
 42
-0.4142135623730882
 10
1.461999999999999
 20
-0.0600000000000023
 10
2.355
 20
-0.0600000000000023
 42
-0.4142135623731068
 10
2.37
 20
-0.0749999999999993
 10
2.37
 20
-0.2230000000000025
 42
0.4142135623730925
 10
2.445
 20
-0.2980000000000018
 10
2.635000000000001
 20
-0.2980000000000018
 42
-0.4142135623730887
 10
2.65
 20
-0.3130000000000024
 10
2.65
 20
-0.8450000000000024
 42
-0.4142135623730887
 10
2.635000000000001
 20
-0.8600000000000029
 10
1.461999999999999
 20
-0.8600000000000029
 42
-0.4142135623730887
 10
1.446999999999999
 20
-0.8450000000000024
 10
1.396999999999998
 20
-0.8450000000000024
 42
-0.4142135623730713
 10
1.382000000000001
 20
-0.8600000000000029
 10
1.368484692283495
 20
-0.8600000000000029
 42
0.3178372451957828
 10
1.29777401416484
 20
-0.9100000000000001
 42
-0.3178372451957985
 10
1.283631878541109
 20
-0.9200000000000017
 10
1.105
 20
-0.9200000000000017
 10
1.105
 20
-0.9600000000000008
 10
1.280000000000001
 20
-0.9600000000000008
 42
-0.414213562373106
 10
1.294999999999999
 20
-0.9750000000000014
 10
1.294999999999999
 20
-1.485000000000002
 42
-0.4142135623730734
 10
1.280000000000001
 20
-1.5
 10
1.105
 20
-1.5
 42
-0.4142135623731081
 10
1.089999999999999
 20
-1.485000000000002
 10
1.089999999999999
 20
-0.9750000000000014
 42
-0.4142135623731146
 10
1.105
 20
-0.9600000000000008
 10
1.105
 20
-0.9200000000000017
 42
-0.4142135623730951
 10
1.089999999999999
 20
-0.9050000000000011
 10
1.089999999999999
 20
-0.7650000000000042
 42
0.4142135623730956
 10
1.015
 20
-0.6900000000000013
 10
0.9299999999999997
 20
-0.6900000000000013
 42
-0.4142135623730887
 10
0.9149999999999991
 20
-0.6750000000000007
 10
0.875
 20
-0.6750000000000007
 42
-0.4142135623730887
 10
0.8599999999999994
 20
-0.6900000000000013
 10
0.6850000000000005
 20
-0.6900000000000013
 42
0.4142135623730965
 10
0.6100000000000012
 20
-0.7650000000000042
 10
0.6100000000000012
 20
-0.8000000000000007
 42
-0.414213562373106
 10
0.5950000000000007
 20
-0.8150000000000012
 10
0.3099999999999987
 20
-0.8150000000000012
 42
-0.1989123673796497
 10
0.2993933982822021
 20
-0.8106066017178008
 10
0.2393933982822034
 20
-0.870606601717796
 42
0.1989123673796016
 10
0.25
 20
-0.8749999999999964
 10
0.6550000000000012
 20
-0.8750000000000035
 42
0.4142135623731102
 10
0.6700000000000017
 20
-0.8600000000000029
 10
0.6700000000000017
 20
-0.7650000000000042
 42
-0.4142135623731234
 10
0.6850000000000023
 20
-0.75
 10
1.015
 20
-0.75
 42
-0.414213562373093
 10
1.030000000000001
 20
-0.7650000000000006
 10
1.030000000000001
 20
-1.545000000000001
 42
0.4142135623730907
 10
1.044999999999999
 20
-1.560000000000002
 10
1.324999999999999
 20
-1.560000000000002
 42
0.4142135623730973
 10
1.355
 20
-1.530000000000001
 10
1.355
 20
-0.9350000000000022
 42
-0.414213562373106
 10
1.37
 20
-0.9200000000000017
 10
2.695
 20
-0.9200000000000017
 42
0.414213562373093
 10
2.71
 20
-0.9050000000000011
 10
2.71
 20
-0.2530000000000037
 42
0.4142135623730887
 10
2.695
 20
-0.2380000000000031
 10
2.445
 20
-0.2380000000000031
 42
-0.414213562373106
 10
2.429999999999999
 20
-0.2230000000000025
 10
2.429999999999999
 20
-0.0749999999999993
 42
-0.414213562373089
 10
2.445
 20
-0.0600000000000023
 10
2.553
 20
-0.0600000000000023
 42
-0.414213562373089
 10
2.568000000000001
 20
-0.0749999999999993
 10
2.568000000000001
 20
-0.1050000000000004
 10
2.592999999999999
 20
-0.1050000000000004
 10
2.637499999999999
 20
-0.079307913021065
 42
0.2679491924311337
 10
2.644999999999999
 20
-0.0663175319642981
1001
AcDbBlockRepETag
1070
     1
1071
       15
1005
13A5
  0
ENDBLK
  5
13A6
330
1394
100
AcDbEntity
  8
0
100
AcDbBlockEnd
  0
BLOCK
  5
13AA
330
13A7
100
AcDbEntity
  8
0
100
AcDbBlockBegin
  2
TSE 10 SW VS
 70
     0
 10
0.0
 20
0.0
 30
0.0
  3
TSE 10 SW VS
  1

  0
LWPOLYLINE
  5
13AB
330
13A7
100
AcDbEntity
  8
Pel_CS-IG
  6
Continuous
100
AcDbPolyline
 90
        4
 70
     0
 43
0.0
 10
1.627999999999966
 20
4.0
 10
1.627999999999966
 20
1.874999999999964
 10
1.752999999999959
 20
1.874999999999964
 10
1.752999999999959
 20
4.0
  0
LWPOLYLINE
  5
13AC
330
13A7
100
AcDbEntity
  8
Pel_CS-IG
  6
Continuous
100
AcDbPolyline
 90
        4
 70
     0
 43
0.0
 10
2.252999999999966
 20
4.0
 10
2.252999999999966
 20
1.874999999999964
 10
2.377999999999966
 20
1.874999999999971
 10
2.377999999999955
 20
4.0
  0
CIRCLE
  5
13AD
102
{ACAD_REACTORS
330
13DE
102
}
330
13A7
100
AcDbEntity
  8
Pel_CS-Weatherstrip
100
AcDbCircle
 10
0.6669999999999803
 20
1.470000000000016
 30
0.0
 40
0.018
1001
AcDbBlockRepETag
1070
     1
1071
        0
1005
13AD
  0
CIRCLE
  5
13AE
330
13A7
100
AcDbEntity
  8
Pel_CS-Weatherstrip
100
AcDbCircle
 10
0.6669999999999803
 20
1.595000000000016
 30
0.0
 40
0.018
1001
AcDbBlockRepETag
1070
     1
1071
        1
1005
13AE
  0
CIRCLE
  5
13AF
330
13A7
100
AcDbEntity
  8
Pel_CS-Weatherstrip
100
AcDbCircle
 10
0.6669999999999803
 20
1.720000000000016
 30
0.0
 40
0.018
1001
AcDbBlockRepETag
1070
     1
1071
        2
1005
13AF
  0
POLYLINE
  5
13B0
330
13A7
100
AcDbEntity
  8
Pel_Clad
100
AcDb2dPolyline
 66
     1
 10
0.0
 20
0.0
 30
0.0
 70
     1
1001
AcDbBlockRepETag
1070
     1
1071
        3
1005
13B0
  0
VERTEX
  5
13B1
330
13B0
100
AcDbEntity
  8
Pel_Clad
100
AcDbVertex
100
AcDb2dVertex
 10
0.7049999999999735
 20
0.7500000000000036
 30
0.0
  0
VERTEX
  5
13B2
330
13B0
100
AcDbEntity
  8
Pel_Clad
100
AcDbVertex
100
AcDb2dVertex
 10
0.9649999999999856
 20
0.7500000000000036
 30
0.0
 42
0.4142135623732505
  0
VERTEX
  5
13B3
330
13B0
100
AcDbEntity
  8
Pel_Clad
100
AcDbVertex
100
AcDb2dVertex
 10
0.9849999999999852
 20
0.7700000000000138
 30
0.0
  0
VERTEX
  5
13B4
330
13B0
100
AcDbEntity
  8
Pel_Clad
100
AcDbVertex
100
AcDb2dVertex
 10
0.9849999999999852
 20
1.370000000000015
 30
0.0
 42
0.4142135623731472
  0
VERTEX
  5
13B5
330
13B0
100
AcDbEntity
  8
Pel_Clad
100
AcDbVertex
100
AcDb2dVertex
 10
0.9649999999999856
 20
1.390000000000018
 30
0.0
  0
VERTEX
  5
13B6
330
13B0
100
AcDbEntity
  8
Pel_Clad
100
AcDbVertex
100
AcDb2dVertex
 10
0.9249999999999829
 20
1.390000000000018
 30
0.0
  0
VERTEX
  5
13B7
330
13B0
100
AcDbEntity
  8
Pel_Clad
100
AcDbVertex
100
AcDb2dVertex
 10
0.9249999999999829
 20
1.480000000000014
 30
0.0
 42
0.4142135623731472
  0
VERTEX
  5
13B8
330
13B0
100
AcDbEntity
  8
Pel_Clad
100
AcDbVertex
100
AcDb2dVertex
 10
0.9049999999999833
 20
1.500000000000017
 30
0.0
  0
VERTEX
  5
13B9
330
13B0
100
AcDbEntity
  8
Pel_Clad
100
AcDbVertex
100
AcDb2dVertex
 10
0.7049999999999806
 20
1.500000000000017
 30
0.0
 42
0.4142135623730951
  0
VERTEX
  5
13BA
330
13B0
100
AcDbEntity
  8
Pel_Clad
100
AcDbVertex
100
AcDb2dVertex
 10
0.684999999999981
 20
1.480000000000014
 30
0.0
  0
VERTEX
  5
13BB
330
13B0
100
AcDbEntity
  8
Pel_Clad
100
AcDbVertex
100
AcDb2dVertex
 10
0.684999999999981
 20
1.460000000000018
 30
0.0
 42
0.4142135623731472
  0
VERTEX
  5
13BC
330
13B0
100
AcDbEntity
  8
Pel_Clad
100
AcDbVertex
100
AcDb2dVertex
 10
0.7049999999999806
 20
1.440000000000015
 30
0.0
  0
VERTEX
  5
13BD
330
13B0
100
AcDbEntity
  8
Pel_Clad
100
AcDbVertex
100
AcDb2dVertex
 10
0.7523836048657451
 20
1.440000000000015
 30
0.0
 42
0.0578233517657538
  0
VERTEX
  5
13BE
330
13B0
100
AcDbEntity
  8
Pel_Clad
100
AcDbVertex
100
AcDb2dVertex
 10
0.754673467455433
 20
1.440265703450169
 30
0.0
  0
VERTEX
  5
13BF
330
13B0
100
AcDbEntity
  8
Pel_Clad
100
AcDbVertex
100
AcDb2dVertex
 10
0.754673467455433
 20
1.460000000000018
 30
0.0
  0
VERTEX
  5
13C0
330
13B0
100
AcDbEntity
  8
Pel_Clad
100
AcDbVertex
100
AcDb2dVertex
 10
0.7049999999999806
 20
1.460000000000018
 30
0.0
  0
VERTEX
  5
13C1
330
13B0
100
AcDbEntity
  8
Pel_Clad
100
AcDbVertex
100
AcDb2dVertex
 10
0.7049999999999806
 20
1.480000000000007
 30
0.0
  0
VERTEX
  5
13C2
330
13B0
100
AcDbEntity
  8
Pel_Clad
100
AcDbVertex
100
AcDb2dVertex
 10
0.9049999999999833
 20
1.480000000000021
 30
0.0
  0
VERTEX
  5
13C3
330
13B0
100
AcDbEntity
  8
Pel_Clad
100
AcDbVertex
100
AcDb2dVertex
 10
0.9049999999999798
 20
1.370000000000015
 30
0.0
  0
VERTEX
  5
13C4
330
13B0
100
AcDbEntity
  8
Pel_Clad
100
AcDbVertex
100
AcDb2dVertex
 10
0.9649999999999785
 20
1.370000000000015
 30
0.0
  0
VERTEX
  5
13C5
330
13B0
100
AcDbEntity
  8
Pel_Clad
100
AcDbVertex
100
AcDb2dVertex
 10
0.9649999999999856
 20
0.7700000000000138
 30
0.0
  0
VERTEX
  5
13C6
330
13B0
100
AcDbEntity
  8
Pel_Clad
100
AcDbVertex
100
AcDb2dVertex
 10
0.7049999999999841
 20
0.7700000000000138
 30
0.0
  0
VERTEX
  5
13C7
330
13B0
100
AcDbEntity
  8
Pel_Clad
100
AcDbVertex
100
AcDb2dVertex
 10
0.7049999999999806
 20
1.283750000000008
 30
0.0
  0
VERTEX
  5
13C8
330
13B0
100
AcDbEntity
  8
Pel_Clad
100
AcDbVertex
100
AcDb2dVertex
 10
0.8849999999999837
 20
1.283750000000015
 30
0.0
 42
0.4142135623731472
  0
VERTEX
  5
13C9
330
13B0
100
AcDbEntity
  8
Pel_Clad
100
AcDbVertex
100
AcDb2dVertex
 10
0.9049999999999833
 20
1.303750000000018
 30
0.0
  0
VERTEX
  5
13CA
330
13B0
100
AcDbEntity
  8
Pel_Clad
100
AcDbVertex
100
AcDb2dVertex
 10
0.9049999999999833
 20
1.480000000000021
 30
0.0
  0
VERTEX
  5
13CB
330
13B0
100
AcDbEntity
  8
Pel_Clad
100
AcDbVertex
100
AcDb2dVertex
 10
0.7049999999999806
 20
1.480000000000007
 30
0.0
  0
VERTEX
  5
13CC
330
13B0
100
AcDbEntity
  8
Pel_Clad
100
AcDbVertex
100
AcDb2dVertex
 10
0.7049999999999806
 20
1.460000000000018
 30
0.0
  0
VERTEX
  5
13CD
330
13B0
100
AcDbEntity
  8
Pel_Clad
100
AcDbVertex
100
AcDb2dVertex
 10
0.8849999999999873
 20
1.460000000000018
 30
0.0
  0
VERTEX
  5
13CE
330
13B0
100
AcDbEntity
  8
Pel_Clad
100
AcDbVertex
100
AcDb2dVertex
 10
0.8849999999999802
 20
1.303750000000018
 30
0.0
  0
VERTEX
  5
13CF
330
13B0
100
AcDbEntity
  8
Pel_Clad
100
AcDbVertex
100
AcDb2dVertex
 10
0.7049999999999806
 20
1.303750000000018
 30
0.0
 42
0.4142135623730951
  0
VERTEX
  5
13D0
330
13B0
100
AcDbEntity
  8
Pel_Clad
100
AcDbVertex
100
AcDb2dVertex
 10
0.684999999999981
 20
1.283750000000015
 30
0.0
  0
VERTEX
  5
13D1
330
13B0
100
AcDbEntity
  8
Pel_Clad
100
AcDbVertex
100
AcDb2dVertex
 10
0.684999999999981
 20
0.7700000000000138
 30
0.0
 42
0.4142135623731472
  0
SEQEND
  5
13D2
330
13B0
100
AcDbEntity
  8
Pel_Clad
  0
CIRCLE
  5
13D3
330
13A7
100
AcDbEntity
  8
Pel_CS-Weatherstrip
100
AcDbCircle
 10
0.6669999999999803
 20
2.970000000000016
 30
0.0
 40
0.018
1001
AcDbBlockRepETag
1070
     1
1071
        4
1005
13D3
  0
CIRCLE
  5
13D4
330
13A7
100
AcDbEntity
  8
Pel_CS-Weatherstrip
100
AcDbCircle
 10
0.6669999999999803
 20
2.845000000000016
 30
0.0
 40
0.018
1001
AcDbBlockRepETag
1070
     1
1071
        5
1005
13D4
  0
CIRCLE
  5
13D5
330
13A7
100
AcDbEntity
  8
Pel_CS-Weatherstrip
100
AcDbCircle
 10
0.6669999999999803
 20
2.220000000000016
 30
0.0
 40
0.018
1001
AcDbBlockRepETag
1070
     1
1071
        6
1005
13D5
  0
CIRCLE
  5
13D6
330
13A7
100
AcDbEntity
  8
Pel_CS-Weatherstrip
100
AcDbCircle
 10
0.6669999999999803
 20
2.345000000000016
 30
0.0
 40
0.018
1001
AcDbBlockRepETag
1070
     1
1071
        7
1005
13D6
  0
CIRCLE
  5
13D7
330
13A7
100
AcDbEntity
  8
Pel_CS-Weatherstrip
100
AcDbCircle
 10
0.6669999999999803
 20
2.470000000000016
 30
0.0
 40
0.018
1001
AcDbBlockRepETag
1070
     1
1071
        8
1005
13D7
  0
CIRCLE
  5
13D8
330
13A7
100
AcDbEntity
  8
Pel_CS-Weatherstrip
100
AcDbCircle
 10
0.6669999999999803
 20
2.595000000000016
 30
0.0
 40
0.018
1001
AcDbBlockRepETag
1070
     1
1071
        9
1005
13D8
  0
CIRCLE
  5
13D9
330
13A7
100
AcDbEntity
  8
Pel_CS-Weatherstrip
100
AcDbCircle
 10
0.6669999999999803
 20
2.720000000000016
 30
0.0
 40
0.018
1001
AcDbBlockRepETag
1070
     1
1071
       10
1005
13D9
  0
CIRCLE
  5
13DA
330
13A7
100
AcDbEntity
  8
Pel_CS-Weatherstrip
100
AcDbCircle
 10
0.6669999999999803
 20
2.095000000000016
 30
0.0
 40
0.018
1001
AcDbBlockRepETag
1070
     1
1071
       11
1005
13DA
  0
CIRCLE
  5
13DB
330
13A7
100
AcDbEntity
  8
Pel_CS-Weatherstrip
100
AcDbCircle
 10
0.6669999999999803
 20
1.845000000000016
 30
0.0
 40
0.018
1001
AcDbBlockRepETag
1070
     1
1071
       12
1005
13DB
  0
CIRCLE
  5
13DC
330
13A7
100
AcDbEntity
  8
Pel_CS-Weatherstrip
100
AcDbCircle
 10
0.6669999999999803
 20
1.970000000000016
 30
0.0
 40
0.018
1001
AcDbBlockRepETag
1070
     1
1071
       13
1005
13DC
  0
POINT
  5
13DD
330
13A7
100
AcDbEntity
  8
Pel_Points
100
AcDbPoint
 10
0.0
 20
0.0
 30
0.0
1001
AcDbBlockRepETag
1070
     1
1071
       14
1005
13DD
  0
HATCH
  5
13DE
330
13A7
100
AcDbEntity
  8
Pel_CS-Weatherstrip
100
AcDbHatch
 10
0.0
 20
0.0
 30
0.0
210
0.0
220
0.0
230
1.0
  2
SOLID
 70
     1
 71
     1
 91
        1
 92
        1
 93
        1
 72
     2
 10
0.6669999999999803
 20
1.470000000000016
 40
0.018
 50
0.0
 51
360.0
 73
     1
 97
        1
330
13AD
 75
     0
 76
     1
 98
        1
 10
-0.0150000000000166
 20
0.0
1001
AcDbBlockRepETag
1070
     1
1071
       15
1005
13DE
  0
HATCH
  5
13DF
330
13A7
100
AcDbEntity
  8
Pel_CS-Weatherstrip
100
AcDbHatch
 10
0.0
 20
0.0
 30
0.0
210
0.0
220
0.0
230
1.0
  2
SOLID
 70
     1
 71
     0
 91
        1
 92
        1
 93
        1
 72
     2
 10
0.6669999999999803
 20
1.595000000000016
 40
0.018
 50
0.0
 51
360.0
 73
     1
 97
        0
 75
     0
 76
     1
 98
        1
 10
-0.0150000000000166
 20
0.125
1001
AcDbBlockRepETag
1070
     1
1071
       16
1005
13DF
  0
HATCH
  5
13E0
330
13A7
100
AcDbEntity
  8
Pel_CS-Weatherstrip
100
AcDbHatch
 10
0.0
 20
0.0
 30
0.0
210
0.0
220
0.0
230
1.0
  2
SOLID
 70
     1
 71
     0
 91
        1
 92
        1
 93
        1
 72
     2
 10
0.6669999999999803
 20
1.720000000000016
 40
0.018
 50
0.0
 51
360.0
 73
     1
 97
        0
 75
     0
 76
     1
 98
        1
 10
-0.0150000000000166
 20
0.25
1001
AcDbBlockRepETag
1070
     1
1071
       17
1005
13E0
  0
HATCH
  5
13E1
330
13A7
100
AcDbEntity
  8
Pel_CS-Weatherstrip
100
AcDbHatch
 10
0.0
 20
0.0
 30
0.0
210
0.0
220
0.0
230
1.0
  2
SOLID
 70
     1
 71
     0
 91
        1
 92
        1
 93
        1
 72
     2
 10
0.6669999999999803
 20
1.845000000000016
 40
0.018
 50
0.0
 51
360.0
 73
     1
 97
        0
 75
     0
 76
     1
 98
        1
 10
-0.0150000000000166
 20
0.375
1001
AcDbBlockRepETag
1070
     1
1071
       18
1005
13E1
  0
HATCH
  5
13E2
330
13A7
100
AcDbEntity
  8
Pel_CS-Weatherstrip
100
AcDbHatch
 10
0.0
 20
0.0
 30
0.0
210
0.0
220
0.0
230
1.0
  2
SOLID
 70
     1
 71
     0
 91
        1
 92
        1
 93
        1
 72
     2
 10
0.6669999999999803
 20
1.970000000000016
 40
0.018
 50
0.0
 51
360.0
 73
     1
 97
        0
 75
     0
 76
     1
 98
        1
 10
-0.0150000000000166
 20
0.5
1001
AcDbBlockRepETag
1070
     1
1071
       19
1005
13E2
  0
HATCH
  5
13E3
330
13A7
100
AcDbEntity
  8
Pel_CS-Weatherstrip
100
AcDbHatch
 10
0.0
 20
0.0
 30
0.0
210
0.0
220
0.0
230
1.0
  2
SOLID
 70
     1
 71
     0
 91
        1
 92
        1
 93
        1
 72
     2
 10
0.6669999999999803
 20
2.095000000000016
 40
0.018
 50
0.0
 51
360.0
 73
     1
 97
        0
 75
     0
 76
     1
 98
        1
 10
-0.0150000000000166
 20
0.625
1001
AcDbBlockRepETag
1070
     1
1071
       20
1005
13E3
  0
HATCH
  5
13E4
330
13A7
100
AcDbEntity
  8
Pel_CS-Weatherstrip
100
AcDbHatch
 10
0.0
 20
0.0
 30
0.0
210
0.0
220
0.0
230
1.0
  2
SOLID
 70
     1
 71
     0
 91
        1
 92
        1
 93
        1
 72
     2
 10
0.6669999999999803
 20
2.220000000000016
 40
0.018
 50
0.0
 51
360.0
 73
     1
 97
        0
 75
     0
 76
     1
 98
        1
 10
-0.0150000000000166
 20
0.75
1001
AcDbBlockRepETag
1070
     1
1071
       21
1005
13E4
  0
HATCH
  5
13E5
330
13A7
100
AcDbEntity
  8
Pel_CS-Weatherstrip
100
AcDbHatch
 10
0.0
 20
0.0
 30
0.0
210
0.0
220
0.0
230
1.0
  2
SOLID
 70
     1
 71
     0
 91
        1
 92
        1
 93
        1
 72
     2
 10
0.6669999999999803
 20
2.345000000000016
 40
0.018
 50
0.0
 51
360.0
 73
     1
 97
        0
 75
     0
 76
     1
 98
        1
 10
-0.0150000000000166
 20
0.875
1001
AcDbBlockRepETag
1070
     1
1071
       22
1005
13E5
  0
HATCH
  5
13E6
330
13A7
100
AcDbEntity
  8
Pel_CS-Weatherstrip
100
AcDbHatch
 10
0.0
 20
0.0
 30
0.0
210
0.0
220
0.0
230
1.0
  2
SOLID
 70
     1
 71
     0
 91
        1
 92
        1
 93
        1
 72
     2
 10
0.6669999999999803
 20
2.470000000000016
 40
0.018
 50
0.0
 51
360.0
 73
     1
 97
        0
 75
     0
 76
     1
 98
        1
 10
-0.0150000000000166
 20
1.0
1001
AcDbBlockRepETag
1070
     1
1071
       23
1005
13E6
  0
HATCH
  5
13E7
330
13A7
100
AcDbEntity
  8
Pel_CS-Weatherstrip
100
AcDbHatch
 10
0.0
 20
0.0
 30
0.0
210
0.0
220
0.0
230
1.0
  2
SOLID
 70
     1
 71
     0
 91
        1
 92
        1
 93
        1
 72
     2
 10
0.6669999999999803
 20
2.595000000000016
 40
0.018
 50
0.0
 51
360.0
 73
     1
 97
        0
 75
     0
 76
     1
 98
        1
 10
-0.0150000000000166
 20
1.125
1001
AcDbBlockRepETag
1070
     1
1071
       24
1005
13E7
  0
HATCH
  5
13E8
330
13A7
100
AcDbEntity
  8
Pel_CS-Weatherstrip
100
AcDbHatch
 10
0.0
 20
0.0
 30
0.0
210
0.0
220
0.0
230
1.0
  2
SOLID
 70
     1
 71
     0
 91
        1
 92
        1
 93
        1
 72
     2
 10
0.6669999999999803
 20
2.720000000000016
 40
0.018
 50
0.0
 51
360.0
 73
     1
 97
        0
 75
     0
 76
     1
 98
        1
 10
-0.0150000000000166
 20
1.25
1001
AcDbBlockRepETag
1070
     1
1071
       25
1005
13E8
  0
HATCH
  5
13E9
330
13A7
100
AcDbEntity
  8
Pel_CS-Weatherstrip
100
AcDbHatch
 10
0.0
 20
0.0
 30
0.0
210
0.0
220
0.0
230
1.0
  2
SOLID
 70
     1
 71
     0
 91
        1
 92
        1
 93
        1
 72
     2
 10
0.6669999999999803
 20
2.845000000000016
 40
0.018
 50
0.0
 51
360.0
 73
     1
 97
        0
 75
     0
 76
     1
 98
        1
 10
-0.0150000000000166
 20
1.375
1001
AcDbBlockRepETag
1070
     1
1071
       26
1005
13E9
  0
HATCH
  5
13EA
330
13A7
100
AcDbEntity
  8
Pel_CS-Weatherstrip
100
AcDbHatch
 10
0.0
 20
0.0
 30
0.0
210
0.0
220
0.0
230
1.0
  2
SOLID
 70
     1
 71
     0
 91
        1
 92
        1
 93
        1
 72
     2
 10
0.6669999999999803
 20
2.970000000000016
 40
0.018
 50
0.0
 51
360.0
 73
     1
 97
        0
 75
     0
 76
     1
 98
        1
 10
-0.0150000000000166
 20
1.5
1001
AcDbBlockRepETag
1070
     1
1071
       27
1005
13EA
  0
LWPOLYLINE
  5
13EB
330
13A7
100
AcDbEntity
  8
Pel_CS-Cross Section
 62
     4
100
AcDbPolyline
 90
       13
 70
     1
 43
0.0
 10
1.546602312471204
 20
1.645390730637302
 10
1.653244467664361
 20
1.531024728642265
 42
-0.9999999999999996
 10
1.634960157278047
 20
1.513975271357736
 10
1.501602312471206
 20
1.656991919114041
 10
1.521602312471205
 20
1.674999999999997
 10
1.521602312471205
 20
1.75
 10
1.44368628726287
 20
1.75
 42
-0.4387364446152711
 10
1.431727592331174
 20
1.762994794215188
 42
-0.1028671740245727
 10
1.605204037456648
 20
2.348579765626951
 42
-1.000000000000018
 10
1.627226711145592
 20
2.3367475281551
 42
0.1004471373057855
 10
1.457880539411174
 20
1.774999999999998
 10
1.521602312471205
 20
1.774999999999998
 42
-0.4142135623730847
 10
1.546602312471204
 20
1.75
1001
AcDbBlockRepETag
1070
     1
1071
       30
1005
13EB
  0
LWPOLYLINE
  5
13EC
330
13A7
100
AcDbEntity
  8
Pel_CS-Weatherstrip
  6
Continuous
100
AcDbPolyline
 90
        4
 70
     1
 43
0.0
 10
2.439999999999963
 20
2.0
 10
2.377999999999966
 20
2.0
 10
2.377999999999966
 20
2.375
 10
2.439999999999963
 20
2.375
1001
AcDbBlockRepETag
1070
     1
1071
       33
1005
13EC
  0
LWPOLYLINE
  5
13ED
330
13A7
100
AcDbEntity
  8
Pel_CS-Sealant
100
AcDbPolyline
 90
        8
 70
     1
 43
0.0
 10
1.612058540207673
 20
1.783980333998805
 42
-0.6836320748339042
 10
1.642499999999975
 20
1.862121207941918
 10
2.424999999999975
 20
1.862121207941918
 42
-0.4142135623730951
 10
2.439999999999976
 20
1.847121207941917
 10
2.439999999999976
 20
1.772121207941921
 42
-0.4142135623730935
 10
2.424999999999975
 20
1.757121207941921
 10
1.647142987833174
 20
1.757121207941921
 42
-0.1879079936139291
 10
1.636995834569074
 20
1.761074249960877
1001
AcDbBlockRepETag
1070
     1
1071
       34
1005
13ED
  0
ARC
  5
13EE
330
13A7
100
AcDbEntity
  8
Pel_CS-Sealant
100
AcDbCircle
 10
2.002999999999948
 20
1.193268595863909
 30
0.0
 40
0.7261251320435847
100
AcDbArc
 50
69.86133935768444
 51
110.1386606423132
1001
AcDbBlockRepETag
1070
     1
1071
       35
1005
13EE
  0
LINE
  5
13EF
330
13A7
100
AcDbEntity
  8
Pel_CS-Sealant
100
AcDbLine
 10
1.785749999999959
 20
1.997499999999973
 30
0.0
 11
1.752999999999959
 21
1.997499999999973
 31
0.0
1001
AcDbBlockRepETag
1070
     1
1071
       36
1005
13EF
  0
LINE
  5
13F0
330
13A7
100
AcDbEntity
  8
Pel_CS-Sealant
100
AcDbLine
 10
1.785749999999959
 20
2.312499999999978
 30
0.0
 11
1.752999999999959
 21
2.312499999999978
 31
0.0
1001
AcDbBlockRepETag
1070
     1
1071
       37
1005
13F0
  0
LINE
  5
13F1
330
13A7
100
AcDbEntity
  8
Pel_CS-Sealant
  6
Continuous
100
AcDbLine
 10
2.220249999999966
 20
1.997499999999973
 30
0.0
 11
2.252999999999966
 21
1.997499999999973
 31
0.0
1001
AcDbBlockRepETag
1070
     1
1071
       38
1005
13F1
  0
LINE
  5
13F2
330
13A7
100
AcDbEntity
  8
Pel_CS-Sealant
  6
Continuous
100
AcDbLine
 10
2.220249999999966
 20
2.312499999999978
 30
0.0
 11
2.252999999999966
 21
2.312499999999978
 31
0.0
1001
AcDbBlockRepETag
1070
     1
1071
       39
1005
13F2
  0
LWPOLYLINE
  5
13F3
330
13A7
100
AcDbEntity
  8
Pel_CS-IG
100
AcDbPolyline
 90
       16
 70
   129
 43
0.0
 10
1.868624999999964
 20
2.312499999999978
 10
1.778624999999964
 20
2.312499999999978
 42
0.4142135623731017
 10
1.768624999999959
 20
2.30249999999998
 10
1.768624999999966
 20
2.007499999999978
 42
0.4142135623730873
 10
1.778624999999964
 20
1.997499999999977
 10
2.227374999999961
 20
1.997499999999966
 42
0.4142135623731013
 10
2.237374999999962
 20
2.007499999999968
 10
2.237374999999962
 20
2.30249999999997
 42
0.4142135623730894
 10
2.227374999999961
 20
2.312499999999971
 10
2.137374999999961
 20
2.312499999999978
 10
2.137374999999961
 20
2.296499999999973
 10
2.221374999999961
 20
2.296499999999969
 10
2.221374999999961
 20
2.013499999999968
 10
1.784624999999964
 20
2.013499999999979
 10
1.784624999999964
 20
2.29649999999998
 10
1.868624999999964
 20
2.296499999999976
1001
AcDbBlockRepETag
1070
     1
1071
       40
1005
13F3
  0
LWPOLYLINE
  5
13F4
330
13A7
100
AcDbEntity
  8
Pel_CS-Sealant
100
AcDbPolyline
 90
        4
 70
     1
 43
0.0
 10
1.784624999999964
 20
2.063191049788812
 10
2.221374999999961
 20
2.063191049788812
 10
2.221374999999961
 20
2.013499999999968
 10
1.784624999999964
 20
2.013499999999979
1001
AcDbBlockRepETag
1070
     1
1071
       41
1005
13F4
  0
HATCH
  5
13F5
330
13A7
100
AcDbEntity
  8
Pel_CS-Sealant
100
AcDbHatch
 10
0.0
 20
0.0
 30
0.0
210
0.0
220
0.0
230
1.0
  2
DASH
 70
     0
 71
     0
 91
        2
 92
        1
 93
        4
 72
     1
 10
1.784624999999964
 20
2.063191049788812
 11
2.221374999999961
 21
2.063191049788812
 72
     1
 10
2.221374999999961
 20
2.063191049788812
 11
2.221374999999961
 21
2.013499999999968
 72
     1
 10
2.221374999999961
 20
2.013499999999968
 11
1.784624999999964
 21
2.013499999999979
 72
     1
 10
1.784624999999964
 20
2.013499999999979
 11
1.784624999999964
 21
2.063191049788812
 97
        0
 92
       49
 93
        1
 72
     1
 10
1.784624999999964
 20
2.063191049788812
 11
2.221374999999961
 21
2.063191049788812
 97
        0
 75
     0
 76
     1
 52
30.0
 41
0.15
 77
     0
 78
     1
 53
30.00000000000003
 43
-3.841156177407622
 44
-0.2233267997246315
 45
0.0068629763209582
 46
0.0256129763209582
 79
     2
 49
0.01875
 49
-0.01875
 98
        1
 10
-3.841156177407622
 20
-0.2233267997246315
1001
AcDbBlockRepETag
1070
     1
1071
       42
1005
13F5
  0
POLYLINE
  5
13F6
330
13A7
100
AcDbEntity
  8
Pel_CS-Weatherstrip
100
AcDb2dPolyline
 66
     1
 10
0.0
 20
0.0
 30
0.0
1001
AcDbBlockRepETag
1070
     1
1071
       43
1005
13F6
  0
VERTEX
  5
13F7
330
13F6
100
AcDbEntity
  8
Pel_CS-Weatherstrip
100
AcDbVertex
100
AcDb2dVertex
 10
1.482770088938103
 20
1.378287128208636
 30
0.0
  0
VERTEX
  5
13F8
330
13F6
100
AcDbEntity
  8
Pel_CS-Weatherstrip
100
AcDbVertex
100
AcDb2dVertex
 10
1.482770088938103
 20
1.332042538570259
 30
0.0
  0
VERTEX
  5
13F9
330
13F6
100
AcDbEntity
  8
Pel_CS-Weatherstrip
100
AcDbVertex
100
AcDb2dVertex
 10
1.354999999999998
 20
1.377288300077136
 30
0.0
  0
VERTEX
  5
13FA
330
13F6
100
AcDbEntity
  8
Pel_CS-Weatherstrip
100
AcDbVertex
100
AcDb2dVertex
 10
1.354999999999998
 20
1.348863789895929
 30
0.0
  0
VERTEX
  5
13FB
330
13F6
100
AcDbEntity
  8
Pel_CS-Weatherstrip
100
AcDbVertex
100
AcDb2dVertex
 10
1.482770088938103
 20
1.332042538570259
 30
0.0
  0
VERTEX
  5
13FC
330
13F6
100
AcDbEntity
  8
Pel_CS-Weatherstrip
100
AcDbVertex
100
AcDb2dVertex
 10
1.354999999999998
 20
1.321986814489694
 30
0.0
  0
VERTEX
  5
13FD
330
13F6
100
AcDbEntity
  8
Pel_CS-Weatherstrip
100
AcDbVertex
100
AcDb2dVertex
 10
1.354999999999996
 20
1.290813556318529
 30
0.0
  0
VERTEX
  5
13FE
330
13F6
100
AcDbEntity
  8
Pel_CS-Weatherstrip
100
AcDbVertex
100
AcDb2dVertex
 10
1.482770088938103
 20
1.332042538570259
 30
0.0
  0
VERTEX
  5
13FF
330
13F6
100
AcDbEntity
  8
Pel_CS-Weatherstrip
100
AcDbVertex
100
AcDb2dVertex
 10
1.482770088938103
 20
1.249584574066798
 30
0.0
  0
VERTEX
  5
1400
330
13F6
100
AcDbEntity
  8
Pel_CS-Weatherstrip
100
AcDbVertex
100
AcDb2dVertex
 10
1.354999999999996
 20
1.290813556318529
 30
0.0
  0
VERTEX
  5
1401
330
13F6
100
AcDbEntity
  8
Pel_CS-Weatherstrip
100
AcDbVertex
100
AcDb2dVertex
 10
1.354999999999996
 20
1.25964029814736
 30
0.0
  0
VERTEX
  5
1402
330
13F6
100
AcDbEntity
  8
Pel_CS-Weatherstrip
100
AcDbVertex
100
AcDb2dVertex
 10
1.482770088938103
 20
1.249584574066798
 30
0.0
  0
VERTEX
  5
1403
330
13F6
100
AcDbEntity
  8
Pel_CS-Weatherstrip
100
AcDbVertex
100
AcDb2dVertex
 10
1.354999999999996
 20
1.232763322741131
 30
0.0
  0
VERTEX
  5
1404
330
13F6
100
AcDbEntity
  8
Pel_CS-Weatherstrip
100
AcDbVertex
100
AcDb2dVertex
 10
1.354999999999996
 20
1.204338812559907
 30
0.0
  0
VERTEX
  5
1405
330
13F6
100
AcDbEntity
  8
Pel_CS-Weatherstrip
100
AcDbVertex
100
AcDb2dVertex
 10
1.482770088938103
 20
1.249584574066798
 30
0.0
  0
VERTEX
  5
1406
330
13F6
100
AcDbEntity
  8
Pel_CS-Weatherstrip
100
AcDbVertex
100
AcDb2dVertex
 10
1.482770088938103
 20
1.191509404522467
 30
0.0
  0
VERTEX
  5
1407
330
13F6
100
AcDbEntity
  8
Pel_CS-Weatherstrip
100
AcDbVertex
100
AcDb2dVertex
 10
1.517770074938098
 20
1.191509404522467
 30
0.0
  0
VERTEX
  5
1408
330
13F6
100
AcDbEntity
  8
Pel_CS-Weatherstrip
100
AcDbVertex
100
AcDb2dVertex
 10
1.517770074938098
 20
1.378287128208636
 30
0.0
  0
VERTEX
  5
1409
330
13F6
100
AcDbEntity
  8
0
100
AcDbVertex
100
AcDb2dVertex
 10
1.482770088938103
 20
1.378287128208636
 30
0.0
  0
SEQEND
  5
140A
330
13F6
100
AcDbEntity
  8
Pel_CS-Weatherstrip
  0
LWPOLYLINE
  5
140B
330
13A7
100
AcDbEntity
  8
Pel_CS-Cross Section
 62
     4
100
AcDbPolyline
 90
       94
 70
     1
 43
0.0
 10
1.484999999999955
 20
1.676125178062982
 42
-0.3500011104185663
 10
1.496666666666625
 20
1.690750118708635
 42
0.8937924126323794
 10
1.489999999999957
 20
1.749999999999992
 10
1.439999999999953
 20
1.749999999999992
 42
0.4142135623730951
 10
1.424999999999952
 20
1.734999999999992
 10
1.424999999999952
 20
1.352499999999992
 10
1.469999999999956
 20
1.352499999999992
 10
1.469999999999954
 20
1.394999999999988
 10
1.519999999999949
 20
1.394999999999996
 10
1.519999999999951
 20
1.184999999999995
 10
1.469999999999956
 20
1.184999999999995
 10
1.469999999999956
 20
1.227499999999992
 10
1.424999999999952
 20
1.227499999999992
 10
1.424999999999952
 20
1.184999999999995
 42
0.4142135623730819
 10
1.484999999999955
 20
1.124999999999992
 10
1.87249999999995
 20
1.124999999999992
 42
0.4142135623730951
 10
1.887499999999951
 20
1.139999999999993
 10
1.887499999999951
 20
1.169999999999994
 42
0.4142135623730951
 10
1.87249999999995
 20
1.184999999999995
 10
1.812499999999955
 20
1.184999999999995
 42
-0.4142135623730951
 10
1.797499999999955
 20
1.199999999999995
 10
1.797499999999955
 20
1.369999999999997
 42
-0.4142135623730951
 10
1.812499999999955
 20
1.384999999999998
 10
2.112499999999952
 20
1.38499999999999
 42
-0.1784395900594729
 10
2.122235628575699
 20
1.381411289858508
 10
2.164688559390478
 20
1.423864220673287
 42
0.194809557829822
 10
2.11249999999995
 20
1.444999999999993
 10
1.812499999999955
 20
1.444999999999993
 42
0.118159066029304
 10
1.778503112194576
 20
1.436852162414979
 42
-0.301511344577986
 10
1.7620299626209
 20
1.438758819994017
 10
1.757948497534526
 20
1.442202987648546
 10
1.729562989870416
 20
1.413817479984434
 10
1.736233237253975
 20
1.408188753583502
 42
-0.3015113445779063
 10
1.740882887701131
 20
1.392270815566298
 42
0.0755157870278402
 10
1.737499999999956
 20
1.370000000000231
 10
1.737499999999959
 20
1.199999999999995
 42
-0.4142135623730951
 10
1.722499999999959
 20
1.184999999999995
 10
1.594999999999954
 20
1.184999999999995
 42
-0.4142135623730951
 10
1.579999999999953
 20
1.199999999999995
 10
1.579999999999953
 20
1.403453928104873
 42
-0.3105082534628505
 10
1.589624480756775
 20
1.417457634502333
 10
1.660461275711325
 20
1.444649332442565
 42
0.0364636279492234
 10
1.671666249138146
 20
1.44991639797471
 42
-0.3129626543687265
 10
1.688692888645714
 20
1.44830594863394
 10
1.729562989870418
 20
1.413817479984434
 10
1.757948497534529
 20
1.442202987648546
 10
1.714489614012618
 20
1.478876015044477
 42
-0.3129626543682286
 10
1.710038878121464
 20
1.495389371760367
 42
0.0860476970752851
 10
1.714999999999973
 20
1.52400366869482
 10
1.714999999999973
 20
1.674999999999997
 42
-0.4142135623730951
 10
1.729999999999972
 20
1.689999999999997
 10
2.424999999999952
 20
1.689999999999997
 42
-0.4142135623730951
 10
2.439999999999953
 20
1.674999999999997
 10
2.439999999999953
 20
1.294999999999994
 42
-0.4142135623731473
 10
2.424999999999947
 20
1.279999999999986
 10
2.202499999999956
 20
1.279999999999994
 42
-0.4142135623730692
 10
2.187499999999955
 20
1.294999999999994
 10
2.187499999999948
 20
1.369999999999997
 42
0.203021628787307
 10
2.164688559390478
 20
1.423864220673287
 10
2.122235628575699
 20
1.381411289858508
 42
-0.2195468071307798
 10
2.127499999999953
 20
1.36999999999999
 10
2.127499999999953
 20
1.294999999999994
 42
0.25929068624906
 10
2.162916666666626
 20
1.231296313118981
 42
-0.2592906862487576
 10
2.169999999999957
 20
1.218555575742804
 10
2.169999999999957
 20
1.199999999999995
 42
-0.4142135623730951
 10
2.154999999999956
 20
1.184999999999995
 10
2.05249999999995
 20
1.184999999999995
 42
0.4142135623730951
 10
2.037499999999949
 20
1.169999999999994
 10
2.037499999999949
 20
1.139999999999993
 42
0.4142135623731644
 10
2.05249999999995
 20
1.124999999999992
 10
2.272499999999958
 20
1.124999999999992
 10
2.272499999999956
 20
1.169999999999994
 10
2.229999999999959
 20
1.169999999999994
 10
2.229999999999952
 20
1.219999999999991
 10
2.439999999999953
 20
1.219999999999991
 10
2.439999999999955
 20
1.169999999999994
 10
2.397499999999958
 20
1.169999999999994
 10
2.397499999999956
 20
1.124999999999992
 10
2.439999999999953
 20
1.124999999999992
 42
0.4142135623730907
 10
2.499999999999955
 20
1.184999999999995
 10
2.499999999999955
 20
2.359999999999992
 42
0.4142135623730951
 10
2.484999999999955
 20
2.374999999999992
 10
2.454999999999953
 20
2.374999999999992
 42
0.4142135623730951
 10
2.439999999999953
 20
2.359999999999992
 10
2.439999999999953
 20
1.764999999999993
 42
-0.4142135623730951
 10
2.424999999999952
 20
1.749999999999992
 10
1.669999999999971
 20
1.749999999999992
 42
0.4142135623730951
 10
1.65499999999997
 20
1.734999999999992
 10
1.654999999999974
 20
1.524003668694824
 42
-0.3105082534628305
 10
1.638959198738609
 20
1.500664158032392
 10
1.524325722615293
 20
1.456660489337565
 42
-0.0918870916678807
 10
1.515366523876663
 20
1.454999999999991
 10
1.509999999999957
 20
1.454999999999991
 42
-0.4142135623731159
 10
1.484999999999955
 20
1.479999999999996
1001
AcDbBlockRepETag
1070
     1
1071
       45
1005
140B
  0
POLYLINE
  5
140C
330
13A7
100
AcDbEntity
  8
Pel_CS-Weatherstrip
100
AcDb2dPolyline
 66
     1
 10
0.0
 20
0.0
 30
0.0
1001
AcDbBlockRepETag
1070
     1
1071
       46
1005
140C
  0
VERTEX
  5
140D
330
140C
100
AcDbEntity
  8
Pel_CS-Weatherstrip
100
AcDbVertex
100
AcDb2dVertex
 10
2.615000014000001
 20
1.802906939439811
 30
0.0
  0
VERTEX
  5
140E
330
140C
100
AcDbEntity
  8
Pel_CS-Weatherstrip
100
AcDbVertex
100
AcDb2dVertex
 10
2.615000014000001
 20
1.756662349801434
 30
0.0
  0
VERTEX
  5
140F
330
140C
100
AcDbEntity
  8
Pel_CS-Weatherstrip
100
AcDbVertex
100
AcDb2dVertex
 10
2.499999999999955
 20
1.797385990600133
 30
0.0
  0
VERTEX
  5
1410
330
140C
100
AcDbEntity
  8
Pel_CS-Weatherstrip
100
AcDbVertex
100
AcDb2dVertex
 10
2.499999999999955
 20
1.771802388867129
 30
0.0
  0
VERTEX
  5
1411
330
140C
100
AcDbEntity
  8
Pel_CS-Weatherstrip
100
AcDbVertex
100
AcDb2dVertex
 10
2.615000014000001
 20
1.756662349801434
 30
0.0
  0
VERTEX
  5
1412
330
140C
100
AcDbEntity
  8
Pel_CS-Weatherstrip
100
AcDbVertex
100
AcDb2dVertex
 10
2.499999999999955
 20
1.747611652414772
 30
0.0
  0
VERTEX
  5
1413
330
140C
100
AcDbEntity
  8
Pel_CS-Weatherstrip
100
AcDbVertex
100
AcDb2dVertex
 10
2.499999999999955
 20
1.715433367549703
 30
0.0
  0
VERTEX
  5
1414
330
140C
100
AcDbEntity
  8
Pel_CS-Weatherstrip
100
AcDbVertex
100
AcDb2dVertex
 10
2.615000014000001
 20
1.756662349801434
 30
0.0
  0
VERTEX
  5
1415
330
140C
100
AcDbEntity
  8
Pel_CS-Weatherstrip
100
AcDbVertex
100
AcDb2dVertex
 10
2.615000014000001
 20
1.674204385297972
 30
0.0
  0
VERTEX
  5
1416
330
140C
100
AcDbEntity
  8
Pel_CS-Weatherstrip
100
AcDbVertex
100
AcDb2dVertex
 10
2.499999999999955
 20
1.715433367549703
 30
0.0
  0
VERTEX
  5
1417
330
140C
100
AcDbEntity
  8
Pel_CS-Weatherstrip
100
AcDbVertex
100
AcDb2dVertex
 10
2.499999999999955
 20
1.683255082684631
 30
0.0
  0
VERTEX
  5
1418
330
140C
100
AcDbEntity
  8
Pel_CS-Weatherstrip
100
AcDbVertex
100
AcDb2dVertex
 10
2.615000014000001
 20
1.674204385297972
 30
0.0
  0
VERTEX
  5
1419
330
140C
100
AcDbEntity
  8
Pel_CS-Weatherstrip
100
AcDbVertex
100
AcDb2dVertex
 10
2.499999999999955
 20
1.65906434623228
 30
0.0
  0
VERTEX
  5
141A
330
140C
100
AcDbEntity
  8
Pel_CS-Weatherstrip
100
AcDbVertex
100
AcDb2dVertex
 10
2.499999999999955
 20
1.633480744499259
 30
0.0
  0
VERTEX
  5
141B
330
140C
100
AcDbEntity
  8
Pel_CS-Weatherstrip
100
AcDbVertex
100
AcDb2dVertex
 10
2.615000014000001
 20
1.674204385297972
 30
0.0
  0
VERTEX
  5
141C
330
140C
100
AcDbEntity
  8
Pel_CS-Weatherstrip
100
AcDbVertex
100
AcDb2dVertex
 10
2.615000014000001
 20
1.616129215753641
 30
0.0
  0
VERTEX
  5
141D
330
140C
100
AcDbEntity
  8
Pel_CS-Weatherstrip
100
AcDbVertex
100
AcDb2dVertex
 10
2.649999999999996
 20
1.616129215753641
 30
0.0
  0
VERTEX
  5
141E
330
140C
100
AcDbEntity
  8
Pel_CS-Weatherstrip
100
AcDbVertex
100
AcDb2dVertex
 10
2.649999999999996
 20
1.802906939439811
 30
0.0
  0
VERTEX
  5
141F
330
140C
100
AcDbEntity
  8
0
100
AcDbVertex
100
AcDb2dVertex
 10
2.615000014000001
 20
1.802906939439811
 30
0.0
  0
SEQEND
  5
1420
330
140C
100
AcDbEntity
  8
Pel_CS-Weatherstrip
  0
LWPOLYLINE
  5
1421
330
13A7
100
AcDbEntity
  8
Pel_CS-Cross Section
 62
     4
100
AcDbPolyline
 90
      142
 70
     1
 43
0.0
 10
0.6700000000000035
 20
0.8599999999999994
 42
0.414213562373106
 10
0.655000000000003
 20
0.875
 10
0.2500000000000018
 20
0.8749999999999964
 42
0.4142135623730149
 10
0.2350000000000048
 20
0.8599999999999958
 10
0.2350000000000048
 20
0.6499999999999986
 42
-0.4142135623731197
 10
0.2100000000000026
 20
0.6249999999999965
 10
0.0850000000000027
 20
0.6249999999999965
 42
-0.4142135623731146
 10
0.0600000000000005
 20
0.6499999999999986
 10
0.0600000000000005
 20
0.8002786404499993
 42
-0.3819660112501339
 10
0.0733333333333359
 20
0.8151857603000003
 42
0.9458235162657206
 10
0.0700000000000021
 20
0.8749999999999964
 10
0.0150000000000024
 20
0.8749999999999964
 42
0.4142135623731125
 10
0.0000000000000018
 20
0.8599999999999958
 10
0.0000000000000036
 20
0.0800000000000054
 10
0.0000000000000018
 20
0.2050000000000018
 10
0.0600000000000005
 20
0.2050000000000018
 10
0.0600000000000005
 20
0.0800000000000054
 10
0.0600000000000005
 20
0.5499999999999972
 42
-0.4142135623731015
 10
0.0750000000000011
 20
0.5649999999999978
 10
0.2100000000000026
 20
0.5649999999999978
 42
0.4142135623730897
 10
0.2949999999999999
 20
0.6499999999999986
 10
0.2949999999999999
 20
0.8000000000000007
 42
-0.4142135623731233
 10
0.3100000000000005
 20
0.8150000000000012
 10
0.5950000000000042
 20
0.8150000000000012
 42
-0.4142135623731017
 10
0.6100000000000048
 20
0.8000000000000007
 10
0.6100000000000048
 20
0.7650000000000006
 42
0.4142135623730964
 10
0.6850000000000041
 20
0.6900000000000013
 10
0.8600000000000012
 20
0.6900000000000013
 42
-0.4142135623731755
 10
0.8750000000000053
 20
0.6750000000000007
 10
0.9150000000000009
 20
0.6750000000000007
 42
-0.4142135623731058
 10
0.9300000000000014
 20
0.6900000000000013
 10
1.015000000000002
 20
0.6900000000000013
 42
0.4142135623731079
 10
1.090000000000005
 20
0.7650000000000006
 10
1.090000000000005
 20
0.9050000000000011
 42
-0.4142135623730258
 10
1.105000000000002
 20
0.9200000000000017
 10
1.105000000000002
 20
0.9600000000000008
 42
-0.4142135623730301
 10
1.090000000000005
 20
0.9750000000000014
 10
1.090000000000005
 20
1.484999999999999
 42
-0.4142135623730909
 10
1.105000000000005
 20
1.5
 10
1.280000000000006
 20
1.5
 42
-0.4142135623730301
 10
1.295000000000003
 20
1.484999999999999
 10
1.295000000000003
 20
0.9750000000000014
 42
-0.4142135623730887
 10
1.280000000000002
 20
0.9600000000000008
 10
1.105000000000002
 20
0.9600000000000008
 10
1.105
 20
0.9200000000000017
 10
1.283631878541113
 20
0.9200000000000017
 42
-0.3178372451957665
 10
1.297774014164843
 20
0.9100000000000001
 42
0.3178372451957886
 10
1.3684846922835
 20
0.8599999999999994
 10
1.381999999999999
 20
0.8599999999999994
 42
-0.4142135623731755
 10
1.397000000000003
 20
0.8449999999999988
 10
1.397000000000003
 20
0.0749999999999993
 10
1.447000000000004
 20
0.0750000000000029
 10
1.447000000000004
 20
0.8450000000000024
 42
-0.4142135623730887
 10
1.462000000000005
 20
0.8599999999999994
 10
2.63588235294118
 20
0.8600000000000029
 10
2.639117647058826
 20
0.9150000000000027
 10
2.620000000000002
 20
0.9149999999999991
 42
-0.4142135623730323
 10
2.605000000000005
 20
0.9299999999999997
 10
2.605000000000005
 20
1.540000000000002
 42
-0.4142135623730215
 10
2.620000000000002
 20
1.554999999999999
 10
2.640000000000002
 20
1.554999999999999
 42
-0.4142135623730995
 10
2.655000000000002
 20
1.540000000000002
 10
2.655000000000002
 20
0.9299999999999997
 42
-0.4142135623730712
 10
2.640000000000002
 20
0.9149999999999991
 10
2.639117647058826
 20
0.9149999999999991
 10
2.635880830329275
 20
0.8599741155976268
 42
-0.3971072311549626
 10
2.65
 20
0.8450000000000024
 10
2.65
 20
0.3130000000000024
 42
-0.414213562373106
 10
2.634999999999999
 20
0.2980000000000018
 10
2.445000000000002
 20
0.2980000000000018
 42
0.4142135623730937
 10
2.370000000000002
 20
0.2230000000000025
 10
2.370000000000002
 20
0.0750000000000029
 42
-0.414213562373124
 10
2.355000000000002
 20
0.0600000000000023
 10
1.462000000000001
 20
0.0600000000000023
 42
-0.4142135623731164
 10
1.447
 20
0.0750000000000029
 10
1.397
 20
0.0749999999999993
 42
-0.4142135623730958
 10
1.381999999999999
 20
0.0600000000000023
 10
0.9300000000000014
 20
0.0600000000000023
 42
-0.4142135623730535
 10
0.9150000000000044
 20
0.0750000000000029
 10
0.9150000000000027
 20
0.6750000000000007
 10
0.8750000000000017
 20
0.6750000000000007
 10
0.8750000000000017
 20
0.0750000000000029
 42
-0.414213562373124
 10
0.8600000000000012
 20
0.0600000000000023
 10
0.0750000000000046
 20
0.0600000000000023
 42
-0.4142135623731697
 10
0.0600000000000005
 20
0.0749999999999993
 10
0.0600000000000005
 20
0.0800000000000054
 10
0.0000000000000036
 20
0.0800000000000054
 10
0.0000000000000018
 20
0.033541019662497
 42
0.2134217652834024
 10
0.0050000000000026
 20
0.022360679774998
 42
-0.4495151536031539
 10
0.0048280133316538
 20
-0.0225133268825317
 42
0.1672852476327966
 10
0.0000000000000036
 20
-0.0309999999999988
 10
0.0600000000000005
 20
-0.0309999999999988
 10
0.0600000000000005
 20
-0.0150000000000006
 42
-0.4142135623731534
 10
0.0750000000000046
 20
0.0
 10
1.033000000000006
 20
0.0
 42
-0.4142135623730369
 10
1.063
 20
-0.0299999999999976
 10
1.063
 20
-1.094999999999998
 42
1.0
 10
1.122999999999999
 20
-1.094999999999998
 10
1.122999999999999
 20
-0.0299999999999976
 42
-0.4142135623731412
 10
1.153000000000004
 20
0.0
 10
2.63
 20
0.0
 42
0.4142135623731008
 10
2.645000000000001
 20
0.0150000000000006
 10
2.645000000000001
 20
0.0663175319642981
 42
0.2679491924311101
 10
2.637500000000001
 20
0.0793079130210615
 10
2.593000000000003
 20
0.1050000000000004
 10
2.568000000000003
 20
0.1050000000000004
 10
2.568000000000003
 20
0.0749999999999993
 42
-0.414213562373089
 10
2.553000000000002
 20
0.0600000000000023
 10
2.445000000000005
 20
0.0600000000000023
 42
-0.41421356237317
 10
2.430000000000001
 20
0.0749999999999993
 10
2.430000000000001
 20
0.222999999999999
 42
-0.4142135623731233
 10
2.445000000000002
 20
0.2379999999999995
 10
2.695000000000002
 20
0.2379999999999995
 42
0.414213562373106
 10
2.710000000000002
 20
0.2530000000000001
 10
2.710000000000002
 20
0.9164589803375058
 42
0.2134217652833592
 10
2.705000000000003
 20
0.9276393202250048
 42
-0.4472135954999673
 10
2.705000000000003
 20
0.9723606797750008
 42
0.213421765283363
 10
2.710000000000002
 20
0.9835410196624962
 10
2.710000000000002
 20
1.859999999999999
 42
0.4142135623730215
 10
2.695000000000005
 20
1.875
 10
2.565000000000003
 20
1.875
 42
0.4142135623730909
 10
2.550000000000002
 20
1.859999999999999
 10
2.550000000000002
 20
1.777499999999999
 10
2.599999999999999
 20
1.777500000000003
 10
2.600000000000001
 20
1.82
 10
2.650000000000002
 20
1.82
 10
2.65
 20
1.609999999999999
 10
2.599999999999999
 20
1.609999999999999
 10
2.599999999999999
 20
1.652499999999999
 10
2.55
 20
1.652499999999999
 10
2.550000000000002
 20
0.9350000000000022
 42
-0.4142135623730887
 10
2.535000000000001
 20
0.9200000000000017
 10
1.369999999999999
 20
0.9200000000000017
 42
-0.4142135623730367
 10
1.355000000000002
 20
0.9350000000000022
 10
1.355000000000002
 20
1.530000000000001
 42
0.4142135623730712
 10
1.325000000000004
 20
1.560000000000002
 10
1.045000000000003
 20
1.560000000000002
 42
0.4142135623730909
 10
1.030000000000002
 20
1.545000000000001
 10
1.030000000000002
 20
0.7650000000000006
 42
-0.4142135623730887
 10
1.015000000000002
 20
0.75
 10
0.6850000000000041
 20
0.75
 42
-0.4142135623730887
 10
0.6700000000000035
 20
0.7650000000000006
1001
AcDbBlockRepETag
1070
     1
1071
       48
1005
1421
  0
POLYLINE
  5
1422
330
13A7
100
AcDbEntity
  8
Pel_CS-Sealant
100
AcDb2dPolyline
 66
     1
 10
0.0
 20
0.0
 30
0.0
 70
     1
1001
AcDbBlockRepETag
1070
     1
1071
       51
1005
1422
  0
VERTEX
  5
1423
330
1422
100
AcDbEntity
  8
Pel_CS-Sealant
100
AcDbVertex
100
AcDb2dVertex
 10
0.869661841774354
 20
1.345625000000016
 30
0.0
  0
VERTEX
  5
1424
330
1422
100
AcDbEntity
  8
Pel_CS-Sealant
100
AcDbVertex
100
AcDb2dVertex
 10
0.8618271592571158
 20
1.367150613304723
 30
0.0
  0
VERTEX
  5
1425
330
1422
100
AcDbEntity
  8
Pel_CS-Sealant
100
AcDbVertex
100
AcDb2dVertex
 10
0.8793749999999818
 20
1.381875000000015
 30
0.0
  0
VERTEX
  5
1426
330
1422
100
AcDbEntity
  8
Pel_CS-Sealant
100
AcDbVertex
100
AcDb2dVertex
 10
0.8618271592571176
 20
1.39659938669531
 30
0.0
  0
VERTEX
  5
1427
330
1422
100
AcDbEntity
  8
Pel_CS-Sealant
100
AcDbVertex
100
AcDb2dVertex
 10
0.8696618417743557
 20
1.418125000000017
 30
0.0
  0
VERTEX
  5
1428
330
1422
100
AcDbEntity
  8
Pel_CS-Sealant
100
AcDbVertex
100
AcDb2dVertex
 10
0.8471027725618203
 20
1.422102772561853
 30
0.0
  0
VERTEX
  5
1429
330
1422
100
AcDbEntity
  8
Pel_CS-Sealant
100
AcDbVertex
100
AcDb2dVertex
 10
0.8431249999999828
 20
1.44466184177439
 30
0.0
  0
VERTEX
  5
142A
330
1422
100
AcDbEntity
  8
Pel_CS-Sealant
100
AcDbVertex
100
AcDb2dVertex
 10
0.8215993866952775
 20
1.436827159257148
 30
0.0
  0
VERTEX
  5
142B
330
1422
100
AcDbEntity
  8
Pel_CS-Sealant
100
AcDbVertex
100
AcDb2dVertex
 10
0.8128278380373394
 20
1.404091294004665
 30
0.0
 42
-0.3394542588633676
  0
VERTEX
  5
142C
330
1422
100
AcDbEntity
  8
Pel_CS-Sealant
100
AcDbVertex
100
AcDb2dVertex
 10
0.8298749999999799
 20
1.381875000000015
 30
0.0
 42
-1.0
  0
VERTEX
  5
142D
330
1422
100
AcDbEntity
  8
Pel_CS-Sealant
100
AcDbVertex
100
AcDb2dVertex
 10
0.7838749999999806
 20
1.381875000000015
 30
0.0
 42
-0.4931454260313062
  0
VERTEX
  5
142E
330
1422
100
AcDbEntity
  8
Pel_CS-Sealant
100
AcDbVertex
100
AcDb2dVertex
 10
0.8128278380373394
 20
1.404091294004665
 30
0.0
  0
VERTEX
  5
142F
330
1422
100
AcDbEntity
  8
Pel_CS-Sealant
100
AcDbVertex
100
AcDb2dVertex
 10
0.8215993866952757
 20
1.436827159257148
 30
0.0
  0
VERTEX
  5
1430
330
1422
100
AcDbEntity
  8
Pel_CS-Sealant
100
AcDbVertex
100
AcDb2dVertex
 10
0.8068749999999784
 20
1.45437500000002
 30
0.0
  0
VERTEX
  5
1431
330
1422
100
AcDbEntity
  8
Pel_CS-Sealant
100
AcDbVertex
100
AcDb2dVertex
 10
0.7921506133046848
 20
1.436827159257152
 30
0.0
  0
VERTEX
  5
1432
330
1422
100
AcDbEntity
  8
Pel_CS-Sealant
100
AcDbVertex
100
AcDb2dVertex
 10
0.7706249999999795
 20
1.444661841774387
 30
0.0
  0
VERTEX
  5
1433
330
1422
100
AcDbEntity
  8
Pel_CS-Sealant
100
AcDbVertex
100
AcDb2dVertex
 10
0.7666472274381402
 20
1.422102772561849
 30
0.0
  0
VERTEX
  5
1434
330
1422
100
AcDbEntity
  8
Pel_CS-Sealant
100
AcDbVertex
100
AcDb2dVertex
 10
0.7440881582256065
 20
1.418125000000014
 30
0.0
  0
VERTEX
  5
1435
330
1422
100
AcDbEntity
  8
Pel_CS-Sealant
100
AcDbVertex
100
AcDb2dVertex
 10
0.7519228407428465
 20
1.396599386695307
 30
0.0
  0
VERTEX
  5
1436
330
1422
100
AcDbEntity
  8
Pel_CS-Sealant
100
AcDbVertex
100
AcDb2dVertex
 10
0.7343749999999787
 20
1.381875000000015
 30
0.0
  0
VERTEX
  5
1437
330
1422
100
AcDbEntity
  8
Pel_CS-Sealant
100
AcDbVertex
100
AcDb2dVertex
 10
0.75192284074285
 20
1.367150613304715
 30
0.0
  0
VERTEX
  5
1438
330
1422
100
AcDbEntity
  8
Pel_CS-Sealant
100
AcDbVertex
100
AcDb2dVertex
 10
0.7440881582256065
 20
1.345625000000008
 30
0.0
  0
VERTEX
  5
1439
330
1422
100
AcDbEntity
  8
Pel_CS-Sealant
100
AcDbVertex
100
AcDb2dVertex
 10
0.7666472274381438
 20
1.341647227438176
 30
0.0
  0
VERTEX
  5
143A
330
1422
100
AcDbEntity
  8
Pel_CS-Sealant
100
AcDbVertex
100
AcDb2dVertex
 10
0.7706249999999813
 20
1.319088158225639
 30
0.0
  0
VERTEX
  5
143B
330
1422
100
AcDbEntity
  8
Pel_CS-Sealant
100
AcDbVertex
100
AcDb2dVertex
 10
0.7921506133046848
 20
1.326922840742881
 30
0.0
  0
VERTEX
  5
143C
330
1422
100
AcDbEntity
  8
Pel_CS-Sealant
100
AcDbVertex
100
AcDb2dVertex
 10
0.8068749999999855
 20
1.309375000000009
 30
0.0
  0
VERTEX
  5
143D
330
1422
100
AcDbEntity
  8
Pel_CS-Sealant
100
AcDbVertex
100
AcDb2dVertex
 10
0.821599386695281
 20
1.326922840742884
 30
0.0
  0
VERTEX
  5
143E
330
1422
100
AcDbEntity
  8
Pel_CS-Sealant
100
AcDbVertex
100
AcDb2dVertex
 10
0.843124999999981
 20
1.319088158225643
 30
0.0
  0
VERTEX
  5
143F
330
1422
100
AcDbEntity
  8
Pel_CS-Sealant
100
AcDbVertex
100
AcDb2dVertex
 10
0.8471027725618238
 20
1.34164722743818
 30
0.0
  0
SEQEND
  5
1440
330
1422
100
AcDbEntity
  8
Pel_CS-Sealant
  0
CIRCLE
  5
1441
330
13A7
100
AcDbEntity
  8
Pel_CS-Weatherstrip
100
AcDbCircle
 10
0.6669999999999803
 20
3.970000000000016
 30
0.0
 40
0.018
1001
AcDbBlockRepETag
1070
     1
1071
        5
1005
13D4
  0
CIRCLE
  5
1442
330
13A7
100
AcDbEntity
  8
Pel_CS-Weatherstrip
100
AcDbCircle
 10
0.6669999999999803
 20
3.345000000000016
 30
0.0
 40
0.018
1001
AcDbBlockRepETag
1070
     1
1071
        6
1005
13D5
  0
CIRCLE
  5
1443
330
13A7
100
AcDbEntity
  8
Pel_CS-Weatherstrip
100
AcDbCircle
 10
0.6669999999999803
 20
3.470000000000016
 30
0.0
 40
0.018
1001
AcDbBlockRepETag
1070
     1
1071
        7
1005
13D6
  0
CIRCLE
  5
1444
330
13A7
100
AcDbEntity
  8
Pel_CS-Weatherstrip
100
AcDbCircle
 10
0.6669999999999803
 20
3.595000000000016
 30
0.0
 40
0.018
1001
AcDbBlockRepETag
1070
     1
1071
        8
1005
13D7
  0
CIRCLE
  5
1445
330
13A7
100
AcDbEntity
  8
Pel_CS-Weatherstrip
100
AcDbCircle
 10
0.6669999999999803
 20
3.720000000000016
 30
0.0
 40
0.018
1001
AcDbBlockRepETag
1070
     1
1071
        9
1005
13D8
  0
CIRCLE
  5
1446
330
13A7
100
AcDbEntity
  8
Pel_CS-Weatherstrip
100
AcDbCircle
 10
0.6669999999999803
 20
3.845000000000016
 30
0.0
 40
0.018
1001
AcDbBlockRepETag
1070
     1
1071
       10
1005
13D9
  0
CIRCLE
  5
1447
330
13A7
100
AcDbEntity
  8
Pel_CS-Weatherstrip
100
AcDbCircle
 10
0.6669999999999803
 20
3.220000000000016
 30
0.0
 40
0.018
1001
AcDbBlockRepETag
1070
     1
1071
       11
1005
13DA
  0
CIRCLE
  5
1448
330
13A7
100
AcDbEntity
  8
Pel_CS-Weatherstrip
100
AcDbCircle
 10
0.6669999999999803
 20
3.095000000000016
 30
0.0
 40
0.018
1001
AcDbBlockRepETag
1070
     1
1071
       13
1005
13DC
  0
HATCH
  5
1449
330
13A7
100
AcDbEntity
  8
Pel_CS-Weatherstrip
100
AcDbHatch
 10
0.0
 20
0.0
 30
0.0
210
0.0
220
0.0
230
1.0
  2
SOLID
 70
     1
 71
     0
 91
        1
 92
        1
 93
        1
 72
     2
 10
0.6669999999999803
 20
3.095000000000016
 40
0.018
 50
0.0
 51
360.0
 73
     1
 97
        0
 75
     0
 76
     1
 98
        1
 10
-0.0150000000000166
 20
1.625
1001
AcDbBlockRepETag
1070
     1
1071
       19
1005
13E2
  0
HATCH
  5
144A
330
13A7
100
AcDbEntity
  8
Pel_CS-Weatherstrip
100
AcDbHatch
 10
0.0
 20
0.0
 30
0.0
210
0.0
220
0.0
230
1.0
  2
SOLID
 70
     1
 71
     0
 91
        1
 92
        1
 93
        1
 72
     2
 10
0.6669999999999803
 20
3.220000000000016
 40
0.018
 50
0.0
 51
360.0
 73
     1
 97
        0
 75
     0
 76
     1
 98
        1
 10
-0.0150000000000166
 20
1.75
1001
AcDbBlockRepETag
1070
     1
1071
       20
1005
13E3
  0
HATCH
  5
144B
330
13A7
100
AcDbEntity
  8
Pel_CS-Weatherstrip
100
AcDbHatch
 10
0.0
 20
0.0
 30
0.0
210
0.0
220
0.0
230
1.0
  2
SOLID
 70
     1
 71
     0
 91
        1
 92
        1
 93
        1
 72
     2
 10
0.6669999999999803
 20
3.345000000000016
 40
0.018
 50
0.0
 51
360.0
 73
     1
 97
        0
 75
     0
 76
     1
 98
        1
 10
-0.0150000000000166
 20
1.875
1001
AcDbBlockRepETag
1070
     1
1071
       21
1005
13E4
  0
HATCH
  5
144C
330
13A7
100
AcDbEntity
  8
Pel_CS-Weatherstrip
100
AcDbHatch
 10
0.0
 20
0.0
 30
0.0
210
0.0
220
0.0
230
1.0
  2
SOLID
 70
     1
 71
     0
 91
        1
 92
        1
 93
        1
 72
     2
 10
0.6669999999999803
 20
3.470000000000016
 40
0.018
 50
0.0
 51
360.0
 73
     1
 97
        0
 75
     0
 76
     1
 98
        1
 10
-0.0150000000000166
 20
2.0
1001
AcDbBlockRepETag
1070
     1
1071
       22
1005
13E5
  0
HATCH
  5
144D
330
13A7
100
AcDbEntity
  8
Pel_CS-Weatherstrip
100
AcDbHatch
 10
0.0
 20
0.0
 30
0.0
210
0.0
220
0.0
230
1.0
  2
SOLID
 70
     1
 71
     0
 91
        1
 92
        1
 93
        1
 72
     2
 10
0.6669999999999803
 20
3.595000000000016
 40
0.018
 50
0.0
 51
360.0
 73
     1
 97
        0
 75
     0
 76
     1
 98
        1
 10
-0.0150000000000166
 20
2.125
1001
AcDbBlockRepETag
1070
     1
1071
       23
1005
13E6
  0
HATCH
  5
144E
330
13A7
100
AcDbEntity
  8
Pel_CS-Weatherstrip
100
AcDbHatch
 10
0.0
 20
0.0
 30
0.0
210
0.0
220
0.0
230
1.0
  2
SOLID
 70
     1
 71
     0
 91
        1
 92
        1
 93
        1
 72
     2
 10
0.6669999999999803
 20
3.720000000000016
 40
0.018
 50
0.0
 51
360.0
 73
     1
 97
        0
 75
     0
 76
     1
 98
        1
 10
-0.0150000000000166
 20
2.25
1001
AcDbBlockRepETag
1070
     1
1071
       24
1005
13E7
  0
HATCH
  5
144F
330
13A7
100
AcDbEntity
  8
Pel_CS-Weatherstrip
100
AcDbHatch
 10
0.0
 20
0.0
 30
0.0
210
0.0
220
0.0
230
1.0
  2
SOLID
 70
     1
 71
     0
 91
        1
 92
        1
 93
        1
 72
     2
 10
0.6669999999999803
 20
3.845000000000016
 40
0.018
 50
0.0
 51
360.0
 73
     1
 97
        0
 75
     0
 76
     1
 98
        1
 10
-0.0150000000000166
 20
2.375
1001
AcDbBlockRepETag
1070
     1
1071
       25
1005
13E8
  0
HATCH
  5
1450
330
13A7
100
AcDbEntity
  8
Pel_CS-Weatherstrip
100
AcDbHatch
 10
0.0
 20
0.0
 30
0.0
210
0.0
220
0.0
230
1.0
  2
SOLID
 70
     1
 71
     0
 91
        1
 92
        1
 93
        1
 72
     2
 10
0.6669999999999803
 20
3.970000000000016
 40
0.018
 50
0.0
 51
360.0
 73
     1
 97
        0
 75
     0
 76
     1
 98
        1
 10
-0.0150000000000166
 20
2.5
1001
AcDbBlockRepETag
1070
     1
1071
       26
1005
13E9
  0
ENDBLK
  5
1451
330
13A7
100
AcDbEntity
  8
0
100
AcDbBlockEnd
  0
BLOCK
  5
147A
330
1479
100
AcDbEntity
  8
0
100
AcDbBlockBegin
  2
*D12
 70
     1
 10
0.0
 20
0.0
 30
0.0
  3
*D12
  1

  0
LINE
  5
1D33
330
1479
100
AcDbEntity
  8
0
100
AcDbLine
 10
8.080503688253525
 20
27.11300000000119
 30
0.0
 11
5.31586508970148
 21
27.1130000000012
 31
0.0
  0
LINE
  5
1D34
330
1479
100
AcDbEntity
  8
0
100
AcDbLine
 10
8.080503688253523
 20
27.36300000000122
 30
0.0
 11
5.31586508970148
 21
27.36300000000122
 31
0.0
  0
LINE
  5
1D35
330
1479
100
AcDbEntity
  8
0
100
AcDbLine
 10
5.56586508970148
 20
26.8942500000012
 30
0.0
 11
5.56586508970148
 21
26.6755000000012
 31
0.0
  0
LINE
  5
1D36
330
1479
100
AcDbEntity
  8
0
100
AcDbLine
 10
5.565865089701481
 20
27.58175000000122
 30
0.0
 11
5.565865089701481
 21
27.80050000000122
 31
0.0
  0
MTEXT
  5
1D37
330
1479
100
AcDbEntity
  8
0
 62
   255
100
AcDbMText
 10
5.585192774396445
 20
28.44114900933687
 30
0.0
 40
0.28
 41
0.0
 71
     5
 72
     1
  1
\A1;1/4"\P [6]
 11
0.0000000000000001
 21
1.0
 31
0.0
 73
     1
 44
1.0
1001
ACAD
1000
MTEXTBEGIN
1070
    73
1070
     1
1070
    44
1040
1.0
1070
    74
1070
     0
1000
MTEXTEND
  0
SOLID
  5
1D38
330
1479
100
AcDbEntity
  8
0
100
AcDbTrace
 10
5.529406756368147
 20
26.8942500000012
 30
0.0
 11
5.602323423034813
 21
26.8942500000012
 31
0.0
 12
5.56586508970148
 22
27.1130000000012
 32
0.0
 13
5.56586508970148
 23
27.1130000000012
 33
0.0
  0
SOLID
  5
1D39
330
1479
100
AcDbEntity
  8
0
100
AcDbTrace
 10
5.529406756368148
 20
27.58175000000122
 30
0.0
 11
5.602323423034814
 21
27.58175000000122
 31
0.0
 12
5.56586508970148
 22
27.36300000000122
 32
0.0
 13
5.56586508970148
 23
27.36300000000122
 33
0.0
  0
POINT
  5
1D3A
330
1479
100
AcDbEntity
  8
Defpoints
 62
     0
100
AcDbPoint
 10
8.580503688253525
 20
27.11300000000119
 30
0.0
  0
POINT
  5
1D3B
330
1479
100
AcDbEntity
  8
Defpoints
 62
     0
100
AcDbPoint
 10
8.580503688253523
 20
27.36300000000122
 30
0.0
  0
POINT
  5
1D3C
330
1479
100
AcDbEntity
  8
Defpoints
 62
     0
100
AcDbPoint
 10
5.56586508970148
 20
27.36300000000122
 30
0.0
  0
ENDBLK
  5
147B
330
1479
100
AcDbEntity
  8
0
100
AcDbBlockEnd
  0
BLOCK
  5
1487
330
1486
100
AcDbEntity
  8
0
100
AcDbBlockBegin
  2
*D13
 70
     1
 10
0.0
 20
0.0
 30
0.0
  3
*D13
  1

  0
LINE
  5
1D22
330
1486
100
AcDbEntity
  8
0
100
AcDbLine
 10
8.080503688253523
 20
27.36300000000122
 30
0.0
 11
4.315865089701478
 21
27.36300000000122
 31
0.0
  0
LINE
  5
1D23
330
1486
100
AcDbEntity
  8
0
100
AcDbLine
 10
4.565865089701478
 20
23.1130000000012
 30
0.0
 11
4.565865089701478
 21
27.14425000000122
 31
0.0
  0
MTEXT
  5
1D24
330
1486
100
AcDbEntity
  8
0
 62
   255
100
AcDbMText
 10
4.282819595786487
 20
24.98160928508108
 30
0.0
 40
0.28
 41
0.0
 71
     5
 72
     1
  1
\A1;ROUGH OPENING
 11
0.0000000000000001
 21
1.0
 31
0.0
 73
     1
 44
1.0
1001
ACAD
1000
MTEXTBEGIN
1070
    73
1070
     1
1070
    44
1040
1.0
1070
    74
1070
     0
1000
MTEXTEND
  0
SOLID
  5
1D25
330
1486
100
AcDbEntity
  8
0
100
AcDbTrace
 10
4.529406756368145
 20
27.14425000000122
 30
0.0
 11
4.602323423034811
 21
27.14425000000122
 31
0.0
 12
4.565865089701478
 22
27.36300000000122
 32
0.0
 13
4.565865089701478
 23
27.36300000000122
 33
0.0
  0
POINT
  5
1D26
330
1486
100
AcDbEntity
  8
Defpoints
 62
     0
100
AcDbPoint
 10
6.435050098280615
 20
23.1130000000012
 30
0.0
  0
POINT
  5
1D27
330
1486
100
AcDbEntity
  8
Defpoints
 62
     0
100
AcDbPoint
 10
8.580503688253523
 20
27.36300000000122
 30
0.0
  0
POINT
  5
1D28
330
1486
100
AcDbEntity
  8
Defpoints
 62
     0
100
AcDbPoint
 10
4.565865089701478
 20
27.36300000000122
 30
0.0
  0
ENDBLK
  5
1488
330
1486
100
AcDbEntity
  8
0
100
AcDbBlockEnd
  0
BLOCK
  5
1491
330
1490
100
AcDbEntity
  8
0
100
AcDbBlockBegin
  2
*D14
 70
     1
 10
0.0
 20
0.0
 30
0.0
  3
*D14
  1

  0
LINE
  5
1D14
330
1490
100
AcDbEntity
  8
0
100
AcDbLine
 10
8.080503688253525
 20
27.1130000000012
 30
0.0
 11
5.315865089701477
 21
27.11300000000121
 31
0.0
  0
LINE
  5
1D15
330
1490
100
AcDbEntity
  8
0
100
AcDbLine
 10
5.565865089701477
 20
23.1130000000012
 30
0.0
 11
5.565865089701477
 21
26.89425000000121
 31
0.0
  0
MTEXT
  5
1D16
330
1490
100
AcDbEntity
  8
0
 62
   255
100
AcDbMText
 10
5.295433721410804
 20
23.95159943004482
 30
0.0
 40
0.28
 41
0.0
 71
     5
 72
     1
  1
\A1;FRAME
 11
0.0000000000000001
 21
1.0
 31
0.0
 73
     1
 44
1.0
1001
ACAD
1000
MTEXTBEGIN
1070
    73
1070
     1
1070
    44
1040
1.0
1070
    74
1070
     0
1000
MTEXTEND
  0
SOLID
  5
1D17
330
1490
100
AcDbEntity
  8
0
100
AcDbTrace
 10
5.529406756368144
 20
26.89425000000121
 30
0.0
 11
5.60232342303481
 21
26.89425000000121
 31
0.0
 12
5.565865089701477
 22
27.11300000000121
 32
0.0
 13
5.565865089701477
 23
27.11300000000121
 33
0.0
  0
POINT
  5
1D18
330
1490
100
AcDbEntity
  8
Defpoints
 62
     0
100
AcDbPoint
 10
6.935050098280615
 20
23.1130000000012
 30
0.0
  0
POINT
  5
1D19
330
1490
100
AcDbEntity
  8
Defpoints
 62
     0
100
AcDbPoint
 10
8.580503688253525
 20
27.1130000000012
 30
0.0
  0
POINT
  5
1D1A
330
1490
100
AcDbEntity
  8
Defpoints
 62
     0
100
AcDbPoint
 10
5.565865089701477
 20
27.11300000000121
 30
0.0
  0
ENDBLK
  5
1492
330
1490
100
AcDbEntity
  8
0
100
AcDbBlockEnd
  0
BLOCK
  5
149B
330
149A
100
AcDbEntity
  8
0
100
AcDbBlockBegin
  2
*D15
 70
     1
 10
0.0
 20
0.0
 30
0.0
  3
*D15
  1

  0
LINE
  5
1D06
330
149A
100
AcDbEntity
  8
0
100
AcDbLine
 10
21.74995000000203
 20
18.18027858997612
 30
0.0
 11
21.74995000000203
 21
15.54449105434867
 31
0.0
  0
LINE
  5
1D07
330
149A
100
AcDbEntity
  8
0
100
AcDbLine
 10
25.86895000000262
 20
15.79449105434867
 30
0.0
 11
21.96870000000203
 21
15.79449105434867
 31
0.0
  0
MTEXT
  5
1D08
330
149A
100
AcDbEntity
  8
0
 62
   255
100
AcDbMText
 10
25.09948211445664
 20
15.52949105434867
 30
0.0
 40
0.28
 41
0.0
 71
     5
 72
     1
  1
\A1;FRAME
 73
     1
 44
1.0
1001
ACAD
1000
MTEXTBEGIN
1070
    73
1070
     1
1070
    44
1040
1.0
1070
    74
1070
     0
1000
MTEXTEND
  0
SOLID
  5
1D09
330
149A
100
AcDbEntity
  8
0
100
AcDbTrace
 10
21.96870000000203
 20
15.830949387682
 30
0.0
 11
21.96870000000203
 21
15.75803272101533
 31
0.0
 12
21.74995000000203
 22
15.79449105434867
 32
0.0
 13
21.74995000000203
 23
15.79449105434867
 33
0.0
  0
POINT
  5
1D0A
330
149A
100
AcDbEntity
  8
Defpoints
 62
     0
100
AcDbPoint
 10
25.86895000000262
 20
17.03482500000321
 30
0.0
  0
POINT
  5
1D0B
330
149A
100
AcDbEntity
  8
Defpoints
 62
     0
100
AcDbPoint
 10
21.74995000000203
 20
18.68027858997612
 30
0.0
  0
POINT
  5
1D0C
330
149A
100
AcDbEntity
  8
Defpoints
 62
     0
100
AcDbPoint
 10
21.74995000000203
 20
15.79449105434867
 30
0.0
  0
ENDBLK
  5
149C
330
149A
100
AcDbEntity
  8
0
100
AcDbBlockEnd
  0
BLOCK
  5
14A5
330
14A4
100
AcDbEntity
  8
0
100
AcDbBlockBegin
  2
*D16
 70
     1
 10
0.0
 20
0.0
 30
0.0
  3
*D16
  1

  0
LINE
  5
1CF8
330
14A4
100
AcDbEntity
  8
0
100
AcDbLine
 10
21.49995000000203
 20
18.18027858997613
 30
0.0
 11
21.49995000000203
 21
14.54449105434867
 31
0.0
  0
LINE
  5
1CF9
330
14A4
100
AcDbEntity
  8
0
100
AcDbLine
 10
25.86895000000262
 20
14.79449105434867
 30
0.0
 11
21.71870000000203
 21
14.79449105434867
 31
0.0
  0
MTEXT
  5
1CFA
330
14A4
100
AcDbEntity
  8
0
 62
   255
100
AcDbMText
 10
24.07970009058959
 20
14.52462065871428
 30
0.0
 40
0.28
 41
0.0
 71
     5
 72
     1
  1
\A1;ROUGH OPENING
 73
     1
 44
1.0
1001
ACAD
1000
MTEXTBEGIN
1070
    73
1070
     1
1070
    44
1040
1.0
1070
    74
1070
     0
1000
MTEXTEND
  0
SOLID
  5
1CFB
330
14A4
100
AcDbEntity
  8
0
100
AcDbTrace
 10
21.71870000000203
 20
14.830949387682
 30
0.0
 11
21.71870000000203
 21
14.75803272101533
 31
0.0
 12
21.49995000000203
 22
14.79449105434867
 32
0.0
 13
21.49995000000203
 23
14.79449105434867
 33
0.0
  0
POINT
  5
1CFC
330
14A4
100
AcDbEntity
  8
Defpoints
 62
     0
100
AcDbPoint
 10
25.86895000000262
 20
17.03482500000321
 30
0.0
  0
POINT
  5
1CFD
330
14A4
100
AcDbEntity
  8
Defpoints
 62
     0
100
AcDbPoint
 10
21.49995000000203
 20
18.68027858997613
 30
0.0
  0
POINT
  5
1CFE
330
14A4
100
AcDbEntity
  8
Defpoints
 62
     0
100
AcDbPoint
 10
21.49995000000203
 20
14.79449105434867
 30
0.0
  0
ENDBLK
  5
14A6
330
14A4
100
AcDbEntity
  8
0
100
AcDbBlockEnd
  0
BLOCK
  5
14AF
330
14AE
100
AcDbEntity
  8
0
100
AcDbBlockBegin
  2
*D17
 70
     1
 10
0.0
 20
0.0
 30
0.0
  3
*D17
  1

  0
LINE
  5
1CE7
330
14AE
100
AcDbEntity
  8
0
100
AcDbLine
 10
21.74995000000203
 20
18.18027858997612
 30
0.0
 11
21.74995000000203
 21
15.54449105434867
 31
0.0
  0
LINE
  5
1CE8
330
14AE
100
AcDbEntity
  8
0
100
AcDbLine
 10
21.49995000000203
 20
18.18027858997613
 30
0.0
 11
21.49995000000203
 21
15.54449105434867
 31
0.0
  0
LINE
  5
1CE9
330
14AE
100
AcDbEntity
  8
0
100
AcDbLine
 10
21.96870000000203
 20
15.79449105434867
 30
0.0
 11
22.18745000000204
 21
15.79449105434867
 31
0.0
  0
LINE
  5
1CEA
330
14AE
100
AcDbEntity
  8
0
100
AcDbLine
 10
21.28120000000203
 20
15.79449105434867
 30
0.0
 11
21.06245000000203
 21
15.79449105434867
 31
0.0
  0
MTEXT
  5
1CEB
330
14AE
100
AcDbEntity
  8
0
 62
   255
100
AcDbMText
 10
20.47155582433973
 20
15.79449105434867
 30
0.0
 40
0.28
 41
0.0
 71
     5
 72
     1
  1
\A1;1/4"\P [6]
 73
     1
 44
1.0
1001
ACAD
1000
MTEXTBEGIN
1070
    73
1070
     1
1070
    44
1040
1.0
1070
    74
1070
     0
1000
MTEXTEND
  0
SOLID
  5
1CEC
330
14AE
100
AcDbEntity
  8
0
100
AcDbTrace
 10
21.96870000000203
 20
15.830949387682
 30
0.0
 11
21.96870000000203
 21
15.75803272101533
 31
0.0
 12
21.74995000000203
 22
15.79449105434867
 32
0.0
 13
21.74995000000203
 23
15.79449105434867
 33
0.0
  0
SOLID
  5
1CED
330
14AE
100
AcDbEntity
  8
0
100
AcDbTrace
 10
21.28120000000203
 20
15.830949387682
 30
0.0
 11
21.28120000000203
 21
15.75803272101533
 31
0.0
 12
21.49995000000203
 22
15.79449105434867
 32
0.0
 13
21.49995000000203
 23
15.79449105434867
 33
0.0
  0
POINT
  5
1CEE
330
14AE
100
AcDbEntity
  8
Defpoints
 62
     0
100
AcDbPoint
 10
21.74995000000203
 20
18.68027858997612
 30
0.0
  0
POINT
  5
1CEF
330
14AE
100
AcDbEntity
  8
Defpoints
 62
     0
100
AcDbPoint
 10
21.49995000000203
 20
18.68027858997613
 30
0.0
  0
POINT
  5
1CF0
330
14AE
100
AcDbEntity
  8
Defpoints
 62
     0
100
AcDbPoint
 10
21.49995000000203
 20
15.79449105434867
 30
0.0
  0
ENDBLK
  5
14B0
330
14AE
100
AcDbEntity
  8
0
100
AcDbBlockEnd
  0
BLOCK
  5
14BC
330
14BB
100
AcDbEntity
  8
0
100
AcDbBlockBegin
  2
*D18
 70
     1
 10
0.0
 20
0.0
 30
0.0
  3
*D18
  1

  0
LINE
  5
1CD3
330
14BB
100
AcDbEntity
  8
0
100
AcDbLine
 10
8.06732858997292
 20
17.86295000000321
 30
0.0
 11
5.302689991420864
 21
17.86295000000322
 31
0.0
  0
LINE
  5
1CD4
330
14BB
100
AcDbEntity
  8
0
100
AcDbLine
 10
8.067328589972913
 20
18.11295000000322
 30
0.0
 11
5.302689991420864
 21
18.11295000000322
 31
0.0
  0
LINE
  5
1CD5
330
14BB
100
AcDbEntity
  8
0
100
AcDbLine
 10
5.552689991420864
 20
17.64420000000322
 30
0.0
 11
5.552689991420863
 21
17.42545000000322
 31
0.0
  0
LINE
  5
1CD6
330
14BB
100
AcDbEntity
  8
0
100
AcDbLine
 10
5.552689991420864
 20
18.33170000000322
 30
0.0
 11
5.552689991420864
 21
18.55045000000322
 31
0.0
  0
MTEXT
  5
1CD7
330
14BB
100
AcDbEntity
  8
0
 62
   255
100
AcDbMText
 10
5.552689991420868
 20
16.79562806816397
 30
0.0
 40
0.28
 41
0.0
 71
     5
 72
     1
  1
\A1;1/4"\P [6]
 11
0.0000000000000001
 21
1.0
 31
0.0
 73
     1
 44
1.0
1001
ACAD
1000
MTEXTBEGIN
1070
    73
1070
     1
1070
    44
1040
1.0
1070
    74
1070
     0
1000
MTEXTEND
  0
SOLID
  5
1CD8
330
14BB
100
AcDbEntity
  8
0
100
AcDbTrace
 10
5.516231658087531
 20
17.64420000000322
 30
0.0
 11
5.589148324754197
 21
17.64420000000322
 31
0.0
 12
5.552689991420864
 22
17.86295000000322
 32
0.0
 13
5.552689991420864
 23
17.86295000000322
 33
0.0
  0
SOLID
  5
1CD9
330
14BB
100
AcDbEntity
  8
0
100
AcDbTrace
 10
5.516231658087531
 20
18.33170000000322
 30
0.0
 11
5.589148324754197
 21
18.33170000000322
 31
0.0
 12
5.552689991420864
 22
18.11295000000322
 32
0.0
 13
5.552689991420864
 23
18.11295000000322
 33
0.0
  0
POINT
  5
1CDA
330
14BB
100
AcDbEntity
  8
Defpoints
 62
     0
100
AcDbPoint
 10
8.56732858997292
 20
17.86295000000321
 30
0.0
  0
POINT
  5
1CDB
330
14BB
100
AcDbEntity
  8
Defpoints
 62
     0
100
AcDbPoint
 10
8.567328589972913
 20
18.11295000000322
 30
0.0
  0
POINT
  5
1CDC
330
14BB
100
AcDbEntity
  8
Defpoints
 62
     0
100
AcDbPoint
 10
5.552689991420864
 20
18.11295000000322
 30
0.0
  0
ENDBLK
  5
14BD
330
14BB
100
AcDbEntity
  8
0
100
AcDbBlockEnd
  0
BLOCK
  5
14C9
330
14C8
100
AcDbEntity
  8
0
100
AcDbBlockBegin
  2
*D19
 70
     1
 10
0.0
 20
0.0
 30
0.0
  3
*D19
  1

  0
LINE
  5
1CC2
330
14C8
100
AcDbEntity
  8
0
100
AcDbLine
 10
8.06732858997292
 20
18.11295000000322
 30
0.0
 11
5.302689991420859
 21
18.11295000000322
 31
0.0
  0
LINE
  5
1CC3
330
14C8
100
AcDbEntity
  8
0
100
AcDbLine
 10
5.552689991420859
 20
18.33170000000322
 30
0.0
 11
5.552689991420859
 21
22.11295000000322
 31
0.0
  0
MTEXT
  5
1CC4
330
14C8
100
AcDbEntity
  8
0
 62
   255
100
AcDbMText
 10
5.287689991420868
 20
21.24910769616799
 30
0.0
 40
0.28
 41
0.0
 71
     5
 72
     1
  1
\A1;FRAME
 11
0.0000000000000001
 21
1.0
 31
0.0
 73
     1
 44
1.0
1001
ACAD
1000
MTEXTBEGIN
1070
    73
1070
     1
1070
    44
1040
1.0
1070
    74
1070
     0
1000
MTEXTEND
  0
SOLID
  5
1CC5
330
14C8
100
AcDbEntity
  8
0
100
AcDbTrace
 10
5.516231658087526
 20
18.33170000000322
 30
0.0
 11
5.589148324754192
 21
18.33170000000322
 31
0.0
 12
5.552689991420859
 22
18.11295000000322
 32
0.0
 13
5.552689991420859
 23
18.11295000000322
 33
0.0
  0
POINT
  5
1CC6
330
14C8
100
AcDbEntity
  8
Defpoints
 62
     0
100
AcDbPoint
 10
8.56732858997292
 20
18.11295000000322
 30
0.0
  0
POINT
  5
1CC7
330
14C8
100
AcDbEntity
  8
Defpoints
 62
     0
100
AcDbPoint
 10
6.921875000000001
 20
22.11295000000322
 30
0.0
  0
POINT
  5
1CC8
330
14C8
100
AcDbEntity
  8
Defpoints
 62
     0
100
AcDbPoint
 10
5.552689991420859
 20
22.11295000000322
 30
0.0
  0
ENDBLK
  5
14CA
330
14C8
100
AcDbEntity
  8
0
100
AcDbBlockEnd
  0
BLOCK
  5
14D3
330
14D2
100
AcDbEntity
  8
0
100
AcDbBlockBegin
  2
*D20
 70
     1
 10
0.0
 20
0.0
 30
0.0
  3
*D20
  1

  0
LINE
  5
1CB4
330
14D2
100
AcDbEntity
  8
0
100
AcDbLine
 10
8.06732858997292
 20
17.86295000000321
 30
0.0
 11
4.302689991420863
 21
17.86295000000322
 31
0.0
  0
LINE
  5
1CB5
330
14D2
100
AcDbEntity
  8
0
100
AcDbLine
 10
4.552689991420863
 20
22.11295000000322
 30
0.0
 11
4.552689991420863
 21
18.08170000000322
 31
0.0
  0
MTEXT
  5
1CB6
330
14D2
100
AcDbEntity
  8
0
 62
   255
100
AcDbMText
 10
4.282819595786487
 20
20.24434071492337
 30
0.0
 40
0.28
 41
0.0
 71
     5
 72
     1
  1
\A1;ROUGH OPENING
 11
0.0000000000000001
 21
1.0
 31
0.0
 73
     1
 44
1.0
1001
ACAD
1000
MTEXTBEGIN
1070
    73
1070
     1
1070
    44
1040
1.0
1070
    74
1070
     0
1000
MTEXTEND
  0
SOLID
  5
1CB7
330
14D2
100
AcDbEntity
  8
0
100
AcDbTrace
 10
4.51623165808753
 20
18.08170000000322
 30
0.0
 11
4.589148324754196
 21
18.08170000000322
 31
0.0
 12
4.552689991420863
 22
17.86295000000322
 32
0.0
 13
4.552689991420863
 23
17.86295000000322
 33
0.0
  0
POINT
  5
1CB8
330
14D2
100
AcDbEntity
  8
Defpoints
 62
     0
100
AcDbPoint
 10
6.921875000000001
 20
22.11295000000322
 30
0.0
  0
POINT
  5
1CB9
330
14D2
100
AcDbEntity
  8
Defpoints
 62
     0
100
AcDbPoint
 10
8.56732858997292
 20
17.86295000000321
 30
0.0
  0
POINT
  5
1CBA
330
14D2
100
AcDbEntity
  8
Defpoints
 62
     0
100
AcDbPoint
 10
4.552689991420863
 20
17.86295000000322
 30
0.0
  0
ENDBLK
  5
14D4
330
14D2
100
AcDbEntity
  8
0
100
AcDbBlockEnd
  0
BLOCK
  5
1577
330
1570
100
AcDbEntity
  8
0
100
AcDbBlockBegin
  2
30AX
 70
     0
 10
0.0
 20
0.0
 30
0.0
  3
30AX
  1

  0
POINT
  5
1571
330
1570
100
AcDbEntity
  8
Pel_Points
100
AcDbPoint
 10
0.0
 20
0.0
 30
0.0
  0
LWPOLYLINE
  5
1572
102
{ACAD_REACTORS
330
1573
102
}
330
1570
100
AcDbEntity
  8
Pel_CS-Cross Section
 62
     3
100
AcDbPolyline
 90
       25
 70
     1
 43
0.0
 10
-0.0224446398060669
 20
0.175408607700676
 42
-0.0824858624894043
 10
-0.0918556455833741
 20
0.194394098661492
 42
-0.0690705598103339
 10
-0.1348989999998515
 20
0.2219540000000415
 42
0.1622052390822966
 10
-0.2814999999999204
 20
0.2815009999998734
 42
-0.3147655293528992
 10
-0.30576890113164
 20
0.3008910895924695
 10
-0.3145596038379788
 20
0.3306981815202465
 42
0.3325014592188446
 10
-0.3304970357141745
 20
0.3426140000000277
 10
-0.7213797644817524
 20
0.3426140000000279
 42
-0.3305818049593205
 10
-0.7408751928146798
 20
0.3570851361934468
 10
-0.7477646165148303
 20
0.3798634617470238
 42
0.3305818049593221
 10
-0.774261054214811
 20
0.3995313321856153
 42
-0.1297364702805926
 10
-1.243048076158115
 20
0.5232512779318967
 42
0.2262828326736607
 10
-1.973090677405139
 20
0.5751665353203535
 42
-0.4711471891530732
 10
-2.000062539361148
 20
0.5901305989859922
 10
-2.00495917543366
 20
0.6164896526014241
 42
0.3613846399536102
 10
-2.045267936621002
 20
0.6500000000000006
 10
-2.474135083057153
 20
0.6500000000000007
 42
0.4142135623730933
 10
-2.5
 20
0.6241350830571541
 10
-2.5
 20
0.0000000000000009
 10
-1.953
 20
0.0000000000000004
 42
-0.4142135623730939
 10
-1.903
 20
0.0500000000000005
 10
-0.6200000000000001
 20
0.0500000000000001
 42
-0.4142135623730978
 10
-0.5699999999999999
 20
0.0000000000000002
 10
0.0
 20
0.0
 10
0.0
 20
0.1505395479219216
 42
0.3845315181396505
  0
HATCH
  5
1573
330
1570
100
AcDbEntity
  8
Pel_Hatch
 62
     2
100
AcDbHatch
 10
0.0
 20
0.0
 30
0.0
210
0.0
220
0.0
230
1.0
  2
WOOD
 70
     0
 71
     1
 91
        1
 92
        1
 93
       25
 72
     2
 10
0.0000000000004662
 20
0.3938424278668362
 40
0.2195839148217086
 50
95.86670024450874
 51
114.728367003078
 73
     0
 72
     2
 10
-0.014100509961995
 20
0.3632256580963751
 40
0.1858761861474285
 50
114.7283670030799
 51
130.5330717701879
 73
     0
 72
     2
 10
-0.2975620363568452
 20
0.031722509110245
 40
0.2502943937107489
 50
49.46692822981329
 51
86.32065386954455
 73
     1
 72
     2
 10
-0.2797598602008482
 20
0.3085616717161326
 40
0.0271165639463311
 50
93.67934613045433
 51
163.5681661385625
 73
     0
 72
     1
 10
-0.30576890113164
 20
0.3008910895924695
 11
-0.3145596038379788
 21
0.3306981815202465
 72
     2
 10
-0.3304970357141746
 20
0.3259979167018726
 40
0.0166160832981551
 50
16.43183386143757
 51
89.99999999999962
 73
     1
 72
     1
 10
-0.3304970357141745
 20
0.3426140000000277
 11
-0.7213797644817524
 21
0.3426140000000279
 72
     2
 10
-0.7213797644817524
 20
0.362981630458819
 40
0.0203676304587911
 50
90.0
 51
163.1717841171345
 73
     0
 72
     1
 10
-0.7408751928146798
 20
0.3570851361934468
 11
-0.7477646165148303
 21
0.3798634617470238
 72
     2
 10
-0.7742610542148109
 20
0.3718494755815162
 40
0.0276818566040991
 50
16.82821588286534
 51
90.00000000000021
 73
     1
 72
     2
 10
-0.7742610542148113
 20
1.349531332185615
 40
0.9500000000000001
 50
90.0
 51
119.5682536902615
 73
     0
 72
     2
 10
-1.662489095791597
 20
-0.2160519285056409
 40
0.85
 50
60.43174630973846
 51
111.4330401313114
 73
     1
 72
     2
 10
-1.980398949913693
 20
0.5937834403515536
 40
0.0200000000000002
 50
68.56695986868853
 51
169.4763092165898
 73
     0
 72
     1
 10
-2.000062539361148
 20
0.5901305989859922
 11
-2.00495917543366
 21
0.6164896526014241
 72
     2
 10
-2.045267936621002
 20
0.6090016245049715
 40
0.0409983754950291
 50
10.5236907834099
 51
90.00000000000062
 73
     1
 72
     1
 10
-2.045267936621002
 20
0.6500000000000006
 11
-2.474135083057153
 21
0.6500000000000007
 72
     2
 10
-2.474135083057153
 20
0.6241350830571541
 40
0.0258649169428466
 50
90.0
 51
180.0
 73
     1
 72
     1
 10
-2.5
 20
0.6241350830571541
 11
-2.5
 21
0.0000000000000009
 72
     1
 10
-2.5
 20
0.0000000000000009
 11
-1.953
 21
0.0000000000000004
 72
     2
 10
-1.903
 20
0.0000000000000004
 40
0.0500000000000001
 50
180.0
 51
269.9999999999998
 73
     0
 72
     1
 10
-1.903
 20
0.0500000000000005
 11
-0.6200000000000001
 21
0.0500000000000001
 72
     2
 10
-0.6199999999999997
 20
0.0000000000000002
 40
0.0499999999999998
 50
269.9999999999995
 51
360.0
 73
     0
 72
     1
 10
-0.5699999999999999
 20
0.0000000000000002
 11
0.0
 21
0.0
 72
     1
 10
0.0
 20
0.0
 11
0.0
 21
0.1505395479219216
 72
     2
 10
-0.025
 20
0.1505395479219216
 40
0.025
 50
360.0
 51
444.1332997554907
 73
     1
 97
        1
330
1572
 75
     0
 76
     1
 52
315.0
 41
0.14
 77
     0
 78
    12
 53
45.0
 43
0.8103170684255962
 44
0.5406207200448804
 45
0.7919595949289332
 46
-0.0000000000000003
 79
     2
 49
0.5600000000000001
 49
-5.04
 53
45.0
 43
2.097251410185113
 44
1.629565163072163
 45
0.7919595949289332
 46
-0.0000000000000003
 79
     2
 49
0.5600000000000001
 49
-2.24
 53
18.43494881999999
 43
0.4143372709611297
 44
0.9366005175093471
 45
0.7919595586260603
 46
0.0000000442314982
 79
     2
 49
1.25219808
 49
-11.26978258
 53
59.03624347000002
 43
-0.9715920201645039
 44
-0.8453085710807524
 45
0.7919596908495017
 46
0.0000000240384626
 79
     2
 49
0.5772348400000001
 49
-4.04064346
 53
59.03624347000002
 43
-0.2786273746016872
 44
0.0456459732142973
 45
0.7919596908495017
 46
0.0000000240384626
 79
     2
 49
0.5772348400000001
 49
-4.04064346
 53
59.03624347000002
 43
-0.6746071720661542
 44
-1.934253014108035
 45
0.7919596908495017
 46
0.0000000240384626
 79
     2
 49
0.5772348400000001
 49
-4.04064346
 53
30.96375652999997
 43
1.602276663354529
 44
1.332580314973813
 45
0.7919596908495016
 46
-0.000000024038463
 79
     2
 49
0.5772348400000001
 49
-22.51215666
 53
30.96375652999997
 43
8.729913017714929
 44
5.292378289618477
 45
0.7919596908495016
 46
-0.000000024038463
 79
     2
 49
0.5772348400000001
 49
-22.51215666
 53
30.96375652999997
 43
15.0655897771464
 44
9.252176264263143
 45
0.7919596908495016
 46
-0.000000024038463
 79
     2
 49
0.5772348400000001
 49
-22.51215666
 53
71.56505118000001
 43
2.790216055747929
 44
2.520519707367212
 45
0.7919595586260603
 46
-0.0000000442314985
 79
     2
 49
0.6260990400000001
 49
-11.89588162
 53
71.56505118000001
 43
0.4143372709611278
 44
-5.399076241922119
 45
0.7919595586260603
 46
-0.0000000442314985
 79
     2
 49
0.6260990400000001
 49
-11.89588162
 53
71.56505118000001
 43
1.998256460818995
 44
-1.439278267277453
 45
0.7919595586260603
 46
-0.0000000442314985
 79
     2
 49
0.6260990400000001
 49
-11.89588162
 98
        1
 10
1.008306967157829
 20
1.13459041624158
1001
ACAD
1010
0.0
1020
0.0
1030
0.0
  0
ENDBLK
  5
1578
330
1570
100
AcDbEntity
  8
0
100
AcDbBlockEnd
  0
ENDSEC
  0
SECTION
  2
ENTITIES
  0
INSERT
  5
20D
330
2
100
AcDbEntity
  8
0
100
AcDbBlockReference
  2
10headwoodsiding
 10
8.580503688253525
 20
27.1130000000012
 30
0.0
  0
MTEXT
  5
2F7
330
2
100
AcDbEntity
  8
0
100
AcDbMText
 10
11.2686112671979
 20
12.17719897789959
 30
0.0
 40
0.28
 41
1.40369753947796
 71
     2
 72
     5
  1
SILL
 73
     1
 44
1.0
1001
ACAD
1000
MTEXTBEGIN
1070
    73
1070
     1
1070
    44
1040
1.0
1070
    74
1070
     0
1000
MTEXTEND
  0
MTEXT
  5
2F9
330
2
100
AcDbEntity
  8
0
100
AcDbMText
 10
19.74979999999999
 20
16.93687850318905
 30
0.0
 40
0.28
 41
1.40369753947796
 71
     5
 72
     5
  1
JAMB
 73
     1
 44
1.0
1001
ACAD
1000
MTEXTBEGIN
1070
    73
1070
     1
1070
    44
1040
1.0
1070
    74
1070
     0
1000
MTEXTEND
  0
MTEXT
  5
2FA
330
2
100
AcDbEntity
  8
0
100
AcDbMText
 10
11.28178636547852
 20
22.61297500000221
 30
0.0
 40
0.28
 41
1.40369753947796
 71
     5
 72
     5
  1
HEAD
 73
     1
 44
1.0
1001
ACAD
1000
MTEXTBEGIN
1070
    73
1070
     1
1070
    44
1040
1.0
1070
    74
1070
     0
1000
MTEXTEND
  0
DIMENSION
  5
2FB
330
2
100
AcDbEntity
  8
0
100
AcDbDimension
  2
*D12
 10
5.56586508970148
 20
27.36300000000122
 30
0.0
 11
5.585192774396445
 21
28.44114900933687
 31
0.0
 70
   160
 71
     5
 42
0.2500000000000213
  3
3 inch Scale
100
AcDbAlignedDimension
 13
8.580503688253525
 23
27.1130000000012
 33
0.0
 14
8.580503688253523
 24
27.36300000000122
 34
0.0
 50
90.0
100
AcDbRotatedDimension
  0
DIMENSION
  5
30B
330
2
100
AcDbEntity
  8
0
100
AcDbDimension
  2
*D13
 10
4.565865089701478
 20
27.36300000000122
 30
0.0
 11
4.282819595786487
 21
24.98160928508108
 31
0.0
 70
   160
  1
ROUGH OPENING
 71
     5
 42
4.250000000000021
  3
3 inch Scale
100
AcDbAlignedDimension
 13
6.435050098280616
 23
23.1130000000012
 33
0.0
 14
8.580503688253523
 24
27.36300000000122
 34
0.0
 50
90.0
100
AcDbRotatedDimension
1001
ACAD
1000
DSTYLE
1002
{
1070
    75
1070
     1
1070
   343
1005
30C
1070
   173
1070
     1
1070
   344
1005
0
1002
}
  0
DIMENSION
  5
319
330
2
100
AcDbEntity
  8
0
100
AcDbDimension
  2
*D14
 10
5.565865089701477
 20
27.11300000000121
 30
0.0
 11
5.295433721410804
 21
23.95159943004482
 31
0.0
 70
   160
  1
FRAME
 71
     5
 42
4.000000000000003
  3
3 inch Scale
100
AcDbAlignedDimension
 13
6.935050098280616
 23
23.1130000000012
 33
0.0
 14
8.580503688253525
 24
27.11300000000121
 34
0.0
 50
90.0
100
AcDbRotatedDimension
1001
ACAD
1000
DSTYLE
1002
{
1070
    75
1070
     1
1070
   343
1005
30C
1070
   173
1070
     1
1070
   344
1005
0
1002
}
  0
DIMENSION
  5
324
330
2
100
AcDbEntity
  8
0
100
AcDbDimension
  2
*D15
 10
21.74995000000203
 20
15.79449105434867
 30
0.0
 11
25.09948211445664
 21
15.52949105434867
 31
0.0
 70
   160
  1
FRAME
 71
     5
 42
4.119000000000582
  3
3 inch Scale
100
AcDbAlignedDimension
 13
25.86895000000262
 23
17.03482500000321
 33
0.0
 14
21.74995000000203
 24
18.68027858997612
 34
0.0
 50
180.0
100
AcDbRotatedDimension
1001
ACAD
1000
DSTYLE
1002
{
1070
    75
1070
     1
1070
   173
1070
     1
1070
   343
1005
30C
1002
}
  0
DIMENSION
  5
32F
330
2
100
AcDbEntity
  8
0
100
AcDbDimension
  2
*D16
 10
21.49995000000203
 20
14.79449105434867
 30
0.0
 11
24.07970009058959
 21
14.52462065871428
 31
0.0
 70
   160
  1
ROUGH OPENING
 71
     5
 42
4.369000000000589
  3
3 inch Scale
100
AcDbAlignedDimension
 13
25.86895000000262
 23
17.03482500000321
 33
0.0
 14
21.49995000000203
 24
18.68027858997613
 34
0.0
 50
180.0
100
AcDbRotatedDimension
1001
ACAD
1000
DSTYLE
1002
{
1070
    75
1070
     1
1070
   173
1070
     1
1070
   343
1005
30C
1002
}
  0
DIMENSION
  5
33A
330
2
100
AcDbEntity
  8
0
100
AcDbDimension
  2
*D17
 10
21.49995000000203
 20
15.79449105434867
 30
0.0
 11
20.47155582433973
 21
15.79449105434867
 31
0.0
 70
   160
 71
     5
 42
0.2500000000000071
  3
3 inch Scale
100
AcDbAlignedDimension
 13
21.74995000000203
 23
18.68027858997612
 33
0.0
 14
21.49995000000203
 24
18.68027858997613
 34
0.0
 50
180.0
100
AcDbRotatedDimension
  0
DIMENSION
  5
348
330
2
100
AcDbEntity
  8
0
100
AcDbDimension
  2
*D18
 10
5.552689991420864
 20
18.11295000000322
 30
0.0
 11
5.552689991420868
 21
16.79562806816397
 31
0.0
 70
   160
 71
     5
 42
0.25
  3
3 inch Scale
100
AcDbAlignedDimension
 13
8.56732858997292
 23
17.86295000000322
 33
0.0
 14
8.567328589972913
 24
18.11295000000322
 34
0.0
 50
90.0
100
AcDbRotatedDimension
  0
DIMENSION
  5
356
330
2
100
AcDbEntity
  8
0
100
AcDbDimension
  2
*D19
 10
5.552689991420859
 20
22.11295000000322
 30
0.0
 11
5.287689991420868
 21
21.24910769616799
 31
0.0
 70
   160
  1
FRAME
 71
     5
 42
4.0
  3
3 inch Scale
100
AcDbAlignedDimension
 13
8.56732858997292
 23
18.11295000000322
 33
0.0
 14
6.921875000000003
 24
22.11295000000322
 34
0.0
 50
90.0
100
AcDbRotatedDimension
1001
ACAD
1000
DSTYLE
1002
{
1070
    76
1070
     1
1070
    75
1070
     0
1070
   343
1005
0
1070
   173
1070
     1
1070
   344
1005
30C
1002
}
  0
DIMENSION
  5
361
330
2
100
AcDbEntity
  8
0
100
AcDbDimension
  2
*D20
 10
4.552689991420863
 20
17.86295000000322
 30
0.0
 11
4.282819595786487
 21
20.24434071492337
 31
0.0
 70
   160
  1
ROUGH OPENING
 71
     5
 42
4.25
  3
3 inch Scale
100
AcDbAlignedDimension
 13
6.921875000000003
 23
22.11295000000322
 33
0.0
 14
8.56732858997292
 24
17.86295000000322
 34
0.0
 50
90.0
100
AcDbRotatedDimension
1001
ACAD
1000
DSTYLE
1002
{
1070
    75
1070
     1
1070
   343
1005
30C
1070
   173
1070
     1
1070
   344
1005
0
1002
}
  0
INSERT
  5
379
330
2
100
AcDbEntity
  8
0
100
AcDbBlockReference
  2
10jambwoodsiding
 10
21.74995000000203
 20
18.79449105434867
 30
0.0
 50
90.0
  0
INSERT
  5
4CA
330
2
100
AcDbEntity
  8
0
100
AcDbBlockReference
  2
10sillwoodsiding
 10
8.56732858997292
 20
18.11295000000322
 30
0.0
  0
INSERT
  5
CAD
330
2
100
AcDbEntity
  8
0
100
AcDbBlockReference
  2
clip
 10
10.98268999142086
 20
26.9640000000012
 30
0.0
 41
-1.0
 50
270.0
  0
INSERT
  5
D5E
330
2
100
AcDbEntity
  8
0
100
AcDbBlockReference
  2
clip
 10
10.98268999142087
 20
18.26195000000321
 30
0.0
 50
270.0
  0
POLYLINE
  5
DF2
330
2
100
AcDbEntity
  8
0
100
AcDb2dPolyline
 66
     1
 10
0.0
 20
0.0
 30
0.0
  0
VERTEX
  5
DF3
330
DF2
100
AcDbEntity
  8
0
100
AcDbVertex
100
AcDb2dVertex
 10
7.119338622441699
 20
12.85095000000441
 30
0.0
  0
VERTEX
  5
DF4
330
DF2
100
AcDbEntity
  8
0
100
AcDbVertex
100
AcDb2dVertex
 10
8.049253688253525
 20
12.85095000000441
 30
0.0
  0
VERTEX
  5
DF5
330
DF2
100
AcDbEntity
  8
0
100
AcDbVertex
100
AcDb2dVertex
 10
8.111753688253525
 20
13.10095000000442
 30
0.0
  0
VERTEX
  5
DF6
330
DF2
100
AcDbEntity
  8
0
100
AcDbVertex
100
AcDb2dVertex
 10
8.236753688253525
 20
12.60095000000442
 30
0.0
  0
VERTEX
  5
DF7
330
DF2
100
AcDbEntity
  8
0
100
AcDbVertex
100
AcDb2dVertex
 10
8.299253688253525
 20
12.85095000000441
 30
0.0
  0
VERTEX
  5
DF8
330
DF2
100
AcDbEntity
  8
0
100
AcDbVertex
100
AcDb2dVertex
 10
13.19939688797258
 20
12.85095000000441
 30
0.0
  0
VERTEX
  5
DF9
330
DF2
100
AcDbEntity
  8
0
100
AcDbVertex
100
AcDb2dVertex
 10
13.26189688797258
 20
13.10095000000442
 30
0.0
  0
VERTEX
  5
DFA
330
DF2
100
AcDbEntity
  8
0
100
AcDbVertex
100
AcDb2dVertex
 10
13.38689688797259
 20
12.60095000000442
 30
0.0
  0
VERTEX
  5
DFB
330
DF2
100
AcDbEntity
  8
0
100
AcDbVertex
100
AcDb2dVertex
 10
13.44939688797258
 20
12.85095000000441
 30
0.0
  0
VERTEX
  5
DFC
330
DF2
100
AcDbEntity
  8
0
100
AcDbVertex
100
AcDb2dVertex
 10
14.98818968589883
 20
12.85095000000441
 30
0.0
  0
SEQEND
  5
DFD
330
DF2
100
AcDbEntity
  8
0
  0
POLYLINE
  5
DFE
330
2
100
AcDbEntity
  8
0
100
AcDb2dPolyline
 66
     1
 10
0.0
 20
0.0
 30
0.0
  0
VERTEX
  5
DFF
330
DFE
100
AcDbEntity
  8
0
100
AcDbVertex
100
AcDb2dVertex
 10
4.177689991420876
 20
22.11295000000322
 30
0.0
  0
VERTEX
  5
E00
330
DFE
100
AcDbEntity
  8
0
100
AcDbVertex
100
AcDb2dVertex
 10
8.036078589972913
 20
22.11295000000322
 30
0.0
  0
VERTEX
  5
E01
330
DFE
100
AcDbEntity
  8
0
100
AcDbVertex
100
AcDb2dVertex
 10
8.098578589972913
 20
22.36295000000322
 30
0.0
  0
VERTEX
  5
E02
330
DFE
100
AcDbEntity
  8
0
100
AcDbVertex
100
AcDb2dVertex
 10
8.223578589972913
 20
21.86295000000322
 30
0.0
  0
VERTEX
  5
E03
330
DFE
100
AcDbEntity
  8
0
100
AcDbVertex
100
AcDb2dVertex
 10
8.286078589972913
 20
22.11295000000322
 30
0.0
  0
VERTEX
  5
E04
330
DFE
100
AcDbEntity
  8
0
100
AcDbVertex
100
AcDb2dVertex
 10
13.19939688797258
 20
22.11295000000322
 30
0.0
  0
VERTEX
  5
E05
330
DFE
100
AcDbEntity
  8
0
100
AcDbVertex
100
AcDb2dVertex
 10
13.26189688797258
 20
22.36295000000322
 30
0.0
  0
VERTEX
  5
E06
330
DFE
100
AcDbEntity
  8
0
100
AcDbVertex
100
AcDb2dVertex
 10
13.38689688797259
 20
21.86295000000322
 30
0.0
  0
VERTEX
  5
E07
330
DFE
100
AcDbEntity
  8
0
100
AcDbVertex
100
AcDb2dVertex
 10
13.44939688797258
 20
22.11295000000322
 30
0.0
  0
VERTEX
  5
E08
330
DFE
100
AcDbEntity
  8
0
100
AcDbVertex
100
AcDb2dVertex
 10
14.98818968589883
 20
22.11295000000322
 30
0.0
  0
SEQEND
  5
E09
330
DFE
100
AcDbEntity
  8
0
  0
POLYLINE
  5
E0A
330
2
100
AcDbEntity
  8
0
100
AcDb2dPolyline
 66
     1
 10
0.0
 20
0.0
 30
0.0
  0
VERTEX
  5
E0B
330
E0A
100
AcDbEntity
  8
0
100
AcDbVertex
100
AcDb2dVertex
 10
4.190865089701484
 20
23.11300000000122
 30
0.0
  0
VERTEX
  5
E0C
330
E0A
100
AcDbEntity
  8
0
100
AcDbVertex
100
AcDb2dVertex
 10
8.049253688253525
 20
23.1130000000012
 30
0.0
  0
VERTEX
  5
E0D
330
E0A
100
AcDbEntity
  8
0
100
AcDbVertex
100
AcDb2dVertex
 10
8.111753688253525
 20
23.3630000000012
 30
0.0
  0
VERTEX
  5
E0E
330
E0A
100
AcDbEntity
  8
0
100
AcDbVertex
100
AcDb2dVertex
 10
8.236753688253525
 20
22.8630000000012
 30
0.0
  0
VERTEX
  5
E0F
330
E0A
100
AcDbEntity
  8
0
100
AcDbVertex
100
AcDb2dVertex
 10
8.299253688253525
 20
23.1130000000012
 30
0.0
  0
VERTEX
  5
E10
330
E0A
100
AcDbEntity
  8
0
100
AcDbVertex
100
AcDb2dVertex
 10
13.2125719862532
 20
23.1130000000012
 30
0.0
  0
VERTEX
  5
E11
330
E0A
100
AcDbEntity
  8
0
100
AcDbVertex
100
AcDb2dVertex
 10
13.2750719862532
 20
23.3630000000012
 30
0.0
  0
VERTEX
  5
E12
330
E0A
100
AcDbEntity
  8
0
100
AcDbVertex
100
AcDb2dVertex
 10
13.4000719862532
 20
22.8630000000012
 30
0.0
  0
VERTEX
  5
E13
330
E0A
100
AcDbEntity
  8
0
100
AcDbVertex
100
AcDb2dVertex
 10
13.4625719862532
 20
23.1130000000012
 30
0.0
  0
VERTEX
  5
E14
330
E0A
100
AcDbEntity
  8
0
100
AcDbVertex
100
AcDb2dVertex
 10
14.98818968589883
 20
23.1130000000012
 30
0.0
  0
SEQEND
  5
E15
330
E0A
100
AcDbEntity
  8
0
  0
POLYLINE
  5
E16
330
2
100
AcDbEntity
  8
0
100
AcDb2dPolyline
 66
     1
 10
0.0
 20
0.0
 30
0.0
  0
VERTEX
  5
E17
330
E16
100
AcDbEntity
  8
0
100
AcDbVertex
100
AcDb2dVertex
 10
7.119338622441699
 20
31.37500000000001
 30
0.0
  0
VERTEX
  5
E18
330
E16
100
AcDbEntity
  8
0
100
AcDbVertex
100
AcDb2dVertex
 10
8.119338622441699
 20
31.37500000000001
 30
0.0
  0
VERTEX
  5
E19
330
E16
100
AcDbEntity
  8
0
100
AcDbVertex
100
AcDb2dVertex
 10
8.181838622441699
 20
31.625
 30
0.0
  0
VERTEX
  5
E1A
330
E16
100
AcDbEntity
  8
0
100
AcDbVertex
100
AcDb2dVertex
 10
8.306838622441699
 20
31.12500000000001
 30
0.0
  0
VERTEX
  5
E1B
330
E16
100
AcDbEntity
  8
0
100
AcDbVertex
100
AcDb2dVertex
 10
8.369338622441699
 20
31.37500000000001
 30
0.0
  0
VERTEX
  5
E1C
330
E16
100
AcDbEntity
  8
0
100
AcDbVertex
100
AcDb2dVertex
 10
13.19939688797258
 20
31.37500000000001
 30
0.0
  0
VERTEX
  5
E1D
330
E16
100
AcDbEntity
  8
0
100
AcDbVertex
100
AcDb2dVertex
 10
13.26189688797258
 20
31.625
 30
0.0
  0
VERTEX
  5
E1E
330
E16
100
AcDbEntity
  8
0
100
AcDbVertex
100
AcDb2dVertex
 10
13.38689688797259
 20
31.12500000000001
 30
0.0
  0
VERTEX
  5
E1F
330
E16
100
AcDbEntity
  8
0
100
AcDbVertex
100
AcDb2dVertex
 10
13.44939688797258
 20
31.37500000000001
 30
0.0
  0
VERTEX
  5
E20
330
E16
100
AcDbEntity
  8
0
100
AcDbVertex
100
AcDb2dVertex
 10
14.98818968589883
 20
31.37500000000001
 30
0.0
  0
SEQEND
  5
E21
330
E16
100
AcDbEntity
  8
0
  0
POLYLINE
  5
E23
330
2
100
AcDbEntity
  8
0
100
AcDb2dPolyline
 66
     1
 10
0.0
 20
0.0
 30
0.0
  0
VERTEX
  5
E24
330
E23
100
AcDbEntity
  8
0
100
AcDbVertex
100
AcDb2dVertex
 10
17.5
 20
17.44352490172261
 30
0.0
  0
VERTEX
  5
E25
330
E23
100
AcDbEntity
  8
0
100
AcDbVertex
100
AcDb2dVertex
 10
17.5
 20
18.19352490172261
 30
0.0
  0
VERTEX
  5
E26
330
E23
100
AcDbEntity
  8
0
100
AcDbVertex
100
AcDb2dVertex
 10
17.25
 20
18.25602490172261
 30
0.0
  0
VERTEX
  5
E27
330
E23
100
AcDbEntity
  8
0
100
AcDbVertex
100
AcDb2dVertex
 10
17.75
 20
18.38102490172261
 30
0.0
  0
VERTEX
  5
E28
330
E23
100
AcDbEntity
  8
0
100
AcDbVertex
100
AcDb2dVertex
 10
17.5
 20
18.44352490172261
 30
0.0
  0
VERTEX
  5
E29
330
E23
100
AcDbEntity
  8
0
100
AcDbVertex
100
AcDb2dVertex
 10
17.5
 20
23.02029863599747
 30
0.0
  0
VERTEX
  5
E2A
330
E23
100
AcDbEntity
  8
0
100
AcDbVertex
100
AcDb2dVertex
 10
17.25
 20
23.08279863599747
 30
0.0
  0
VERTEX
  5
E2B
330
E23
100
AcDbEntity
  8
0
100
AcDbVertex
100
AcDb2dVertex
 10
17.75
 20
23.20779863599747
 30
0.0
  0
VERTEX
  5
E2C
330
E23
100
AcDbEntity
  8
0
100
AcDbVertex
100
AcDb2dVertex
 10
17.5
 20
23.27029863599747
 30
0.0
  0
VERTEX
  5
E2D
330
E23
100
AcDbEntity
  8
0
100
AcDbVertex
100
AcDb2dVertex
 10
17.5
 20
25.22477459620057
 30
0.0
  0
SEQEND
  5
E2E
330
E23
100
AcDbEntity
  8
0
  0
POLYLINE
  5
E2F
330
2
100
AcDbEntity
  8
0
100
AcDb2dPolyline
 66
     1
 10
0.0
 20
0.0
 30
0.0
  0
VERTEX
  5
E30
330
E2F
100
AcDbEntity
  8
0
100
AcDbVertex
100
AcDb2dVertex
 10
25.88095000000143
 20
14.41949105434867
 30
0.0
  0
VERTEX
  5
E31
330
E2F
100
AcDbEntity
  8
0
100
AcDbVertex
100
AcDb2dVertex
 10
25.87495000000202
 20
18.1935249017226
 30
0.0
  0
VERTEX
  5
E32
330
E2F
100
AcDbEntity
  8
0
100
AcDbVertex
100
AcDb2dVertex
 10
25.62495000000202
 20
18.2560249017226
 30
0.0
  0
VERTEX
  5
E33
330
E2F
100
AcDbEntity
  8
0
100
AcDbVertex
100
AcDb2dVertex
 10
26.12495000000202
 20
18.3810249017226
 30
0.0
  0
VERTEX
  5
E34
330
E2F
100
AcDbEntity
  8
0
100
AcDbVertex
100
AcDb2dVertex
 10
25.87495000000202
 20
18.4435249017226
 30
0.0
  0
VERTEX
  5
E35
330
E2F
100
AcDbEntity
  8
0
100
AcDbVertex
100
AcDb2dVertex
 10
25.87495000000202
 20
23.02029863599747
 30
0.0
  0
VERTEX
  5
E36
330
E2F
100
AcDbEntity
  8
0
100
AcDbVertex
100
AcDb2dVertex
 10
25.62495000000202
 20
23.08279863599747
 30
0.0
  0
VERTEX
  5
E37
330
E2F
100
AcDbEntity
  8
0
100
AcDbVertex
100
AcDb2dVertex
 10
26.12495000000202
 20
23.20779863599747
 30
0.0
  0
VERTEX
  5
E38
330
E2F
100
AcDbEntity
  8
0
100
AcDbVertex
100
AcDb2dVertex
 10
25.87495000000202
 20
23.27029863599747
 30
0.0
  0
VERTEX
  5
E39
330
E2F
100
AcDbEntity
  8
0
100
AcDbVertex
100
AcDb2dVertex
 10
25.87495000000202
 20
25.22477459620057
 30
0.0
  0
SEQEND
  5
E3A
330
E2F
100
AcDbEntity
  8
0
  0
INSERT
  5
1470
330
2
100
AcDbEntity
  8
0
100
AcDbBlockReference
  2
TSE 10 SH VLJ
 10
21.74995000000203
 20
18.79449105434867
 30
0.0
 50
90.0
  0
INSERT
  5
1471
330
2
100
AcDbEntity
  8
0
100
AcDbBlockReference
  2
TSE 10 SW VS
 10
8.552689991420864
 20
18.11295000000322
 30
0.0
  0
INSERT
  5
1472
330
2
100
AcDbEntity
  8
0
100
AcDbBlockReference
  2
TSE 10 SH FH
 10
8.55268999142086
 20
27.1130000000012
 30
0.0
  0
INSERT
  5
1473
330
2
100
AcDbEntity
  8
0
100
AcDbBlockReference
  2
clip
 10
21.89895000000202
 20
21.22449105434867
 30
0.0
 41
-1.0
  0
INSERT
  5
1474
330
2
100
AcDbEntity
  8
0
100
AcDbBlockReference
  2
clip
 10
10.98268999142086
 20
18.26195000000322
 30
0.0
 50
270.0
  0
INSERT
  5
1579
330
2
100
AcDbEntity
  8
0
100
AcDbBlockReference
  2
30AX
 10
22.37480287699274
 20
24.47999105434867
 30
0.0
  0
INSERT
  5
157A
330
2
100
AcDbEntity
  8
0
100
AcDbBlockReference
  2
30AX
 10
14.23818999142086
 20
26.51380866619917
 30
0.0
 50
270.0
  0
INSERT
  5
157B
330
2
100
AcDbEntity
  8
0
100
AcDbBlockReference
  2
30AX
 10
14.23818999142087
 20
18.73780287699393
 30
0.0
 41
-1.0
 50
270.0
  0
ENDSEC
  0
SECTION
  2
OBJECTS
  0
DICTIONARY
  5
8
330
0
100
AcDbDictionary
281
     1
  3
ACAD_COLOR
350
30
  3
ACAD_GROUP
350
2C
  3
ACAD_LAYOUT
350
D
  3
ACAD_MATERIAL
350
2F
  3
ACAD_MLEADERSTYLE
350
12CE
  3
ACAD_MLINESTYLE
350
2D
  3
ACAD_PLOTSETTINGS
350
2E
  3
ACAD_PLOTSTYLENAME
350
7
  3
ACAD_SCALELIST
350
12AC
  3
ACAD_TABLESTYLE
350
12AA
  3
ACAD_VISUALSTYLE
350
1299
  3
ACDB_RECOMPOSE_DATA
350
1C5A
  3
AcDbVariableDictionary
350
587
  3
AEC_PROPERTY_SET_DEFS
350
1C92
  3
AVAT_FILE_STORE
350
58F
  3
DWGPROPS
350
1D40
1001
ADE
1000
ADE02C004
1000
[Query]
1000
CaseSensitiveMatch=0
1000
SaveCurrQueryInSession=1
1000
MkSelSetWithQryObj=0
1000
ShowBlockAsInsPt=0
1000
CreateAssociativeHatchObjects=0
1000
ReferenceBoundaryForAreaLocation=1
1000
ShowImageAsBoundary=1
1000
DefaultJoinOperator=2
1000
ColorForAdd=red
1000
ColorForRemove=red
1000
BlockLocnForQuery=1
1000
TextLocnForQuery=1
1000
[Save Back]
1000
RedefineBlockDefinitions=1
1000
RedefineLayerDefinitions=1
1000
RedefineTextStyleDefinitions=1
1000
RemoveUnusedGroups=1
1000
EraseSavedBackObjects=1
1000
RemoveLockAfterSave=1
1000
CreateHistoryFileOfChanges=0
1000
CreateBackupFileOfSourceDwg=1
1000
DontAddObjectsToSaveSet=0
1000
MarkObjectsForEditingWithoutPrompting=0
1000
[Coordinate Transformation]
1000
RestoreLastActiveDwgsOnStartup=1
1000
ActivateDwgsOnAttach=1
1000
AdjustSizesAndScalesForChangesInUnits=1
1000
AdjustRotationsForMapDistortions=1
1000
AdjustSizesAndScalesForMapDistortions=1
1000
AdjustElevations=1
1000
AdjustZeroRotationObjects=1
1000
ReconnectDbOnWSOpen=1
1000
NoOfSQLConditionsInHistory=10
  0
DICTIONARY
  5
1C5B
330
20
100
AcDbDictionary
280
     1
281
     1
  0
DICTIONARY
  5
14
330
13
100
AcDbDictionary
280
     1
281
     1
  3
ACAD_LAYERFILTERS
360
15
  3
ACAD_LAYERSTATES
360
16
  0
DICTIONARY
  5
1542
330
5
100
AcDbDictionary
280
     1
281
     1
  3
ADSK_XREC_LAYER_RECONCILED
360
1543
  0
DICTIONARY
  5
154A
330
34
100
AcDbDictionary
280
     1
281
     1
  3
ADSK_XREC_LAYER_RECONCILED
360
154B
  0
DICTIONARY
  5
154E
330
41
100
AcDbDictionary
280
     1
281
     1
  3
ADSK_XREC_LAYER_RECONCILED
360
154F
  0
DICTIONARY
  5
1550
330
A8
100
AcDbDictionary
280
     1
281
     1
  3
ADSK_XREC_LAYER_RECONCILED
360
1551
  0
DICTIONARY
  5
1552
330
96
100
AcDbDictionary
280
     1
281
     1
  3
ADSK_XREC_LAYER_RECONCILED
360
1553
  0
DICTIONARY
  5
1554
330
AD
100
AcDbDictionary
280
     1
281
     1
  3
ADSK_XREC_LAYER_RECONCILED
360
1555
  0
DICTIONARY
  5
1556
330
2C5
100
AcDbDictionary
280
     1
281
     1
  3
ADSK_XREC_LAYER_RECONCILED
360
1557
  0
DICTIONARY
  5
1558
330
4A
100
AcDbDictionary
280
     1
281
     1
  3
ADSK_XREC_LAYER_RECONCILED
360
1559
  0
DICTIONARY
  5
155A
330
AB
100
AcDbDictionary
280
     1
281
     1
  3
ADSK_XREC_LAYER_RECONCILED
360
155B
  0
DICTIONARY
  5
155E
330
10D3
100
AcDbDictionary
280
     1
281
     1
  3
ADSK_XREC_LAYER_RECONCILED
360
155F
  0
DICTIONARY
  5
145B
330
145A
100
AcDbDictionary
280
     1
281
     1
  3
ADSK_XREC_LAYER_RECONCILED
360
1560
  0
DICTIONARY
  5
3
330
2
100
AcDbDictionary
280
     1
281
     1
  3
ACAD_SORTENTS
360
575
  0
DICTIONARY
  5
507
330
506
100
AcDbDictionary
280
     1
281
     1
  3
ACAD_SORTENTS
360
508
  0
DICTIONARY
  5
515
330
514
100
AcDbDictionary
280
     1
281
     1
  3
ACAD_SORTENTS
360
516
  0
DICTIONARY
  5
4CC
330
4CB
100
AcDbDictionary
280
     1
281
     1
  3
ACAD_SORTENTS
360
1B55
  0
DICTIONARY
  5
286
330
285
100
AcDbDictionary
280
     1
281
     1
  3
ACAD_SORTENTS
360
C4E
  0
DICTIONARY
  5
20F
330
20E
100
AcDbDictionary
280
     1
281
     1
  3
ACAD_SORTENTS
360
1C4B
  0
DICTIONARY
  5
37B
330
37A
100
AcDbDictionary
280
     1
281
     1
  3
ACAD_SORTENTS
360
1AAB
  0
DICTIONARY
  5
485
330
484
100
AcDbDictionary
280
     1
281
     1
  3
ACAD_SORTENTS
360
1866
  0
DICTIONARY
  5
B50
330
B4F
100
AcDbDictionary
280
     1
281
     1
  3
ACAD_SORTENTS
360
B51
  0
DICTIONARY
  5
12D6
330
12D5
100
AcDbDictionary
280
     1
281
     1
  3
ACAD_SORTENTS
360
12D7
  0
DICTIONARY
  5
1395
330
1394
100
AcDbDictionary
280
     1
281
     1
  3
ACAD_SORTENTS
360
1396
  0
DICTIONARY
  5
13A8
330
13A7
100
AcDbDictionary
280
     1
281
     1
  3
ACAD_SORTENTS
360
13A9
  0
DICTIONARY
  5
1575
330
1570
100
AcDbDictionary
280
     1
281
     1
  3
ACAD_SORTENTS
360
1576
  0
DICTIONARY
  5
30
102
{ACAD_REACTORS
330
8
102
}
330
8
100
AcDbDictionary
281
     1
  0
DICTIONARY
  5
2C
102
{ACAD_REACTORS
330
8
102
}
330
8
100
AcDbDictionary
281
     1
  3
*A1
350
156F
  0
DICTIONARY
  5
D
102
{ACAD_REACTORS
330
8
102
}
330
8
100
AcDbDictionary
281
     1
  3
Layout1
350
126A
  3
Model
350
C
  0
DICTIONARY
  5
2F
102
{ACAD_REACTORS
330
8
102
}
330
8
100
AcDbDictionary
281
     1
  3
ByBlock
350
1289
  3
ByLayer
350
1281
  3
Global
350
1291
  0
DICTIONARY
  5
12CE
102
{ACAD_REACTORS
330
8
102
}
330
8
100
AcDbDictionary
281
     1
  3
Standard
350
12CF
  0
DICTIONARY
  5
2D
102
{ACAD_REACTORS
330
8
102
}
330
8
100
AcDbDictionary
281
     1
  3
Standard
350
31
  0
DICTIONARY
  5
2E
102
{ACAD_REACTORS
330
8
102
}
330
8
100
AcDbDictionary
281
     1
  0
ACDBDICTIONARYWDFLT
  5
7
102
{ACAD_REACTORS
330
8
102
}
330
8
100
AcDbDictionary
281
     1
  3
Normal
350
6
100
AcDbDictionaryWithDefault
340
6
  0
DICTIONARY
  5
12AC
102
{ACAD_REACTORS
330
8
102
}
330
8
100
AcDbDictionary
281
     1
  3
*A1
350
1460
  3
A0
350
12AD
  3
A1
350
12AE
  3
A2
350
12AF
  3
A3
350
12B0
  3
A4
350
12B1
  3
A5
350
12B2
  3
A6
350
12B3
  3
A7
350
12B4
  3
A8
350
12B5
  3
A9
350
12B6
  3
B0
350
12B7
  3
B1
350
12B8
  3
B2
350
12B9
  3
B3
350
12BA
  3
B4
350
12BB
  3
B5
350
12BC
  3
B6
350
12BD
  3
B7
350
12BE
  3
B8
350
12BF
  3
B9
350
12C0
  3
C0
350
12C1
  3
C1
350
12C2
  3
C2
350
12C3
  3
C3
350
12C4
  3
C4
350
12C5
  3
C5
350
12C6
  3
C6
350
12C7
  3
C7
350
12C8
  3
C8
350
12C9
  3
C9
350
12CA
  3
D0
350
12CB
  3
D1
350
12CC
  3
D2
350
12CD
  0
DICTIONARY
  5
12AA
102
{ACAD_REACTORS
330
8
102
}
330
8
100
AcDbDictionary
281
     1
  3
Standard
350
12AB
  0
DICTIONARY
  5
1299
102
{ACAD_REACTORS
330
8
102
}
330
8
100
AcDbDictionary
281
     1
  3
2dWireframe
350
129F
  3
3D Hidden
350
12A1
  3
3dWireframe
350
12A0
  3
Basic
350
129E
  3
Brighten
350
12A5
  3
ColorChange
350
12A9
  3
Conceptual
350
12A2
  3
Dim
350
12A4
  3
Facepattern
350
12A8
  3
Flat
350
129A
  3
FlatWithEdges
350
129B
  3
Gouraud
350
129C
  3
GouraudWithEdges
350
129D
  3
Linepattern
350
12A7
  3
Realistic
350
12A3
  3
Thicken
350
12A6
  0
XRECORD
  5
1C5A
102
{ACAD_REACTORS
330
8
102
}
330
8
100
AcDbXrecord
280
     1
 90
        1
330
12AB
  0
DICTIONARY
  5
587
102
{ACAD_REACTORS
330
8
102
}
330
8
100
AcDbDictionary
281
     1
  3
CANNOSCALE
350
1C63
  3
CMLEADERSTYLE
350
1C62
  3
CTABLESTYLE
350
1C61
  3
DIMASSOC
350
589
  3
HIDETEXT
350
588
  3
INDEXCTL
350
1D3E
  3
PROJECTNAME
350
58A
  3
SORTENTS
350
1D3D
  0
DICTIONARY
  5
1C92
102
{ACAD_REACTORS
330
8
102
}
330
8
100
AcDbDictionary
281
     1
  0
DICTIONARY
  5
58F
102
{ACAD_REACTORS
330
8
102
}
330
8
100
AcDbDictionary
281
     1
  0
XRECORD
  5
1D40
102
{ACAD_REACTORS
330
8
102
}
330
8
100
AcDbXrecord
280
     1
  1
DWGPROPS COOKIE
  2

  3

  4

  6

  7

  8
rohwertl
  9

300
=
301
=
302
=
303
=
304
=
305
=
306
=
307
=
308
=
309
=
 40
1.68309042824074
 41
2453963.430150475
 42
2455447.477992592
  1

 90
        0
  0
DICTIONARY
  5
15
102
{ACAD_REACTORS
330
14
102
}
330
14
100
AcDbDictionary
281
     1
  0
DICTIONARY
  5
16
102
{ACAD_REACTORS
330
14
102
}
330
14
100
AcDbDictionary
281
     1
  0
XRECORD
  5
1543
102
{ACAD_REACTORS
330
1542
102
}
330
1542
100
AcDbXrecord
280
     1
290
     1
  0
XRECORD
  5
154B
102
{ACAD_REACTORS
330
154A
102
}
330
154A
100
AcDbXrecord
280
     1
290
     1
  0
XRECORD
  5
154F
102
{ACAD_REACTORS
330
154E
102
}
330
154E
100
AcDbXrecord
280
     1
290
     1
  0
XRECORD
  5
1551
102
{ACAD_REACTORS
330
1550
102
}
330
1550
100
AcDbXrecord
280
     1
290
     1
  0
XRECORD
  5
1553
102
{ACAD_REACTORS
330
1552
102
}
330
1552
100
AcDbXrecord
280
     1
290
     1
  0
XRECORD
  5
1555
102
{ACAD_REACTORS
330
1554
102
}
330
1554
100
AcDbXrecord
280
     1
290
     1
  0
XRECORD
  5
1557
102
{ACAD_REACTORS
330
1556
102
}
330
1556
100
AcDbXrecord
280
     1
290
     1
  0
XRECORD
  5
1559
102
{ACAD_REACTORS
330
1558
102
}
330
1558
100
AcDbXrecord
280
     1
290
     1
  0
XRECORD
  5
155B
102
{ACAD_REACTORS
330
155A
102
}
330
155A
100
AcDbXrecord
280
     1
290
     1
  0
XRECORD
  5
155F
102
{ACAD_REACTORS
330
155E
102
}
330
155E
100
AcDbXrecord
280
     1
290
     1
  0
XRECORD
  5
1560
102
{ACAD_REACTORS
330
145B
102
}
330
145B
100
AcDbXrecord
280
     1
290
     1
  0
SORTENTSTABLE
  5
575
102
{ACAD_REACTORS
330
3
102
}
330
3
100
AcDbSortentsTable
330
2
331
348
  5
324
331
E0A
  5
E0A
331
32F
  5
30B
331
356
  5
32F
331
157B
  5
157B
331
2F7
  5
2D3
331
157A
  5
157A
331
E2F
  5
E2F
331
1579
  5
1579
331
E16
  5
E16
331
324
  5
2FB
331
1474
  5
1474
331
DFE
  5
DFE
331
4CA
  5
372
331
D5E
  5
D5E
331
1473
  5
1473
331
2FB
  5
2F7
331
30B
  5
2F9
331
33A
  5
319
331
20D
  5
20A
331
1472
  5
1472
331
CAD
  5
CAD
331
2FA
  5
2EB
331
361
  5
33A
331
379
  5
36C
331
E23
  5
E23
331
1471
  5
1471
331
2F9
  5
2DF
331
319
  5
2FA
331
DF2
  5
DF2
331
1470
  5
1470
  0
SORTENTSTABLE
  5
508
102
{ACAD_REACTORS
330
507
102
}
330
507
100
AcDbSortentsTable
330
506
  0
SORTENTSTABLE
  5
516
102
{ACAD_REACTORS
330
515
102
}
330
515
100
AcDbSortentsTable
330
514
  0
SORTENTSTABLE
  5
1B55
102
{ACAD_REACTORS
330
4CC
102
}
330
4CC
100
AcDbSortentsTable
330
4CB
331
502
  5
526
331
527
  5
1B43
331
4E2
  5
4FB
331
1B3F
  5
4FC
331
4FD
  5
502
331
4CF
  5
4D0
331
4DF
  5
4E0
331
1B43
  5
4FE
331
528
  5
1B48
331
503
  5
527
331
500
  5
505
331
4FE
  5
503
331
4E0
  5
4E1
331
4D6
  5
4DE
331
504
  5
528
331
1B48
  5
4FF
331
4FB
  5
500
331
526
  5
1B3F
331
501
  5
513
331
4FF
  5
504
331
4E1
  5
4E2
331
1B10
  5
4CF
331
505
  5
1B10
331
513
  5
1B3B
331
4FC
  5
501
331
4DE
  5
4DF
331
1B3B
  5
4FD
331
4D0
  5
4D6
  0
SORTENTSTABLE
  5
C4E
102
{ACAD_REACTORS
330
286
102
}
330
286
100
AcDbSortentsTable
330
285
  0
SORTENTSTABLE
  5
1C4B
102
{ACAD_REACTORS
330
20F
102
}
330
20F
100
AcDbSortentsTable
330
20E
  0
SORTENTSTABLE
  5
1AAB
102
{ACAD_REACTORS
330
37B
102
}
330
37B
100
AcDbSortentsTable
330
37A
  0
SORTENTSTABLE
  5
1866
102
{ACAD_REACTORS
330
485
102
}
330
485
100
AcDbSortentsTable
330
484
  0
SORTENTSTABLE
  5
B51
102
{ACAD_REACTORS
330
B50
102
}
330
B50
100
AcDbSortentsTable
330
B4F
  0
SORTENTSTABLE
  5
12D7
102
{ACAD_REACTORS
330
12D6
102
}
330
12D6
100
AcDbSortentsTable
330
12D5
  0
SORTENTSTABLE
  5
1396
102
{ACAD_REACTORS
330
1395
102
}
330
1395
100
AcDbSortentsTable
330
1394
  0
SORTENTSTABLE
  5
13A9
102
{ACAD_REACTORS
330
13A8
102
}
330
13A8
100
AcDbSortentsTable
330
13A7
  0
SORTENTSTABLE
  5
1576
102
{ACAD_REACTORS
330
1575
102
}
330
1575
100
AcDbSortentsTable
330
1570
331
1572
  5
1574
331
1573
  5
1572
  0
GROUP
  5
156F
102
{ACAD_REACTORS
330
2C
102
}
330
2C
100
AcDbGroup
300

 70
     1
 71
     1
  0
LAYOUT
  5
126A
102
{ACAD_XDICTIONARY
360
1D43
102
}
102
{ACAD_REACTORS
330
D
102
}
330
D
100
AcDbPlotSettings
  1

  2
\\pelsprnt01\PEASP5
  4

  6

 40
0.0
 41
0.0
 42
0.0
 43
0.0
 44
0.0
 45
0.0
 46
0.0
 47
0.0
 48
0.0
 49
0.0
140
0.0
141
0.0
142
1.0
143
1.0
 70
   688
 72
     0
 73
     0
 74
     5
  7
PellaCAD 2000.ctb
 75
    16
147
1.0
148
0.0
149
0.0
100
AcDbLayout
  1
Layout1
 70
     1
 71
     1
 10
0.0
 20
0.0
 11
12.0
 21
9.0
 12
0.0
 22
0.0
 32
0.0
 14
0.0
 24
0.0
 34
0.0
 15
0.0
 25
0.0
 35
0.0
146
0.0
 13
0.0
 23
0.0
 33
0.0
 16
1.0
 26
0.0
 36
0.0
 17
0.0
 27
1.0
 37
0.0
 76
     0
330
1269
  0
LAYOUT
  5
C
102
{ACAD_XDICTIONARY
360
1D41
102
}
102
{ACAD_REACTORS
330
D
102
}
330
D
100
AcDbPlotSettings
  1

  2
pdfFactory Pro
  4
Letter
  6

 40
7.143749713897705
 41
7.143756389617919
 42
7.14373779296875
 43
7.14373779296875
 44
215.8999938964844
 45
279.3999938964844
 46
-5114.216318644388
 47
-4004.504255472169
 48
0.0
 49
0.0
140
0.0
141
0.0
142
1.0
143
1.0
 70
 11956
 72
     0
 73
     0
 74
     1
  7
PellaCAD 2000.ctb
 75
    16
147
1.0
148
5184.779528771089
149
464.5374802517002
100
AcDbLayout
  1
Model
 70
     1
 71
     0
 10
0.0
 20
0.0
 11
12.0
 21
9.0
 12
0.0
 22
0.0
 32
0.0
 14
0.0
 24
0.0
 34
0.0
 15
0.0
 25
0.0
 35
0.0
146
0.0
 13
0.0
 23
0.0
 33
0.0
 16
1.0
 26
0.0
 36
0.0
 17
0.0
 27
1.0
 37
0.0
 76
     0
330
2
331
1278
  0
MATERIAL
  5
1289
102
{ACAD_XDICTIONARY
360
128A
102
}
102
{ACAD_REACTORS
330
2F
102
}
330
2F
100
AcDbMaterial
  1
ByBlock
 72
     0
 43
0.0208333333333333
 43
0.0
 43
0.0
 43
0.0
 43
0.0
 43
0.0208333333333333
 43
0.0
 43
0.0
 43
0.0
 43
0.0
 43
1.0
 43
0.0
 43
0.0
 43
0.0
 43
0.0
 43
1.0
 77
     0
 47
0.0208333333333333
 47
0.0
 47
0.0
 47
0.0
 47
0.0
 47
0.0208333333333333
 47
0.0
 47
0.0
 47
0.0
 47
0.0
 47
1.0
 47
0.0
 47
0.0
 47
0.0
 47
0.0
 47
1.0
171
     0
 49
0.0208333333333333
 49
0.0
 49
0.0
 49
0.0
 49
0.0
 49
0.0208333333333333
 49
0.0
 49
0.0
 49
0.0
 49
0.0
 49
1.0
 49
0.0
 49
0.0
 49
0.0
 49
0.0
 49
1.0
175
     0
142
0.0208333333333333
142
0.0
142
0.0
142
0.0
142
0.0
142
0.0208333333333333
142
0.0
142
0.0
142
0.0
142
0.0
142
1.0
142
0.0
142
0.0
142
0.0
142
0.0
142
1.0
179
     0
144
0.0208333333333333
144
0.0
144
0.0
144
0.0
144
0.0
144
0.0208333333333333
144
0.0
144
0.0
144
0.0
144
0.0
144
1.0
144
0.0
144
0.0
144
0.0
144
0.0
144
1.0
147
0.0208333333333333
147
0.0
147
0.0
147
0.0
147
0.0
147
0.0208333333333333
147
0.0
147
0.0
147
0.0
147
0.0
147
1.0
147
0.0
147
0.0
147
0.0
147
0.0
147
1.0
  0
MATERIAL
  5
1281
102
{ACAD_XDICTIONARY
360
1282
102
}
102
{ACAD_REACTORS
330
2F
102
}
330
2F
100
AcDbMaterial
  1
ByLayer
 72
     0
 43
0.0208333333333333
 43
0.0
 43
0.0
 43
0.0
 43
0.0
 43
0.0208333333333333
 43
0.0
 43
0.0
 43
0.0
 43
0.0
 43
1.0
 43
0.0
 43
0.0
 43
0.0
 43
0.0
 43
1.0
 77
     0
 47
0.0208333333333333
 47
0.0
 47
0.0
 47
0.0
 47
0.0
 47
0.0208333333333333
 47
0.0
 47
0.0
 47
0.0
 47
0.0
 47
1.0
 47
0.0
 47
0.0
 47
0.0
 47
0.0
 47
1.0
171
     0
 49
0.0208333333333333
 49
0.0
 49
0.0
 49
0.0
 49
0.0
 49
0.0208333333333333
 49
0.0
 49
0.0
 49
0.0
 49
0.0
 49
1.0
 49
0.0
 49
0.0
 49
0.0
 49
0.0
 49
1.0
175
     0
142
0.0208333333333333
142
0.0
142
0.0
142
0.0
142
0.0
142
0.0208333333333333
142
0.0
142
0.0
142
0.0
142
0.0
142
1.0
142
0.0
142
0.0
142
0.0
142
0.0
142
1.0
179
     0
144
0.0208333333333333
144
0.0
144
0.0
144
0.0
144
0.0
144
0.0208333333333333
144
0.0
144
0.0
144
0.0
144
0.0
144
1.0
144
0.0
144
0.0
144
0.0
144
0.0
144
1.0
147
0.0208333333333333
147
0.0
147
0.0
147
0.0
147
0.0
147
0.0208333333333333
147
0.0
147
0.0
147
0.0
147
0.0
147
1.0
147
0.0
147
0.0
147
0.0
147
0.0
147
1.0
  0
MATERIAL
  5
1291
102
{ACAD_XDICTIONARY
360
1292
102
}
102
{ACAD_REACTORS
330
2F
102
}
330
2F
100
AcDbMaterial
  1
Global
 72
     0
 43
0.0208333333333333
 43
0.0
 43
0.0
 43
0.0
 43
0.0
 43
0.0208333333333333
 43
0.0
 43
0.0
 43
0.0
 43
0.0
 43
1.0
 43
0.0
 43
0.0
 43
0.0
 43
0.0
 43
1.0
 77
     0
 47
0.0208333333333333
 47
0.0
 47
0.0
 47
0.0
 47
0.0
 47
0.0208333333333333
 47
0.0
 47
0.0
 47
0.0
 47
0.0
 47
1.0
 47
0.0
 47
0.0
 47
0.0
 47
0.0
 47
1.0
171
     0
 49
0.0208333333333333
 49
0.0
 49
0.0
 49
0.0
 49
0.0
 49
0.0208333333333333
 49
0.0
 49
0.0
 49
0.0
 49
0.0
 49
1.0
 49
0.0
 49
0.0
 49
0.0
 49
0.0
 49
1.0
175
     0
142
0.0208333333333333
142
0.0
142
0.0
142
0.0
142
0.0
142
0.0208333333333333
142
0.0
142
0.0
142
0.0
142
0.0
142
1.0
142
0.0
142
0.0
142
0.0
142
0.0
142
1.0
179
     0
144
0.0208333333333333
144
0.0
144
0.0
144
0.0
144
0.0
144
0.0208333333333333
144
0.0
144
0.0
144
0.0
144
0.0
144
1.0
144
0.0
144
0.0
144
0.0
144
0.0
144
1.0
147
0.0208333333333333
147
0.0
147
0.0
147
0.0
147
0.0
147
0.0208333333333333
147
0.0
147
0.0
147
0.0
147
0.0
147
1.0
147
0.0
147
0.0
147
0.0
147
0.0
147
1.0
  0
MLEADERSTYLE
  5
12CF
102
{ACAD_REACTORS
330
12CE
102
}
330
12CE
100
AcDbMLeaderStyle
170
     2
171
     1
172
     0
 90
        2
 40
0.0
 41
0.0
173
     1
 91
-1056964608
340
1C
 92
       -2
290
     1
 42
0.09
291
     1
 43
0.36
  3
Standard
 44
0.18
300

342
18
174
     1
178
     6
175
     1
176
     0
 93
-1056964608
 45
0.18
292
     0
297
     0
 46
0.18
 94
-1056964608
 47
1.0
 49
1.0
140
1.0
293
     1
141
0.0
294
     1
177
     0
142
1.0
295
     0
296
     0
143
0.125
1001
ACAD_MLEADERVER
1070
     2
  0
MLINESTYLE
  5
31
102
{ACAD_REACTORS
330
2D
102
}
330
2D
100
AcDbMlineStyle
  2
STANDARD
 70
     0
  3

 62
   256
 51
90.0
 52
90.0
 71
     2
 49
0.5
 62
   256
  6
BYLAYER
 49
-0.5
 62
   256
  6
BYLAYER
  0
ACDBPLACEHOLDER
  5
6
102
{ACAD_REACTORS
330
7
102
}
330
7
  0
SCALE
  5
1460
102
{ACAD_REACTORS
330
12AC
102
}
330
12AC
100
AcDbScale
 70
     0
300
1" = 1'
140
1.0
141
1.0
290
     0
  0
SCALE
  5
12AD
102
{ACAD_REACTORS
330
12AC
102
}
330
12AC
100
AcDbScale
 70
     0
300
1:1
140
1.0
141
1.0
290
     1
  0
SCALE
  5
12AE
102
{ACAD_REACTORS
330
12AC
102
}
330
12AC
100
AcDbScale
 70
     0
300
1:2
140
1.0
141
2.0
290
     0
  0
SCALE
  5
12AF
102
{ACAD_REACTORS
330
12AC
102
}
330
12AC
100
AcDbScale
 70
     0
300
1:4
140
1.0
141
4.0
290
     0
  0
SCALE
  5
12B0
102
{ACAD_REACTORS
330
12AC
102
}
330
12AC
100
AcDbScale
 70
     0
300
1:5
140
1.0
141
5.0
290
     0
  0
SCALE
  5
12B1
102
{ACAD_REACTORS
330
12AC
102
}
330
12AC
100
AcDbScale
 70
     0
300
1:8
140
1.0
141
8.0
290
     0
  0
SCALE
  5
12B2
102
{ACAD_REACTORS
330
12AC
102
}
330
12AC
100
AcDbScale
 70
     0
300
1:10
140
1.0
141
10.0
290
     0
  0
SCALE
  5
12B3
102
{ACAD_REACTORS
330
12AC
102
}
330
12AC
100
AcDbScale
 70
     0
300
1:16
140
1.0
141
16.0
290
     0
  0
SCALE
  5
12B4
102
{ACAD_REACTORS
330
12AC
102
}
330
12AC
100
AcDbScale
 70
     0
300
1:20
140
1.0
141
20.0
290
     0
  0
SCALE
  5
12B5
102
{ACAD_REACTORS
330
12AC
102
}
330
12AC
100
AcDbScale
 70
     0
300
1:30
140
1.0
141
30.0
290
     0
  0
SCALE
  5
12B6
102
{ACAD_REACTORS
330
12AC
102
}
330
12AC
100
AcDbScale
 70
     0
300
1:40
140
1.0
141
40.0
290
     0
  0
SCALE
  5
12B7
102
{ACAD_REACTORS
330
12AC
102
}
330
12AC
100
AcDbScale
 70
     0
300
1:50
140
1.0
141
50.0
290
     0
  0
SCALE
  5
12B8
102
{ACAD_REACTORS
330
12AC
102
}
330
12AC
100
AcDbScale
 70
     0
300
1:100
140
1.0
141
100.0
290
     0
  0
SCALE
  5
12B9
102
{ACAD_REACTORS
330
12AC
102
}
330
12AC
100
AcDbScale
 70
     0
300
2:1
140
2.0
141
1.0
290
     0
  0
SCALE
  5
12BA
102
{ACAD_REACTORS
330
12AC
102
}
330
12AC
100
AcDbScale
 70
     0
300
4:1
140
4.0
141
1.0
290
     0
  0
SCALE
  5
12BB
102
{ACAD_REACTORS
330
12AC
102
}
330
12AC
100
AcDbScale
 70
     0
300
8:1
140
8.0
141
1.0
290
     0
  0
SCALE
  5
12BC
102
{ACAD_REACTORS
330
12AC
102
}
330
12AC
100
AcDbScale
 70
     0
300
10:1
140
10.0
141
1.0
290
     0
  0
SCALE
  5
12BD
102
{ACAD_REACTORS
330
12AC
102
}
330
12AC
100
AcDbScale
 70
     0
300
100:1
140
100.0
141
1.0
290
     0
  0
SCALE
  5
12BE
102
{ACAD_REACTORS
330
12AC
102
}
330
12AC
100
AcDbScale
 70
     0
300
1/128" = 1'-0"
140
0.0078125
141
12.0
290
     0
  0
SCALE
  5
12BF
102
{ACAD_REACTORS
330
12AC
102
}
330
12AC
100
AcDbScale
 70
     0
300
1/64" = 1'-0"
140
0.015625
141
12.0
290
     0
  0
SCALE
  5
12C0
102
{ACAD_REACTORS
330
12AC
102
}
330
12AC
100
AcDbScale
 70
     0
300
1/32" = 1'-0"
140
0.03125
141
12.0
290
     0
  0
SCALE
  5
12C1
102
{ACAD_REACTORS
330
12AC
102
}
330
12AC
100
AcDbScale
 70
     0
300
1/16" = 1'-0"
140
0.0625
141
12.0
290
     0
  0
SCALE
  5
12C2
102
{ACAD_REACTORS
330
12AC
102
}
330
12AC
100
AcDbScale
 70
     0
300
3/32" = 1'-0"
140
0.09375
141
12.0
290
     0
  0
SCALE
  5
12C3
102
{ACAD_REACTORS
330
12AC
102
}
330
12AC
100
AcDbScale
 70
     0
300
1/8" = 1'-0"
140
0.125
141
12.0
290
     0
  0
SCALE
  5
12C4
102
{ACAD_REACTORS
330
12AC
102
}
330
12AC
100
AcDbScale
 70
     0
300
3/16" = 1'-0"
140
0.1875
141
12.0
290
     0
  0
SCALE
  5
12C5
102
{ACAD_REACTORS
330
12AC
102
}
330
12AC
100
AcDbScale
 70
     0
300
1/4" = 1'-0"
140
0.25
141
12.0
290
     0
  0
SCALE
  5
12C6
102
{ACAD_REACTORS
330
12AC
102
}
330
12AC
100
AcDbScale
 70
     0
300
3/8" = 1'-0"
140
0.375
141
12.0
290
     0
  0
SCALE
  5
12C7
102
{ACAD_REACTORS
330
12AC
102
}
330
12AC
100
AcDbScale
 70
     0
300
1/2" = 1'-0"
140
0.5
141
12.0
290
     0
  0
SCALE
  5
12C8
102
{ACAD_REACTORS
330
12AC
102
}
330
12AC
100
AcDbScale
 70
     0
300
3/4" = 1'-0"
140
0.75
141
12.0
290
     0
  0
SCALE
  5
12C9
102
{ACAD_REACTORS
330
12AC
102
}
330
12AC
100
AcDbScale
 70
     0
300
1" = 1'-0"
140
1.0
141
12.0
290
     0
  0
SCALE
  5
12CA
102
{ACAD_REACTORS
330
12AC
102
}
330
12AC
100
AcDbScale
 70
     0
300
1-1/2" = 1'-0"
140
1.5
141
12.0
290
     0
  0
SCALE
  5
12CB
102
{ACAD_REACTORS
330
12AC
102
}
330
12AC
100
AcDbScale
 70
     0
300
3" = 1'-0"
140
3.0
141
12.0
290
     0
  0
SCALE
  5
12CC
102
{ACAD_REACTORS
330
12AC
102
}
330
12AC
100
AcDbScale
 70
     0
300
6" = 1'-0"
140
6.0
141
12.0
290
     0
  0
SCALE
  5
12CD
102
{ACAD_REACTORS
330
12AC
102
}
330
12AC
100
AcDbScale
 70
     0
300
1'-0" = 1'-0"
140
12.0
141
12.0
290
     0
  0
TABLESTYLE
  5
12AB
102
{ACAD_XDICTIONARY
360
1C58
102
}
102
{ACAD_REACTORS
330
12AA
102
}
330
12AA
100
AcDbTableStyle
  3
Standard
 70
     0
 71
     0
 40
0.06
 41
0.06
280
     0
281
     0
  7
Standard
140
0.18
170
     2
 62
     0
 63
     7
283
     0
274
    -2
284
     1
 64
     0
275
    -2
285
     1
 65
     0
276
    -2
286
     1
 66
     0
277
    -2
287
     1
 67
     0
278
    -2
288
     1
 68
     0
279
    -2
289
     1
 69
     0
  7
Standard
140
0.25
170
     5
 62
     0
 63
     7
283
     0
274
    -2
284
     1
 64
     0
275
    -2
285
     1
 65
     0
276
    -2
286
     1
 66
     0
277
    -2
287
     1
 67
     0
278
    -2
288
     1
 68
     0
279
    -2
289
     1
 69
     0
  7
Standard
140
0.18
170
     5
 62
     0
 63
     7
283
     0
274
    -2
284
     1
 64
     0
275
    -2
285
     1
 65
     0
276
    -2
286
     1
 66
     0
277
    -2
287
     1
 67
     0
278
    -2
288
     1
 68
     0
279
    -2
289
     1
 69
     0
  0
VISUALSTYLE
  5
129F
102
{ACAD_REACTORS
330
1299
102
}
330
1299
100
AcDbVisualStyle
  2
2dWireframe
 70
     4
 71
     0
 72
     2
 73
     0
 90
        0
 40
-0.6
 41
-30.0
 62
     5
 63
     7
 74
     1
 91
        4
 64
     7
 65
   257
 75
     1
175
     1
 42
1.0
 92
        0
 66
   257
 43
1.0
 76
     1
 77
     6
 78
     2
 67
     7
 79
     5
170
     0
171
     0
290
     0
174
     0
 93
        1
 44
0.0
173
     0
291
     0
 45
0.0
1001
ACAD
1000
AcDbSavedByObjectVersion
1070
     0
  0
VISUALSTYLE
  5
12A1
102
{ACAD_REACTORS
330
1299
102
}
330
1299
100
AcDbVisualStyle
  2
3D Hidden
 70
     6
 71
     1
 72
     2
 73
     2
 90
        0
 40
-0.6
 41
-30.0
 62
     5
 63
     7
 74
     2
 91
        2
 64
     7
 65
   257
 75
     2
175
     1
 42
40.0
 92
        0
 66
   257
 43
1.0
 76
     1
 77
     6
 78
     2
 67
     7
 79
     3
170
     0
171
     0
290
     0
174
     0
 93
        1
 44
0.0
173
     0
291
     0
 45
0.0
1001
ACAD
1000
AcDbSavedByObjectVersion
1070
     0
  0
VISUALSTYLE
  5
12A0
102
{ACAD_REACTORS
330
1299
102
}
330
1299
100
AcDbVisualStyle
  2
3dWireframe
 70
     5
 71
     0
 72
     2
 73
     0
 90
        0
 40
-0.6
 41
-30.0
 62
     5
 63
     7
 74
     1
 91
        4
 64
     7
 65
   257
 75
     1
175
     1
 42
1.0
 92
        0
 66
   257
 43
1.0
 76
     1
 77
     6
 78
     2
 67
     7
 79
     5
170
     0
171
     0
290
     0
174
     0
 93
        1
 44
0.0
173
     0
291
     0
 45
0.0
1001
ACAD
1000
AcDbSavedByObjectVersion
1070
     0
  0
VISUALSTYLE
  5
129E
102
{ACAD_REACTORS
330
1299
102
}
330
1299
100
AcDbVisualStyle
  2
Basic
 70
     7
 71
     1
 72
     0
 73
     1
 90
        0
 40
-0.6
 41
-30.0
 62
     5
 63
     7
 74
     0
 91
        4
 64
     7
 65
   257
 75
     1
175
     1
 42
1.0
 92
        8
 66
     7
 43
1.0
 76
     1
 77
     6
 78
     2
 67
     7
 79
     5
170
     0
171
     0
290
     0
174
     0
 93
        1
 44
0.0
173
     0
291
     1
 45
0.0
1001
ACAD
1000
AcDbSavedByObjectVersion
1070
     0
  0
VISUALSTYLE
  5
12A5
102
{ACAD_REACTORS
330
1299
102
}
330
1299
100
AcDbVisualStyle
  2
Brighten
 70
    12
 71
     2
 72
     2
 73
     0
 90
        0
 40
-0.6
 41
-30.0
 62
     5
 63
     7
 74
     1
 91
        4
 64
     7
 65
   257
 75
     1
175
     1
 42
1.0
 92
        8
 66
     7
 43
1.0
 76
     1
 77
     6
 78
     2
 67
     7
 79
     5
170
     0
171
     0
290
     0
174
     0
 93
        1
 44
50.0
173
     0
291
     1
 45
0.0
1001
ACAD
1000
AcDbSavedByObjectVersion
1070
     0
  0
VISUALSTYLE
  5
12A9
102
{ACAD_REACTORS
330
1299
102
}
330
1299
100
AcDbVisualStyle
  2
ColorChange
 70
    16
 71
     2
 72
     2
 73
     3
 90
        0
 40
-0.6
 41
-30.0
 62
     5
 63
     8
 74
     1
 91
        4
 64
     7
 65
   257
 75
     1
175
     1
 42
1.0
 92
        8
 66
     8
 43
1.0
 76
     1
 77
     6
 78
     2
 67
     7
 79
     5
170
     0
171
     0
290
     0
174
     0
 93
        1
 44
0.0
173
     0
291
     1
 45
0.0
1001
ACAD
1000
AcDbSavedByObjectVersion
1070
     0
  0
VISUALSTYLE
  5
12A2
102
{ACAD_REACTORS
330
1299
102
}
330
1299
100
AcDbVisualStyle
  2
Conceptual
 70
     9
 71
     3
 72
     2
 73
     0
 90
        0
 40
-0.6
 41
-30.0
 62
     5
 63
     7
 74
     2
 91
        2
 64
     7
 65
   257
 75
     1
175
     1
 42
40.0
 92
        8
 66
     7
 43
1.0
 76
     1
 77
     6
 78
     2
 67
     7
 79
     3
170
     0
171
     0
290
     0
174
     0
 93
        1
 44
0.0
173
     0
291
     0
 45
0.0
1001
ACAD
1000
AcDbSavedByObjectVersion
1070
     0
  0
VISUALSTYLE
  5
12A4
102
{ACAD_REACTORS
330
1299
102
}
330
1299
100
AcDbVisualStyle
  2
Dim
 70
    11
 71
     2
 72
     2
 73
     0
 90
        0
 40
-0.6
 41
-30.0
 62
     5
 63
     7
 74
     1
 91
        4
 64
     7
 65
   257
 75
     1
175
     1
 42
1.0
 92
        8
 66
     7
 43
1.0
 76
     1
 77
     6
 78
     2
 67
     7
 79
     5
170
     0
171
     0
290
     0
174
     0
 93
        1
 44
-50.0
173
     0
291
     1
 45
0.0
1001
ACAD
1000
AcDbSavedByObjectVersion
1070
     0
  0
VISUALSTYLE
  5
12A8
102
{ACAD_REACTORS
330
1299
102
}
330
1299
100
AcDbVisualStyle
  2
Facepattern
 70
    15
 71
     2
 72
     2
 73
     0
 90
        0
 40
-0.6
 41
-30.0
 62
     5
 63
     7
 74
     1
 91
        4
 64
     7
 65
   257
 75
     1
175
     1
 42
1.0
 92
        8
 66
     7
 43
1.0
 76
     1
 77
     6
 78
     2
 67
     7
 79
     5
170
     0
171
     0
290
     0
174
     0
 93
        1
 44
0.0
173
     0
291
     1
 45
0.0
1001
ACAD
1000
AcDbSavedByObjectVersion
1070
     0
  0
VISUALSTYLE
  5
129A
102
{ACAD_REACTORS
330
1299
102
}
330
1299
100
AcDbVisualStyle
  2
Flat
 70
     0
 71
     2
 72
     1
 73
     1
 90
        2
 40
-0.6
 41
30.0
 62
     5
 63
     7
 74
     0
 91
        4
 64
     7
 65
   257
 75
     1
175
     1
 42
1.0
 92
        8
 66
     7
 43
1.0
 76
     1
 77
     6
 78
     2
 67
     7
 79
     5
170
     0
171
     0
290
     0
174
     0
 93
       13
 44
0.0
173
     0
291
     1
 45
0.0
1001
ACAD
1000
AcDbSavedByObjectVersion
1070
     0
  0
VISUALSTYLE
  5
129B
102
{ACAD_REACTORS
330
1299
102
}
330
1299
100
AcDbVisualStyle
  2
FlatWithEdges
 70
     1
 71
     2
 72
     1
 73
     1
 90
        2
 40
-0.6
 41
30.0
 62
     5
 63
     7
 74
     1
 91
        4
 64
     7
 65
   257
 75
     1
175
     1
 42
1.0
 92
        0
 66
   257
 43
1.0
 76
     1
 77
     6
 78
     2
 67
     7
 79
     5
170
     0
171
     0
290
     0
174
     0
 93
       13
 44
0.0
173
     0
291
     1
 45
0.0
1001
ACAD
1000
AcDbSavedByObjectVersion
1070
     0
  0
VISUALSTYLE
  5
129C
102
{ACAD_REACTORS
330
1299
102
}
330
1299
100
AcDbVisualStyle
  2
Gouraud
 70
     2
 71
     2
 72
     2
 73
     1
 90
        2
 40
-0.6
 41
30.0
 62
     5
 63
     7
 74
     0
 91
        4
 64
     7
 65
   257
 75
     1
175
     1
 42
1.0
 92
        0
 66
     7
 43
1.0
 76
     1
 77
     6
 78
     2
 67
     7
 79
     5
170
     0
171
     0
290
     0
174
     0
 93
       13
 44
0.0
173
     0
291
     1
 45
0.0
1001
ACAD
1000
AcDbSavedByObjectVersion
1070
     0
  0
VISUALSTYLE
  5
129D
102
{ACAD_REACTORS
330
1299
102
}
330
1299
100
AcDbVisualStyle
  2
GouraudWithEdges
 70
     3
 71
     2
 72
     2
 73
     1
 90
        2
 40
-0.6
 41
30.0
 62
     5
 63
     7
 74
     1
 91
        4
 64
     7
 65
   257
 75
     1
175
     1
 42
1.0
 92
        0
 66
   257
 43
1.0
 76
     1
 77
     6
 78
     2
 67
     7
 79
     5
170
     0
171
     0
290
     0
174
     0
 93
       13
 44
0.0
173
     0
291
     1
 45
0.0
1001
ACAD
1000
AcDbSavedByObjectVersion
1070
     0
  0
VISUALSTYLE
  5
12A7
102
{ACAD_REACTORS
330
1299
102
}
330
1299
100
AcDbVisualStyle
  2
Linepattern
 70
    14
 71
     2
 72
     2
 73
     0
 90
        0
 40
-0.6
 41
-30.0
 62
     5
 63
     7
 74
     1
 91
        4
 64
     7
 65
   257
 75
     7
175
     7
 42
1.0
 92
        8
 66
     7
 43
1.0
 76
     1
 77
     6
 78
     2
 67
     7
 79
     5
170
     0
171
     0
290
     0
174
     0
 93
        1
 44
0.0
173
     0
291
     1
 45
0.0
1001
ACAD
1000
AcDbSavedByObjectVersion
1070
     0
  0
VISUALSTYLE
  5
12A3
102
{ACAD_REACTORS
330
1299
102
}
330
1299
100
AcDbVisualStyle
  2
Realistic
 70
     8
 71
     2
 72
     2
 73
     0
 90
        0
 40
-0.6
 41
-30.0
 62
     5
 63
     7
 74
     1
 91
        0
 64
     7
 65
   257
 75
     1
175
     1
 42
1.0
 92
        8
 66
     8
 43
1.0
 76
     1
 77
     6
 78
     2
 67
     7
 79
     5
170
     0
171
     0
290
     0
174
     0
 93
       13
 44
0.0
173
     0
291
     0
 45
0.0
1001
ACAD
1000
AcDbSavedByObjectVersion
1070
     0
  0
VISUALSTYLE
  5
12A6
102
{ACAD_REACTORS
330
1299
102
}
330
1299
100
AcDbVisualStyle
  2
Thicken
 70
    13
 71
     2
 72
     2
 73
     0
 90
        0
 40
-0.6
 41
-30.0
 62
     5
 63
     7
 74
     1
 91
        4
 64
     7
 65
   257
 75
     1
175
     1
 42
1.0
 92
       12
 66
     7
 43
1.0
 76
     1
 77
     6
 78
     2
 67
     7
 79
     5
170
     0
171
     0
290
     0
174
     0
 93
        1
 44
0.0
173
     0
291
     1
 45
0.0
1001
ACAD
1000
AcDbSavedByObjectVersion
1070
     0
  0
DICTIONARYVAR
  5
1C63
102
{ACAD_REACTORS
330
587
102
}
330
587
100
DictionaryVariables
280
     0
  1
1:1
  0
DICTIONARYVAR
  5
1C62
102
{ACAD_REACTORS
330
587
102
}
330
587
100
DictionaryVariables
280
     0
  1
STANDARD
  0
DICTIONARYVAR
  5
1C61
102
{ACAD_REACTORS
330
587
102
}
330
587
100
DictionaryVariables
280
     0
  1
STANDARD
  0
DICTIONARYVAR
  5
589
102
{ACAD_REACTORS
330
587
102
}
330
587
100
DictionaryVariables
280
     0
  1
2
  0
DICTIONARYVAR
  5
588
102
{ACAD_REACTORS
330
587
102
}
330
587
100
DictionaryVariables
280
     0
  1
1
  0
DICTIONARYVAR
  5
1D3E
102
{ACAD_REACTORS
330
587
102
}
330
587
100
DictionaryVariables
280
     0
  1
0
  0
DICTIONARYVAR
  5
58A
102
{ACAD_REACTORS
330
587
102
}
330
587
100
DictionaryVariables
280
     0
  1

  0
DICTIONARYVAR
  5
1D3D
102
{ACAD_REACTORS
330
587
102
}
330
587
100
DictionaryVariables
280
     0
  1
127
  0
DICTIONARY
  5
1D43
330
126A
100
AcDbDictionary
280
     1
281
     1
  3
ACAD_XREC_ROUNDTRIP
360
1D44
  0
DICTIONARY
  5
1D41
330
C
100
AcDbDictionary
280
     1
281
     1
  3
ACAD_XREC_ROUNDTRIP
360
1D42
  0
DICTIONARY
  5
128A
330
1289
100
AcDbDictionary
280
     1
281
     1
  3
ACAD_XREC_ROUNDTRIP
360
1D46
  3
BUMPTILE
360
128C
  3
DIFFUSETILE
360
128B
  3
OPACITYTILE
360
128F
  3
REFLECTIONTILE
360
128E
  3
REFRACTIONTILE
360
1290
  3
SPECULARTILE
360
128D
  0
DICTIONARY
  5
1282
330
1281
100
AcDbDictionary
280
     1
281
     1
  3
ACAD_XREC_ROUNDTRIP
360
1D45
  3
BUMPTILE
360
1284
  3
DIFFUSETILE
360
1283
  3
OPACITYTILE
360
1287
  3
REFLECTIONTILE
360
1286
  3
REFRACTIONTILE
360
1288
  3
SPECULARTILE
360
1285
  0
DICTIONARY
  5
1292
330
1291
100
AcDbDictionary
280
     1
281
     1
  3
ACAD_XREC_ROUNDTRIP
360
1D47
  3
BUMPTILE
360
1294
  3
DIFFUSETILE
360
1293
  3
OPACITYTILE
360
1297
  3
REFLECTIONTILE
360
1296
  3
REFRACTIONTILE
360
1298
  3
SPECULARTILE
360
1295
  0
DICTIONARY
  5
1C58
330
12AB
100
AcDbDictionary
280
     1
281
     1
  3
ACAD_ROUNDTRIP_2008_TABLESTYLE_CELLSTYLEMAP
360
1D3F
  3
ACAD_XREC_ROUNDTRIP
360
1D48
  0
XRECORD
  5
1D44
102
{ACAD_REACTORS
330
1D43
102
}
330
1D43
100
AcDbXrecord
280
     1
102
SHADEPLOT
 70
     0
102
SHADEPLOTRESLEVEL
 70
     2
102
SHADEPLOTCUSTOMDPI
 70
   300
  0
XRECORD
  5
1D42
102
{ACAD_REACTORS
330
1D41
102
}
330
1D41
100
AcDbXrecord
280
     1
102
SHADEPLOT
 70
     0
102
SHADEPLOTRESLEVEL
 70
     2
102
SHADEPLOTCUSTOMDPI
 70
   300
  0
XRECORD
  5
1D46
102
{ACAD_REACTORS
330
128A
102
}
330
128A
100
AcDbXrecord
280
     1
102
MATERIAL
148
0.0
149
0.0
149
0.0
 93
        0
 94
      127
282
     0
 72
     0
 77
     0
171
     0
175
     0
179
     0
273
     0
  0
XRECORD
  5
128C
102
{ACAD_REACTORS
330
128A
102
}
330
128A
100
AcDbXrecord
280
     1
270
     1
271
     1
  0
XRECORD
  5
128B
102
{ACAD_REACTORS
330
128A
102
}
330
128A
100
AcDbXrecord
280
     1
270
     1
271
     1
  0
XRECORD
  5
128F
102
{ACAD_REACTORS
330
128A
102
}
330
128A
100
AcDbXrecord
280
     1
270
     1
271
     1
  0
XRECORD
  5
128E
102
{ACAD_REACTORS
330
128A
102
}
330
128A
100
AcDbXrecord
280
     1
270
     1
271
     1
  0
XRECORD
  5
1290
102
{ACAD_REACTORS
330
128A
102
}
330
128A
100
AcDbXrecord
280
     1
270
     1
271
     1
  0
XRECORD
  5
128D
102
{ACAD_REACTORS
330
128A
102
}
330
128A
100
AcDbXrecord
280
     1
270
     1
271
     1
  0
XRECORD
  5
1D45
102
{ACAD_REACTORS
330
1282
102
}
330
1282
100
AcDbXrecord
280
     1
102
MATERIAL
148
0.0
149
0.0
149
0.0
 93
        0
 94
      127
282
     0
 72
     0
 77
     0
171
     0
175
     0
179
     0
273
     0
  0
XRECORD
  5
1284
102
{ACAD_REACTORS
330
1282
102
}
330
1282
100
AcDbXrecord
280
     1
270
     1
271
     1
  0
XRECORD
  5
1283
102
{ACAD_REACTORS
330
1282
102
}
330
1282
100
AcDbXrecord
280
     1
270
     1
271
     1
  0
XRECORD
  5
1287
102
{ACAD_REACTORS
330
1282
102
}
330
1282
100
AcDbXrecord
280
     1
270
     1
271
     1
  0
XRECORD
  5
1286
102
{ACAD_REACTORS
330
1282
102
}
330
1282
100
AcDbXrecord
280
     1
270
     1
271
     1
  0
XRECORD
  5
1288
102
{ACAD_REACTORS
330
1282
102
}
330
1282
100
AcDbXrecord
280
     1
270
     1
271
     1
  0
XRECORD
  5
1285
102
{ACAD_REACTORS
330
1282
102
}
330
1282
100
AcDbXrecord
280
     1
270
     1
271
     1
  0
XRECORD
  5
1D47
102
{ACAD_REACTORS
330
1292
102
}
330
1292
100
AcDbXrecord
280
     1
102
MATERIAL
148
0.0
149
0.0
149
0.0
 93
        0
 94
      127
282
     0
 72
     0
 77
     0
171
     0
175
     0
179
     0
273
     0
  0
XRECORD
  5
1294
102
{ACAD_REACTORS
330
1292
102
}
330
1292
100
AcDbXrecord
280
     1
270
     1
271
     1
  0
XRECORD
  5
1293
102
{ACAD_REACTORS
330
1292
102
}
330
1292
100
AcDbXrecord
280
     1
270
     1
271
     1
  0
XRECORD
  5
1297
102
{ACAD_REACTORS
330
1292
102
}
330
1292
100
AcDbXrecord
280
     1
270
     1
271
     1
  0
XRECORD
  5
1296
102
{ACAD_REACTORS
330
1292
102
}
330
1292
100
AcDbXrecord
280
     1
270
     1
271
     1
  0
XRECORD
  5
1298
102
{ACAD_REACTORS
330
1292
102
}
330
1292
100
AcDbXrecord
280
     1
270
     1
271
     1
  0
XRECORD
  5
1295
102
{ACAD_REACTORS
330
1292
102
}
330
1292
100
AcDbXrecord
280
     1
270
     1
271
     1
  0
CELLSTYLEMAP
  5
1D3F
102
{ACAD_REACTORS
330
1C58
102
}
330
1C58
100
AcDbCellStyleMap
 90
        3
300
CELLSTYLE
  1
TABLEFORMAT_BEGIN
 90
        5
170
     1
 91
        0
 92
    32768
 62
   257
 93
        1
300
CONTENTFORMAT
  1
CONTENTFORMAT_BEGIN
 90
        0
 91
        0
 92
      512
 93
        0
300

 40
0.0
140
1.0
 94
        5
 62
     0
340
18
144
0.25
309
CONTENTFORMAT_END
171
     0
 94
        0
309
TABLEFORMAT_END
  1
CELLSTYLE_BEGIN
 90
        1
 91
        1
300
_TITLE
309
CELLSTYLE_END
300
CELLSTYLE
  1
TABLEFORMAT_BEGIN
 90
        5
170
     1
 91
        0
 92
        0
 62
   257
 93
        1
300
CONTENTFORMAT
  1
CONTENTFORMAT_BEGIN
 90
        0
 91
        0
 92
      512
 93
        0
300

 40
0.0
140
1.0
 94
        5
 62
     0
340
18
144
0.18
309
CONTENTFORMAT_END
171
     0
 94
        0
309
TABLEFORMAT_END
  1
CELLSTYLE_BEGIN
 90
        2
 91
        1
300
_HEADER
309
CELLSTYLE_END
300
CELLSTYLE
  1
TABLEFORMAT_BEGIN
 90
        5
170
     1
 91
        0
 92
        0
 62
   257
 93
        1
300
CONTENTFORMAT
  1
CONTENTFORMAT_BEGIN
 90
        0
 91
        0
 92
      512
 93
        0
300

 40
0.0
140
1.0
 94
        2
 62
     0
340
18
144
0.18
309
CONTENTFORMAT_END
171
     0
 94
        0
309
TABLEFORMAT_END
  1
CELLSTYLE_BEGIN
 90
        3
 91
        2
300
_DATA
309
CELLSTYLE_END
  0
XRECORD
  5
1D48
102
{ACAD_REACTORS
330
1C58
102
}
330
1C58
100
AcDbXrecord
280
     1
102
ACAD_ROUNDTRIP_PRE2007_TABLESTYLE
 90
      512
 91
        0
  1

 92
      512
 93
        0
  2

 94
      512
 95
        0
  3

  0
ENDSEC
  0
EOF
